Today is a free download without charge Download

Search found 500 matches

Author Message

kilmister777

Post Yesterday 12:52

[Quote]

Тачка на миллион / Driven- Год выпуска: 2018
Страна: Пуэрто Рико, Великобритания, США
Жанр: драма, биография, комедия, криминал
Продолжительность: 01:53:52
Перевод: Профессиональный(дублированный) iTunes- -Режиссер: Ник Хэмм-В ролях: Джейсон Судейкис, Ли Пейс, Кори Столл, Джуди Грир, Эрин Мориарти, Джастин Барта, Иддо Голдберг, Майкл Кадлитц, Изабель Арраиса, Тара Саммерс-Описание: Калифорния — место, где сливаются политика и большой бизнес, любимое место богатых и знаменитых. Рисковый игрок, плейбой и гениальный конструктор Джон ДеЛориан мечтает создать самый крутой автомобиль на планете. Бунтарь до последнего вздоха, он не остановится ни перед чем ради достижения цели — подарить миру тачку на миллион...-Качество: BDRip
Формат: AVI
Видео кодек: XviD
Аудио кодек: AC3
Видео: 720x304 (2.37:1), 23.976 fps, XviD build 73 ~1380 kbps avg, 0.26 bit/pixel
Аудио: 48 kHz, AC3 Dolby Digital, 3/2 (L,C,R,l,r) + LFE ch, ~384 kbps avg-

Скриншоты

       

kilmister777

Post Yesterday 12:16

[Quote]

Дефолт / День национального банкротства / Default / Gukgabudoeui nal- Год выпуска: 2018
Страна: Южная Корея
Жанр: драма, история
Продолжительность: 01:54:22
Перевод: Профессиональный(дублированный) iTunes
Субтитры: корейские (hardsub)- -Режиссер: Чхве Гук-хи-В ролях: Ким Хе-су, Ю А-ин, Хо Джун-хо, Чо У-джин, Венсан Кассель, Ким Хон-пха, Ом Хё-соп, Сон Ён-чхан, Квон Хэ-хё, Чо Хан-чхоль-Описание: В 1997 году южнокорейское правительство было уверено, что экономика на подъёме, и страну ждёт стабильное процветание. Но по расчётам главы отдела по денежно-кредитной политике Банка Кореи в течение недели страна столкнётся с финансовым кризисом. Женщина предлагает проинформировать население, но есть те, в чьих интересах умолчать о грядущем дефолте и нажиться на ситуации...-Качество: BDRip
Формат: AVI
Видео кодек: XviD
Аудио кодек: AC3
Видео: 720400 (2.37:1), 24.000 fps, XviD build 73 ~1432 kbps avg, 0.30 bit/pixel
Аудио: 48 kHz, AC3 Dolby Digital, 3/2 (L,C,R,l,r) + LFE ch, ~384 kbps avg-

Скриншоты

     

Clavik

Post 14-Oct-2019 20:07

[Quote]

Толкин / Tolkien (2019) BDRip [H.265/1080p-LQ]- Производство: США, Fox Searchlight Pictures, Chernin Entertainment
Жанр: Драма, военный, биография
Режиссер: Доме Карукоски
Продюсер: Питер Чернин, Дэвид Рэди, Крис Тикье
Актеры: Николас Холт, Al Bollands, Kallum Tolkien, Крэйг Робертс, Гарри Джилби, Колм Мини, Лаура Доннелли, Гильермо Бедуорд, Ниа Гвин, Пэм Феррис
Описание: Картина рассказывает о том, как молодой писатель, будучи изгоем во время обучения, находит дружбу, любовь и вдохновение. Фильм затронет участие Толкина в Первой мировой войне — он служил в британских войсках с 1916-го по 1920-й.

Рейтинг MPAA: PG-13 Детям до 13 просмотр не желателен
Дата мировой премьеры: 3 мая 2019
Цифровой релиз: 9 августа 2019, «Двадцатый Век Фокс СНГ»
Продолжительность: 01:51:42
Качество видео: BDRip 1080p
Перевод: Профессиональный многоголосый
Субтитры: Русские (форс., полные), украинские (форс., полные), английские (полные, SDH, комментарии)
Видео: HEVC/H.265, 1920x800, ~6909 kbps
Аудио #1: AC3, 48 kHz, 6 ch, 384 kbps - Русский (MVO, iTunes)
Аудио #2: AC3, 48 kHz, 2 ch, 192 kbps - Украинский (DUB, iTunes)
Аудио #3: DTS, 48 kHz, 6 ch, 1509 kbps - Английский (оригинал)

Mediainfo:

General
Unique ID : 204420278640906759621914856097709073606 (0x99C9E9E0DDFDDA61A357F3037880A4C6)
Complete name : Tolkien(2019).BDRip.1080p.HEVC.mkv
Format : Matroska
Format version : Version 4
File size : 7.02 GiB
Duration : 1 h 51 min
Overall bit rate : 8 998 kb/s
Encoded date : UTC 2019-08-10 19:20:30
Writing application : mkvmerge v8.3.0 ('Over the Horizon') 64bit
Writing library : libebml v1.3.1 + libmatroska v1.4.2
Video
ID : 1
Format : HEVC
Format/Info : High Efficiency Video Coding
Format profile : Main [url=mailto:[email protected]][email protected][/url]@High
Codec ID : V_MPEGH/ISO/HEVC
Duration : 1 h 51 min
Bit rate : 6 909 kb/s
Width : 1 920 pixels
Height : 800 pixels
Display aspect ratio : 2.40:1
Frame rate mode : Constant
Frame rate : 23.976 (24000/1001) FPS
Color space : YUV
Chroma subsampling : 4:2:0
Bit depth : 10 bits
Bits/(Pixel*Frame) : 0.188
Stream size : 5.39 GiB (77%)
Language : English
Default : Yes
Forced : No
Color range : Limited
Color primaries : BT.709
Transfer characteristics : BT.709
Matrix coefficients : BT.709
Audio #1
ID : 2
Format : AC-3
Format/Info : Audio Coding 3
Commercial name : Dolby Digital
Codec ID : A_AC3
Duration : 1 h 51 min
Bit rate mode : Constant
Bit rate : 384 kb/s
Channel(s) : 6 channels
Channel layout : L R C LFE Ls Rs
Sampling rate : 48.0 kHz
Frame rate : 31.250 FPS (1536 SPF)
Bit depth : 16 bits
Compression mode : Lossy
Stream size : 307 MiB (4%)
Title : MVO (iTunes)
Language : Russian
Default : Yes
Forced : No
Audio #2
ID : 3
Format : AC-3
Format/Info : Audio Coding 3
Commercial name : Dolby Digital
Codec ID : A_AC3
Duration : 1 h 51 min
Bit rate mode : Constant
Bit rate : 192 kb/s
Channel(s) : 2 channels
Channel layout : L R
Sampling rate : 48.0 kHz
Frame rate : 31.250 FPS (1536 SPF)
Bit depth : 16 bits
Compression mode : Lossy
Stream size : 153 MiB (2%)
Title : DUB ( iTunes)
Language : Ukrainian
Default : No
Forced : No
Audio #3
ID : 4
Format : DTS
Format/Info : Digital Theater Systems
Codec ID : A_DTS
Duration : 1 h 51 min
Bit rate mode : Constant
Bit rate : 1 509 kb/s
Channel(s) : 6 channels
Channel layout : C L R Ls Rs LFE
Sampling rate : 48.0 kHz
Frame rate : 93.750 FPS (512 SPF)
Bit depth : 24 bits
Compression mode : Lossy
Delay relative to video : 4 ms
Stream size : 1.18 GiB (17%)
Title : Original
Language : English
Default : No
Forced : No
Text #1
ID : 5
Format : UTF-8
Codec ID : S_TEXT/UTF8
Codec ID/Info : UTF-8 Plain Text
Duration : 1 h 44 min
Bit rate : 1 b/s
Count of elements : 27
Stream size : 1.45 KiB (0%)
Title : Forced
Language : Russian
Default : Yes
Forced : No
Text #2
ID : 6
Format : UTF-8
Codec ID : S_TEXT/UTF8
Codec ID/Info : UTF-8 Plain Text
Duration : 1 h 45 min
Bit rate : 81 b/s
Count of elements : 1386
Stream size : 62.8 KiB (0%)
Title : Full
Language : Russian
Default : No
Forced : No
Text #3
ID : 7
Format : UTF-8
Codec ID : S_TEXT/UTF8
Codec ID/Info : UTF-8 Plain Text
Duration : 1 h 14 min
Bit rate : 0 b/s
Count of elements : 8
Stream size : 365 Bytes (0%)
Title : Forced
Language : Ukrainian
Default : No
Forced : No
Text #4
ID : 8
Format : UTF-8
Codec ID : S_TEXT/UTF8
Codec ID/Info : UTF-8 Plain Text
Duration : 1 h 45 min
Bit rate : 90 b/s
Count of elements : 1390
Stream size : 69.6 KiB (0%)
Title : Full
Language : Ukrainian
Default : No
Forced : No
Text #5
ID : 9
Format : UTF-8
Codec ID : S_TEXT/UTF8
Codec ID/Info : UTF-8 Plain Text
Duration : 1 h 43 min
Bit rate : 59 b/s
Count of elements : 1587
Stream size : 45.0 KiB (0%)
Title : Full
Language : English
Default : No
Forced : No
Text #6
ID : 10
Format : UTF-8
Codec ID : S_TEXT/UTF8
Codec ID/Info : UTF-8 Plain Text
Duration : 1 h 44 min
Bit rate : 67 b/s
Count of elements : 1752
Stream size : 51.3 KiB (0%)
Title : SDH
Language : English
Default : No
Forced : No
Text #7
ID : 11
Format : UTF-8
Codec ID : S_TEXT/UTF8
Codec ID/Info : UTF-8 Plain Text
Duration : 1 h 45 min
Bit rate : 107 b/s
Count of elements : 2109
Stream size : 83.0 KiB (0%)
Title : Commentary
Language : English
Default : No
Forced : No
Menu
00:00:00.000 : :Chapter 01
00:06:27.136 : :Chapter 02
00:11:09.418 : :Chapter 03
00:15:51.116 : :Chapter 04
00:21:00.884 : :Chapter 05
00:25:53.802 : :Chapter 06
00:34:35.031 : :Chapter 07
00:37:46.639 : :Chapter 08
00:42:01.227 : :Chapter 09
00:44:44.098 : :Chapter 10
00:47:39.773 : :Chapter 11
00:52:04.955 : :Chapter 12
00:57:06.423 : :Chapter 13
00:59:59.971 : :Chapter 14
01:04:39.333 : :Chapter 15
01:08:09.001 : :Chapter 16
01:11:17.398 : :Chapter 17
01:14:29.089 : :Chapter 18
01:19:45.655 : :Chapter 19
01:26:09.539 : :Chapter 20
01:32:11.984 : :Chapter 21
01:35:52.496 : :Chapter 22
01:40:05.666 : :Chapter 23
01:45:06.091 : :Chapter 24
Скриншоты:
       

kilmister777

Post 14-Oct-2019 09:29

[Quote]

Божественная любовь / Divino Amor- Год выпуска: 2019
Страна: Бразилия, Уругвай, Дания, Норвегия, Чили, Швеция
Жанр: драма
Продолжительность: 01:39:48
Перевод: Профессиональный (многоголосый закадровый) iTunes- -Режиссер: Габриэль Маскаро-В ролях: Дира Паис, Жулиу Мачаду, Тека Перейра, Рубенс Сантос, Тони Силва, Клейтон Мариано-Описание: Бразилия, 2027 год. Люди обращаются к богу через кабинки автомолитв и устраивают в честь всевышнего рейв-вечеринки. Главная героиня фильма, Жоана, консультирует супружеские пары в кризисе, а свободное время посвящает религиозной общине, практикующей крайне радикальный способ сближения супругов...-Качество: WEB-DLRip
Формат: AVI
Видео кодек: XviD
Аудио кодек: AC3
Видео: 720x304 (2.37:1), 24.000 fps, XviD build 73 ~1695 kbps avg, 0.30 bit/pixel
Аудио: 48 kHz, AC3 Dolby Digital, 3/2 (L,C,R,l,r) + LFE ch, ~384 kbps avg-

Скриншоты

     

Clavik

Post 13-Oct-2019 22:20

[Quote]

--Тайна печати дракона (Олег Степченко) [2019, приключения, WEBRip 720p] [Чистый звук]- Информация о фильме
Год выпуска: 2019
Жанр: приключения
Страна: Россия, Китай
Режиссёр: Олег Степченко
Перевод: Дублированный [Официальный звук]
Субтитры: Английские, китайские (hadrsub)
Продолжительность: 01:53:30-- В ролях: Джейсон Флеминг, Арнольд Шварценеггер, Чарльз Дэнс, Джеки Чан, Яо Синтун, Кристофер Фэйрбэнк, Рутгер Хауэр, Мартин Клебба, Юрий Колокольников, Павел Воля-- Описание: Английский путешественник Джонатан Грин получает от Петра Первого заказ на изготовление карт Дальнего Востока России. Ему вновь предстоит долгий путь, полный невероятных приключений, который приведет его в Китай. Картограф столкнется с массой головокружительных открытий, неожиданных встреч с диковинными существами, китайскими принцессами, мастерами смертоносных боевых искусств и самим Лун-Ван, Царем всех драконов. Что может быть опаснее, чем посмотреть в глаза Вию? Разве что встретиться с ним вновь. Что на этот раз окажется сильнее - непоколебимый скептицизм ученого или древняя черная магия, уже давно захватившая власть в Восточных землях?-- --Файлы
Качество: WEBRip 720p
Формат: MKV
Видео: h.264,5 445 Кбит/с, 1280x692
Аудио: Русский (AC3, 2 ch, 384 Кбит/с)
--

Скриншоты

     

Clavik

Post 13-Oct-2019 18:05

[Quote]

--Тайна печати дракона (Олег Степченко) [2019, приключения, WEB-DLRip] [Чистый звук]- Информация о фильме
Год выпуска: 2019
Жанр: приключения
Страна: Россия, Китай
Режиссёр: Олег Степченко
Перевод: Дублированный [Официальный звук]
Субтитры: Английские, китайские (hadrsub)
Продолжительность: 01:53:30-- В ролях: Джейсон Флеминг, Арнольд Шварценеггер, Чарльз Дэнс, Джеки Чан, Яо Синтун, Кристофер Фэйрбэнк, Рутгер Хауэр, Мартин Клебба, Юрий Колокольников, Павел Воля-- Описание: Английский путешественник Джонатан Грин получает от Петра Первого заказ на изготовление карт Дальнего Востока России. Ему вновь предстоит долгий путь, полный невероятных приключений, который приведет его в Китай. Картограф столкнется с массой головокружительных открытий, неожиданных встреч с диковинными существами, китайскими принцессами, мастерами смертоносных боевых искусств и самим Лун-Ван, Царем всех драконов. Что может быть опаснее, чем посмотреть в глаза Вию? Разве что встретиться с ним вновь. Что на этот раз окажется сильнее - непоколебимый скептицизм ученого или древняя черная магия, уже давно захватившая власть в Восточных землях?-- --Файлы
Качество: WEB-DLRip
Формат: AVI
Видео: 720x304 (2.37:1), 23.976 fps, XviD build 73 ~1844 kbps avg, 0.35 bit/pixel
Аудио: 48 kHz, AC3 Dolby Digital, 2/0 (L,R) ch, ~384 kbps
--

Скриншоты

     

kilmister777

Post 13-Oct-2019 13:25

[Quote]

Скин / Skin- Год выпуска: 2019
Страна: США
Жанр: драма, биография
Продолжительность: 01:58:26
Перевод: Профессиональный(дублированный) iTunes- -Режиссер: Гай Наттив-В ролях: Джейми Белл, Даниэль Макдональд, Дэниэл Хеншэлл, Билл Кэмп, Луиза Краузе, Зои Маргарет Коллетти, Кайли Роджерс, Колби Ганнетт, Майк Колтер, Вера Фармига-Описание: Скинхед пытается найти себя в обычной жизни и начинает иначе смотреть на свои поступки, параллельно сталкиваясь с людьми, которые его воспитали.-Качество: BDRip
Формат: AVI
Видео кодек: XviD
Аудио кодек: AC3
Видео: 720x304 (2.37:1), 23.976 fps, XviD build 73 ~1307 kbps avg, 0.25 bit/pixel
Аудио: 48 kHz, AC3 Dolby Digital, 3/2 (L,C,R,l,r) + LFE ch, ~384 kbps avg-

Скриншоты

       

Clavik

Post 13-Oct-2019 00:11

[Quote]

Однажды в Стокгольме / Stockholm (2018) BDRip [H.264/1080p]
«Based On An Absurd But True Story»
- Производство: Канада, США / Darius Films, Lumanity Productions, JoBro Productions & Film Finance
Жанр: Драма, комедия, криминал, биография, история
Режиссер: Роберт Будро
Актеры: Итан Хоук, Нуми Рапас, Марк Стронг, Кристофер Хейердал, Би Сантос, Марк Рендалл, Йен Мэтьюз, Джон Ралстон, Шанти Рони, Кристофер Вагелин
Описание:
Стокгольм, 1973 год. Одетый ковбоем вооружённый мужчина заходит в отделение крупнейшего шведского банка и берёт в заложники двух сотрудниц. Он требует выпустить из тюрьмы своего подельника, известного на всю страну грабителя, при этом не хочет никому причинять вреда.

Возраст: 18+ (зрителям, достигшим 18 лет. запрещено для детей)
Рейтинг MPAA: R (лицам до 17 лет обязательно присутствие взрослого)
Дата мировой премьеры: 19 апреля 2018
Дата российской премьеры: 27 июня 2019, «Парадиз»
Продолжительность: 01:32:39
Качество видео: BDRip 1080p
Перевод: Дублированный, профессиональный многоголосый
Субтитры: Русские, Английские
Видео: AVC/H.264, 1920х804, ~10.0 Мbps
Аудио: AC3, 6 ch, 384 Kbps - Русский (Dub, iTunes)
Аудио: AC3, 2 ch, 192 Kbps - Русский (MVO, HDRezka Studio)
Аудио: AC3, 6 ch, 640 Kbps - Английский

MediaInfo:

Уникальный идентификатор                 : 44473733150110889730322377699019626234 (0x2175545642FC9E6E62B3B6FAF45A96FA)
Полное имя : D:\Новая папка\Stockholm.2018.BDRip.1080p.mkv
Формат : Matroska
Версия формата : Version 4
Размер файла : 7,25 Гбайт
Продолжительность : 1 ч. 32 м.
Общий поток : 11,2 Мбит/сек
Дата кодирования : UTC 2019-10-12 08:30:22
Программа кодирования : mkvmerge v37.0.0 ('Leave It') 64-bit
Библиотека кодирования : libebml v1.3.9 + libmatroska v1.5.2
Видео
Идентификатор : 1
Формат : AVC
Формат/Информация : Advanced Video Codec
Профиль формата : [url=mailto:[email protected]][email protected][/url]
Настройки формата : CABAC / 5 Ref Frames
Параметр CABAC формата : Да
Параметр RefFrames формата : 5 кадров
Идентификатор кодека : V_MPEG4/ISO/AVC
Продолжительность : 1 ч. 32 м.
Битрейт : 10000 Кбит/сек
Ширина : 1920 пикселей
Высота : 804 пикселя
Соотношение сторон : 2,40:1
Режим частоты кадров : Постоянный
Частота кадров : 24,000 кадра/сек
Цветовое пространство : YUV
Субдискретизация насыщенности : 4:2:0
Битовая глубина : 8 бит
Тип развёртки : Прогрессивная
Бит/(Пиксели*Кадры) : 0.270
Размер потока : 6,47 Гбайт (89%)
Библиотека кодирования : x264 core 148 r2705kMod 3f5ed56
Настройки программы : cabac=1 / ref=5 / deblock=1:-2:-2 / analyse=0x3:0x113 / me=umh / subme=11 / psy=1 / fade_compensate=0.00 / psy_rd=1.00:0.00 / mixed_ref=1 / me_range=32 / chroma_me=1 / trellis=2 / 8x8dct=1 / cqm=0 / deadzone=21,11 / fast_pskip=0 / chroma_qp_offset=-2 / threads=24 / lookahead_threads=6 / sliced_threads=0 / nr=0 / decimate=0 / interlaced=0 / bluray_compat=0 / constrained_intra=0 / fgo=0 / bframes=10 / b_pyramid=2 / b_adapt=2 / b_bias=0 / direct=3 / weightb=1 / open_gop=0 / weightp=2 / keyint=240 / keyint_min=24 / scenecut=40 / intra_refresh=0 / rc_lookahead=50 / rc=2pass / mbtree=0 / bitrate=10000 / ratetol=1.0 / qcomp=0.60 / qpmin=0 / qpmax=51 / qpstep=4 / cplxblur=20.0 / qblur=0.5 / vbv_maxrate=50000 / vbv_bufsize=62500 / nal_hrd=none / filler=0 / ip_ratio=1.40 / pb_ratio=1.30 / aq=3:0.80
Язык : English
Default : Да
Forced : Нет
Аудио #1
Идентификатор : 2
Формат : AC-3
Формат/Информация : Audio Coding 3
Коммерческое название : Dolby Digital
Идентификатор кодека : A_AC3
Продолжительность : 1 ч. 32 м.
Вид битрейта : Постоянный
Битрейт : 384 Кбит/сек
Каналы : 6 каналов
ChannelLayout : L R C LFE Ls Rs
Частота : 48,0 КГц
Частота кадров : 31,250 кадров/сек (1536 SPF)
Метод сжатия : С потерями
Размер потока : 254 Мбайт (3%)
Заголовок : Dub [iTunes]
Язык : Russian
ServiceKind/String : Complete Main
Default : Да
Forced : Да
Аудио #2
Идентификатор : 3
Формат : AC-3
Формат/Информация : Audio Coding 3
Коммерческое название : Dolby Digital
Идентификатор кодека : A_AC3
Продолжительность : 1 ч. 32 м.
Вид битрейта : Постоянный
Битрейт : 192 Кбит/сек
Каналы : 2 канала
ChannelLayout : L R
Частота : 48,0 КГц
Частота кадров : 31,250 кадров/сек (1536 SPF)
Метод сжатия : С потерями
Размер потока : 127 Мбайт (2%)
Заголовок : MVO [HDRezka Studio]
Язык : Russian
ServiceKind/String : Complete Main
Default : Нет
Forced : Нет
Аудио #3
Идентификатор : 4
Формат : AC-3
Формат/Информация : Audio Coding 3
Коммерческое название : Dolby Digital
Идентификатор кодека : A_AC3
Продолжительность : 1 ч. 32 м.
Вид битрейта : Постоянный
Битрейт : 640 Кбит/сек
Каналы : 6 каналов
ChannelLayout : L R C LFE Ls Rs
Частота : 48,0 КГц
Частота кадров : 31,250 кадров/сек (1536 SPF)
Метод сжатия : С потерями
Размер потока : 424 Мбайт (6%)
Заголовок : Original
Язык : English
ServiceKind/String : Complete Main
Default : Нет
Forced : Нет
Текст #1
Идентификатор : 5
Формат : UTF-8
Идентификатор кодека : S_TEXT/UTF8
Идентификатор кодека/Информация : UTF-8 Plain Text
Заголовок : Full
Язык : Russian
Default : Нет
Forced : Нет
Текст #2
Идентификатор : 6
Формат : UTF-8
Идентификатор кодека : S_TEXT/UTF8
Идентификатор кодека/Информация : UTF-8 Plain Text
Заголовок : SDH
Язык : English
Default : Нет
Forced : Нет
Скриншоты:
       

Clavik

Post 13-Oct-2019 00:08

[Quote]

Дорогой папа (2019) WEB-DL [H.264/720p-LQ] - Производство: Россия / Renovatio Entertainment, РВВ
Жанр: Комедия, семейный
Режиссер: Михаил Расходников
Актеры: Владимир Вдовиченков, Валентина Ляпина, Владимир Сычёв, Ирина Пегова, Николай Шрайбер, Иева Андреевайте, Игорь Ясулович, Юлия Сулес, Варвара Малкова, Маруся Пестунова
Описание:
Владелец ведущей торговой сети Вадим Дюмин привык добиваться своего любыми способами. Обаяние и продуманный план помогают ему найти китайского инвестора, готового стать партнером в компании Вадима, оформленной когда-то на его маму. Вот только, оказалось, она завещала акции своей внучке, его дочери… Которую Вадим бросил, когда ей было 2 года.
Теперь Вадим должен поехать в свой родной маленький город, найти бывшую жену и дочь и убедить их отказаться от наследства на сумму… где-то полмиллиарда долларов. Вадим уверен, что его обаяние и манипуляции сработают и здесь, но в мире дочери его методы не работают, и слово «дорогой» здесь совсем не про деньги.

Возраст: 12+ (зрителям, достигшим 12 лет)
Дата российской премьеры: 12 сентября 2019, «Централ Партнершип»
Продолжительность: 01:28:13
Качество видео: WEB-DL
Перевод: Не требуется (русский)
Субтитры: Отсутствуют
Видео: AVC/H.264, 1280x532 (2.40:1), ~2510 Kbps
Аудио: AC3, 6 ch, 384 Kbps

MediaInfo:

Общее
Уникальный идентификатор : 179372193500542524858802032762408164028 (0x86F1D3EEFB26F9A39F25A21140385ABC)
Полное имя : G:\Dorogoy.papa.2019.mkv
Формат : Matroska
Версия формата : Version 4
Размер файла : 1,82 Гбайт
Продолжительность : 1 ч. 28 м.
Общий поток : 2952 Кбит/сек
Дата кодирования : UTC 2019-10-12 00:13:03
Программа кодирования : mkvmerge v6.9.1 ('Blue Panther') 64bit built on Apr 18 2014 18:23:38
Библиотека кодирования : libebml v1.3.0 + libmatroska v1.4.1
Видео
Идентификатор : 1
Формат : AVC
Формат/Информация : Advanced Video Codec
Профиль формата : [email protected]
Настройки формата : CABAC / 4 Ref Frames
Параметр CABAC формата : Да
Параметр RefFrames формата : 4 кадра
Идентификатор кодека : V_MPEG4/ISO/AVC
Продолжительность : 1 ч. 28 м.
Битрейт : 2510 Кбит/сек
Ширина : 1280 пикселей
Высота : 532 пикселя
Соотношение сторон : 2,40:1
Режим частоты кадров : Постоянный
Частота кадров : 24,000 кадра/сек
Цветовое пространство : YUV
Субдискретизация насыщенности : 4:2:0
Битовая глубина : 8 бит
Тип развёртки : Прогрессивная
Бит/(Пиксели*Кадры) : 0.154
Размер потока : 1,55 Гбайт (85%)
Default : Да
Forced : Нет
Аудио
Идентификатор : 2
Формат : AC-3
Формат/Информация : Audio Coding 3
Коммерческое название : Dolby Digital
Идентификатор кодека : A_AC3
Продолжительность : 1 ч. 28 м.
Вид битрейта : Постоянный
Битрейт : 384 Кбит/сек
Каналы : 6 каналов
ChannelLayout : L R C LFE Ls Rs
Частота : 48,0 КГц
Частота кадров : 31,250 кадров/сек (1536 SPF)
Метод сжатия : С потерями
Размер потока : 242 Мбайт (13%)
Язык : Russian
ServiceKind/String : Complete Main
Default : Да
Forced : Нет
Скриншоты:
       

Clavik

Post 13-Oct-2019 00:04

[Quote]

Путь: Во все тяжкие / El Camino: A Breaking Bad Movie (2019) WEBRip [H.264/1080p-LQ] - Производство: США / American Movie Classics (AMC), Netflix, Sony Pictures Television
Жанр: Драма, криминал
Режиссер: Винс Гиллиган
Актеры: Аарон Пол, Брайан Крэнстон, Джесси Племонс, Мэтт Джонс, Джонатан Бэнкс, Чарльз Бэйкер, Ларри Хэнкин, Кевин О. Ранкин, Тесс Харпер, Марла Гиббс
Описание:
Джесси Пинкман сбежал от неонацистов. Не зная, куда ему податься, он скрывается от полиции, похитителей и прошлого. Теперь он должен понять, как ему жить дальше.

Дата мировой премьеры: 11 октября 2019
Продолжительность: 02:02:15
Качество видео: WEBRip
Перевод: Многоголосый любительский (Hamsterstudio) ненормативная лексика
Субтитры: Отсутствуют
Видео: AVC/H.264, 1920х800, ~4734 Kbps
Аудио: AC3, 2 ch, 384 Kbps - Русский
Аудио: AC3, 2 ch, 384 Kbps - Английский
Присутствует ненормативная лексика!

MediaInfo:

Уникальный идентификатор                 : 231818241347051827798719554982264223304 (0xAE6691BB73D3F035AFF04E7B6DD0B648)
Полное имя : D:\Новая папка\El.Camino.A.Breaking.Bad.Movie.WEBRip.1080p.mkv
Формат : Matroska
Версия формата : Version 4
Размер файла : 4,70 Гбайт
Продолжительность : 2 ч. 2 м.
Общий поток : 5505 Кбит/сек
Дата кодирования : UTC 2019-10-11 18:51:55
Программа кодирования : mkvmerge v7.8.0 ('River Man') 64bit built on Mar 27 2015 16:31:37
Библиотека кодирования : libebml v1.3.1 + libmatroska v1.4.2
Видео
Идентификатор : 1
Формат : AVC
Формат/Информация : Advanced Video Codec
Профиль формата : [url=mailto:[email protected]][email protected][/url]
Настройки формата : CABAC / 4 Ref Frames
Параметр CABAC формата : Да
Параметр RefFrames формата : 4 кадра
Идентификатор кодека : V_MPEG4/ISO/AVC
Продолжительность : 2 ч. 2 м.
Битрейт : 4734 Кбит/сек
Ширина : 1920 пикселей
Высота : 800 пикселей
Соотношение сторон : 2,40:1
Режим частоты кадров : Постоянный
Частота кадров : 23,976 (24000/1001) кадра/сек
Цветовое пространство : YUV
Субдискретизация насыщенности : 4:2:0
Битовая глубина : 8 бит
Тип развёртки : Прогрессивная
Бит/(Пиксели*Кадры) : 0.129
Размер потока : 4,04 Гбайт (86%)
Язык : English
Default : Да
Forced : Нет
Цветовой диапазон : Limited
Основные цвета : BT.709
Характеристики трансфера : BT.709
Коэффициенты матрицы : BT.709
Аудио #1
Идентификатор : 2
Формат : AC-3
Формат/Информация : Audio Coding 3
Коммерческое название : Dolby Digital
Идентификатор кодека : A_AC3
Продолжительность : 2 ч. 2 м.
Вид битрейта : Постоянный
Битрейт : 384 Кбит/сек
Каналы : 2 канала
ChannelLayout : L R
Частота : 48,0 КГц
Частота кадров : 31,250 кадров/сек (1536 SPF)
Метод сжатия : С потерями
Размер потока : 336 Мбайт (7%)
Язык : Russian
ServiceKind/String : Complete Main
Default : Да
Forced : Да
Аудио #2
Идентификатор : 3
Формат : AC-3
Формат/Информация : Audio Coding 3
Коммерческое название : Dolby Digital
Идентификатор кодека : A_AC3
Продолжительность : 2 ч. 2 м.
Вид битрейта : Постоянный
Битрейт : 384 Кбит/сек
Каналы : 2 канала
ChannelLayout : L R
Частота : 48,0 КГц
Частота кадров : 31,250 кадров/сек (1536 SPF)
Метод сжатия : С потерями
Размер потока : 336 Мбайт (7%)
Язык : English
ServiceKind/String : Complete Main
Default : Нет
Forced : Нет
Скриншоты:
       

kilmister777

Post 12-Oct-2019 12:41

[Quote]

Дорогой папа- Год выпуска: 2019
Страна: Россия
Жанр: комедия, семейный
Продолжительность: 01:27:09
Перевод: Не требуется- -Режиссер: Михаил Расходников-В ролях: Владимир Вдовиченков, Валентина Ляпина, Владимир Сычев, Ирина Пегова, Николай Шрайбер, Иева Андреевайте, Игорь Ясулович, Юлия Сулес, Варвара Малкова, Андрей Пермяков-Описание: Владелец ведущей торговой сети Вадим Дюмин привык добиваться своего любыми способами. Обаяние и продуманный план помогают ему найти китайского инвестора, готового стать партнером в компании Вадима, оформленной когда-то на его маму. Вот только, оказалось, она завещала акции своей внучке, его дочери... Которую Вадим бросил, когда ей было 2 года.
Теперь Вадим должен поехать в свой родной маленький город, найти бывшую жену и дочь и убедить их отказаться от наследства на сумму... где-то полмиллиарда долларов. Вадим уверен, что его обаяние и манипуляции сработают и здесь, но в мире дочери его методы не работают, и слово "дорогой" здесь совсем не про деньги.-Качество: WEB-DLRip
Формат: AVI
Видео кодек: XviD
Аудио кодек: AC3
Видео: 720x304 (2.37:1), 23.976 fps, XviD build 73 ~1997 kbps avg, 0.38 bit/pixel
Аудио: 48 kHz, AC3 Dolby Digital, 3/2 (L,C,R,l,r) + LFE ch, ~384 kbps avg-

Скриншоты

       

kilmister777

Post 12-Oct-2019 12:23

[Quote]

Ангел мой / Angel of Mine- Год выпуска: 2019
Страна: Австралия, США
Жанр: триллер, драма
Продолжительность: 01:38:38
Перевод: Профессиональный(дублированный) iTunes- -Режиссер: Ким Фаррант-В ролях: Ивонн Страховски, Люк Эванс, Нуми Рапас, Ричард Роксбург, Роб Коллинз, Финн Литтл, Рэйчел Гордон, Пип Миллер, Мирко Гриллини, Трэйси Манн-Описание: Несколько лет Лиззи не может смириться с потерей дочери, погибшей при пожаре. Но однажды она знакомится с чужой девочкой и принимает ее за своего потерянного ребенка.-Качество: BDRip
Формат: AVI
Видео кодек: XviD
Аудио кодек: AC3
Видео: 720x304 (2.37:1), 23.976 fps, XviD build 73 ~1662 kbps avg, 0.32 bit/pixel
Аудио: 48 kHz, AC3 Dolby Digital, 3/2 (L,C,R,l,r) + LFE ch, ~384 kbps avg-

Скриншоты

       

kilmister777

Post 12-Oct-2019 12:01

[Quote]

Пункт назначения: Смайл / Polaroid- Год выпуска: 2019
Страна: Канада, Норвегия, США
Жанр: ужасы, триллер, детектив
Продолжительность: 01:27:59
Перевод: Профессиональный(дублированный) iTunes- -Режиссер: Ларс Клевберг-В ролях: Кэтрин Прескотт, Тайлер Янг, Саманта Логан, Кинэн Трэйси, Присцилла Квинтана, Хавьер Ботет, Митч Пилледжи, Дави Сантос, Кэти Стивенс, Грейс Забриски и др.-Описание: В руки к нелюдимой старшекласснице Бёрд, работающей в антикварном магазине, попадает винтажный фотоаппарат Polaroid. Девушка тут же делает снимок коллеги, а позже подруга вытаскивает её на вечеринку, где все тоже очень любят фотографироваться. В этот же вечер Бёрд узнаёт, что парень из магазина мёртв, а когда погибает и хозяйка вечеринки, Бёрд начинает догадываться, кто умрёт следующим. Дьявольское устройство убивает любого, кто окажется на фотографии, сделанной с его помощью, и теперь группа подростков должна разрешить загадку проклятия, пока фотоаппарат не прикончил их всех.-Качество: BDRip
Формат: AVI
Видео кодек: XviD
Аудио кодек: AC3
Видео: 720x304 (2.37:1), 24.000 fps, XviD build 73 ~1951 kbps avg, 0.30 bit/pixel
Аудио: 48 kHz, AC3 Dolby Digital, 3/2 (L,C,R,l,r) + LFE ch, ~384 kbps avg-

Скриншоты

       

Clavik

Post 11-Oct-2019 17:47

[Quote]

Страшные истории для рассказа в темноте / Scary Stories to Tell in the Dark (2019) WEB-DL [H.264/1080p-LQ]- Производство: США, Канада, Китай / 1212 Entertainment, CBS Films
Жанр: Ужасы, триллер, экранизация
Режиссер: Андре Овредал
Актеры: Зои Маргарет Коллетти, Майкл Гарза, Гэбриел Раш, Остин Абрамс, Дин Норрис, Джил Беллоуз, Лоррейн Туссен, Остин Зажур, Натали Гэнзхорн, Кэтлин Поллард
Описание:
1968 год. Над Америкой витает ветер перемен... Но не над маленьким городком Милл-Вэлли, где проживало несколько поколений таинственной семьи Беллоу. В их зловещем особняке на краю города мучительная жизнь девочки Сары, хранящей ужасные тайны, превратилась в книжку страшных историй. Спустя время эти жуткие рассказы воплотились в реальность для нескольких подростков, нашедших книгу. «Страшные истории для рассказа в темноте» — экранизация популярной трилогии ужасов Элвина Шварца.

Возраст: 16+ (зрителям, достигшим 16 лет)
Рейтинг MPAA: PG-13 (детям до 13 лет просмотр нежелателен)
Дата мировой премьеры: 7 августа 2019
Дата премьеры в России: 8 августа 2019

Релиз от: селезень
Продолжительность: 01:43:11
Качество видео: WEB-DL
Перевод: Дублированный (iTunes)
Субтитры: Отсутствуют
Видео: AVC/H.264, 1920x804, ~4565 Kbps
Аудио: AC3, 6 ch, 384 Kbps

MediaInfo:

Общее
Уникальный идентификатор : 6724652238019936296127622080597074747 (0x50F1EF4074B6B5B83959450531C233B)
Полное имя : D:\NNM\Страшные истории для рассказа в темноте\Scary.Stories.2019.WEB-DL.1080p-LQ.mkv
Формат : Matroska
Версия формата : Version 4
Размер файла : 3,57 Гбайт
Продолжительность : 1 ч. 43 м.
Общий поток : 4951 Кбит/сек
Программа кодирования : mkvmerge v22.0.0 ('At The End Of The World') 64-bit
Библиотека кодирования : libebml v1.3.5 + libmatroska v1.4.8
Видео
Идентификатор : 1
Формат : AVC
Формат/Информация : Advanced Video Codec
Профиль формата : [email protected]
Настройки формата : CABAC / 5 Ref Frames
Параметр CABAC формата : Да
Параметр RefFrames формата : 5 кадров
Идентификатор кодека : V_MPEG4/ISO/AVC
Продолжительность : 1 ч. 43 м.
Битрейт : 4565 Кбит/сек
Ширина : 1920 пикселей
Высота : 804 пикселя
Соотношение сторон : 2,40:1
Режим частоты кадров : Постоянный
Частота кадров : 25,000 кадров/сек
Цветовое пространство : YUV
Субдискретизация насыщенности : 4:2:0
Битовая глубина : 8 бит
Тип развёртки : Прогрессивная
Бит/(Пиксели*Кадры) : 0.118
Размер потока : 3,29 Гбайт (92%)
Язык : English
Default : Да
Forced : Нет
Цветовой диапазон : Limited
Основные цвета : BT.709
Характеристики трансфера : BT.709
Коэффициенты матрицы : BT.709
Аудио
Идентификатор : 2
Формат : AC-3
Формат/Информация : Audio Coding 3
Коммерческое название : Dolby Digital
Идентификатор кодека : A_AC3
Продолжительность : 1 ч. 43 м.
Вид битрейта : Постоянный
Битрейт : 384 Кбит/сек
Каналы : 6 каналов
ChannelLayout : L R C LFE Ls Rs
Частота : 48,0 КГц
Частота кадров : 31,250 кадров/сек (1536 SPF)
Битовая глубина : 16 бит
Метод сжатия : С потерями
Задержка видео : -40 мс.
Размер потока : 283 Мбайт (8%)
Заголовок : iTunes
Язык : Russian
ServiceKind/String : Complete Main
Default : Да
Forced : Да
Меню
00:00:00.000 : en:Глава 1
00:05:10.160 : en:Глава 2
00:12:30.039 : en:Глава 3
00:19:16.838 : en:Глава 4
00:24:11.758 : en:Глава 5
00:32:16.597 : en:Глава 6
00:37:17.196 : en:Глава 7
00:44:50.395 : en:Глава 8
00:55:37.355 : en:Глава 9
00:59:42.394 : en:Глава 10
01:07:49.874 : en:Глава 11
01:13:19.833 : en:Глава 12
01:20:45.952 : en:Глава 13
01:27:59.991 : en:Глава 14
01:34:08.070 : en:Глава 15
Скриншоты:        

Clavik

Post 11-Oct-2019 17:42

[Quote]

Король Лев / The Lion King (2019) WEB-DL [H.264/720p-LQ]- Производство: США / Walt Disney Pictures, Fairview Entertainment
Жанр: Мультфильм, мюзикл, драма, приключения, семейный
Режиссер: Джон Фавро
Продюсер: Джон Бартники, Дэбби Босси, Джон Фавро
Актеры: Джеймс Эрл Джонс, Дональд Гловер, Чиветель Эджиофор, Джон Оливер, Джон Кани, Элфри Вудард, Джейдон Маккрэри, Шахади Райт Джозеф, Пенни Джонсон, Кигэн-Майкл Ки
Описание: История об отважном львенке по имени Симба. Знакомые с детства герои взрослеют, влюбляются, познают себя и окружающий мир, совершают ошибки и делают правильный выбор.

Возраст: 6+ Зрителям, достигшим 6 лет
Рейтинг MPAA: PG Рекомендуется присудствие родителей
Дата мировой премьеры: 9 июля 2019
Дата российской премьеры: 18 июля 2019, «WDSSPR»
Цифровой релиз: 11 ноября 2019, «Уолт Дисней Компани СНГ»
Релиз от: TeamHD
Продолжительность: 01:59:21
Качество видео: WEB-DL 720p
Перевод: Профессиональный (дублированный) (iTunes)
Субтитры: Русские (Full, SDH), Английские (Forced, Full)
Видео: AVC/H.264, 1280x720, 4025 Kbps, 23.976 fps
Аудио 1: AC-3, 6 ch, 384 Kbps | Русский Dub iTunes
Аудио 2: AAC, 2.0 ch, 160 Kbps | Русский Dub Descriptive from iTunes Russia
Аудио 3: AC-3, 6 ch, 384 Kbps | Английский

Mediainfo:

General
Unique ID : 211206498875452005873856343444666628127 (0x9EE4E45E4360BDB1454C1900523AB81F)
Complete name : /Volumes/Promise 2/The.Lion.King.WEB-DL.720p.TeamHD.mkv
Format : Matroska
Format version : Version 4
File size : 4.12 GiB
Duration : 1h 59mn
Overall bit rate : 4 944 Kbps
Movie name : The Lion King WEB-DL 720p TeamHD
Encoded date : UTC 2019-10-10 23:32:50
Writing application : mkvmerge v38.0.0 ('The Silent Type') 64-bit
Writing library : libebml v1.3.9 + libmatroska v1.5.2
Video
ID : 1
Format : AVC
Format/Info : Advanced Video Codec
Format profile : [url=mailto:[email protected]][email protected][/url]
Format settings : 2 Ref Frames
Format settings, CABAC : No
Format settings, ReFrames : 2 frames
Codec ID : V_MPEG4/ISO/AVC
Duration : 1h 59mn
Bit rate : 4 025 Kbps
Width : 1 280 pixels
Height : 720 pixels
Display aspect ratio : 16:9
Frame rate mode : Constant
Frame rate : 23.976 fps
Color space : YUV
Chroma subsampling : 4:2:0
Bit depth : 8 bits
Scan type : Progressive
Bits/(Pixel*Frame) : 0.182
Stream size : 3.36 GiB (81%)
Language : English
Default : Yes
Forced : No
Color range : Limited
Color primaries : BT.709
Transfer characteristics : BT.709
Matrix coefficients : BT.709
Audio #1
ID : 2
Format : AC-3
Format/Info : Audio Coding 3
Commercial name : Dolby Digital
Codec ID : A_AC3
Duration : 1h 58mn
Bit rate mode : Constant
Bit rate : 384 Kbps
Channel(s) : 6 channels
Channel layout : L R C LFE Ls Rs
Sampling rate : 48.0 KHz
Frame rate : 31.250 fps (1536 SPF)
Bit depth : 16 bits
Compression mode : Lossy
Stream size : 325 MiB (8%)
Title : Russian DUB iTunes
Language : Russian
Service kind : Complete Main
Default : Yes
Forced : No
Audio #2
ID : 3
Format : AAC LC
Format/Info : Advanced Audio Codec Low Complexity
Codec ID : A_AAC-2
Duration : 1h 58mn
Bit rate : 156 Kbps
Channel(s) : 2 channels
Channel layout : L R
Sampling rate : 48.0 KHz
Frame rate : 46.875 fps (1024 SPF)
Compression mode : Lossy
Stream size : 132 MiB (3%)
Title : Russian Descriptive Stereo
Language : Russian
Default : No
Forced : No
Audio #3
ID : 4
Format : AC-3
Format/Info : Audio Coding 3
Commercial name : Dolby Digital
Codec ID : A_AC3
Duration : 1h 58mn
Bit rate mode : Constant
Bit rate : 384 Kbps
Channel(s) : 6 channels
Channel layout : L R C LFE Ls Rs
Sampling rate : 48.0 KHz
Frame rate : 31.250 fps (1536 SPF)
Bit depth : 16 bits
Compression mode : Lossy
Stream size : 325 MiB (8%)
Title : English DD 5.1
Language : English
Service kind : Complete Main
Default : No
Forced : No
Text #1
ID : 5
Format : UTF-8
Codec ID : S_TEXT/UTF8
Codec ID/Info : UTF-8 Plain Text
Duration : 5s 422ms
Bit rate : 104 bps
Count of elements : 1
Stream size : 71.0 Bytes (0%)
Title : English forced
Language : English
Default : Yes
Forced : No
Text #2
ID : 6
Format : UTF-8
Codec ID : S_TEXT/UTF8
Codec ID/Info : UTF-8 Plain Text
Duration : 1h 46mn
Bit rate : 73 bps
Count of elements : 1370
Stream size : 57.2 KiB (0%)
Title : Russian full
Language : Russian
Default : No
Forced : No
Text #3
ID : 7
Format : UTF-8
Codec ID : S_TEXT/UTF8
Codec ID/Info : UTF-8 Plain Text
Duration : 1h 47mn
Bit rate : 208 bps
Count of elements : 1642
Stream size : 163 KiB (0%)
Title : Russian SDH
Language : Russian
Default : No
Forced : No
Text #4
ID : 8
Format : UTF-8
Codec ID : S_TEXT/UTF8
Codec ID/Info : UTF-8 Plain Text
Duration : 1h 46mn
Bit rate : 150 bps
Count of elements : 1370
Stream size : 117 KiB (0%)
Title : English full
Language : English
Default : No
Forced : No
Menu
00:00:00.000 : en:1
00:04:49.831 : en:2
00:10:50.399 : en:3
00:17:47.023 : en:4
00:23:52.346 : en:5
00:29:59.463 : en:6
00:33:04.397 : en:7
00:37:08.641 : en:8
00:43:42.242 : en:9
00:50:46.666 : en:10
00:55:02.046 : en:11
00:59:47.790 : en:12
01:06:26.563 : en:13
01:14:31.422 : en:14
01:18:25.739 : en:15
01:23:07.228 : en:16
01:28:03.983 : en:17
01:33:10.205 : en:18
01:37:13.072 : en:19
01:44:38.517 : en:20
01:47:46.663 : en:21
Скриншоты:
       
 

The time now is: Today 20:20

All times are GMT + 3 Hours