Today is a free download without charge Download

Search found 500 matches

Author Message

Clavik

Post 18-Sep-2019 23:08

[Quote]

Гадкий я + Миньоны / Despicable Me + Minions (2010-2017) BDRip [H.265/1080p-LQ] [10-bit] [Collection]- Производство: США, Франция, Япония / Illumination Entertainment, Universal Pictures
Жанр: мультфильм, фэнтези, комедия, семейный
Режиссер: Пьер Коффан, Крис Рено, Эрик Гуильон, Кайл Балда
Описание: Мультфильм посвящен эксцентричному супер злодею по имени Грю Мексон. Уж этот человек отлично знает толк в мелких хулиганских поступках и крупных гадостей. Грю не упустит ни минутки, чтобы навредить окружающим. Когда Мексон совершает мерзкий поступок, он получает небывалое удовольствие. Помогают ему в хулиганье маленькие и глупые миньоны, которые являются прислужниками зла.
Продолжительность: 01:34:48 | 01:37:58 | 01:29:40 | 01:30:58
Качество видео: BDRip
Перевод: Дублированный
Субтитры: Русские, украинские, английские
Видео: HEVC/H.265, 1920x1040 / 1920x1036 / 1920x804 / 1920x1036, ~3882 / ~4612 / ~5134 / ~759 Kbps
Аудио 1: AC3, 6 ch, 640 Kbps - Русский
Аудио 2: AC3, 6/2/6 ch, 384/192/640 Kbps - Украинский
Аудио 3: AC3, 6 ch, 640 Kbps - Английский

Гадкий я / Despicable Me (2010)

Гадкий я / Despicable Me (2010) BDRip - Производство: США, Франция / Universal Pictures, Illumination Entertainment
Жанр: мультфильм, фэнтези, комедия, семейный
Режиссер: Пьер Коффан, Крис Рено
Описание: Гадкий снаружи, но добрый внутри Грю намерен, тем не менее, закрепить за собой статус главного архизлодея в мире, для чего он решает выкрасть Луну при помощи созданной им армии миньонов. Дело осложняют конкуренты, вставляющие высокотехнические палки в колеса, и семейные обстоятельства в виде трех сироток, о которых Грю вынужден заботиться.

Возраст: 0+ (для любой зрительской аудитории)
Рейтинг MPAA: PG (рекомендуется присутствие родителей)
Релиз от: Mr. Fox
Продолжительность: 01:34:48
Качество видео: BDRip
Перевод: Дублированный
Субтитры: Русские (форсированные, полные), украинские (форсированные), английские (полные, SDH-Colored)
Видео: HEVC/H.265, 1920x1040, ~3882 Kbps
Аудио 1: AC3, 6 ch, 640 Kbps - Русский, дублированный
Аудио 2: AC3, 6 ch, 384 Kbps - Украинский, дублированный
Аудио 3: AC3, 6 ch, 640 Kbps - Английский

MediaInfo:

Общее
Уникальный идентификатор : 40844809711496380927884016300656731224 (0x1EBA6C99005F6E11A9E63CB268E8A458)
Полное имя : R:\Despicable Me\1. Decpicable Me (2010) BDRip 1080p [HEVC].mkv
Формат : Matroska
Версия формата : Version 4 / Version 2
Размер файла : 3,67 Гбайт
Продолжительность : 1 ч. 34 м.
Общий поток : 5544 Кбит/сек
Название фильма : Despicable Me (2010)
Дата кодирования : UTC 2019-07-22 15:47:35
Программа кодирования : mkvmerge v35.0.0 ('All The Love In The World') 64-bit
Библиотека кодирования : libebml v1.3.9 + libmatroska v1.5.2
Обложка : Yes
Attachments : cover.jpg
Видео
Идентификатор : 1
Формат : HEVC
Формат/Информация : High Efficiency Video Coding
Профиль формата : Main [url=mailto:[email protected]][email protected][/url]@High
Идентификатор кодека : V_MPEGH/ISO/HEVC
Продолжительность : 1 ч. 34 м.
Битрейт : 3882 Кбит/сек
Ширина : 1920 пикселей
Высота : 1040 пикселей
Соотношение сторон : 1,85:1
Режим частоты кадров : Постоянный
Частота кадров : 23,976 (23976/1000) кадра/сек
Частота кадров в оригинале : 23,976 (24000/1001) кадра/сек
Цветовое пространство : YUV
Субдискретизация насыщенности : 4:2:0
Битовая глубина : 10 бит
Бит/(Пиксели*Кадры) : 0.081
Размер потока : 2,57 Гбайт (70%)
Библиотека кодирования : x265 3.0_Au+4-dcbec33bfb0f:[Windows][MSVC 1916][64 bit] 10bit
Настройки программы : cpuid=1111039 / frame-threads=3 / numa-pools=12 / wpp / no-pmode / no-pme / no-psnr / no-ssim / log-level=2 / input-csp=1 / input-res=1920x1040 / interlace=0 / total-frames=136223 / level-idc=41 / high-tier=1 / uhd-bd=0 / ref=5 / no-allow-non-conformance / no-repeat-headers / annexb / no-aud / no-hrd / info / hash=0 / no-temporal-layers / open-gop / min-keyint=23 / keyint=240 / gop-lookahead=0 / bframes=16 / b-adapt=2 / b-pyramid / bframe-bias=0 / rc-lookahead=60 / lookahead-slices=4 / scenecut=40 / radl=0 / no-splice / no-intra-refresh / ctu=32 / min-cu-size=8 / rect / amp / max-tu-size=32 / tu-inter-depth=4 / tu-intra-depth=4 / limit-tu=1 / rdoq-level=2 / dynamic-rd=0.00 / no-ssim-rd / signhide / no-tskip / nr-intra=0 / nr-inter=0 / no-constrained-intra / no-strong-intra-smoothing / max-merge=4 / limit-refs=2 / limit-modes / me=3 / subme=7 / merange=57 / temporal-mvp / weightp / weightb / no-analyze-src-pics / deblock=-3:-3 / no-sao / no-sao-non-deblock / rd=6 / no-early-skip / no-rskip / no-fast-intra / no-tskip-fast / no-cu-lossless / no-b-intra / no-splitrd-skip / rdpenalty=0 / psy-rd=2.00 / psy-rdoq=1.00 / no-rd-refine / no-lossless / cbqpoffs=0 / crqpoffs=0 / rc=crf / crf=20.0 / qcomp=0.60 / qpstep=4 / stats-write=0 / stats-read=0 / vbv-maxrate=50000 / vbv-bufsize=50000 / vbv-init=0.9 / crf-max=0.0 / crf-min=0.0 / ipratio=1.40 / pbratio=1.30 / aq-mode=1 / aq-strength=0.90 / no-cutree / zone-count=0 / no-strict-cbr / qg-size=32 / no-rc-grain / qpmax=69 / qpmin=0 / no-const-vbv / sar=1 / overscan=0 / videoformat=5 / range=0 / colorprim=2 / transfer=2 / colormatrix=2 / chromaloc=0 / display-window=0 / max-cll=0,0 / min-luma=0 / max-luma=1023 / log2-max-poc-lsb=8 / vui-timing-info / vui-hrd-info / slices=1 / no-opt-qp-pps / no-opt-ref-list-length-pps / no-multi-pass-opt-rps / scenecut-bias=0.05 / no-opt-cu-delta-qp / no-aq-motion / no-hdr / no-hdr-opt / no-dhdr10-opt / no-idr-recovery-sei / analysis-reuse-level=5 / scale-factor=0 / refine-intra=0 / refine-inter=0 / refine-mv=0 / refine-ctu-distortion=0 / no-limit-sao / ctu-info=0 / no-lowpass-dct / refine-analysis-type=0 / copy-pic=1 / max-ausize-factor=1.0 / no-dynamic-refine / no-single-sei / no-hevc-aq / qp-adaptation-range=1.00
Default : Да
Forced : Нет
Аудио #1
Идентификатор : 2
Формат : AC-3
Формат/Информация : Audio Coding 3
Идентификатор кодека : A_AC3
Продолжительность : 1 ч. 34 м.
Вид битрейта : Постоянный
Битрейт : 640 Кбит/сек
Каналы : 6 каналов
Расположение каналов : Front: L C R, Side: L R, LFE
Частота : 48,0 КГц
Частота кадров : 31,250 кадров/сек (1536 SPF)
Битовая глубина : 16 бит
Метод сжатия : С потерями
Размер потока : 434 Мбайт (12%)
Заголовок : Дубляж
Язык : Russian
ServiceKind/String : Complete Main
Default : Да
Forced : Нет
Аудио #2
Идентификатор : 3
Формат : AC-3
Формат/Информация : Audio Coding 3
Идентификатор кодека : A_AC3
Продолжительность : 1 ч. 34 м.
Вид битрейта : Постоянный
Битрейт : 384 Кбит/сек
Каналы : 6 каналов
Расположение каналов : Front: L C R, Side: L R, LFE
Частота : 48,0 КГц
Частота кадров : 31,250 кадров/сек (1536 SPF)
Битовая глубина : 16 бит
Метод сжатия : С потерями
Размер потока : 260 Мбайт (7%)
Заголовок : Дубляж
Язык : Ukrainian
ServiceKind/String : Complete Main
Default : Нет
Forced : Нет
Аудио #3
Идентификатор : 4
Формат : AC-3
Формат/Информация : Audio Coding 3
Идентификатор кодека : A_AC3
Продолжительность : 1 ч. 34 м.
Вид битрейта : Постоянный
Битрейт : 640 Кбит/сек
Каналы : 6 каналов
Расположение каналов : Front: L C R, Side: L R, LFE
Частота : 48,0 КГц
Частота кадров : 31,250 кадров/сек (1536 SPF)
Битовая глубина : 16 бит
Метод сжатия : С потерями
Размер потока : 434 Мбайт (12%)
Заголовок : Original
Язык : English
ServiceKind/String : Complete Main
Default : Нет
Forced : Нет
Текст #1
Идентификатор : 5
Формат : UTF-8
Идентификатор кодека : S_TEXT/UTF8
Идентификатор кодека/Информация : UTF-8 Plain Text
Продолжительность : 1 ч. 10 м.
Битрейт : 2 бит/сек
ElementCount : 34
Размер потока : 1,28 Кбайт (0%)
Заголовок : Forced
Язык : Russian
Default : Да
Forced : Да
Текст #2
Идентификатор : 6
Формат : UTF-8
Идентификатор кодека : S_TEXT/UTF8
Идентификатор кодека/Информация : UTF-8 Plain Text
Продолжительность : 1 ч. 28 м.
Битрейт : 68 бит/сек
ElementCount : 973
Размер потока : 44,7 Кбайт (0%)
Язык : Russian
Default : Нет
Forced : Нет
Текст #3
Идентификатор : 7
Формат : UTF-8
Идентификатор кодека : S_TEXT/UTF8
Идентификатор кодека/Информация : UTF-8 Plain Text
Продолжительность : 1 ч. 7 м.
Битрейт : 2 бит/сек
ElementCount : 33
Размер потока : 1,22 Кбайт (0%)
Заголовок : Forced
Язык : Ukrainian
Default : Нет
Forced : Нет
Текст #4
Идентификатор : 8
Формат : UTF-8
Идентификатор кодека : S_TEXT/UTF8
Идентификатор кодека/Информация : UTF-8 Plain Text
Продолжительность : 1 ч. 28 м.
Битрейт : 67 бит/сек
ElementCount : 958
Размер потока : 43,8 Кбайт (0%)
Заголовок : Full
Язык : Ukrainian
Default : Нет
Forced : Нет
Текст #5
Идентификатор : 9
Формат : UTF-8
Идентификатор кодека : S_TEXT/UTF8
Идентификатор кодека/Информация : UTF-8 Plain Text
Продолжительность : 1 ч. 29 м.
Битрейт : 40 бит/сек
ElementCount : 911
Размер потока : 26,4 Кбайт (0%)
Заголовок : Full
Язык : English
Default : Нет
Forced : Нет
Текст #6
Идентификатор : 10
Формат : UTF-8
Идентификатор кодека : S_TEXT/UTF8
Идентификатор кодека/Информация : UTF-8 Plain Text
Продолжительность : 1 ч. 34 м.
Битрейт : 61 бит/сек
ElementCount : 1226
Размер потока : 42,2 Кбайт (0%)
Заголовок : SDH-Colored
Язык : English
Default : Нет
Forced : Нет
Меню
00:00:00.000 : en:Global Panic
00:03:22.411 : en:Meet Gru
00:06:31.891 : en:Crime Of The Century
00:12:05.099 : en:Home for Girls
00:13:50.496 : en:Bank of Evil
00:18:38.826 : en:Shrink Ray Theft
00:23:06.844 : en:Vector's Fortress
00:25:56.221 : en:Adoption
00:30:40.839 : en:Setting Some Rules
00:34:48.753 : en:Top Secret
00:39:43.047 : en:Pinky Promise
00:43:38.366 : en:Cookiebots
00:48:19.188 : en:Fun Land
00:52:52.502 : en:Cotton Candy?
00:56:46.111 : en:New Funding
01:02:08.016 : en:Sleepy Kittens
01:09:23.868 : en:To the Moon
01:16:25.456 : en:Rescue
01:22:41.581 : en:One Big Unicorn
01:27:35.375 : en:End Titles

Внимание. H.265/HEVC:

H.265/HEVC (High Efficiency Video Coding) - это новый стандарт кодирования видео.
- Стандарт H.265/HEVC является логическим продолжением стандарта
H.264/AVC (Advanced Video Coding), и характеризуется более эффективными
алгоритмами сжатия, а также поддержкой высокого разрешения вплоть до 8K UHD
(8192x4320). Первая версия стандарта H.265 была опубликована в начале 2013 года.
- Рипы в фомате HEVC поддерживается не всеми аппаратными проигрывателями.
- Для корректного воспроизведения может потребоваться обновление ПО.
- Владельцам несовместимого железа просьба не беспокоить,
есть альтернативные релизы.
Скриншоты:
       

Гадкий я 2 / Despicable Me 2 (2013)

Гадкий я 2 / Despicable Me 2 (2013) BDRip - Производство: США, Франция, Япония / Universal Pictures, Illumination Entertainment
Жанр: мультфильм, фэнтези, комедия, семейный
Режиссер: Пьер Коффан, Крис Рено
Описание: В то время как Грю, бывший суперзлодей, приспосабливается к семейной жизни и пытается честным трудом зарабатывать в сфере бизнеса, тайные лаборатории Арктики оказываются украденными. Анти-Злодейская лига решает, что она нуждается в помощи Грю и его новобранцев в расследовании.

Возраст: 0+ (для любой зрительской аудитории)
Рейтинг MPAA: PG (рекомендуется присутствие родителей)
Релиз от: Mr. Fox
Продолжительность: 01:37:58
Качество видео: BDRip
Перевод: Дублированный
Субтитры: Русские (форсированные, полные), английские (полные, SDH-Colored)
Видео: HEVC/H.265, 1920x1036, ~4612 Kbps
Аудио 1: AC3, 6 ch, 640 Kbps - Русский, дублированный
Аудио 2: AC3, 6 ch, 640 Kbps - Английский

MediaInfo:

Общее
Уникальный идентификатор : 313616294873061234644743675949300480221 (0xEBF04D243FFDBEA76F446E1C8CDE78DD)
Полное имя : R:\Despicable Me\2. Decpicable Me 2 (2013) BDRip 1080p [HEVC].mkv
Формат : Matroska
Версия формата : Version 4 / Version 2
Размер файла : 4,03 Гбайт
Продолжительность : 1 ч. 37 м.
Общий поток : 5895 Кбит/сек
Название фильма : Despicable Me 2 (2013)
Дата кодирования : UTC 2019-07-24 03:29:44
Программа кодирования : mkvmerge v35.0.0 ('All The Love In The World') 64-bit
Библиотека кодирования : libebml v1.3.9 + libmatroska v1.5.2
Обложка : Yes
Attachments : cover.jpg
Видео
Идентификатор : 1
Формат : HEVC
Формат/Информация : High Efficiency Video Coding
Профиль формата : Main [url=mailto:[email protected]][email protected][/url]@High
Идентификатор кодека : V_MPEGH/ISO/HEVC
Продолжительность : 1 ч. 37 м.
Битрейт : 4612 Кбит/сек
Ширина : 1920 пикселей
Высота : 1036 пикселей
Соотношение сторон : 1,85:1
Режим частоты кадров : Постоянный
Частота кадров : 23,976 (23976/1000) кадра/сек
Частота кадров в оригинале : 23,976 (24000/1001) кадра/сек
Цветовое пространство : YUV
Субдискретизация насыщенности : 4:2:0
Битовая глубина : 10 бит
Бит/(Пиксели*Кадры) : 0.097
Размер потока : 3,16 Гбайт (78%)
Библиотека кодирования : x265 3.0_Au+4-dcbec33bfb0f:[Windows][MSVC 1916][64 bit] 10bit
Настройки программы : cpuid=1111039 / frame-threads=3 / numa-pools=12 / wpp / no-pmode / no-pme / no-psnr / no-ssim / log-level=2 / input-csp=1 / input-res=1920x1036 / interlace=0 / total-frames=140948 / level-idc=41 / high-tier=1 / uhd-bd=0 / ref=5 / no-allow-non-conformance / no-repeat-headers / annexb / no-aud / no-hrd / info / hash=0 / no-temporal-layers / open-gop / min-keyint=23 / keyint=240 / gop-lookahead=0 / bframes=9 / b-adapt=2 / b-pyramid / bframe-bias=0 / rc-lookahead=60 / lookahead-slices=4 / scenecut=40 / radl=0 / no-splice / no-intra-refresh / ctu=32 / min-cu-size=8 / rect / amp / max-tu-size=32 / tu-inter-depth=4 / tu-intra-depth=4 / limit-tu=1 / rdoq-level=2 / dynamic-rd=0.00 / no-ssim-rd / signhide / no-tskip / nr-intra=0 / nr-inter=0 / no-constrained-intra / no-strong-intra-smoothing / max-merge=4 / limit-refs=2 / limit-modes / me=3 / subme=7 / merange=57 / temporal-mvp / weightp / weightb / no-analyze-src-pics / deblock=-3:-3 / no-sao / no-sao-non-deblock / rd=6 / no-early-skip / no-rskip / no-fast-intra / no-tskip-fast / no-cu-lossless / no-b-intra / no-splitrd-skip / rdpenalty=0 / psy-rd=2.00 / psy-rdoq=1.00 / no-rd-refine / no-lossless / cbqpoffs=0 / crqpoffs=0 / rc=crf / crf=20.0 / qcomp=0.60 / qpstep=4 / stats-write=0 / stats-read=0 / vbv-maxrate=50000 / vbv-bufsize=50000 / vbv-init=0.9 / crf-max=0.0 / crf-min=0.0 / ipratio=1.40 / pbratio=1.30 / aq-mode=1 / aq-strength=0.90 / no-cutree / zone-count=0 / no-strict-cbr / qg-size=32 / no-rc-grain / qpmax=69 / qpmin=0 / no-const-vbv / sar=1 / overscan=0 / videoformat=5 / range=0 / colorprim=2 / transfer=2 / colormatrix=2 / chromaloc=0 / display-window=0 / max-cll=0,0 / min-luma=0 / max-luma=1023 / log2-max-poc-lsb=8 / vui-timing-info / vui-hrd-info / slices=1 / no-opt-qp-pps / no-opt-ref-list-length-pps / no-multi-pass-opt-rps / scenecut-bias=0.05 / no-opt-cu-delta-qp / no-aq-motion / no-hdr / no-hdr-opt / no-dhdr10-opt / no-idr-recovery-sei / analysis-reuse-level=5 / scale-factor=0 / refine-intra=0 / refine-inter=0 / refine-mv=0 / refine-ctu-distortion=0 / no-limit-sao / ctu-info=0 / no-lowpass-dct / refine-analysis-type=0 / copy-pic=1 / max-ausize-factor=1.0 / no-dynamic-refine / no-single-sei / no-hevc-aq / qp-adaptation-range=1.00
Default : Да
Forced : Нет
Аудио #1
Идентификатор : 2
Формат : AC-3
Формат/Информация : Audio Coding 3
Идентификатор кодека : A_AC3
Продолжительность : 1 ч. 37 м.
Вид битрейта : Постоянный
Битрейт : 640 Кбит/сек
Каналы : 6 каналов
Расположение каналов : Front: L C R, Side: L R, LFE
Частота : 48,0 КГц
Частота кадров : 31,250 кадров/сек (1536 SPF)
Битовая глубина : 16 бит
Метод сжатия : С потерями
Размер потока : 449 Мбайт (11%)
Заголовок : Дубляж - BD EUR
Язык : Russian
ServiceKind/String : Complete Main
Default : Да
Forced : Нет
Аудио #2
Идентификатор : 3
Формат : AC-3
Формат/Информация : Audio Coding 3
Идентификатор кодека : A_AC3
Продолжительность : 1 ч. 37 м.
Вид битрейта : Постоянный
Битрейт : 640 Кбит/сек
Каналы : 6 каналов
Расположение каналов : Front: L C R, Side: L R, LFE
Частота : 48,0 КГц
Частота кадров : 31,250 кадров/сек (1536 SPF)
Битовая глубина : 16 бит
Метод сжатия : С потерями
Размер потока : 448 Мбайт (11%)
Заголовок : Original
Язык : English
ServiceKind/String : Complete Main
Default : Нет
Forced : Нет
Текст #1
Идентификатор : 4
Формат : UTF-8
Идентификатор кодека : S_TEXT/UTF8
Идентификатор кодека/Информация : UTF-8 Plain Text
Продолжительность : 1 ч. 16 м.
Битрейт : 0 бит/сек
ElementCount : 17
Размер потока : 570 байт (0%)
Заголовок : Forced
Язык : Russian
Default : Да
Forced : Нет
Текст #2
Идентификатор : 5
Формат : UTF-8
Идентификатор кодека : S_TEXT/UTF8
Идентификатор кодека/Информация : UTF-8 Plain Text
Продолжительность : 1 ч. 29 м.
Битрейт : 64 бит/сек
ElementCount : 917
Размер потока : 42,1 Кбайт (0%)
Заголовок : Blu-Ray
Язык : Russian
Default : Нет
Forced : Нет
Текст #3
Идентификатор : 6
Формат : UTF-8
Идентификатор кодека : S_TEXT/UTF8
Идентификатор кодека/Информация : UTF-8 Plain Text
Продолжительность : 1 ч. 33 м.
Битрейт : 40 бит/сек
ElementCount : 1078
Размер потока : 27,4 Кбайт (0%)
Заголовок : Full
Язык : English
Default : Нет
Forced : Нет
Текст #4
Идентификатор : 7
Формат : UTF-8
Идентификатор кодека : S_TEXT/UTF8
Идентификатор кодека/Информация : UTF-8 Plain Text
Продолжительность : 1 ч. 33 м.
Битрейт : 70 бит/сек
ElementCount : 1402
Размер потока : 48,1 Кбайт (0%)
Заголовок : SDH-Colored
Язык : English
Default : Нет
Forced : Нет
Меню
00:00:00.000 : :(01)00:00:00:000
00:03:22.992 : :(02)00:03:22:992
00:08:04.733 : :(03)00:08:04:733
00:15:50.865 : :(04)00:15:50:865
00:18:28.230 : :(05)00:18:28:230
00:24:36.892 : :(06)00:24:36:892
00:30:50.721 : :(07)00:30:50:721
00:34:40.702 : :(08)00:34:40:702
00:40:48.277 : :(09)00:40:48:277
00:46:26.199 : :(10)00:46:26:199
00:51:23.121 : :(11)00:51:23:121
00:56:27.425 : :(12)00:56:27:425
01:00:00.471 : :(13)01:00:00:471
01:03:27.052 : :(14)01:03:27:052
01:08:44.078 : :(15)01:08:44:078
01:14:01.979 : :(16)01:14:01:979
01:18:08.055 : :(17)01:18:08:055
01:22:33.907 : :(18)01:22:33:907
01:27:09.095 : :(19)01:27:09:095
01:30:33.719 : :(20)01:30:33:719
01:37:58.497 : :(21)01:37:58:497

Внимание. H.265/HEVC:

H.265/HEVC (High Efficiency Video Coding) - это новый стандарт кодирования видео.
- Стандарт H.265/HEVC является логическим продолжением стандарта
H.264/AVC (Advanced Video Coding), и характеризуется более эффективными
алгоритмами сжатия, а также поддержкой высокого разрешения вплоть до 8K UHD
(8192x4320). Первая версия стандарта H.265 была опубликована в начале 2013 года.
- Рипы в фомате HEVC поддерживается не всеми аппаратными проигрывателями.
- Для корректного воспроизведения может потребоваться обновление ПО.
- Владельцам несовместимого железа просьба не беспокоить,
есть альтернативные релизы.
Скриншоты:
       

Гадкий я 3 / Despicable Me 3 (2017)

Гадкий я 3 / Despicable Me 3 (2017) BDRip - Производство: США / Universal Pictures, Illumination Entertainment
Жанр: мультфильм, фэнтези, комедия, семейный
Режиссер: Кайл Балда, Пьер Коффан, Эрик Гуильон
Описание: Грядет третье пришествие. Многодетный суперагент, роковая красотка и бессмертные миньоны на подходе. Готовьтесь. Они будут править миром.

Возраст: 6+ (зрителям, достигшим 6 лет)
Рейтинг MPAA: PG (рекомендуется присутствие родителей)
Релиз от: Mr. Fox
Продолжительность: 01:29:40
Качество видео: BDRip
Перевод: Дублированный
Субтитры: Русские (форсированные, полные), украинские (форсированные), английские (полные, SDH)
Видео: HEVC/H.265, 1920x804, ~5134 Kbps
Аудио 1: AC3, 6 ch, 640 Kbps - Русский, дублированный
Аудио 2: AC3, 2 ch, 192 Kbps - Украинский, дублированный
Аудио 3: AC3, 6 ch, 640 Kbps - Английский

MediaInfo:

Общее
Уникальный идентификатор : 293140989005741435471687808283453556724 (0xDC88E69F1C798D3A055DA78468AE07F4)
Полное имя : R:\Despicable Me\3. Decpicable Me 3 (2017) BDRip 1080p [HEVC].mkv
Формат : Matroska
Версия формата : Version 4 / Version 2
Размер файла : 4,14 Гбайт
Продолжительность : 1 ч. 29 м.
Общий поток : 6609 Кбит/сек
Название фильма : Despicable Me 3 (2017)
Дата кодирования : UTC 2019-07-25 11:06:22
Программа кодирования : mkvmerge v35.0.0 ('All The Love In The World') 64-bit
Библиотека кодирования : libebml v1.3.9 + libmatroska v1.5.2
Обложка : Yes
Attachments : cover.jpg
Видео
Идентификатор : 1
Формат : HEVC
Формат/Информация : High Efficiency Video Coding
Профиль формата : Main [url=mailto:[email protected]][email protected][/url]@High
Идентификатор кодека : V_MPEGH/ISO/HEVC
Продолжительность : 1 ч. 29 м.
Битрейт : 5134 Кбит/сек
Ширина : 1920 пикселей
Высота : 804 пикселя
Соотношение сторон : 2,40:1
Режим частоты кадров : Постоянный
Частота кадров : 23,976 (23976/1000) кадра/сек
Частота кадров в оригинале : 23,976 (24000/1001) кадра/сек
Цветовое пространство : YUV
Субдискретизация насыщенности : 4:2:0
Битовая глубина : 10 бит
Бит/(Пиксели*Кадры) : 0.139
Размер потока : 3,22 Гбайт (78%)
Библиотека кодирования : x265 3.0_Au+4-dcbec33bfb0f:[Windows][MSVC 1916][64 bit] 10bit
Настройки программы : cpuid=1111039 / frame-threads=3 / numa-pools=12 / wpp / no-pmode / no-pme / no-psnr / no-ssim / log-level=2 / input-csp=1 / input-res=1920x804 / interlace=0 / total-frames=129000 / level-idc=41 / high-tier=1 / uhd-bd=0 / ref=5 / no-allow-non-conformance / no-repeat-headers / annexb / no-aud / no-hrd / info / hash=0 / no-temporal-layers / open-gop / min-keyint=23 / keyint=240 / gop-lookahead=0 / bframes=12 / b-adapt=2 / b-pyramid / bframe-bias=0 / rc-lookahead=60 / lookahead-slices=4 / scenecut=40 / radl=0 / no-splice / no-intra-refresh / ctu=32 / min-cu-size=8 / rect / amp / max-tu-size=32 / tu-inter-depth=4 / tu-intra-depth=4 / limit-tu=1 / rdoq-level=2 / dynamic-rd=0.00 / no-ssim-rd / signhide / no-tskip / nr-intra=0 / nr-inter=0 / no-constrained-intra / no-strong-intra-smoothing / max-merge=4 / limit-refs=2 / limit-modes / me=3 / subme=7 / merange=57 / temporal-mvp / weightp / weightb / no-analyze-src-pics / deblock=-3:-3 / no-sao / no-sao-non-deblock / rd=6 / no-early-skip / no-rskip / no-fast-intra / no-tskip-fast / no-cu-lossless / no-b-intra / no-splitrd-skip / rdpenalty=0 / psy-rd=2.00 / psy-rdoq=1.00 / no-rd-refine / no-lossless / cbqpoffs=0 / crqpoffs=0 / rc=crf / crf=20.0 / qcomp=0.60 / qpstep=4 / stats-write=0 / stats-read=0 / vbv-maxrate=50000 / vbv-bufsize=50000 / vbv-init=0.9 / crf-max=0.0 / crf-min=0.0 / ipratio=1.40 / pbratio=1.30 / aq-mode=1 / aq-strength=0.90 / no-cutree / zone-count=0 / no-strict-cbr / qg-size=32 / no-rc-grain / qpmax=69 / qpmin=0 / no-const-vbv / sar=1 / overscan=0 / videoformat=5 / range=0 / colorprim=2 / transfer=2 / colormatrix=2 / chromaloc=0 / display-window=0 / max-cll=0,0 / min-luma=0 / max-luma=1023 / log2-max-poc-lsb=8 / vui-timing-info / vui-hrd-info / slices=1 / no-opt-qp-pps / no-opt-ref-list-length-pps / no-multi-pass-opt-rps / scenecut-bias=0.05 / no-opt-cu-delta-qp / no-aq-motion / no-hdr / no-hdr-opt / no-dhdr10-opt / no-idr-recovery-sei / analysis-reuse-level=5 / scale-factor=0 / refine-intra=0 / refine-inter=0 / refine-mv=0 / refine-ctu-distortion=0 / no-limit-sao / ctu-info=0 / no-lowpass-dct / refine-analysis-type=0 / copy-pic=1 / max-ausize-factor=1.0 / no-dynamic-refine / no-single-sei / no-hevc-aq / qp-adaptation-range=1.00
Default : Да
Forced : Нет
Аудио #1
Идентификатор : 2
Формат : AC-3
Формат/Информация : Audio Coding 3
Идентификатор кодека : A_AC3
Продолжительность : 1 ч. 29 м.
Вид битрейта : Постоянный
Битрейт : 640 Кбит/сек
Каналы : 6 каналов
Расположение каналов : Front: L C R, Side: L R, LFE
Частота : 48,0 КГц
Частота кадров : 31,250 кадров/сек (1536 SPF)
Битовая глубина : 16 бит
Метод сжатия : С потерями
Размер потока : 410 Мбайт (10%)
Заголовок : Дубляж - BD CEE
Язык : Russian
ServiceKind/String : Complete Main
Default : Да
Forced : Нет
Аудио #2
Идентификатор : 3
Формат : AC-3
Формат/Информация : Audio Coding 3
Идентификатор кодека : A_AC3
Продолжительность : 1 ч. 29 м.
Вид битрейта : Постоянный
Битрейт : 192 Кбит/сек
Каналы : 2 канала
Расположение каналов : Front: L R
Частота : 48,0 КГц
Частота кадров : 31,250 кадров/сек (1536 SPF)
Битовая глубина : 16 бит
Метод сжатия : С потерями
Размер потока : 123 Мбайт (3%)
Заголовок : Дубляж - Line (моно)
Язык : Ukrainian
ServiceKind/String : Complete Main
Default : Нет
Forced : Нет
Аудио #3
Идентификатор : 4
Формат : AC-3
Формат/Информация : Audio Coding 3
Идентификатор кодека : A_AC3
Продолжительность : 1 ч. 29 м.
Вид битрейта : Постоянный
Битрейт : 640 Кбит/сек
Каналы : 6 каналов
Расположение каналов : Front: L C R, Side: L R, LFE
Частота : 48,0 КГц
Частота кадров : 31,250 кадров/сек (1536 SPF)
Битовая глубина : 16 бит
Метод сжатия : С потерями
Размер потока : 410 Мбайт (10%)
Заголовок : Original
Язык : English
ServiceKind/String : Complete Main
Default : Нет
Forced : Нет
Текст #1
Идентификатор : 5
Формат : UTF-8
Идентификатор кодека : S_TEXT/UTF8
Идентификатор кодека/Информация : UTF-8 Plain Text
Продолжительность : 1 ч. 10 м.
Битрейт : 1 бит/сек
ElementCount : 31
Размер потока : 1,01 Кбайт (0%)
Заголовок : Форсированные
Язык : Russian
Default : Да
Forced : Нет
Текст #2
Идентификатор : 6
Формат : UTF-8
Идентификатор кодека : S_TEXT/UTF8
Идентификатор кодека/Информация : UTF-8 Plain Text
Продолжительность : 1 ч. 20 м.
Битрейт : 86 бит/сек
ElementCount : 1083
Размер потока : 51,5 Кбайт (0%)
Заголовок : Полные
Язык : Russian
Default : Нет
Forced : Нет
Текст #3
Идентификатор : 7
Формат : UTF-8
Идентификатор кодека : S_TEXT/UTF8
Идентификатор кодека/Информация : UTF-8 Plain Text
Продолжительность : 1 ч. 20 м.
Битрейт : 1 бит/сек
ElementCount : 32
Размер потока : 1,06 Кбайт (0%)
Заголовок : Форсированные
Язык : Ukrainian
Default : Нет
Forced : Нет
Текст #4
Идентификатор : 8
Формат : UTF-8
Идентификатор кодека : S_TEXT/UTF8
Идентификатор кодека/Информация : UTF-8 Plain Text
Продолжительность : 1 ч. 21 м.
Битрейт : 50 бит/сек
ElementCount : 1152
Размер потока : 30,2 Кбайт (0%)
Заголовок : Full
Язык : English
Default : Нет
Forced : Нет
Текст #5
Идентификатор : 9
Формат : UTF-8
Идентификатор кодека : S_TEXT/UTF8
Идентификатор кодека/Информация : UTF-8 Plain Text
Продолжительность : 1 ч. 21 м.
Битрейт : 65 бит/сек
ElementCount : 1527
Размер потока : 39,2 Кбайт (0%)
Заголовок : SDH
Язык : English
Default : Нет
Forced : Нет
Меню
00:00:00.000 : :1
00:03:06.102 : :2
00:07:57.975 : :3
00:11:12.836 : :4
00:16:15.764 : :5
00:20:07.497 : :6
00:24:07.988 : :7
00:28:57.067 : :8
00:32:55.346 : :9
00:39:01.838 : :10
00:42:44.186 : :11
00:46:47.179 : :12
00:50:55.635 : :13
00:56:12.077 : :14
01:00:02.264 : :15
01:05:41.228 : :16
01:10:14.542 : :17
01:14:33.760 : :18
01:19:29.720 : :19
01:21:56.993 : :20

Внимание. H.265/HEVC:

H.265/HEVC (High Efficiency Video Coding) - это новый стандарт кодирования видео.
- Стандарт H.265/HEVC является логическим продолжением стандарта
H.264/AVC (Advanced Video Coding), и характеризуется более эффективными
алгоритмами сжатия, а также поддержкой высокого разрешения вплоть до 8K UHD
(8192x4320). Первая версия стандарта H.265 была опубликована в начале 2013 года.
- Рипы в фомате HEVC поддерживается не всеми аппаратными проигрывателями.
- Для корректного воспроизведения может потребоваться обновление ПО.
- Владельцам несовместимого железа просьба не беспокоить,
есть альтернативные релизы.
Скриншоты:
       

Миньоны / Minions (2015)

Миньоны / Minions (2015) BDRip - Производство: США / Universal Pictures, Illumination Entertainment
Жанр: мультфильм, фэнтези, комедия, семейный
Режиссер: Кайл Балда, Пьер Коффан
Описание: Миньоны живут на планете гораздо дольше нас. У них одна навязчивая идея — служить самой Гадкой личности из имеющихся в наличии. Динозавры, фараоны, Дракула, Наполеон — все они оказались недолговечны. И тогда миньоны рванули в Нью-Йорк. Их ждут деньги, власть, роковая суперзлодейка Скарлет Оверкилл и, конечно же, вкуснейшая «банана»! Во всяком случае, так им кажется.

Возраст: 6+ (зрителям, достигшим 6 лет)
Рейтинг MPAA: PG (рекомендуется присутствие родителей)
Релиз от: Mr. Fox
Продолжительность: 01:30:58
Качество видео: BDRip
Перевод: Дублированный
Субтитры: Русские (форсированные, полные), украинские, английские (полные, SDH)
Видео: HEVC/H.265, 1920x1036, ~8759 Kbps
Аудио 1: AC3, 6 ch, 640 Kbps - Русский, дублированный
Аудио 2: AC3, 6 ch, 640 Kbps - Украинский, дублированный
Аудио 3: AC3, 6 ch, 640 Kbps - Английский

MediaInfo:

Общее
Уникальный идентификатор : 38929823838427707368682136902558027140 (0x1D499C812C24170E23BA6B1543C80D84)
Полное имя : R:\Despicable Me\Minions (2015) BDRip 1080p [HEVC].mkv
Формат : Matroska
Версия формата : Version 4 / Version 2
Размер файла : 6,79 Гбайт
Продолжительность : 1 ч. 30 м.
Общий поток : 10,7 Мбит/сек
Название фильма : Minions (2015)
Дата кодирования : UTC 2019-07-28 14:20:44
Программа кодирования : mkvmerge v35.0.0 ('All The Love In The World') 64-bit
Библиотека кодирования : libebml v1.3.9 + libmatroska v1.5.2
Обложка : Yes
Attachments : cover.jpg
Видео
Идентификатор : 1
Формат : HEVC
Формат/Информация : High Efficiency Video Coding
Профиль формата : Main [url=mailto:[email protected]][email protected][/url]@High
Идентификатор кодека : V_MPEGH/ISO/HEVC
Продолжительность : 1 ч. 30 м.
Битрейт : 8759 Кбит/сек
Ширина : 1920 пикселей
Высота : 1036 пикселей
Соотношение сторон : 1,85:1
Режим частоты кадров : Постоянный
Частота кадров : 23,976 (24000/1001) кадра/сек
Цветовое пространство : YUV
Субдискретизация насыщенности : 4:2:0
Битовая глубина : 10 бит
Бит/(Пиксели*Кадры) : 0.184
Размер потока : 5,57 Гбайт (82%)
Библиотека кодирования : x265 3.0_Au+4-dcbec33bfb0f:[Windows][MSVC 1916][64 bit] 10bit
Настройки программы : cpuid=1111039 / frame-threads=3 / numa-pools=12 / wpp / no-pmode / no-pme / no-psnr / no-ssim / log-level=2 / input-csp=1 / input-res=1920x1036 / interlace=0 / total-frames=118193 / level-idc=41 / high-tier=1 / uhd-bd=0 / ref=5 / no-allow-non-conformance / no-repeat-headers / annexb / no-aud / no-hrd / info / hash=0 / no-temporal-layers / open-gop / min-keyint=23 / keyint=240 / gop-lookahead=0 / bframes=13 / b-adapt=2 / b-pyramid / bframe-bias=0 / rc-lookahead=60 / lookahead-slices=4 / scenecut=40 / radl=0 / no-splice / no-intra-refresh / ctu=32 / min-cu-size=8 / rect / amp / max-tu-size=32 / tu-inter-depth=4 / tu-intra-depth=4 / limit-tu=1 / rdoq-level=2 / dynamic-rd=0.00 / no-ssim-rd / signhide / no-tskip / nr-intra=0 / nr-inter=0 / no-constrained-intra / no-strong-intra-smoothing / max-merge=4 / limit-refs=2 / limit-modes / me=3 / subme=7 / merange=57 / temporal-mvp / weightp / weightb / no-analyze-src-pics / deblock=-3:-3 / no-sao / no-sao-non-deblock / rd=6 / no-early-skip / no-rskip / no-fast-intra / no-tskip-fast / no-cu-lossless / no-b-intra / no-splitrd-skip / rdpenalty=0 / psy-rd=2.00 / psy-rdoq=1.00 / no-rd-refine / no-lossless / cbqpoffs=0 / crqpoffs=0 / rc=crf / crf=20.0 / qcomp=0.60 / qpstep=4 / stats-write=0 / stats-read=0 / vbv-maxrate=50000 / vbv-bufsize=50000 / vbv-init=0.9 / crf-max=0.0 / crf-min=0.0 / ipratio=1.40 / pbratio=1.30 / aq-mode=1 / aq-strength=0.90 / no-cutree / zone-count=0 / no-strict-cbr / qg-size=32 / no-rc-grain / qpmax=69 / qpmin=0 / no-const-vbv / sar=1 / overscan=0 / videoformat=5 / range=0 / colorprim=2 / transfer=2 / colormatrix=2 / chromaloc=0 / display-window=0 / max-cll=0,0 / min-luma=0 / max-luma=1023 / log2-max-poc-lsb=8 / vui-timing-info / vui-hrd-info / slices=1 / no-opt-qp-pps / no-opt-ref-list-length-pps / no-multi-pass-opt-rps / scenecut-bias=0.05 / no-opt-cu-delta-qp / no-aq-motion / no-hdr / no-hdr-opt / no-dhdr10-opt / no-idr-recovery-sei / analysis-reuse-level=5 / scale-factor=0 / refine-intra=0 / refine-inter=0 / refine-mv=0 / refine-ctu-distortion=0 / no-limit-sao / ctu-info=0 / no-lowpass-dct / refine-analysis-type=0 / copy-pic=1 / max-ausize-factor=1.0 / no-dynamic-refine / no-single-sei / no-hevc-aq / qp-adaptation-range=1.00
Default : Да
Forced : Нет
Аудио #1
Идентификатор : 2
Формат : AC-3
Формат/Информация : Audio Coding 3
Идентификатор кодека : A_AC3
Продолжительность : 1 ч. 30 м.
Вид битрейта : Постоянный
Битрейт : 640 Кбит/сек
Каналы : 6 каналов
Расположение каналов : Front: L C R, Side: L R, LFE
Частота : 48,0 КГц
Частота кадров : 31,250 кадров/сек (1536 SPF)
Битовая глубина : 16 бит
Метод сжатия : С потерями
Размер потока : 416 Мбайт (6%)
Язык : Russian
ServiceKind/String : Complete Main
Default : Да
Forced : Нет
Аудио #2
Идентификатор : 3
Формат : AC-3
Формат/Информация : Audio Coding 3
Идентификатор кодека : A_AC3
Продолжительность : 1 ч. 30 м.
Вид битрейта : Постоянный
Битрейт : 640 Кбит/сек
Каналы : 6 каналов
Расположение каналов : Front: L C R, Side: L R, LFE
Частота : 48,0 КГц
Частота кадров : 31,250 кадров/сек (1536 SPF)
Битовая глубина : 16 бит
Метод сжатия : С потерями
Размер потока : 416 Мбайт (6%)
Язык : Ukrainian
ServiceKind/String : Complete Main
Default : Нет
Forced : Нет
Аудио #3
Идентификатор : 4
Формат : AC-3
Формат/Информация : Audio Coding 3
Идентификатор кодека : A_AC3
Продолжительность : 1 ч. 30 м.
Вид битрейта : Постоянный
Битрейт : 640 Кбит/сек
Каналы : 6 каналов
Расположение каналов : Front: L C R, Side: L R, LFE
Частота : 48,0 КГц
Частота кадров : 31,250 кадров/сек (1536 SPF)
Битовая глубина : 16 бит
Метод сжатия : С потерями
Размер потока : 416 Мбайт (6%)
Язык : English
ServiceKind/String : Complete Main
Default : Нет
Forced : Нет
Текст #1
Идентификатор : 5
Формат : UTF-8
Идентификатор кодека : S_TEXT/UTF8
Идентификатор кодека/Информация : UTF-8 Plain Text
Продолжительность : 1 ч. 25 м.
Битрейт : 2 бит/сек
ElementCount : 40
Размер потока : 1,41 Кбайт (0%)
Заголовок : Forced
Язык : Russian
Default : Да
Forced : Нет
Текст #2
Идентификатор : 6
Формат : UTF-8
Идентификатор кодека : S_TEXT/UTF8
Идентификатор кодека/Информация : UTF-8 Plain Text
Продолжительность : 1 ч. 29 м.
Битрейт : 53 бит/сек
ElementCount : 629
Размер потока : 35,2 Кбайт (0%)
Заголовок : Full
Язык : Russian
Default : Нет
Forced : Нет
Текст #3
Идентификатор : 7
Формат : UTF-8
Идентификатор кодека : S_TEXT/UTF8
Идентификатор кодека/Информация : UTF-8 Plain Text
Продолжительность : 1 ч. 29 м.
Битрейт : 52 бит/сек
ElementCount : 631
Размер потока : 34,3 Кбайт (0%)
Язык : Ukrainian
Default : Нет
Forced : Нет
Текст #4
Идентификатор : 8
Формат : UTF-8
Идентификатор кодека : S_TEXT/UTF8
Идентификатор кодека/Информация : UTF-8 Plain Text
Продолжительность : 1 ч. 28 м.
Битрейт : 38 бит/сек
ElementCount : 1077
Размер потока : 25,1 Кбайт (0%)
Язык : English
Default : Нет
Forced : Нет
Текст #5
Идентификатор : 9
Формат : UTF-8
Идентификатор кодека : S_TEXT/UTF8
Идентификатор кодека/Информация : UTF-8 Plain Text
Продолжительность : 1 ч. 30 м.
Битрейт : 59 бит/сек
ElementCount : 1686
Размер потока : 39,7 Кбайт (0%)
Заголовок : SDH
Язык : English
Default : Нет
Forced : Нет
Меню
00:00:00.000 : en:00:00:00.000
00:05:39.839 : en:00:05:39.839
00:11:28.938 : en:00:11:28.938
00:16:55.139 : en:00:16:55.139
00:22:28.430 : en:00:22:28.430
00:26:59.034 : en:00:26:59.034
00:32:54.639 : en:00:32:54.639
00:37:28.872 : en:00:37:28.872
00:40:58.831 : en:00:40:58.831
00:45:29.310 : en:00:45:29.310
00:49:24.086 : en:00:49:24.086
00:53:43.053 : en:00:53:43.053
00:57:04.921 : en:00:57:04.921
01:01:36.943 : en:01:01:36.943
01:05:54.701 : en:01:05:54.701
01:07:55.238 : en:01:07:55.238
01:11:19.150 : en:01:11:19.150
01:15:32.653 : en:01:15:32.653
01:21:12.826 : en:01:21:12.826
01:28:24.758 : en:01:28:24.758

Внимание. H.265/HEVC:

H.265/HEVC (High Efficiency Video Coding) - это новый стандарт кодирования видео.
- Стандарт H.265/HEVC является логическим продолжением стандарта
H.264/AVC (Advanced Video Coding), и характеризуется более эффективными
алгоритмами сжатия, а также поддержкой высокого разрешения вплоть до 8K UHD
(8192x4320). Первая версия стандарта H.265 была опубликована в начале 2013 года.
- Рипы в фомате HEVC поддерживается не всеми аппаратными проигрывателями.
- Для корректного воспроизведения может потребоваться обновление ПО.
- Владельцам несовместимого железа просьба не беспокоить,
есть альтернативные релизы.
Скриншоты:
       
Скриншоты:
       

Theseus

Post 22-Oct-2018 21:20

[Quote]

Суперсемейка 2 / Incredibles 2 -Год выхода: 2018
Страна: США
Жанр: мультфильм, фантастика, комедия, приключения, семейный
Продолжительность: 01:57:49
Перевод: Профессиональный (полное дублирование) [Чистый звук]
Субтитры: Отсутствуют-Режиссер: Брэд Бёрд-В ролях: Крэйг Т. Нельсон, Холли Хантер, Сара Вауэлл, Хак Милнер, Кэтрин Кинер, Илай Фучиле, Боб Оденкёрк, Сэмюэл Л. Джексон, Майкл Бёрд, София Буш-О фильме: После событий первой части суперсемейка пользуется повышенным вниманием со стороны журналистов. Неожиданно оказалось, что обаятельная Миссис Исключительная гораздо лучше смотрится на экране телевизора, чем её муж. Мистеру Исключительному все чаще приходится сидеть дома и приглядывать за детьми, у каждого из которых есть свои причины быть недовольным собственными суперспособностями. Однако семейным проблемам предстоит отступить на второй план, когда окажется, что спокойствию Суперсемейки угрожает новый могущественный враг.- -Качество: WEB-DLRip
Формат: AVI
Видео кодек: XviD
Аудио кодек: AC3
Видео: MPEG4, XviD, 720x304 (2.35:1), 23.976 fps, 1 446 Kbps
Аудио: AC-3, 48.0 KHz, 2 ch, 192 Kbps, CBR-Сэмпл-Присутствует аудио и текстовая реклама, видеоролики с рекламой вырезаны-     
- -

Theseus

Post 20-Sep-2018 13:27

[Quote]

Следующее поколение / Next Gen -Год выхода: 2018
Страна: Китай, Канада, США
Жанр: мультфильм, фантастика, боевик, приключения, комедия
Продолжительность: 01:45:55
Перевод 1: Профессиональный (полное дублирование) | АРК-ТВ VSI International
Перевод 2: Любительский (одноголосый, закадровый) | Solod
Субтитры: Русские, английские-Режиссер: Кевин Р. Адамс, Джо Ксандер-В ролях: Джон Красински, Шарлин Йи, Джейсон Судейкис, Майкл Пенья, Дэвид Кросс, Констанс Ву, Киана Ледэ, Анна Акана, Иссак Райан Браун, Реба Бур-О фильме: Недалекое будущее. Девушке-подростку Мэй приходится расти в изоляции: папа ушёл из семьи, а мама больше интересуется новыми технологиями, чем собственной дочерью. Однажды она приводит Мэй на выставку последних достижений науки и техники, где та случайно помогает сбежать из лаборатории роботу последнего поколения. Наконец-то у подростка появляется настоящий друг.- -Качество: WEB-DL 1080p
Формат: MKV
Видео кодек: x.264
Аудио кодек: AC3
Видео: AVC, 1920x1080 (16:9), 24.000 fps, 5 360 Kbps
Аудио #1: AC-3, 48.0 KHz, 6 ch, 384 Kbps (DUB | Russian)
Аудио #2: AC-3, 48.0 KHz, 6 ch, 384 Kbps (VO | Russian)
Аудио #3: E-AC-3, 48.0 KHz, 6 ch, 640 Kbps (English)-

Трейлер

-     - -

Theseus

Post 19-Sep-2018 22:59

[Quote]

Следующее поколение / Next Gen -Год выхода: 2018
Страна: Китай, Канада, США
Жанр: мультфильм, фантастика, боевик, приключения, комедия
Продолжительность: 01:46:44
Перевод: Профессиональный (полное дублирование) | АРК-ТВ VSI International
Субтитры: Русские, английские-Режиссер: Кевин Р. Адамс, Джо Ксандер-В ролях: Джон Красински, Шарлин Йи, Джейсон Судейкис, Майкл Пенья, Дэвид Кросс, Констанс Ву, Киана Ледэ, Анна Акана, Иссак Райан Браун, Реба Бур-О фильме: Недалекое будущее. Девушке-подростку Мэй приходится расти в изоляции: папа ушёл из семьи, а мама больше интересуется новыми технологиями, чем собственной дочерью. Однажды она приводит Мэй на выставку последних достижений науки и техники, где та случайно помогает сбежать из лаборатории роботу последнего поколения. Наконец-то у подростка появляется настоящий друг.- -Качество: WEB-DLRip-AVC
Формат: MKV
Видео кодек: x.264
Аудио кодек: AC3
Видео: MPEG-4 AVC, 1024x426, 23,976 fps, ~ 1810 kbps
Аудио 1: AC-3, 48.0 KHz, 6 ch, 384 Kbps | RUS
Аудио 2: AC-3, 48.0 KHz, 6 ch, 384 Kbps | ENG-

Трейлер

-    - -

Theseus

Post 19-Sep-2018 22:16

[Quote]

Следующее поколение / Next Gen -Год выхода: 2018
Страна: Китай, Канада, США
Жанр: мультфильм, фантастика, боевик, приключения, комедия
Продолжительность: 01:46:44
Перевод: Профессиональный (полное дублирование) | АРК-ТВ VSI International
Субтитры: Отсутствуют-Режиссер: Кевин Р. Адамс, Джо Ксандер-В ролях: Джон Красински, Шарлин Йи, Джейсон Судейкис, Майкл Пенья, Дэвид Кросс, Констанс Ву, Киана Ледэ, Анна Акана, Иссак Райан Браун, Реба Бур-О фильме: Недалекое будущее. Девушке-подростку Мэй приходится расти в изоляции: папа ушёл из семьи, а мама больше интересуется новыми технологиями, чем собственной дочерью. Однажды она приводит Мэй на выставку последних достижений науки и техники, где та случайно помогает сбежать из лаборатории роботу последнего поколения. Наконец-то у подростка появляется настоящий друг.- -Качество: WEB-DLRip
Формат: AVI
Видео кодек: XviD
Аудио кодек: AC3
Видео: MPEG4, XviD, 720x304 (2.35:1), 24.000 fps, 1 581 Kbps
Аудио: AC-3, 48.0 KHz, 6 ch, 384 Kbps-

Трейлер

-   - -

Theseus

Post 19-Sep-2018 22:14

[Quote]

Следующее поколение / Next Gen -Год выхода: 2018
Страна: Китай, Канада, США
Жанр: мультфильм, фантастика, боевик, приключения, комедия
Продолжительность: 01:45:55
Перевод: Профессиональный (полное дублирование) / Любительский(одноголосый, закадровый)
Субтитры: русские, английские, немецкие, французские, итальянские, китайские-Режиссер: Кевин Р. Адамс, Джо Ксандер-В ролях: Джон Красински, Шарлин Йи, Джейсон Судейкис, Майкл Пенья, Дэвид Кросс, Констанс Ву, Киана Ледэ, Анна Акана, Иссак Райан Браун, Реба Бур-О фильме: Недалекое будущее. Девушке-подростку Мэй приходится расти в изоляции: папа ушёл из семьи, а мама больше интересуется новыми технологиями, чем собственной дочерью. Однажды она приводит Мэй на выставку последних достижений науки и техники, где та случайно помогает сбежать из лаборатории роботу последнего поколения. Наконец-то у подростка появляется настоящий друг.- -Качество: WEBRip 720p
Формат: MKV
Видео кодек: x.264
Аудио кодек: AC3
Видео: MPEG-4 AVC, 1280x536, 4000 Kбит/с, 24.000 кадр/с
Аудио 1: Русский ( АС3, 6ch, 384 Кбит/с, 48.0 KHz) Профессиональный (полное дублирование) АРК-ТВ VSI International
Аудио 2: Русский ( АС3, 6ch, 384 Кбит/с, 48.0 KHz) Любительский(одноголосый, закадровый) Solod
Аудио 3: Английский ( АС3, 6ch, 384 Кбит/с, 48.0 KHz)-

Трейлер

-     - -

Theseus

Post 19-Sep-2018 22:02

[Quote]

Монстры на каникулах 3: Море зовёт / Hotel Transylvania 3: Summer Vacation -Год выхода: 2018
Страна: США
Жанр: мультфильм, фэнтези, комедия, семейный
Продолжительность: 01:33:41
Перевод: Профессиональный (полное дублирование) | Чистый звук
Субтитры: Корейские (вшитые)-Режиссер: Генндий Тартаковский-В ролях: Мэл Брукс, Адам Сэндлер, Селена Гомес, Энди Сэмберг, Кэтрин Хан, Фрэн Дрешер, Стив Бушеми, Дэвид Спейд, Тара Стронг, Кигэн-Майкл Ки-О фильме: На этот раз Дракула вместе со своими друзьями отправляется в круиз на шикарном лайнере. Развлечения там на любой вкус: от монстробаскетбола и экзотических экскурсий, до лунных ванн. Неожиданно Дракула влюбляется в капитана корабля — загадочную и прекрасную Эрику, и его дочка Мэвис понимает, что поездка может превратиться в кошмар: ведь Эрика хранит ужасный секрет, который ставит под угрозу существование всех монстров!- -Качество: WEBRip
Формат: AVI
Видео кодек: XviD
Аудио кодек: AC3
Видео: MPEG4, XviD, 720x400 (16:9), 23.976 fps, 1 695 Kbps
Аудио: AC-3, 48.0 KHz, 2 ch, 384 Kbps-Присутствует реклама-

Трейлер

-     - -

Theseus

Post 19-Sep-2018 22:01

[Quote]

Монстры на каникулах 3: Море зовёт / Hotel Transylvania 3: Summer Vacation -Год выхода: 2018
Страна: США
Жанр: мультфильм, фэнтези, комедия, семейный
Продолжительность: 01:33:41
Перевод: Профессиональный (полное дублирование) | Чистый звук
Субтитры: Корейские (вшитые)-Режиссер: Генндий Тартаковский-В ролях: Мэл Брукс, Адам Сэндлер, Селена Гомес, Энди Сэмберг, Кэтрин Хан, Фрэн Дрешер, Стив Бушеми, Дэвид Спейд, Тара Стронг, Кигэн-Майкл Ки-О фильме: На этот раз Дракула вместе со своими друзьями отправляется в круиз на шикарном лайнере. Развлечения там на любой вкус: от монстробаскетбола и экзотических экскурсий, до лунных ванн. Неожиданно Дракула влюбляется в капитана корабля — загадочную и прекрасную Эрику, и его дочка Мэвис понимает, что поездка может превратиться в кошмар: ведь Эрика хранит ужасный секрет, который ставит под угрозу существование всех монстров!- -Качество: WEBRip 720p
Формат: MKV
Видео кодек: x.264
Аудио кодек: AC3
Видео: AVC, 1280x720 (16:9), 23.976 fps, 4 404 Kbps
Аудио: AC-3, 48.0 KHz, 2 ch, 384 Kbps-Присутствует реклама-

Трейлер

-     - -

Theseus

Post 17-Apr-2017 22:08

[Quote]

Зверопой / Sing- Страна: США
Жанр: мультфильм, комедия, семейный, музыка
Год выпуска: 2016
Премьера (РФ): 2017
Продолжительность: 01:47:53
Перевод: Профессиональный (полное дублирование) | R5 | Лицензия
Режиссер: Кристоф Лурделе, Гарт Дженнингс-В ролях: Мэттью МакКонахи, Риз Уизерспун, Сет МакФарлейн, Скарлетт Йоханссон, Джон Си Райли, Тэрон Эджертон, Тори Келли, Дженнифер Сондерс, Дженнифер Хадсон, Гарт Дженнингс-Описание: В мире, который населяют звери, коала по имени Бастер Мун изо всех сил пытается предотвратить закрытие своего театра. В итоге Бастер и его друг, баран Эдди, устраивают конкурс певцов, предлагая принять участие каждому жителю города.- -Качество: BDRip-AVC
Формат: MKV
Видео кодек: x.264
Аудио кодек: AC3
Видео: AVC, 1024x552 (1.85:1), 23.976 fps, 2 209 Kbps (0.163 bit/pixel)
Аудио #1: AC-3, 48.0 KHz, 6 ch, 384 Kbps, CBR (Russian)
Аудио #2: AC-3, 48.0 KHz, 6 ch, 448 Kbps, CBR (English)
Субтитры: Russian, English-
    
- - -

Theseus

Post 17-Apr-2017 22:07

[Quote]

Зверопой / Sing- Страна: США
Жанр: мультфильм, комедия, семейный, музыка
Год выпуска: 2016
Премьера (РФ): 2017
Продолжительность: 01:47:53
Перевод: Профессиональный (полное дублирование) | R5 | Лицензия
Режиссер: Кристоф Лурделе, Гарт Дженнингс-В ролях: Мэттью МакКонахи, Риз Уизерспун, Сет МакФарлейн, Скарлетт Йоханссон, Джон Си Райли, Тэрон Эджертон, Тори Келли, Дженнифер Сондерс, Дженнифер Хадсон, Гарт Дженнингс-Описание: В мире, который населяют звери, коала по имени Бастер Мун изо всех сил пытается предотвратить закрытие своего театра. В итоге Бастер и его друг, баран Эдди, устраивают конкурс певцов, предлагая принять участие каждому жителю города.- -Качество: BDRip
Формат: AVI
Видео кодек: XviD
Аудио кодек: AC3
Видео: 720x384 (1.88:1), 23.976 fps, XviD build 67 ~1545 kbps avg, 0.23 bit/pixel
Аудио: 48 kHz, AC3 Dolby Digital, 3/2 (L,C,R,l,r) + LFE ch, ~384.00 kbps avg-
    
- - -

XP1971

Post 15-Jan-2017 22:40

[Quote]

Олли: Веселый грузовичок / Olly The Little White Van (2011-2016) WEB-DLRip [H.264/1080p-LQ] (65 серии из 65) - Производство: Великобритания
Жанр: Компьютерная анимация, Детский, Короткометражный, Музыкальный
Режиссер: Дэйв Гарбет
Персонажи: Олли
Описание:
Олли — маленький веселый грузовичок, который только начинает познавать мир. По повадкам он очень похож на задорного любознательного щенка. Вместе со своими друзьями Олли нередко оказывается в переделках, решает непростые задачки, а также растет и развивается с юным зрителем.

Продолжительность: 65 серий по ~ 00:05:00 + одна серия ~ 00:07:00 + одна серия ~ 00:15:00
Качество видео: WEB-DLRip
Перевод: Полный дубляж, вкл. песни
Язык озвучки: Русский
Субтитры: Отсутствуют
Видео: AVC/H.264, ~2200 Kbps, 1920x1080
Аудио: AAC 2.0, 253 Kbps

Mediainfo:

Код:
Общее
CompleteName: 01 - Кафе у дороги.mp4
Format: MPEG-4
Format_Profile: Base Media
CodecID: isom
FileSize/String: 111 Мбайт
Duration/String: 5 м. 0 с.
OverallBitRate/String: 3104 Кбит/сек
Encoded_Application: Lavf55.12.100
Видео
ID/String: 2
Format: AVC
Format/Info: Advanced Video Codec
Format_Profile: [url=mailto:[email protected]][email protected][/url]
Format_Settings_CABAC/String: Да
Format_Settings_RefFrames/String: 3 кадра
CodecID: avc1
CodecID/Info: Advanced Video Coding
Duration/String: 5 м. 0 с.
BitRate/String: 2845 Кбит/сек
Width/String: 1920 пикселей
Height/String: 1080 пикселей
DisplayAspectRatio/String: 16:9
FrameRate_Mode/String: Постоянный
FrameRate/String: 25,000 кадров/сек
ColorSpace: YUV
ChromaSubsampling: 4:2:0
BitDepth/String: 8 бит
ScanType/String: Прогрессивная
Bits-(Pixel*Frame): 0.055
StreamSize/String: 102 Мбайт (92%)
Аудио
ID/String: 1
Format: AAC
Format/Info: Advanced Audio Codec
Format_Profile: LC
CodecID: 40
Duration/String: 5 м. 0 с.
BitRate_Mode/String: Постоянный
BitRate/String: 254 Кбит/сек
Channel(s)/String: 2 канала
ChannelPositions: Front: L R
SamplingRate/String: 44,1 КГц
Compression_Mode/String: С потерями
StreamSize/String: 9,08 Мбайт (8%)

Дополнительно в раздаче:

Дополнительно в раздаче предлагается нарезка всех песен из мультсериала, обратите внимание.
Скриншоты:
       

Omen

Post 13-Jan-2017 01:00

[Quote]

Приключения Флика / Жизнь букашки / A Bug's Life
«An epic of miniature proportions»
Страна: США
Жанр: мультфильм
Продолжительность: 01:34:53
Год выпуска: 1998
Перевод: Авторский (одноголосый закадровый) Сергей Визгунов
Русские субтитры: нет
Режиссёр: Джон Лассетер / John Lasseter, Эндрю Стэнтон / Andrew Stanton
Роли озвучивали: Дэйв Фоли, Кевин Спейси, Джулия Луис-Дрейфус, Хайден Панеттьери, Филлис Диллер, Ричард Кайнд, Дэвид Хайд Пирс, Джо Рэнфт, Дэнис Лири, Джонатан Харрис
Описание: Действия картины происходят на острове, в колонии муравьев. Среди них особо выделяется изобретатель Флик. Муравьи занимались тем, что собирали дань в виде еды для кузнечиков.
Однажды Флик случайно сбросил в воду всю собранную в виде дани еду. Кузнечики в результате чего увеличили дань. Флик решил противостоять этому. Так началась освободительная борьба муравьев за независимость.
Доп. информация: Дорожка с С. Визгуновым синхронизирована и наложена ale_x2008 при помощи Sony Vegas и VirtualDubMod
За оцифрованную с VHS дорожку благодарим - d_rocker

Семпл: https://yadi.sk/i/UmPdRmN038Z59g
Качество: BDRip
Формат: AVI
Видео: XviD build 65, 720x304 (2.37:1), 23.976 fps, 1730 kbps avg, 0.33 bit/pixel
Аудио: AC3 Dolby Digital, 48000Hz, 2/0 (L,R) ch (mono), 192.00 kbps avg
Аудио 2: AC3 Dolby Digital, 48000Hz, 2/0 (L,R) ch, 192.00 kbps avg Eng
Субтитры: нет

Подробные технические данные

Приключения Флика - A Bug's Life [by ale_x2008].aviFormat : AVIFormat/Info : Audio Video InterleaveFile size : 1.41 GiBDuration : 1 h 34 minOverall bit rate : 2 129 kb/sMovie name : Prikljuchenija.Flika.1998.RUS.BDRip.RERip.XviD.AC3.-HELLYWOODDirector : GummyWriting application : VirtualDubMod 1.5.10.2 (build 2540/release)Copyright : ale_x2008 | Edich2Comment : RuTracker.org
VideoID : 0Format : MPEG-4 VisualFormat profile : Advanced [email protected] settings, BVOP : 2Format settings, QPel : NoFormat settings, GMC : No warppointsFormat settings, Matrix : CustomCodec ID : XVIDCodec ID/Hint : XviDDuration : 1 h 34 minBit rate : 1 731 kb/sWidth : 720 pixelsHeight : 304 pixelsDisplay aspect ratio : 2.35:1Frame rate : 23.976 (23976/1000) FPSColor space : YUVChroma subsampling : 4:2:0Bit depth : 8 bitsScan type : ProgressiveCompression mode : LossyBits/(Pixel*Frame) : 0.330Stream size : 1.15 GiB (81%)Writing library : XviD 65
Audio #1ID : 1Format : AC-3Format/Info : Audio Coding 3Mode extension : CM (complete main)Format settings, Endianness : BigCodec ID : 2000Duration : 1 h 34 minBit rate mode : ConstantBit rate : 192 kb/sChannel(s) : 2 channelsChannel positions : Front: L RSampling rate : 48.0 kHzFrame rate : 31.250 FPS (1536 spf)Compression mode : LossyStream size : 130 MiB (9%)Alignment : Split accross interleavesInterleave, duration : 42 ms (1.00 video frame)Interleave, preload duratio : 500 ms
Audio #2ID : 2Format : AC-3Format/Info : Audio Coding 3Mode extension : CM (complete main)Format settings, Endianness : BigCodec ID : 2000Duration : 1 h 34 minBit rate mode : ConstantBit rate : 192 kb/sChannel(s) : 2 channelsChannel positions : Front: L RSampling rate : 48.0 kHzFrame rate : 31.250 FPS (1536 spf)Compression mode : LossyStream size : 130 MiB (9%)Alignment : Split accross interleavesInterleave, duration : 42 ms (1.00 video frame)Interleave, preload duratio : 500 ms

Скриншоты


Omen

Post 10-Jan-2017 01:00

[Quote]

Ледниковый период: Столкновение неизбежно / Ice Age: Collision Course- Год выпуска: 2016
Страна: США
Жанр: мультфильм, фантастика, комедия, приключения, семейный
Продолжительность: 01:34:32
Перевод: Профессиональный (полное дублирование) EUR
Субтитры: нет-Режиссер: Майк Тёрмайер / Mike Thurmeier, Гален Т. Чу / Galen T. Chu
Роли озвучивали: Рэй Романо, Джон Легуизамо, Дэнис Лири, Куин Латифа, Шонн Уильям Скотт, Саймон Пегг, Дженнифер Лопез, Нил Тайсон, Джесси Тайлер Фергюсон, Джесси Джей
О фильме: Отчаянная погоня за неуловимым желудем катапультирует Скрата прямо в космос, где он случайно запускает целую серию космических событий. Именно они изменят весь мир Ледникового периода и станут реальной угрозой для него. Чтобы спастись, Сид, Мэнни, Диего и остальные звери должны покинуть свои дома, отправиться в забавное и захватывающее приключение в экзотические новые земли и встретиться со множеством красочных новых персонажей.-Релиз:
Автор: kingsize87
Качество: BDRip (источник: / Blu-ray EUR / 1080р)
Формат: AVI
Видео: 720x304 (2.37:1), 23,976 fps, XviD build 66 ~1805 kbps avg, 0.34 bit/pixel
Аудио: 48 kHz, AC3 Dolby Digital, 3/2 (L,C,R,l,r) + LFE ch, ~384.00 kbps avg
Размер: 1487.34 Mb (1/3 DVD-R)
Скачать: Семпл-

Кадры из фильма

-

Mi

Формат : AVI
Формат/Информация : Audio Video Interleave
Размер файла : 1,45 Гбайт
Продолжительность : 1 ч. 34 м.
Общий поток : 2199 Кбит/сек
Название фильма : Ледниковый период: Столкновение неизбежно / Ice Age: Collision Course (2016) BDRip
Режиссёр : kingsize87
Программа кодирования : VirtualDubMod 1.5.10.2 (build 2540/release)
Правообладатель : HQCLUB
Примечание : 03.11.2016
Видео
Идентификатор : 0
Формат : MPEG-4 Visual
Профиль формата : Advanced [email protected]
Параметр BVOP формата : 1
Параметр QPel формата : Нет
Параметр GMC формата : Без точки перехода
Параметр матрицы формата : Выборочная
Идентификатор кодека : XVID
Идентификатор кодека/Подсказка : XviD
Продолжительность : 1 ч. 34 м.
Битрейт : 1806 Кбит/сек
Ширина : 720 пикселей
Высота : 304 пикселя
Соотношение сторон : 2,35:1
Частота кадров : 23,976 кадра/сек
Цветовое пространство : YUV
Субдискретизация насыщенности : 4:2:0
Битовая глубина : 8 бит
Тип развёртки : Прогрессивная
Метод сжатия : С потерями
Бит/(Пиксели*Кадры) : 0.344
Размер потока : 1,19 Гбайт (82%)
Библиотека кодирования : XviD 66
Аудио
Идентификатор : 1
Формат : AC-3
Формат/Информация : Audio Coding 3
Расширение режима : CM (complete main)
Параметр Endianness формата : Big
Идентификатор кодека : 2000
Продолжительность : 1 ч. 34 м.
Вид битрейта : Постоянный
Битрейт : 384 Кбит/сек
Каналы : 6 каналов
Расположение каналов : Front: L C R, Side: L R, LFE
Частота : 48,0 КГц
Битовая глубина : 16 бит
Метод сжатия : С потерями
Размер потока : 260 Мбайт (17%)
Выравнивание : Разделение по промежуткам
Продолжительность промежутка : 42 мс. (1,00 видеокадр)
Время предзагрузки промежутка : 500 мс.
-

Omen

Post 09-Jan-2017 01:00

[Quote]

Альфа и Омега: Приключения праздничного воя / Alpha and Omega 2: A Howl-iday Adventure- Год выпуска: 2013
Страна: США
Жанр: мультфильм, боевик, комедия, приключения, семейный
Продолжительность: 00:45:07
Перевод: Профессиональный (полное дублирование) SDI Media
Субтитры: нет-Режиссер: Энтони Белл / Anthony Bell, Ричард Рич / Richard Rich
Роли озвучивали: Бен Дискин, Кейт Хиггинс, Линдсей Торранс, Лиза Уэст, Трэйси Пфау, Бил Лейдер, Мэрил Лейф, Шон Жерардо, Блэкки Роуз, Гилберт Боус
О фильме: Еще совсем недавно в волчьих стаях, живущих в канадском заповеднике, существовали суровые законы. Альфы, волчья элита, не могли вступать в брак с изгоями — так называемыми омегами. Благодаря волку-омеге Хамфри и волчице-альфе Кейт, дочери вожака, это удалось изменить: теперь никто не может указывать молодым волкам, в кого влюбляться и с кем строить семью. Кейт и Хамфри стали счастливыми родителями троих замечательных щенков — Стинки, Клодетт и Ранта — и готовятся отметить годовщину совместного проживания.
О спокойной жизни приходится забыть, когда Рант, младший щенок, таинственным образом исчезает. Теперь всей семье, как родителям, так и двум оставшимся с ними щенкам, предстоит отправиться в долгое путешествие. Их путь лежит через дикие земли, а сроки поисков ограничены: нужно успеть найти Ранта, пока снег не лег на землю и не мешает вернуться. Впереди не только детей, но и Хамфри с Кейт ждет немало важных открытий, которые во многом повлияют на их жизнь.-Релиз:
Автор: sociolog_melvas
Качество: BDRip (источник: Alukarrraaa / BD-Remux / 1080p)
Формат: AVI
Видео: 704x400 (1.76:1), 23.976 fps, XviD build 65 ~1967 kbps avg, 0.29 bit/pixel
Аудио: 48 kHz, AC3 Dolby Digital, 2/0 (L,R), ~192.00 kbps avg
Размер: 699.96 Mb (1 CD-R)
Скачать: Семпл-

Кадры из фильма

-

Mi

Формат : AVI
Формат/Информация : Audio Video Interleave
Размер файла : 700 Мбайт
Продолжительность : 45 м.
Общий поток : 2169 Кбит/сек
Название фильма : Альфа и Омега: Приключения праздничного воя / Alpha and Omega 2: A Howl-iday Adventure (2013) BDRip
Режиссёр : sociolog_melvas
Жанр : комедия, приключения
Программа кодирования : VirtualDubMod 1.5.10.2 (build 2540/release)
Правообладатель : HQCLUB
Примечание : 07.01.2017
Видео
Идентификатор : 0
Формат : MPEG-4 Visual
Профиль формата : Advanced [email protected]
Параметр BVOP формата : 1
Параметр QPel формата : Нет
Параметр GMC формата : Без точки перехода
Параметр матрицы формата : Выборочная
Идентификатор кодека : XVID
Идентификатор кодека/Подсказка : XviD
Продолжительность : 45 м.
Битрейт : 1967 Кбит/сек
Ширина : 704 пикселя
Высота : 400 пикселей
Соотношение сторон : 16:9
Частота кадров : 23,976 кадра/сек
Цветовое пространство : YUV
Субдискретизация насыщенности : 4:2:0
Битовая глубина : 8 бит
Тип развёртки : Прогрессивная
Метод сжатия : С потерями
Бит/(Пиксели*Кадры) : 0.291
Размер потока : 635 Мбайт (91%)
Библиотека кодирования : XviD 65
Аудио
Идентификатор : 1
Формат : AC-3
Формат/Информация : Audio Coding 3
Расширение режима : CM (complete main)
Параметр Endianness формата : Big
Идентификатор кодека : 2000
Продолжительность : 45 м.
Вид битрейта : Постоянный
Битрейт : 192 Кбит/сек
Каналы : 2 канала
Расположение каналов : Front: L R
Частота : 48,0 КГц
Битовая глубина : 16 бит
Метод сжатия : С потерями
Размер потока : 62,0 Мбайт (9%)
Выравнивание : Разделение по промежуткам
Продолжительность промежутка : 42 мс. (1,00 видеокадр)
Время предзагрузки промежутка : 500 мс.
-

Omen

Post 07-Jan-2017 01:00

[Quote]

Кошмар перед Рождеством / The Nightmare Before Christmas / Телевизионная версия канала ТНТ- Страна: США
Жанр: мультфильм, мюзикл
Год выпуска: 1993
Продолжительность: 01:10:31-Перевод: Профессиональный (дублированный) - Продюссерский центр ТраекТория по заказу ОАО ТНТ-Телесеть.
Cубтитры: нет-Режиссер: Генри Селик / Henry Selick
Роли дублируют: Алексей Кортнев, Гарик Сукачёв, Александр (Чача) Иванов, Николай Фоменко, Тутта Ларсен, музыканты рок-групп «Машина времени», «Агата Кристи».- -Описание: Рождество может быть спасено? Джеку Скеллингтону, королю тыкв Города Хеллоуин, стала скучна повседневная рутина с однообразными страшилками и криками, и он решил донести до каждого радость Рождества. Но его веселая миссия ставит под угрозу Санту и становится кошмаром для всех хороших мальчиков и девочек во всем мире.-Дополнительно на диске: Фильм о создании "Кошмар по-русски".-Семпл: http://sendfile.su/1296725-Тип релиза: DVDScreener
Контейнер: DVD-Video
Видео: 704x576 (4:3), 25.000 fps, MPEG-2 Video, ~4297 Kbps, 0.424 bits/pixel
Аудио: Русский, 48.0 KHz, AC3, 6 ch, 384 Kbps

DVDInfo

Title: Кошмар перед Рождеством ТНТSize: 3.40 Gb ( 3 566 006,00 KBytes ) - DVD-5Enabled regions: 1, 2, 3, 4, 5, 6, 7, 8
VTS_01 : Play Length: 01:10:31+00:00:12 Video: PAL 4:3 (704x576) VBR Audio: English, AC3, 3/2 (L,C,R,SL,SR)+LFE ch, 384 kbps, Delay 0 mSec
VTS_02 : Play Length: 00:28:46+00:01:49 Video: PAL 4:3 (720x576) VBR Audio: English (Dolby AC3, 2 ch)

MediaInfo

GeneralComplete name : \Кошмар перед Рождеством ТНТ\VIDEO_TS\VTS_01_1.VOBFormat : MPEG-PSFile size : 954 MiBDuration : 27 min 55 sOverall bit rate mode : VariableOverall bit rate : 4 776 kb/s
VideoID : 224 (0xE0)Format : MPEG VideoFormat version : Version 2Format profile : [email protected] settings, BVOP : YesFormat settings, Matrix : DefaultFormat settings, GOP : M=3, N=12Format settings, picture structure : FrameDuration : 27 min 55 sBit rate mode : VariableBit rate : 4 297 kb/sMaximum bit rate : 9 579 kb/sWidth : 704 pixelsHeight : 576 pixelsDisplay aspect ratio : 4:3Frame rate : 25.000 FPSStandard : PALColor space : YUVChroma subsampling : 4:2:0Bit depth : 8 bitsScan type : InterlacedScan order : Top Field FirstCompression mode : LossyBits/(Pixel*Frame) : 0.424Time code of first frame : 00:00:00:00Time code source : Group of pictures headerGOP, Open/Closed : ClosedStream size : 858 MiB (90%)Color primaries : BT.601 PALTransfer characteristics : BT.470 System B, BT.470 System GMatrix coefficients : BT.601
AudioID : 189 (0xBD)-128 (0x80)Format : AC-3Format/Info : Audio Coding 3Mode extension : CM (complete main)Format settings, Endianness : BigMuxing mode : DVD-VideoDuration : 27 min 54 sBit rate mode : ConstantBit rate : 384 kb/sChannel(s) : 6 channelsChannel positions : Front: L C R, Side: L R, LFESampling rate : 48.0 kHzFrame rate : 31.250 FPS (1536 spf)Bit depth : 16 bitsCompression mode : LossyStream size : 76.7 MiB (8%)
Menu

Скриншоты меню диска

 

The time now is: Today 19:58

All times are GMT + 3 Hours