Today is a free download without charge Download

Search found 500 matches

Author Message

Clavik

Post Yesterday 00:13

[Quote]

Пенниуорт / Pennyworth (2019) WEBRip [H.264] (сезон 1, серии 1-10 из 10) Кубик в Кубе- Производство: США / Warner Horizon Television
Жанр: боевик, драма, криминал
Режиссер: Роб Бэйли, Билл Иглз, Дэнни Кэннон
Актеры: Джек Бэннон, Палома Фэйт, Бен Элдридж, Джейсон Флеминг, Хэйнсли Ллойд Беннетт, Дороти Эткинсон, Эмма Коррин, Райан Флетчер, Иан Палстон-Дэвис, Ники Виккери и др.
Описание:
Альфред Пенниуорт — отставной офицер британского спецназа, который создаёт в Лондоне собственное охранное предприятие. Одним из его первых клиентов становится миллионер Томас Уэйн, отец будущего Бэтмена.

Дата мировой премьеры: 28 июля 2019
Дата премьеры в России: 30 июля 2019
Продолжительность: ~00:55:00 серия
Качество видео: WEBRip
Перевод: Двухголосый профессиональный (Кубик в Кубе)
Субтитры: русские, английские
Внимание! Присутствует ненормативная лексика.
Видео: AVC/H.264, 720x360, ~1100 Kbps
Аудио 1: AC3, 2 ch, 256 Kbps - Русский, двухголосый профессиональный
Аудио 2: AC3, 2 ch, 256 Kbps - Английский

MediaInfo:

Общее
Уникальный идентификатор : 264439179697395244579083762030419193301 (0xC6F1222AC0778ED32CB547F70F792DD5)
Полное имя : \Pennyworth.S01.KvK\Pennyworth.S01E01.KvK.mkv
Формат : Matroska
Версия формата : Version 4
Размер файла : 823 Мбайт
Продолжительность : 1 ч. 11 м.
Общий поток : 1605 Кбит/сек
Дата кодирования : UTC 2019-10-05 17:48:51
Программа кодирования : mkvmerge v37.0.0 ('Leave It') 64-bit
Библиотека кодирования : libebml v1.3.9 + libmatroska v1.5.2
Видео
Идентификатор : 1
Формат : AVC
Формат/Информация : Advanced Video Codec
Профиль формата : [url=mailto:[email protected]][email protected][/url]
Настройки формата : CABAC / 5 Ref Frames
Параметр CABAC формата : Да
Параметр RefFrames формата : 5 кадров
Идентификатор кодека : V_MPEG4/ISO/AVC
Продолжительность : 1 ч. 11 м.
Битрейт : 1100 Кбит/сек
Ширина : 720 пикселей
Высота : 360 пикселей
Соотношение сторон : 2,000
Режим частоты кадров : Постоянный
Частота кадров : 23,976 (24000/1001) кадра/сек
Цветовое пространство : YUV
Субдискретизация насыщенности : 4:2:0
Битовая глубина : 8 бит
Тип развёртки : Прогрессивная
Бит/(Пиксели*Кадры) : 0.177
Размер потока : 559 Мбайт (68%)
Библиотека кодирования : x264 core 148 r2795M aaa9aa8
Настройки программы : cabac=1 / ref=5 / deblock=1:-1:-1 / analyse=0x3:0x113 / me=umh / subme=9 / psy=1 / psy_rd=1.00:0.15 / mixed_ref=1 / me_range=16 / chroma_me=1 / trellis=2 / 8x8dct=1 / cqm=0 / deadzone=21,11 / fast_pskip=1 / chroma_qp_offset=-3 / threads=24 / lookahead_threads=2 / sliced_threads=0 / nr=0 / decimate=1 / interlaced=0 / bluray_compat=0 / constrained_intra=0 / bframes=3 / b_pyramid=2 / b_adapt=2 / b_bias=0 / direct=3 / weightb=1 / open_gop=0 / weightp=2 / keyint=250 / keyint_min=23 / scenecut=40 / intra_refresh=0 / rc_lookahead=50 / rc=abr / mbtree=1 / bitrate=1100 / ratetol=1.0 / qcomp=0.60 / qpmin=0 / qpmax=69 / qpstep=4 / ip_ratio=1.40 / aq=1:1.00
Default : Да
Forced : Нет
Аудио #1
Идентификатор : 2
Формат : AC-3
Формат/Информация : Audio Coding 3
Коммерческое название : Dolby Digital
Идентификатор кодека : A_AC3
Продолжительность : 1 ч. 11 м.
Вид битрейта : Постоянный
Битрейт : 256 Кбит/сек
Каналы : 2 канала
ChannelLayout : L R
Частота : 48,0 КГц
Частота кадров : 31,250 кадров/сек (1536 SPF)
Битовая глубина : 16 бит
Метод сжатия : С потерями
Размер потока : 131 Мбайт (16%)
Заголовок : Russian - Кубик в Кубе
Язык : Russian
ServiceKind/String : Complete Main
Default : Да
Forced : Нет
Аудио #2
Идентификатор : 3
Формат : AC-3
Формат/Информация : Audio Coding 3
Коммерческое название : Dolby Digital
Идентификатор кодека : A_AC3
Продолжительность : 1 ч. 11 м.
Вид битрейта : Постоянный
Битрейт : 256 Кбит/сек
Каналы : 2 канала
ChannelLayout : L R
Частота : 48,0 КГц
Частота кадров : 31,250 кадров/сек (1536 SPF)
Битовая глубина : 16 бит
Метод сжатия : С потерями
Размер потока : 131 Мбайт (16%)
Заголовок : Original
Язык : English
ServiceKind/String : Complete Main
Default : Нет
Forced : Нет
Текст #1
Идентификатор : 4
Формат : UTF-8
Идентификатор кодека : S_TEXT/UTF8
Идентификатор кодека/Информация : UTF-8 Plain Text
Продолжительность : 1 ч. 9 м.
Битрейт : 89 бит/сек
ElementCount : 1058
Размер потока : 45,1 Кбайт (0%)
Заголовок : Russian - Full
Язык : Russian
Default : Нет
Forced : Нет
Текст #2
Идентификатор : 5
Формат : UTF-8
Идентификатор кодека : S_TEXT/UTF8
Идентификатор кодека/Информация : UTF-8 Plain Text
Продолжительность : 1 ч. 9 м.
Битрейт : 54 бит/сек
ElementCount : 1065
Размер потока : 27,6 Кбайт (0%)
Заголовок : English - Full
Язык : English
Default : Нет
Forced : Нет
Скриншоты:
       

Clavik

Post 02-Oct-2019 23:13

[Quote]

Преступник / Преступник: Германия / Criminal: Germany (2019) WEB-DLRip
[H.264/720p-LQ] (сезон 1, серии 1-3 из 3)
- Производство: Великобритания, Франция, Германия, Испания | "Idiotlamp Productions"
Жанр: детектив, криминал
Режиссер: Джим Филд Смит, Оливер Хиршбигель
Актеры: Eva Meckbach, Сильвестр Грот, Флоренс Касумба, Кристиан Кухенбух, Джонатан Берлин, Deniz Baser, Нина Хосс, Петер Курт, Кристиан Беркель и др.
Описание:
Cериал рассказывает о серии напряжённых допросов, в которых детективы ведут сложную психологическую дуэль с подозреваемыми в совершении преступлений. Все действие происходит только в комнате для допросов, в кабинете, откуда ведется наблюдение за ходом допроса, и в коридоре полицейского участка. И пока, по признанию критиков, это самый интересный детектив 2019 года.

Дата мировой премьеры: 20 сентября 2019
Продолжительность: ~00:43:00 серия
Качество видео: WEB-DLRip
Перевод: Многоголосый профессиональный (NewStudio)
Субтитры: русские
Видео: AVC/H.264, 1280x720 (16:9), ~1330 kbps
Аудио 1: AC3, 6 ch, 448 kbps - русский
Аудио 2: EAC3, 6 ch, 448 kbps - немецкий

MediaInfo:

General
Unique ID : 108207947222814767794218661168599320517 (0x516817B32C399C046269C5FFAC10C7C5)
Complete name : E:\Кино\CRIMINAL_Antology\Criminal_Germany_s01_2019_WEBDL_720p_NewStudio\Criminal_Germany_s01_2019_WEBDL_720p_NewStudio_01.mkv
Format : Matroska
Format version : Version 4
File size : 722 MiB
Duration : 45 min 32 s
Overall bit rate mode : Variable
Overall bit rate : 2 215 kb/s
Encoded date : UTC 2019-10-01 06:50:47
Writing application : mkvmerge v37.0.0 ('Leave It') 64-bit
Writing library : libebml v1.3.9 + libmatroska v1.5.2
Video
ID : 1
Format : AVC
Format/Info : Advanced Video Codec
Format profile : [url=mailto:[email protected]][email protected][/url]
Format settings : CABAC / 3 Ref Frames
Format settings, CABAC : Yes
Format settings, ReFrames : 3 frames
Codec ID : V_MPEG4/ISO/AVC
Duration : 45 min 32 s
Bit rate mode : Variable
Bit rate : 1 330 kb/s
Maximum bit rate : 1 995 kb/s
Width : 1 280 pixels
Height : 720 pixels
Display aspect ratio : 16:9
Frame rate mode : Constant
Frame rate : 25.000 FPS
Color space : YUV
Chroma subsampling : 4:2:0
Bit depth : 8 bits
Scan type : Progressive
Bits/(Pixel*Frame) : 0.058
Stream size : 429 MiB (59%)
Writing library : x264 core 148 r2715 7e75228
Encoding settings : cabac=1 / ref=3 / deblock=1:0:0 / analyse=0x1:0x111 / me=umh / subme=10 / psy=1 / psy_rd=1.00:0.00 / mixed_ref=1 / me_range=24 / chroma_me=1 / trellis=2 / 8x8dct=0 / cqm=0 / deadzone=21,11 / fast_pskip=1 / chroma_qp_offset=-2 / threads=8 / lookahead_threads=1 / sliced_threads=0 / nr=0 / decimate=1 / interlaced=0 / bluray_compat=0 / stitchable=1 / constrained_intra=0 / bframes=2 / b_pyramid=0 / b_adapt=2 / b_bias=0 / direct=3 / weightb=1 / open_gop=0 / weightp=2 / keyint=250 / keyint_min=25 / scenecut=0 / intra_refresh=0 / rc_lookahead=50 / rc=2pass / mbtree=1 / bitrate=1330 / ratetol=1.0 / qcomp=0.50 / qpmin=6 / qpmax=51 / qpstep=4 / cplxblur=20.0 / qblur=0.5 / vbv_maxrate=1995 / vbv_bufsize=2660 / nal_hrd=vbr / filler=0 / ip_ratio=1.40 / aq=1:1.00
Language : English
Default : Yes
Forced : No
Audio #1
ID : 2
Format : AC-3
Format/Info : Audio Coding 3
Commercial name : Dolby Digital
Codec ID : A_AC3
Duration : 45 min 32 s
Bit rate mode : Constant
Bit rate : 448 kb/s
Channel(s) : 6 channels
Channel layout : L R C LFE Ls Rs
Sampling rate : 48.0 kHz
Frame rate : 31.250 FPS (1536 SPF)
Bit depth : 16 bits
Compression mode : Lossy
Stream size : 146 MiB (20%)
Language : Russian
Service kind : Complete Main
Default : Yes
Forced : No
Audio #2
ID : 3
Format : E-AC-3 JOC
Format/Info : Enhanced AC-3 with Joint Object Coding
Commercial name : Dolby Digital Plus with Dolby Atmos
Codec ID : A_EAC3
Duration : 45 min 32 s
Bit rate mode : Constant
Bit rate : 448 kb/s
Channel(s) : 6 channels
Channel layout : L R C LFE Ls Rs
Sampling rate : 48.0 kHz
Frame rate : 31.250 FPS (1536 SPF)
Compression mode : Lossy
Stream size : 146 MiB (20%)
Title : German
Language : German
Service kind : Complete Main
Default : No
Forced : No
Complexity index : 16
Number of dynamic objects : 15
Bed channel count : 1 channel
Bed channel configuration : LFE
Text
ID : 4
Format : ASS
Codec ID : S_TEXT/ASS
Codec ID/Info : Advanced Sub Station Alpha
Duration : 4 s 960 ms
Bit rate : 146 b/s
Count of elements : 1
Compression mode : Lossless
Stream size : 91.0 Bytes (0%)
Language : Russian
Default : Yes
Forced : Yes
Скриншоты:
       

Clavik

Post 27-Sep-2019 17:41

[Quote]

Марианна / Marianne (2019) WEBRip [H.264/1080p-LQ] (сезон 1, серии 1-8 из 8) HDRezka Studio - Производство: Франция / Empreinte Digitale, Federation Entertainment
Жанр: ужасы
Режиссер: Сэмюэл Бодин
Актеры: Виктуар Дю Буа, Люси Бужена, Тифен Давьо, Ральф Амуссу, Белламин Абдельмалек, Мехди Мескар, Альбан Ленуар, Миреилле Хербстмейер, Коринн Валанкон, Патрик д’Асумсао и др.
Описание:
С детства Лиззи страдала от видений, в которых ей являлась ведьма Марианна, но страхи удалось побороть, перенеся на страницы романов. Однако старые кошмары оживают, когда Лиззи возвращается в родной город.

Дата мировой премьеры: 13 сентября 2019
Релиз от: OLEG270877
Продолжительность: ~00:50:00 серия
Качество видео: WEBRip
Перевод: Многоголосый профессиональный - HDRezka Studio
Видео: AVC/H.264, 1920x1080, ~4890 Kbps
Аудио: AC3, 2 ch, 384 Kbps - русский

MediaInfo:

Общее
Уникальный идентификатор : 180472099889140652364390496338209456550 (0x87C5A9815EF69010E39EC67B3AC0C1A6)
Полное имя : Marianne.S01Е01.1080p.WEBRip.HDRezka.mkv
Формат : Matroska
Версия формата : Version 4
Размер файла : 2,00 Гбайт
Продолжительность : 54 м. 23 с.
Общий поток : 5273 Кбит/сек
Дата кодирования : UTC 2019-09-23 14:49:10
Программа кодирования : mkvmerge v37.0.0 ('Leave It') 64-bit
Библиотека кодирования : libebml v1.3.9 + libmatroska v1.5.2
Видео
Идентификатор : 1
Формат : AVC
Формат/Информация : Advanced Video Codec
Профиль формата : [url=mailto:[email protected]][email protected][/url]
Настройки формата : CABAC / 4 Ref Frames
Параметр CABAC формата : Да
Параметр RefFrames формата : 4 кадра
Идентификатор кодека : V_MPEG4/ISO/AVC
Продолжительность : 54 м. 23 с.
Битрейт : 4887 Кбит/сек
Ширина : 1920 пикселей
Высота : 1080 пикселей
Соотношение сторон : 16:9
Режим частоты кадров : Постоянный
Частота кадров : 25,000 кадров/сек
Цветовое пространство : YUV
Субдискретизация насыщенности : 4:2:0
Битовая глубина : 8 бит
Тип развёртки : Прогрессивная
Бит/(Пиксели*Кадры) : 0.094
Размер потока : 1,86 Гбайт (93%)
Default : Да
Forced : Нет
Аудио
Идентификатор : 2
Формат : AC-3
Формат/Информация : Audio Coding 3
Коммерческое название : Dolby Digital
Идентификатор кодека : A_AC3
Продолжительность : 54 м. 23 с.
Вид битрейта : Постоянный
Битрейт : 384 Кбит/сек
Каналы : 2 канала
ChannelLayout : L R
Частота : 48,0 КГц
Частота кадров : 31,250 кадров/сек (1536 SPF)
Метод сжатия : С потерями
Размер потока : 149 Мбайт (7%)
Default : Да
Forced : Нет
Скриншоты:
       

Clavik

Post 27-Sep-2019 17:33

[Quote]

Рассказ служанки / The Handmaid's Tale (2019) WEBRip [H.264/1080p-LQ] (сезон 3, серия 1-13 из 13) [AD] - Производство: США, MGM Television
Жанр: Фантастика, триллер, драма
Режиссер: Майк Баркер, Кари Скогланд, Рид Морано
Актеры: Элизабет Мосс, Джозеф Файнс, Самира Уайли, Ивонн Страховски, Макс Мингелла, Энн Дауд, Джордана Блейк, Алексис Бледел, О. Т. Фагбенли, Аманда Бругел
Описание:
Действие разворачивается в республике Гилеад, где у власти стоят военные. В стране жестокие порядки и нравы, уважением в обществе пользуются только офицеры и их жены. Но по никому неизвестным причинам у жен офицеров не рождаются дети. Чтобы продолжить офицерский род, офицеры и их жены выбирают из числа простых девушек ту, которая будет вынашивать их будущего ребенка. Молодые девушки, носители офицерских отпрысков, живут в специальных охраняемых помещениях, больше всего напоминающих тюрьму, и знают, что сразу после родов им придется расстаться со своими детьми.

Возраст: 18+ (зрителям, достигшим 18 лет)
Релиз от: JimmyJ
Продолжительность: ~01:00:00 серия
Качество видео: WEBRip 1080p
Перевод: Двуголосый любительский (JimmyJ)
Субтитры: Отсутствуют
Реклама: присутствуют видео, аудио, текстовые вставки рекламы
Видео: AVC/H.264, 1920х960, ~6000 Kbps
Аудио: AC3, 2 ch, 384 Kbps

Mediainfo:

General
Unique ID : 114336562070457718582555285599245192234 (0x56046BBDAD187C60C98F0610C6FE4C2A)
Complete name : E:\Torrent\JimmyJ\The.Handmaid's.Tale.S03.1080p.WEBRip.JimmyJ\The.Handmaid's.Tale.S03E01.1080p.WEBRip.JimmyJ.mkv
Format : Matroska
Format version : Version 4
File size : 2.24 GiB
Duration : 51 min 1 s
Overall bit rate : 6 288 kb/s
Encoded date : UTC 2019-06-11 17:13:58
Writing application : mkvmerge v34.0.0 ('Sight and Seen') 64-bit
Writing library : libebml v1.3.7 + libmatroska v1.5.0
Video
ID : 1
Format : AVC
Format/Info : Advanced Video Codec
Format profile : [email protected]
Format settings : CABAC / 4 Ref Frames
Format settings, CABAC : Yes
Format settings, Reference : 4 frames
Codec ID : V_MPEG4/ISO/AVC
Duration : 51 min 1 s
Bit rate : 6 030 kb/s
Width : 1 920 pixels
Height : 960 pixels
Display aspect ratio : 2.000
Frame rate mode : Constant
Frame rate : 23.976 (24000/1001) FPS
Color space : YUV
Chroma subsampling : 4:2:0
Bit depth : 8 bits
Scan type : Progressive
Bits/(Pixel*Frame) : 0.136
Stream size : 2.15 GiB (96%)
Language : English
Default : Yes
Forced : No
Color range : Limited
Color primaries : BT.709
Transfer characteristics : BT.709
Matrix coefficients : BT.709
Audio
ID : 2
Format : AC-3
Format/Info : Audio Coding 3
Commercial name : Dolby Digital
Codec ID : A_AC3
Duration : 51 min 1 s
Bit rate mode : Constant
Bit rate : 256 kb/s
Channel(s) : 2 channels
Channel layout : L R
Sampling rate : 48.0 kHz
Frame rate : 31.250 FPS (1536 SPF)
Bit depth : 16 bits
Compression mode : Lossy
Stream size : 93.4 MiB (4%)
Title : DVO JimmyJ
Language : Russian
Service kind : Complete Main
Default : No
Forced : No
Скриншоты:
       

Clavik

Post 27-Sep-2019 17:32

[Quote]

Рассказ служанки / The Handmaid's Tale (2019) WEBRip [H.264/720p-LQ] (сезон 3, серия 1-13 из 13) [PR, AD] - Производство: США, MGM Television
Жанр: Фантастика, триллер, драма
Режиссер: Майк Баркер, Кари Скогланд, Рид Морано
Актеры: Элизабет Мосс, Джозеф Файнс, Самира Уайли, Ивонн Страховски, Макс Мингелла, Энн Дауд, Джордана Блейк, Алексис Бледел, О. Т. Фагбенли, Аманда Бругел
Описание:
Действие разворачивается в республике Гилеад, где у власти стоят военные. В стране жестокие порядки и нравы, уважением в обществе пользуются только офицеры и их жены. Но по никому неизвестным причинам у жен офицеров не рождаются дети. Чтобы продолжить офицерский род, офицеры и их жены выбирают из числа простых девушек ту, которая будет вынашивать их будущего ребенка. Молодые девушки, носители офицерских отпрысков, живут в специальных охраняемых помещениях, больше всего напоминающих тюрьму, и знают, что сразу после родов им придется расстаться со своими детьми.

Возраст: 18+ (зрителям, достигшим 18 лет)
Релиз от: JimmyJ
Продолжительность: ~01:00:00 серия
Качество видео: WEBRip 720p
Перевод: Двуголосый любительский (JimmyJ)
Субтитры: Отсутствуют
Реклама: присутствуют видео, аудио, текстовые вставки рекламы
Видео: AVC/H.264, 1280х640, ~3100 Kbps
Аудио: AC3, 2 ch, 256 Kbps

Mediainfo:

General
Unique ID : 154733714298808619758315325563491532129 (0x7468A11EE125B0F2D70F67D38F7B3D61)
Complete name : E:\Torrent\JimmyJ\The.Handmaid's.Tale.S03.720p.WEBRip.JimmyJ\The.Handmaid's.Tale.S03E01.720p.WEBRip.JimmyJ.mkv
Format : Matroska
Format version : Version 4
File size : 1.20 GiB
Duration : 51 min 1 s
Overall bit rate : 3 359 kb/s
Writing application : XviD4PSP 8.0.62
Writing library : Lavf58.20.100
ErrorDetectionType : Per level 1
ENCODING_INFO : MATROSKA,WEBM > MKV 720p
Video
ID : 1
Format : AVC
Format/Info : Advanced Video Codec
Format profile : [url=mailto:[email protected]][email protected][/url]
Format settings : 1 Ref Frames
Format settings, CABAC : No
Format settings, Reference : 1 frame
Codec ID : V_MPEG4/ISO/AVC
Duration : 51 min 1 s
Bit rate : 3 100 kb/s
Width : 1 280 pixels
Height : 640 pixels
Display aspect ratio : 2.000
Frame rate mode : Constant
Frame rate : 23.976 (24000/1001) FPS
Color space : YUV
Chroma subsampling : 4:2:0
Bit depth : 8 bits
Scan type : Progressive
Bits/(Pixel*Frame) : 0.158
Stream size : 1.08 GiB (90%)
Writing library : x264 core 157 r2969 d4099dd
Encoding settings : cabac=0 / ref=1 / deblock=0:-6:-6 / analyse=0x1:0 / me=dia / subme=0 / psy=1 / psy_rd=1.00:0.00 / mixed_ref=0 / me_range=8 / chroma_me=1 / trellis=0 / 8x8dct=0 / cqm=0 / deadzone=21,11 / fast_pskip=1 / chroma_qp_offset=0 / threads=7 / lookahead_threads=1 / sliced_threads=0 / nr=0 / decimate=1 / interlaced=0 / bluray_compat=0 / constrained_intra=0 / bframes=0 / weightp=0 / keyint=240 / keyint_min=24 / scenecut=0 / intra_refresh=0 / rc=2pass / mbtree=0 / bitrate=3100 / ratetol=1.0 / qcomp=0.60 / qpmin=0 / qpmax=69 / qpstep=4 / cplxblur=20.0 / qblur=0.5 / ip_ratio=1.40 / aq=0
Language : English
Default : Yes
Forced : No
Color range : Limited
Color primaries : BT.709
Transfer characteristics : BT.709
Matrix coefficients : BT.709
ENCODING_INFO : H264 > X264 VBR-2P 3100kbps Ultra Fast
Audio
ID : 2
Format : AC-3
Format/Info : Audio Coding 3
Commercial name : Dolby Digital
Codec ID : A_AC3
Duration : 51 min 1 s
Bit rate mode : Constant
Bit rate : 256 kb/s
Channel(s) : 2 channels
Channel layout : L R
Sampling rate : 48.0 kHz
Frame rate : 31.250 FPS (1536 SPF)
Bit depth : 16 bits
Compression mode : Lossy
Stream size : 93.4 MiB (8%)
Title : DVO JimmyJ
Language : Russian
Service kind : Complete Main
Default : Yes
Forced : No
ENCODING_INFO : AC3 > AC3 CBR 256kbps
Скриншоты:
       

itvdnh

Post 24-Sep-2019 11:54

[Quote]

subscription

Орлов Владимир

Post 23-Sep-2019 18:43

[Quote]

Информация о фильме
Название: Тьма
Оригинальное название: Dark
Год выпуска: 2017-2019
Жанр: триллер, драма, [криминал, детектив, фантастика
Режиссер: Баран бо Одар--В ролях: Оливер Мазуччи, Каролина Эйхгорн (Charlotte Doppler), Йордис Трибель, Луис Хофманн, Майя Шёне, Штефан Кампвирт (Peter Doppler), Daan Lennard Liebrenz (Mikkel Nielsen), Андреас Пичман, Дебора Кауфман (Regina Tiedemann), Татя Зайбт (Jana Nielsen), Лиза Викари (Martha Nielsen), Paul Lux (Bartosz Tiedemann)--О фильме: История четырёх семей, живущих спокойной и размеренной жизнью в маленьком немецком городке. Видимая идиллия рушится, когда бесследно исчезают двое детей и воскресают тёмные тайны прошлого. Все силы местного департамента полиции и горожан брошены на поиски пропавших детей. Все повторяется, как и 33 года назад. Что-то не так в городе. Эта местность, словно больна и одержима мистикой. А самое страшное, что убийца, возможно, ходит среди обитателей деревушки.-- --Страна: Германия, США
Студия: Wiedemann & Berg Television
Продолжительность: 18 x ~00:52:00 серия
Перевод: Профессиональный многоголосый TVShows--Файл
Качество: WEBRip
Видео: XviD, 1500 Кбит/с, 704x352
Аудио: Русский (AC3, 6 ch, 384 Кбит/с)--***Примечание: Без рекламы--

Скриншоты

       

Орлов Владимир

Post 22-Sep-2019 19:34

[Quote]

-Тьма / Dark /2 сезон / 1-8 серия из 8 (Баран бо Одар) [2019, Триллер, драма, криминал, детектив, WEBRip 1080p] [MVO] [TVShows]-- Информация о фильме
Название: Тьма
Оригинальное название: Dark
Год выпуска: 2019
Жанр: Триллер, драма, криминал, детектив
Режиссер: Баран бо Одар--В ролях: Оливер Мазуччи, Каролина Эйхгорн (Charlotte Doppler), Йордис Трибель, Луис Хофманн, Майя Шёне, Штефан Кампвирт (Peter Doppler), Daan Lennard Liebrenz (Mikkel Nielsen), Андреас Пичман, Дебора Кауфман (Regina Tiedemann), Татя Зайбт (Jana Nielsen), Лиза Викари (Martha Nielsen), Paul Lux (Bartosz Tiedemann)--О фильме: История четырёх семей, живущих спокойной и размеренной жизнью в маленьком немецком городке. Видимая идиллия рушится, когда бесследно исчезают двое детей и воскресают тёмные тайны прошлого. Все силы местного департамента полиции и горожан брошены на поиски пропавших детей. Все повторяется, как и 33 года назад. Что-то не так в городе. Эта местность, словно больна и одержима мистикой. А самое страшное, что убийца, возможно, ходит среди обитателей деревушки.-- --Страна: Германия, США
Студия: Wiedemann & Berg Television
Продолжительность: 8 x ~ 00:55:00 серия
Перевод: Профессиональный многоголосый TVShows--Файл
Качество: WEBRip (1080p)
Видео: MPEG-4 AVC, ~ 9400 Кбит/с, 1920х960
Аудио: Русский (AC3, 6 ch, 384 Кбит/с), немецкий (E-AC3 Atmos, 6 ch, 448 Кбит/с)
Субтитры: Русские (Full | Нотабеноид | Force на надписи NewStudio), английские, немецкие--***Примечание: Без рекламы--

Скриншоты

           

Clavik

Post 22-Sep-2019 09:56

[Quote]

Тьма / Dark (2017) WEBRip [H.264/1080p-LQ] (сезон 1, серии 1-10 из 10) NewStudio - Производство: Германия, США / Wiedemann & Berg Television
Жанр: триллер, драма, криминал, детектив
Режиссер: Баран бо Одар
Актеры: Оливер Мазуччи, Каролина Эйхгорн, Йордис Трибель, Луис Хофманн, Майя Шёне, Штефан Кампвирт, Андреас Пичман, Дебора Кауфман, Татя Зайбт и др.
Описание:
История четырёх семей, живущих спокойной и размеренной жизнью в маленьком немецком городке. Видимая идиллия рушится, когда бесследно исчезают двое детей и воскресают тёмные тайны прошлого. Все силы местного департамента полиции и горожан брошены на поиски пропавших детей. Все повторяется, как и 33 года назад. Что-то не так в городе. Эта местность, словно больна и одержима мистикой. А самое страшное, что убийца, возможно, ходит среди обитателей деревушки.

Дата мировой премьеры: 9 сентября 2017
Продолжительность: ~00:50:00 серия
Качество видео: WEBRip
Перевод: Многоголосый закадровый, профессиональный - NewStudio (ненормативная лексика)
Субтитры: русские (форсированные, на надписи)
Внимание! Присутствует ненормативная лексика.
Видео: AVC/H.264, 1920x1080 (16:9), ~4420 kbps
Аудио #1: AC3, 6 ch, 384 kbps - русский, многоголосый закадровый
Аудио #2: E-AC3, 6 ch, 448 kbps - немецкий

Mediainfo:

Общее
Уникальный идентификатор : 234438333141561453181348571360640645258 (0xB05F2E3B357B925E9CA863B165B0388A)
Полное имя : Тьма (сезон 1) Dark (2017) WEB-DL -NewStudio\Dark.s01e01.WEBDL.1080p.NewStudio.Wanterlude.mkv
Формат : Matroska
Версия формата : Version 4 / Version 2
Размер файла : 1,88 Гбайт
Продолжительность : 51 м. 30 с.
Режим общего битрейта : Переменный
Общий поток : 5228 Кбит/сек
Название фильма : Dark | Ep 01 | NewStudio
Дата кодирования : UTC 2017-12-03 20:52:46
Программа кодирования : mkvmerge v17.0.0 ('Be Ur Friend') 64-bit
Библиотека кодирования : libebml v1.3.5 + libmatroska v1.4.8
Видео
Идентификатор : 1
Формат : AVC
Формат/Информация : Advanced Video Codec
Профиль формата : [email protected]
Параметр CABAC формата : Да
Параметр ReFrames формата : 3 кадра
Идентификатор кодека : V_MPEG4/ISO/AVC
Продолжительность : 51 м. 30 с.
Вид битрейта : Переменный
Битрейт : 4420 Кбит/сек
Максимальный битрейт : 6630 Кбит/сек
Ширина : 1920 пикселей
Высота : 1080 пикселей
Соотношение сторон : 16:9
Режим частоты кадров : Постоянный
Частота кадров : 24,000 кадра/сек
Цветовое пространство : YUV
Субдискретизация насыщенности : 4:2:0
Битовая глубина : 8 бит
Тип развёртки : Прогрессивная
Бит/(Пиксели*Кадры) : 0.089
Размер потока : 1,58 Гбайт (84%)
Заголовок : Dark | Ep 01 | NewStudio
Библиотека кодирования : x264 core 148
Настройки программы : cabac=1 / ref=3 / deblock=1:0:0 / analyse=0x1:0x111 / me=umh / subme=10 / psy=1 / psy_rd=1.00:0.00 / mixed_ref=1 / me_range=24 / chroma_me=1 / trellis=2 / 8x8dct=0 / cqm=0 / deadzone=21,11 / fast_pskip=1 / chroma_qp_offset=-2 / threads=8 / lookahead_threads=1 / sliced_threads=0 / nr=0 / decimate=1 / interlaced=0 / bluray_compat=0 / stitchable=1 / constrained_intra=0 / bframes=2 / b_pyramid=0 / b_adapt=2 / b_bias=0 / direct=3 / weightb=1 / open_gop=0 / weightp=2 / keyint=48 / keyint_min=25 / scenecut=0 / intra_refresh=0 / rc_lookahead=48 / rc=2pass / mbtree=1 / bitrate=4420 / ratetol=1.0 / qcomp=0.50 / qpmin=6 / qpmax=51 / qpstep=4 / cplxblur=20.0 / qblur=0.5 / vbv_maxrate=6630 / vbv_bufsize=8840 / nal_hrd=vbr / filler=0 / ip_ratio=1.40 / aq=1:1.00
Default : Да
Forced : Нет
Аудио #1
Идентификатор : 2
Формат : AC-3
Формат/Информация : Audio Coding 3
Расширение режима : CM (complete main)
Параметр Endianness формата : Big
Идентификатор кодека : A_AC3
Продолжительность : 51 м. 16 с.
Вид битрейта : Постоянный
Битрейт : 384 Кбит/сек
Каналы : 6 каналов
Расположение каналов : Front: L C R, Side: L R, LFE
Частота : 48,0 КГц
Частота кадров : 31,250 кадров/сек (1536 spf)
Битовая глубина : 16 бит
Метод сжатия : С потерями
Размер потока : 141 Мбайт (7%)
Заголовок : NewStudio | Wanterlude
Язык : Russian
Default : Да
Forced : Нет
Аудио #2
Идентификатор : 3
Формат : E-AC-3
Формат/Информация : Enhanced Audio Coding 3
Параметр Endianness формата : Big
Идентификатор кодека : A_EAC3
Продолжительность : 51 м. 16 с.
Вид битрейта : Постоянный
Битрейт : 448 Кбит/сек
Каналы : 6 каналов
Расположение каналов : Front: L C R, Side: L R, LFE
Частота : 48,0 КГц
Частота кадров : 187,500 кадров/сек (256 spf)
Метод сжатия : С потерями
Размер потока : 164 Мбайт (9%)
Язык : German
Default : Нет
Forced : Нет
Текст
Идентификатор : 4
Формат : ASS
Идентификатор кодека : S_TEXT/ASS
Идентификатор кодека/Информация : Advanced Sub Station Alpha
Продолжительность : 2 с. 260 мс.
Битрейт : 244 бит/сек
Count of elements : 1
Метод сжатия : Без потерь
Размер потока : 69,0 байт (0%)
Заголовок : Forced
Язык : Russian
Default : Да
Forced : Да

Список серий:

1. Секреты
2. Ложь
3. Прошлое и настоящее
4. Двойные жизни
5. Правда
6. Так был создан мир
7. Перекрёстки
8. Что посеял, то и пожнешь
9. Всё сейчас
10. Альфа и омега

Подготовка релиза:

Автор перевода: Юля Мейер, Александра Иванова, Елена Прокопенко
Редактор: Александра Цернант
Постер: Vortex
Скриншоты:
       

Clavik

Post 18-Sep-2019 17:15

[Quote]

Марианна / Marianne (2019) WEB-DL [H.264/1080p-LQ] (сезон 1, серии 1-8 из 8) IdeaFilm - Производство: Франция / Empreinte Digitale, Federation Entertainment
Жанр: ужасы
Режиссер: Сэмюэл Бодин
Актеры: Виктуар Дю Буа, Люси Бужена, Тифен Давьо, Ральф Амуссу, Белламин Абдельмалек, Мехди Мескар, Альбан Ленуар, Миреилле Хербстмейер, Коринн Валанкон, Патрик д’Асумсао и др.
Описание:
С детства Лиззи страдала от видений, в которых ей являлась ведьма Марианна, но страхи удалось побороть, перенеся на страницы романов. Однако старые кошмары оживают, когда Лиззи возвращается в родной город.

Дата мировой премьеры: 13 сентября 2019
Продолжительность: ~00:50:00 серия
Качество видео: WEB-DL
Перевод: Двуголосый профессиональный (IdeaFilm)
Субтитры: русские, английские, французские
Видео: AVC/H.264, 1920x1080 (16:9), ~4020 kbps
Аудио 1: AC3, 6 ch, 384 kbps - русский
Аудио 2: E-AC3, 6 ch, 640 kbps - французский

MediaInfo:

General
Unique ID : 211267370448154870583347264158525234290 (0x9EF09D9186BC29ABA03BF835AE9B1C72)
Complete name : J:\Marianne.S01.1080p.WEB-DL\Marianne.S01E01.1080p.WEB-DL.mkv
Format : Matroska
Format version : Version 4 / Version 2
File size : 1.81 GiB
Duration : 52 min 14 s
Overall bit rate mode : Variable
Overall bit rate : 4 972 kb/s
Encoded date : UTC 2019-09-14 22:36:27
Writing application : mkvmerge v6.1.0 ('Old Devil') built on Mar 2 2013 14:32:37
Writing library : libebml v1.3.0 + libmatroska v1.4.0
Video
ID : 1
Format : AVC
Format/Info : Advanced Video Codec
Format profile : [email protected]
Format settings : CABAC / 3 Ref Frames
Format settings, CABAC : Yes
Format settings, ReFrames : 3 frames
Codec ID : V_MPEG4/ISO/AVC
Duration : 52 min 14 s
Bit rate mode : Variable
Bit rate : 4 020 kb/s
Maximum bit rate : 6 030 kb/s
Width : 1 920 pixels
Height : 1 080 pixels
Display aspect ratio : 16:9
Frame rate mode : Constant
Frame rate : 25.000 FPS
Color space : YUV
Chroma subsampling : 4:2:0
Bit depth : 8 bits
Scan type : Progressive
Bits/(Pixel*Frame) : 0.078
Stream size : 1.40 GiB (77%)
Writing library : x264 core 148 r2715 7e75228
Encoding settings : cabac=1 / ref=3 / deblock=1:0:0 / analyse=0x1:0x111 / me=umh / subme=10 / psy=1 / psy_rd=1.00:0.00 / mixed_ref=1 / me_range=24 / chroma_me=1 / trellis=2 / 8x8dct=0 / cqm=0 / deadzone=21,11 / fast_pskip=1 / chroma_qp_offset=-2 / threads=6 / lookahead_threads=1 / sliced_threads=0 / nr=0 / decimate=1 / interlaced=0 / bluray_compat=0 / stitchable=1 / constrained_intra=0 / bframes=2 / b_pyramid=0 / b_adapt=2 / b_bias=0 / direct=3 / weightb=1 / open_gop=0 / weightp=2 / keyint=250 / keyint_min=25 / scenecut=0 / intra_refresh=0 / rc_lookahead=50 / rc=2pass / mbtree=1 / bitrate=4020 / ratetol=1.0 / qcomp=0.50 / qpmin=6 / qpmax=51 / qpstep=4 / cplxblur=20.0 / qblur=0.5 / vbv_maxrate=6030 / vbv_bufsize=8040 / nal_hrd=vbr / filler=0 / ip_ratio=1.40 / aq=1:1.00
Language : English
Default : Yes
Forced : No
Audio #1
ID : 2
Format : AC-3
Format/Info : Audio Coding 3
Codec ID : A_AC3
Duration : 52 min 14 s
Bit rate mode : Constant
Bit rate : 384 kb/s
Channel(s) : 6 channels
Channel positions : Front: L C R, Side: L R, LFE
Sampling rate : 48.0 kHz
Frame rate : 31.250 FPS (1536 SPF)
Bit depth : 16 bits
Compression mode : Lossy
Stream size : 143 MiB (8%)
Language : Russian
Service kind : Complete Main
Default : Yes
Forced : No
Audio #2
ID : 3
Format : E-AC-3
Format/Info : Enhanced Audio Coding 3
Codec ID : A_EAC3
Duration : 52 min 14 s
Bit rate mode : Constant
Bit rate : 640 kb/s
Channel(s) : 6 channels
Channel positions : Front: L C R, Side: L R, LFE
Sampling rate : 48.0 kHz
Frame rate : 187.500 FPS (256 SPF)
Compression mode : Lossy
Stream size : 239 MiB (13%)
Language : French
Service kind : Complete Main
Default : No
Forced : No
Text #1
ID : 4
Format : UTF-8
Codec ID : S_TEXT/UTF8
Codec ID/Info : UTF-8 Plain Text
Language : Russian
Default : No
Forced : No
Text #2
ID : 5
Format : UTF-8
Codec ID : S_TEXT/UTF8
Codec ID/Info : UTF-8 Plain Text
Language : English
Default : No
Forced : No
Text #3
ID : 6
Format : UTF-8
Codec ID : S_TEXT/UTF8
Codec ID/Info : UTF-8 Plain Text
Language : French
Default : No
Forced : No
Скриншоты:
       

Clavik

Post 16-Sep-2019 17:09

[Quote]

Пожарная часть 19 / Station 19 (2018) WEB-DL [H.264/1080p-LQ] (Сезон 1, серии 1-10 из 10) Кириллица - Производство: США, Shondaland, ABC Studios
Жанр: боевик, триллер, драма, мелодрама
Режиссер: Пэрис Барклай, Тесса Блейк, Николь Рубио
Актеры: Джессика Ортис, Джейсон Уинстон Джордж, Грэй Дэймон, Барретт Досс, Альберто Фрезза, Джей Хейден, Окьерете Онаодован, Даниэль Савре, Мигель Сандовал, Калеб Александр Смит
Описание:
«Пожарная часть 19» - спин-офф сериала «Анатомия страсти». Сериал повествует о непростой работе и запутанных отношениях сотрудников пожарной станции № 19 в Сиэтле. Энди Эррера - отважная и самонадеянная женщина-пожарный и дочь начальника станции, Прюитта Эрреры. Новичок Бен Уоррен - бывший анестезиолог «Мемориальной больницы Грей Слоан». Лейтенант Джек Гибсон - страстный, энергичный и совершенно бесстрашный пожарный. Райан Тэннер - офицер полиции Сиэтла, старый приятель и школьная любовь Энди. Все они ежедневно бросают вызов опасностям, спасают человеческие жизни, решают чужие проблемы и пытаются разобраться в собственных жизнях.

Возраст: 16+ (зрителям, достигшим 16 лет)
Дата мировой премьеры: 22 марта 2018
Дата премьеры в России: 24 апреля 2018
Продолжительность: 00:43;00
Качество видео: WEB-DL
Перевод: Дублированный (Кириллица)
Язык озвучки: русский, английский
Субтитры: английский (full)
Видео: AVC/H.264, 1920х1080, ~9541 Kbps
Аудио 1 : AC3, 2 ch, 256 Kbps, русский
Аудио 2 : AC3, 6 ch, 640 Kbps, английский

MediaInfo:

General
Unique ID : 137974152690325933007545120475999671811 (0x67CCDAEFD074C6CF36CD89C5F19C9603)
Complete name : E:\фильмы\Station 19 S01. Кириллица 1080p\Station.19.S01E01.Stuck.1080p.WEB-DL.DUB[Кириллица].mkv
Format : Matroska
Format version : Version 4 / Version 2
File size : 3.14 GiB
Duration : 43 min 2 s
Overall bit rate mode : Variable
Overall bit rate : 10.4 Mb/s
Movie name : Застрять
Encoded date : UTC 2018-04-29 11:37:45
Writing application : mkvmerge v22.0.0 ('At The End Of The World') 32-bit
Writing library : libebml v1.3.5 + libmatroska v1.4.8
Cover : Yes
Attachments : cover.station.19.jpg
Video
ID : 1
Format : AVC
Format/Info : Advanced Video Codec
Format profile : [email protected]
Format settings, CABAC : Yes
Format settings, ReFrames : 4 frames
Codec ID : V_MPEG4/ISO/AVC
Duration : 43 min 2 s
Bit rate mode : Variable
Bit rate : 9 541 kb/s
Maximum bit rate : 15.0 Mb/s
Width : 1 920 pixels
Height : 1 080 pixels
Display aspect ratio : 16:9
Frame rate mode : Constant
Frame rate : 23.976 (24000/1001) FPS
Color space : YUV
Chroma subsampling : 4:2:0
Bit depth : 8 bits
Scan type : Progressive
Bits/(Pixel*Frame) : 0.192
Stream size : 2.87 GiB (91%)
Default : Yes
Forced : No
Color range : Limited
Color primaries : BT.709
Transfer characteristics : BT.709
Matrix coefficients : BT.709
Audio #1
ID : 2
Format : AC-3
Format/Info : Audio Coding 3
Mode extension : CM (complete main)
Format settings, Endianness : Big
Codec ID : A_AC3
Duration : 43 min 2 s
Bit rate mode : Constant
Bit rate : 256 kb/s
Channel(s) : 2 channels
Channel positions : Front: L R
Sampling rate : 48.0 kHz
Frame rate : 31.250 FPS (1536 spf)
Compression mode : Lossy
Stream size : 78.8 MiB (2%)
Title : AC3 2.0 @ 256 kbps - DUB, Кириллица
Language : Russian
Default : Yes
Forced : No
Audio #2
ID : 3
Format : E-AC-3
Format/Info : Audio Coding 3
Format settings, Endianness : Big
Codec ID : A_EAC3
Duration : 43 min 2 s
Bit rate mode : Constant
Bit rate : 640 kb/s
Channel(s) : 6 channels
Channel positions : Front: L C R, Side: L R, LFE
Sampling rate : 48.0 kHz
Frame rate : 187.500 FPS (256 spf)
Compression mode : Lossy
Stream size : 197 MiB (6%)
Title : E-AC3 5.1 @ 640 kbps - Original
Language : English
Default : No
Forced : No
Text
ID : 4
Format : UTF-8
Codec ID : S_TEXT/UTF8
Codec ID/Info : UTF-8 Plain Text
Duration : 42 min 54 s
Bit rate : 89 b/s
Count of elements : 1125
Stream size : 28.2 KiB (0%)
Title : SDH
Language : English
Default : No
Forced : No
Скриншоты:
       

Clavik

Post 15-Sep-2019 20:27

[Quote]

Невероятное / Unbelievable (2019) WEB-DLRip [H.264/1080p-LQ] (сезон 1, серии 1-8 из 8)«Based on True Events No One Believed»- Производство: США | CBS Television Studios, Timberman-Beverly Productions
Жанр: детектив, криминал
Режиссер: Лиза Холоденко, Майкл Диннер, Сюзанна Грант
Актеры: Тони Коллетт, Мерритт Уивер, Кейтлин Девер, Ванесса Белл Кэллоуэй, Дейл Дикки, Джон Хартманн, Остин Хеберт, Лиза Лапира, Кай Леннокс, Даниэль Макдональд и др.
Описание:
Сериал повествуют о 18-ти летней Мари Адлер, которая обратилась в полицию с заявлением об изнасиловании. Полиция проводит проверку и выясняет, что нет следов взлома дома, нет следов чужого ДНК на месте преступления. Следствие не верит Мари и в итоге приходит к выводу, что девушка все выдумала, и предъявляет ей обвинение в лжесвидетельстве... Спустя два года в разных городах в штате Колорадо происходят жестокие нападения на женщин. Расследование ведут женщины — детективы Грейс Расмуссен и Карен Дюваль. Они выясняют, что их дела схожи с делом Мари... Что же на самом деле скрывается за делом об изнасиловании Мари Адлер?

Дата мировой премьеры: 13 сентября 2019
Продолжительность: ~00:55:00 серия
Качество видео: WEB-DLRip
Перевод: Дублированный (VSI Moscow)
Субтитры: Русские (Forced, Full), английские, немецкие, французские, итальянские и др.
Видео: AVC/H.264, 1920х1080 (16:9), ~6961 kbps
Аудио 1: AC3, 6 ch, 448 kbps - русский
Аудио 2: AC3, 6 ch, 640 kbps - английский

MediaInfo:

General
Unique ID : 193222695089276059515098256803476252107 (0x915D56628496436A877AF61CD503A5CB)
Complete name : D:\Unbelievable_2019_WEB-DL_1080p_VSI_Moscow\Unbelievable_2019_WEB-DL_1080p_VSI_Moscow_01.mkv
Format : Matroska
Format version : Version 2
File size : 3.38 GiB
Duration : 58 min 52 s
Overall bit rate mode : Variable
Overall bit rate : 8 213 kb/s
Encoded date : UTC 2019-09-14 13:50:43
Writing application : mkvmerge v6.9.1 ('Blue Panther') 32bit built on Apr 18 2014 18:15:44
Writing library : libebml v1.3.0 + libmatroska v1.4.1
Cover : Yes
Attachments : Cover_Unbelievable.jpg
Video
ID : 1
Format : AVC
Format/Info : Advanced Video Codec
Format profile : [email protected]
Format settings : CABAC / 4 Ref Frames
Format settings, CABAC : Yes
Format settings, ReFrames : 4 frames
Codec ID : V_MPEG4/ISO/AVC
Duration : 58 min 52 s
Bit rate mode : Variable
Bit rate : 6 961 kb/s
Maximum bit rate : 20.0 Mb/s
Width : 1 920 pixels
Height : 1 080 pixels
Display aspect ratio : 16:9
Frame rate mode : Constant
Frame rate : 23.976 (24000/1001) FPS
Color space : YUV
Chroma subsampling : 4:2:0
Bit depth : 8 bits
Scan type : Progressive
Bits/(Pixel*Frame) : 0.140
Stream size : 2.86 GiB (85%)
Writing library : x264 core 148 r2715 7e75228
Encoding settings : cabac=1 / ref=4 / deblock=1:0:0 / analyse=0x3:0x111 / me=umh / subme=10 / psy=1 / psy_rd=1.00:0.00 / mixed_ref=1 / me_range=120 / chroma_me=1 / trellis=2 / 8x8dct=1 / cqm=0 / deadzone=21,11 / fast_pskip=1 / chroma_qp_offset=-2 / threads=8 / lookahead_threads=2 / sliced_threads=0 / nr=0 / decimate=1 / interlaced=0 / bluray_compat=0 / stitchable=1 / constrained_intra=0 / bframes=16 / b_pyramid=2 / b_adapt=2 / b_bias=0 / direct=3 / weightb=1 / open_gop=0 / weightp=2 / keyint=240 / keyint_min=121 / scenecut=0 / intra_refresh=0 / rc_lookahead=240 / rc=crf / mbtree=1 / crf=16.0 / qcomp=0.50 / qpmin=6 / qpmax=51 / qpstep=4 / vbv_maxrate=20000 / vbv_bufsize=25000 / crf_max=0.0 / nal_hrd=vbr / filler=0 / ip_ratio=1.40 / aq=1:0.80
Language : English
Default : Yes
Forced : No
Audio #1
ID : 2
Format : AC-3
Format/Info : Audio Coding 3
Commercial name : Dolby Digital
Codec ID : A_AC3
Duration : 58 min 52 s
Bit rate mode : Constant
Bit rate : 448 kb/s
Channel(s) : 6 channels
Channel layout : L R C LFE Ls Rs
Sampling rate : 48.0 kHz
Frame rate : 31.250 FPS (1536 SPF)
Bit depth : 16 bits
Compression mode : Lossy
Stream size : 189 MiB (5%)
Title : Dub
Language : Russian
Service kind : Complete Main
Default : Yes
Forced : No
Audio #2
ID : 3
Format : AC-3
Format/Info : Audio Coding 3
Commercial name : Dolby Digital
Codec ID : A_AC3
Duration : 58 min 52 s
Bit rate mode : Constant
Bit rate : 640 kb/s
Channel(s) : 6 channels
Channel layout : L R C LFE Ls Rs
Sampling rate : 48.0 kHz
Frame rate : 31.250 FPS (1536 SPF)
Bit depth : 16 bits
Compression mode : Lossy
Stream size : 270 MiB (8%)
Language : English
Service kind : Complete Main
Default : No
Forced : No
Text #1
ID : 4
Format : UTF-8
Codec ID : S_TEXT/UTF8
Codec ID/Info : UTF-8 Plain Text
Title : Forced
Language : Russian
Default : Yes
Forced : Yes
Text #2
ID : 5
Format : UTF-8
Codec ID : S_TEXT/UTF8
Codec ID/Info : UTF-8 Plain Text
Language : Russian
Default : No
Forced : No
Text #3
ID : 6
Format : UTF-8
Codec ID : S_TEXT/UTF8
Codec ID/Info : UTF-8 Plain Text
Language : English
Default : No
Forced : No
Text #4
ID : 7
Format : UTF-8
Codec ID : S_TEXT/UTF8
Codec ID/Info : UTF-8 Plain Text
Language : German
Default : No
Forced : No
Text #5
ID : 8
Format : UTF-8
Codec ID : S_TEXT/UTF8
Codec ID/Info : UTF-8 Plain Text
Language : French
Default : No
Forced : No
Text #6
ID : 9
Format : UTF-8
Codec ID : S_TEXT/UTF8
Codec ID/Info : UTF-8 Plain Text
Language : Italian
Default : No
Forced : No
Text #7
ID : 10
Format : UTF-8
Codec ID : S_TEXT/UTF8
Codec ID/Info : UTF-8 Plain Text
Language : Spanish
Default : No
Forced : No
Text #8
ID : 11
Format : UTF-8
Codec ID : S_TEXT/UTF8
Codec ID/Info : UTF-8 Plain Text
Language : Dutch
Default : No
Forced : No
Text #9
ID : 12
Format : UTF-8
Codec ID : S_TEXT/UTF8
Codec ID/Info : UTF-8 Plain Text
Language : Portuguese
Default : No
Forced : No
Text #10
ID : 13
Format : UTF-8
Codec ID : S_TEXT/UTF8
Codec ID/Info : UTF-8 Plain Text
Language : Turkish
Default : No
Forced : No
Text #11
ID : 14
Format : UTF-8
Codec ID : S_TEXT/UTF8
Codec ID/Info : UTF-8 Plain Text
Language : Greek
Default : No
Forced : No

Доп. инфо. / Трейлер:

Работа со звуком: ZgurVas & Atla22
Сбор материала: Atla22--Этот сериал обещает рассказать не выдуманную историю, основанную на реальных событиях. В 2008 году 18-летняя школьница Мари Адлер заявляет, что, находясь одна дома, подверглась сексуальному насилию: неизвестный связал ей руки шнурками от ее кроссовок, пригрозил, что использует нож и убьет ее, если она будет кричать. Полиция проводит проверку и выясняет, что нет следов насильственного проникновения, нет следов взлома дома, нет следов чужого ДНК на месте преступления. Никто из соседей не видел и не слышал ничего подозрительного. Полиция ей не верит и продолжает допрашивать, хотя она уверена, что ей это не приснилось. В итоге полицейские приходят к выводу, что девушка все выдумала, и предъявляют обвинение в лжесвидетельстве. Мари соглашается на сделку, тем самым юридически признавая, что ничего не было. Однако правда, в которую не верит даже ее приемная мать, тяжелым грузом лежит на плечах Мари, и подросток задумывается о самоубийстве.
Спустя два года в разных городах в штате Колорадо происходят жестокие нападения на разных женщин. В обоих случаях расследование ведут женщины — детективы Грейс Расмуссен и Карен Дюваль. Пообщавшись, они выясняют, что их дела странным образом схожи. Просмотрев старые материалы, они находят несколько других случаев, у которых есть много общего: неизвестный проникает в дом ранним утром, когда жертва еще спит, связывает ее и насилует, но не оставляет никаких следов. Он носит черную шапку, закрывающую лицо, чтобы жертва не смогла опознать преступника. Из-за того, что преступления совершались в разных городах и штатах и все жертвы не похожи друг на друга, никто не догадывался, что по стране ездит серийный насильник. Преступник нападает лишь один раз в каждом городе, и из-за отсутствия улик и информации о других подобных изнасилованиях полиция каждого города рано или поздно закрывала дела. Детективы Расмуссен и Дюваль осознают, что было совершено, по крайней мере, восемь изнасилований, и преступник продолжает охотиться на беззащитных женщин.
Скриншоты:
       

Орлов Владимир

Post 11-Sep-2019 02:46

[Quote]

-═╬ Киллджойс ╬═-- Информация о фильме
✦ Название: Килджой / Киллджойс / Кайфоломы
✦ Оригинальное название: Killjoys
✦ Год выхода: 2019
✦ Жанр: фантастика
✦ Режиссер: Крис Грисмер, Паоло Барзмен, Энди Микита--✦ В ролях: Том Эллисон, Тамсен МакДонаф, Аарон Эшмор, Роб Стюарт, Ханна Джон-Кэймен, Люк МакФарлейн, Сара Пауэр, Нора МакЛеллан, Морган Келли, Данка Щепанович, Фрэнк Мур
--О фильме:
Сериал рассказывает о трио охотников за головами Джоне, Д’Эвинсе и Датче. Их команда промышляет охотой на преступников в далёкой галактике Квад, где вот-вот грянет классовая война. Герои поклялись друг другу, что не будут поддерживать ни одну из сторон конфликта, где бы они не оказались.
-- --✦ Страна: Канада
✦ Студия: Temple Street Productions Limited
✦ Продолжительность: 8 x ~ 00:43:00
✦ Перевод: профессиональный (многоголосый, закадровый) - LostFilm
-- --Информация о файле:
✦ Кодек: XviD | Avi
✦ Качество: WEB-DL (720p) | чистый видеоряд |
✦ Видео: ~ MPEG-4 AVC, ~ 5300 Kбит/с, 1280x720
✦ Аудио Ru: AC3, 2 ch, 384 Кбит/с
✦ Аудио En:
EAC3, 6 ch, 640 Кбит/с
✦ Субтитры: Английские

✘ Скриншоты ✘

           

✘ Раздача ведется путем добавления новых серий ✘

Когда раздача ведётся путём добавления новых серий, при каждом добавлении создётся новый торрент. Чтобы начать докачку новой серии, пользователям необходимо сделать следующее:
(1) остановить скачивание,
(2) удалить старый торрент у себя из клиента (старые серии удалять не надо),
(3) скачать новый торрент и запустить его у себя в клиенте вместо старого, при этом указать клиенту путь в старую папку, куда и должно происходить скачивание новых серий.
Ваш клиент при этом должен произвести хеширование (проверку) старой папки (если не производит сам - помогите ему сделать это), и будет докачивать только те серии, которых у вас ещё нет. Старые серии при этом не удаляются, а продолжают раздаваться!
Eсли вы уже удалили старые серии, то предотвратить повторную закачку старых серий можно, отжав галочку в соответсвующих местах при запуске нового торрента. По возможности, желательно не удалять старые серии как можно дольше, чтобы релизёр не столько продолжал раздавать старые серии, а смог сконцентрироваться на новых.

Clavik

Post 08-Sep-2019 22:48

[Quote]

Террор / The Terror (2018) WEB-DLRip - Производство: США / EMJAG Productions, Entertainment 360, Scott Free Productions
Жанр: ужасы, драма
Режиссер: Тим Милантс, Эдвард Бергер, Серджо Мимика-Геззан
Актеры: Джаред Харрис, Киран Хайндс, Тобайас Мензис, Крис Корригэн, Иэн Харт, Кристос Лоутон, Мэттью МакНалти, Адам Нагаитис, Нив Нилсен, Пол Рэди и др.
Описание:
В 1845 году экспедиция под командованием опытного полярного исследователя сэра Джона Франклина отправляется на судах «Террор» и «Эребус» к северному побережью Канады на поиск северо-западного прохода из Атлантического океана в Тихий — и бесследно исчезает. Поиски ее затянулись на несколько десятилетий, сведения о ее судьбе собирались буквально по крупицам, и до сих пор картина происшедшего пестрит белыми пятнами.

Возраст: 18+ (зрителям, достигшим 18 лет. )
Релиз от: LostFilm
Продолжительность: ~00:46:00 серия
Качество видео: WEB-DLRip
Перевод: Многоголосый закадровый, профессиональный - LostFilm
Реклама: присутствуют заставка и логотип LostFilm
Видео: AVC/H.264, 1920x1080 (16:9), ~5242 kbps
Аудио 1: AC-3, 48,0 kHz, 2 ch, 384 kbps — русский, многоголосый закадровый
Аудио 2: AC-3, 48,0 kHz, 2 ch, 384 kbps — английский

Mediainfo:

Общее
Уникальный идентификатор : 207564728790865727654361351996218859684 (0x9C27833D88DF5F38BCA7F099A858E0A4)
Полное имя : F:\Torrents\Террор.The Terror.LostFilm.1080h.Сезон 1\The.Terror.S01E01.1080p.rus.LostFilm.TV.mkv
Формат : Matroska
Версия формата : Version 4 / Version 2
Размер файла : 1,94 Гбайт
Продолжительность : 46 м. 17 с.
Общий поток : 6007 Кбит/сек
Дата кодирования : UTC 2018-03-29 15:02:36
Программа кодирования : mkvmerge v9.5.0 ('Quiet Fire') 64bit
Библиотека кодирования : libebml v1.3.4 + libmatroska v1.4.5
Видео
Идентификатор : 1
Формат : AVC
Формат/Информация : Advanced Video Codec
Профиль формата : [url=mailto:[email protected]][email protected][/url]
Настройки формата : CABAC / 4 Ref Frames
Параметр CABAC формата : Да
Параметр RefFrames формата : 4 кадра
Идентификатор кодека : V_MPEG4/ISO/AVC
Продолжительность : 46 м. 17 с.
Битрейт : 5242 Кбит/сек
Ширина : 1920 пикселей
Высота : 1080 пикселей
Соотношение сторон : 16:9
Режим частоты кадров : Постоянный
Частота кадров : 23,976 (24000/1001) кадра/сек
Частота кадров в оригинале : 23,976 (23976/1000) кадра/сек
Цветовое пространство : YUV
Субдискретизация насыщенности : 4:2:0
Битовая глубина : 8 бит
Тип развёртки : Прогрессивная
Бит/(Пиксели*Кадры) : 0.105
Размер потока : 1,69 Гбайт (87%)
Библиотека кодирования : x264 core 112 r1834 a51816a
Настройки программы : cabac=1 / ref=4 / deblock=1:-3:-2 / analyse=0x3:0x113 / me=hex / subme=7 / psy=1 / psy_rd=1.00:0.00 / mixed_ref=1 / me_range=16 / chroma_me=1 / trellis=1 / 8x8dct=1 / cqm=0 / deadzone=21,11 / fast_pskip=1 / chroma_qp_offset=-2 / threads=12 / sliced_threads=0 / nr=0 / decimate=1 / interlaced=0 / constrained_intra=0 / bframes=5 / b_pyramid=2 / b_adapt=1 / b_bias=0 / direct=1 / weightb=1 / open_gop=0 / weightp=2 / keyint=250 / keyint_min=25 / scenecut=40 / intra_refresh=0 / rc_lookahead=40 / rc=2pass / mbtree=1 / bitrate=5242 / ratetol=1.0 / qcomp=0.60 / qpmin=0 / qpmax=51 / qpstep=4 / cplxblur=20.0 / qblur=0.5 / vbv_maxrate=10000 / vbv_bufsize=256000 / ip_ratio=1.40 / aq=1:1.00 / nal_hrd=none
Default : Да
Forced : Нет
Аудио #1
Идентификатор : 2
Формат : AC-3
Формат/Информация : Audio Coding 3
Идентификатор кодека : A_AC3
Продолжительность : 46 м. 17 с.
Вид битрейта : Постоянный
Битрейт : 384 Кбит/сек
Каналы : 2 канала
Расположение каналов : Front: L R
Частота : 48,0 КГц
Частота кадров : 31,250 кадров/сек (1536 SPF)
Битовая глубина : 16 бит
Метод сжатия : С потерями
Размер потока : 127 Мбайт (6%)
ServiceKind/String : Complete Main
Default : Да
Forced : Нет
Аудио #2
Идентификатор : 3
Формат : AC-3
Формат/Информация : Audio Coding 3
Идентификатор кодека : A_AC3
Продолжительность : 46 м. 17 с.
Вид битрейта : Постоянный
Битрейт : 384 Кбит/сек
Каналы : 2 канала
Расположение каналов : Front: L R
Частота : 48,0 КГц
Частота кадров : 31,250 кадров/сек (1536 SPF)
Битовая глубина : 16 бит
Метод сжатия : С потерями
Размер потока : 127 Мбайт (6%)
ServiceKind/String : Complete Main
Default : Нет
Forced : Нет

Список серий:

1 серия: Рывок / Go for Broke
2 серия: Резня / Gore
3 серия: Лестница / The Ladder
4 серия: Наказан, как мальчишка / Punished, as a Boy
5 серия: Не промажьте, ребята / First Shot a Winner, Lads
6 серия: Милосердие / A Mercy
7 серия: Страшный ужин / Horrible from Supper
8 серия: Лагерь «Террора» пуст / Terror Camp Clear
9 серия: О даль морская, о простор / The C, the C, the Open C
10 серия: Нас больше нет / We Are Gone
Скриншоты:
       

Clavik

Post 01-Sep-2019 17:55

[Quote]

Карнивал Роу / Carnival Row (2019) WEB-DL [H.264/720p-LQ] - Производство: США / Amazon Studios, Legendary Television, Stillking Films
Жанр: фэнтези, триллер, детектив
Режиссер: Джон Эмиел, Анна Ферстер, Энди Годдард
Актеры: Орландо Блум, Кара Делевинь, Карла Кроум, Арти Фрушан, Индира Варма, Вадж Али, Мейв Дермоди, Эндрю Гауэр, Дэвид Гяси, Джэми Харрис и др.
Описание:
Действие сериала разворачивается в неовикторианском мегаполисе, где укрываются мифические существа, стекаясь туда из своих разоренных войной земель.

Дата мировой премьеры: 30 августа 2019
Продолжительность: ~00:60:00 серия
Качество видео: WEB-DL
Перевод: Многоголосый закадровый, профессиональный - HDRezka Studio
Субтитры: русские, английские
Видео: AVC/H.264, 1280x720 (16:9), ~2315 Kbps
Аудио #1: AC3, 2 ch, 192 Kbps - русский, многоголосый закадровый
Аудио #2: AC3, 6 ch, 640 Kbps - английский

MediaInfo:

Общее
Уникальный идентификатор : 148668318584454816179710919081603732690 (0x6FD87A0604FE00CA5ABC5C2749F594D2)
Полное имя : G:\Carnival.Row.S01\Carnival.Row.S01E01.mkv
Формат : Matroska
Версия формата : Version 4
Размер файла : 1,33 Гбайт
Продолжительность : 1 ч. 0 м.
Общий поток : 3148 Кбит/сек
Дата кодирования : UTC 2019-08-31 15:52:05
Программа кодирования : mkvmerge v33.1.0 ('Primrose') 64-bit
Библиотека кодирования : libebml v1.3.7 + libmatroska v1.5.0
Видео
Идентификатор : 1
Формат : AVC
Формат/Информация : Advanced Video Codec
Профиль формата : [url=mailto:[email protected]][email protected][/url]
Настройки формата : CABAC / 4 Ref Frames
Параметр CABAC формата : Да
Параметр RefFrames формата : 4 кадра
Идентификатор кодека : V_MPEG4/ISO/AVC
Продолжительность : 1 ч. 0 м.
Вид битрейта : Постоянный
Битрейт : 2313 Кбит/сек
Номинальный битрейт : 6000 Кбит/сек
Ширина : 1280 пикселей
Высота : 720 пикселей
Соотношение сторон : 16:9
Режим частоты кадров : Постоянный
Частота кадров : 23,976 (24000/1001) кадра/сек
Цветовое пространство : YUV
Субдискретизация насыщенности : 4:2:0
Битовая глубина : 8 бит
Тип развёртки : Прогрессивная
Бит/(Пиксели*Кадры) : 0.105
Размер потока : 1003 Мбайт (73%)
Default : Да
Forced : Нет
Цветовой диапазон : Limited
Основные цвета : BT.709
Характеристики трансфера : BT.709
Коэффициенты матрицы : BT.709
Аудио #1
Идентификатор : 2
Формат : AC-3
Формат/Информация : Audio Coding 3
Коммерческое название : Dolby Digital
Идентификатор кодека : A_AC3
Продолжительность : 1 ч. 0 м.
Вид битрейта : Постоянный
Битрейт : 192 Кбит/сек
Каналы : 2 канала
ChannelLayout : L R
Частота : 48,0 КГц
Частота кадров : 31,250 кадров/сек (1536 SPF)
Битовая глубина : 16 бит
Метод сжатия : С потерями
Размер потока : 83,2 Мбайт (6%)
Заголовок : HDrezka Studio
Язык : Russian
ServiceKind/String : Complete Main
Default : Да
Forced : Нет
Аудио #2
Идентификатор : 3
Формат : E-AC-3
Формат/Информация : Enhanced AC-3
Коммерческое название : Dolby Digital Plus
Идентификатор кодека : A_EAC3
Продолжительность : 1 ч. 0 м.
Вид битрейта : Постоянный
Битрейт : 640 Кбит/сек
Каналы : 6 каналов
ChannelLayout : L R C LFE Ls Rs
Частота : 48,0 КГц
Частота кадров : 31,250 кадров/сек (1536 SPF)
Метод сжатия : С потерями
Размер потока : 277 Мбайт (20%)
Заголовок : Original english
Язык : English
ServiceKind/String : Complete Main
Default : Нет
Forced : Нет
Текст #1
Идентификатор : 4
Формат : UTF-8
Идентификатор кодека : S_TEXT/UTF8
Идентификатор кодека/Информация : UTF-8 Plain Text
Продолжительность : 57 м. 31 с.
Битрейт : 63 бит/сек
ElementCount : 1002
Размер потока : 26,9 Кбайт (0%)
Язык : English
Default : Нет
Forced : Нет
Текст #2
Идентификатор : 5
Формат : UTF-8
Идентификатор кодека : S_TEXT/UTF8
Идентификатор кодека/Информация : UTF-8 Plain Text
Продолжительность : 58 м. 20 с.
Битрейт : 63 бит/сек
ElementCount : 1016
Размер потока : 27,0 Кбайт (0%)
Заголовок : SDH
Язык : English
Default : Нет
Forced : Нет
Текст #3
Идентификатор : 6
Формат : UTF-8
Идентификатор кодека : S_TEXT/UTF8
Идентификатор кодека/Информация : UTF-8 Plain Text
Продолжительность : 58 м. 19 с.
Битрейт : 88 бит/сек
ElementCount : 747
Размер потока : 37,9 Кбайт (0%)
Язык : Russian
Default : Нет
Forced : Нет
Скриншоты:
       
 

The time now is: Today 15:48

All times are GMT + 3 Hours