Today is a free download without charge Download

Search found 500 matches

Author Message

Clavik

Post 02-Sep-2019 10:17

[Quote]

Полет навигатора / Flight of the Navigator (1986) BDRip - Производство: США / Walt Disney Pictures, New Star Entertainment, Viking Films
Жанр: Фантастика, приключения, семейный
Режиссер: Рэндал Клайзер
Актеры: Джои Крамер, Пол Рубенс, Вероника Картрайт, Клифф Де Янг, Сара Джессика Паркер, Мэтт Адлер, Ховард Хессеман, Роберт Смолл, Элби Уайтакер
Описание:
Двенадцатилетний Дэвид пропадает без вести и самым таинственным образом возвращается восемь лет спустя, ничуть не повзрослевшим. Одновременно с его появлением в окрестностях обнаруживают НЛО. И не случайно! Все эти восемь лет Дэвид провёл в обществе инопланетян и из глубин вселенной принёс знания, ранее не известные человечеству. За это время Дэвид стал опытным пилотом, и на фантастическом летательном аппарате может улететь, куда только не пожелает! Навигатор отправляется в полный приключений полёт!

Возраст: 12+ (зрителям, достигшим 12 лет)
Рейтинг MPAA: PG (рекомендуется присутствие родителей)
Релиз от: k.e.n & MegaPeer
Продолжительность: 01:29:38
Качество видео: BDRip
Перевод: Дублированный, профессиональный многоголосый, aвторский, любительский одноголосый
Субтитры: русские, английские
Видео: AVC, 1280x692, 23.976 fps, 5832 kbps
Аудио #1: AC3, 48 kHz, 2 ch, 192 kbps (Русский - DUB Киностудия им. Горького)
Аудио #2: AC3, 48 kHz, 2 ch, 192 kbps (Русский - MVO СТС)
Аудио #3: AC3, 48 kHz, 2 ch, 192 kbps (Русский - AVO А.Алексеев)
Аудио #4: AC3, 48 kHz, 2 ch, 192 kbps (Русский - VO Ray)
Аудио #5: AC3, 48 kHz, 6 ch, 384 kbps (Английский)

MediaInfo:

Complete name                            : D:\ФИЛЬМЫ\Полет навигатора.1986 (Д.Крамер, П.Рубенс).k.e.n & MegaPeer.mkv
Format : Matroska
Format version : Version 2
File size : 4.37 GiB
Duration : 1 h 29 min
Overall bit rate : 6 985 kb/s
Encoded date : UTC 2019-09-02 04:57:14
Writing application : mkvmerge v5.3.0 ('I could have danced') built on Feb 9 2012 10:38:07
Writing library : libebml v1.2.3 + libmatroska v1.3.0
Cover : Yes
Attachments : cover.jpg
Video
ID : 1
Format : AVC
Format/Info : Advanced Video Codec
Format profile : [url=mailto:[email protected]][email protected][/url]
Format settings : CABAC / 9 Ref Frames
Format settings, CABAC : Yes
Format settings, ReFrames : 9 frames
Codec ID : V_MPEG4/ISO/AVC
Duration : 1 h 29 min
Bit rate : 5 832 kb/s
Width : 1 280 pixels
Height : 692 pixels
Display aspect ratio : 1.85:1
Frame rate mode : Constant
Frame rate : 23.976 (24000/1001) FPS
Color space : YUV
Chroma subsampling : 4:2:0
Bit depth : 8 bits
Scan type : Progressive
Bits/(Pixel*Frame) : 0.275
Stream size : 3.57 GiB (82%)
Writing library : x264 core 157 r2945 72db437
Encoding settings : cabac=1 / ref=9 / deblock=1:-3:-3 / analyse=0x3:0x133 / me=umh / subme=11 / psy=1 / psy_rd=1.00:0.00 / mixed_ref=1 / me_range=32 / chroma_me=1 / trellis=2 / 8x8dct=1 / cqm=0 / deadzone=21,11 / fast_pskip=0 / chroma_qp_offset=-2 / threads=12 / lookahead_threads=3 / sliced_threads=0 / nr=0 / decimate=0 / interlaced=0 / bluray_compat=0 / constrained_intra=0 / bframes=10 / b_pyramid=2 / b_adapt=2 / b_bias=0 / direct=3 / weightb=1 / open_gop=0 / weightp=2 / keyint=240 / keyint_min=23 / scenecut=40 / intra_refresh=0 / rc=2pass / mbtree=0 / bitrate=5832 / ratetol=1.0 / qcomp=0.70 / qpmin=0 / qpmax=69 / qpstep=4 / cplxblur=20.0 / qblur=0.5 / ip_ratio=1.20 / pb_ratio=1.30 / aq=3:0.80
Language : English
Default : Yes
Forced : No
Color range : Limited
Color primaries : BT.709
Transfer characteristics : BT.709
Matrix coefficients : BT.709
Audio #1
ID : 2
Format : AC-3
Format/Info : Audio Coding 3
Commercial name : Dolby Digital
Codec ID : A_AC3
Duration : 1 h 29 min
Bit rate mode : Constant
Bit rate : 192 kb/s
Channel(s) : 2 channels
Channel layout : L R
Sampling rate : 48.0 kHz
Frame rate : 31.250 FPS (1536 SPF)
Bit depth : 16 bits
Compression mode : Lossy
Stream size : 123 MiB (3%)
Title : Дубляж | Киностудия им. Горького
Language : Russian
Service kind : Complete Main
Default : Yes
Forced : No
Audio #2
ID : 3
Format : AC-3
Format/Info : Audio Coding 3
Commercial name : Dolby Digital
Codec ID : A_AC3
Duration : 1 h 29 min
Bit rate mode : Constant
Bit rate : 192 kb/s
Channel(s) : 2 channels
Channel layout : L R
Sampling rate : 48.0 kHz
Frame rate : 31.250 FPS (1536 SPF)
Bit depth : 16 bits
Compression mode : Lossy
Stream size : 123 MiB (3%)
Title : MVO | CTC
Language : Russian
Service kind : Complete Main
Default : No
Forced : No
Audio #3
ID : 4
Format : AC-3
Format/Info : Audio Coding 3
Commercial name : Dolby Digital
Codec ID : A_AC3
Duration : 1 h 29 min
Bit rate mode : Constant
Bit rate : 192 kb/s
Channel(s) : 2 channels
Channel layout : L R
Sampling rate : 48.0 kHz
Frame rate : 31.250 FPS (1536 SPF)
Bit depth : 16 bits
Compression mode : Lossy
Stream size : 123 MiB (3%)
Title : AVO | Антон Алексеев
Language : Russian
Service kind : Complete Main
Default : No
Forced : No
Audio #4
ID : 5
Format : AC-3
Format/Info : Audio Coding 3
Commercial name : Dolby Digital
Codec ID : A_AC3
Duration : 1 h 29 min
Bit rate mode : Constant
Bit rate : 192 kb/s
Channel(s) : 2 channels
Channel layout : L R
Sampling rate : 48.0 kHz
Frame rate : 31.250 FPS (1536 SPF)
Bit depth : 16 bits
Compression mode : Lossy
Stream size : 123 MiB (3%)
Title : VO | Ray
Language : Russian
Service kind : Complete Main
Default : No
Forced : No
Audio #5
ID : 6
Format : AC-3
Format/Info : Audio Coding 3
Commercial name : Dolby Digital
Codec ID : A_AC3
Duration : 1 h 29 min
Bit rate mode : Constant
Bit rate : 384 kb/s
Channel(s) : 6 channels
Channel layout : L R C LFE Ls Rs
Sampling rate : 48.0 kHz
Frame rate : 31.250 FPS (1536 SPF)
Bit depth : 16 bits
Compression mode : Lossy
Stream size : 246 MiB (5%)
Language : English
Service kind : Complete Main
Default : No
Forced : No
Text #1
ID : 7
Format : UTF-8
Codec ID : S_TEXT/UTF8
Codec ID/Info : UTF-8 Plain Text
Language : Russian
Default : No
Forced : No
Text #2
ID : 8
Format : UTF-8
Codec ID : S_TEXT/UTF8
Codec ID/Info : UTF-8 Plain Text
Language : English
Default : No
Forced : No
Text #3
ID : 9
Format : UTF-8
Codec ID : S_TEXT/UTF8
Codec ID/Info : UTF-8 Plain Text
Title : SDH
Language : English
Default : No
Forced : No
Menu
00:00:00.000 : en:Chapter 01
00:07:48.301 : en:Chapter 02
00:15:50.908 : en:Chapter 03
00:21:44.761 : en:Chapter 04
00:30:17.482 : en:Chapter 05
00:41:16.724 : en:Chapter 06
00:50:59.765 : en:Chapter 07
01:00:57.111 : en:Chapter 08
01:06:46.711 : en:Chapter 09
01:12:30.471 : en:Chapter 10
01:17:41.031 : en:Chapter 11
01:23:07.524 : en:Chapter 12
Скриншоты:
       

Clavik

Post 29-Aug-2019 22:29

[Quote]

Расплата / Payback (1999) BDRip - Производство: США / Icon Entertainment International, Icon Productions
Жанр: боевик, триллер, драма, криминал
Режиссер: Брайан Хелгеленд
Актеры: Мэл Гибсон, Грегг Генри, Мария Белло, Дэвид Пэймер, Билл Дьюк, Дебора Кара Ангер, Джон Гловер, Уильям Дивэйн, Люси Лиу, Джек Конли
Описание:
Член преступного могущественного синдиката должен заплатить своим боссам 130 тыс. долларов. Поэтому он приглашает Портера на дело. Вместе с ним и его женой они грабят автомобиль, в котором азиаты перевозят «грязные» деньги.
Но жене Портера подлый мафиози подсовывает фотографию мужа в объятиях проститутки, и супруга всаживает в благоверного пулю за пулей. Сочтя его мертвым, они забирают деньги и уезжают. Однако Портер не умер и через пять месяцев вернулся, чтобы расплатиться — вернуть свои деньги и отомстить.

Возраст: 18+ (зрителям, достигшим 18 лет. запрещено для детей)
Рейтинг MPAA: R (лицам до 17 лет обязательно присутствие взрослого)
Релиз от: HANNIBAL
Продолжительность: 01:41:19
Качество видео: BDRip
Перевод: Дублированный, авторский одноголосый
Субтитры: Русские, английские
Видео: HEVC/H.265, 1920x812, ~13.9 Mbps
Аудио 1: AC3, 6 ch, 384 Kbps - Русский, дублированный
Аудио 2: AC3, 6 ch, 448 Kbps - Русский, AVO (Д.Пучков)
Аудио 3: AC3, 6 ch, 448 Kbps - Английский

MediaInfo:

Общее
Уникальный идентификатор : 5667519234775353013464466927961092588 (0x4438645A9958B0D60E842817CBDB1EC)
Полное имя : F:\Payback (1999) 1080p [HEVC] 10bit.mkv
Формат : Matroska
Версия формата : Version 4 / Version 2
Размер файла : 10,7 Гбайт
Продолжительность : 1 ч. 41 м.
Общий поток : 15,2 Мбит/сек
Название фильма : Payback
Описание : Porter is bad, but his neighbours are worse. Street-wise and tough, an ex-marine, he is betrayed by a one-time partner, and shot in the back by his junkie wife. He survives and returns, looking to recover his share from the robbery of an Asian crime gang. The money has passed into the hands of "the Outfit", a slick gangster organisation that runs the city. He has to make his way through a world populated by heroin dealers, prostitutes, sado-masochists, gunmen and crooked cops, a place where torture is a way of life. His only friend is a former employer, a prostitute, and her loyalty is in question, given she now works for the Outfit. He makes good early progress, but then falls into the hands of Fairfax, the crime boss.
Дата кодирования : UTC 2019-04-23 17:12:30
Программа кодирования : mkvmerge v25.0.0 ('Prog Noir') 64-bit
Библиотека кодирования : libebml v1.3.6 + libmatroska v1.4.9 / Lavf57.71.100
Attachments : poster.jpg
ACTORS : Mel Gibson, Gregg Henry, Maria Bello, David Paymer
COUNTRY : USA
DATE : 1999
DIRECTOR : Brian Helgeland
ENCODING_INFO : MATROSKA,WEBM > MKV / VC1 > X265 CRF 17.0 Пользовательский 2
GENRE : Action, Crime, Drama, Thriller
HD_VIDEO : 1
IMDB_RATING : 7.1
ITUNEXTC : mpaa|R|400|
Язык : und
MEDIA_TYPE : 9
WRITER : Donald E. Westlake (novel), Brian Helgeland (screenplay), Terry Hayes (screenplay)
Видео
Идентификатор : 1
Формат : HEVC
Формат/Информация : High Efficiency Video Coding
Профиль формата : Main [url=mailto:[email protected]][email protected][/url]@High
Идентификатор кодека : V_MPEGH/ISO/HEVC
Продолжительность : 1 ч. 41 м.
Битрейт : 13,9 Мбит/сек
Ширина : 1920 пикселей
Высота : 812 пикселей
Соотношение сторон : 2,35:1
Режим частоты кадров : Постоянный
Частота кадров : 23,976 (24000/1001) кадра/сек
Цветовое пространство : YUV
Субдискретизация насыщенности : 4:2:0
Битовая глубина : 10 бит
Бит/(Пиксели*Кадры) : 0.372
Размер потока : 9,84 Гбайт (92%)
Заголовок : 1920x1080p (2.40:1), 23.976 fps, VC-1 ~17837 kbps
Библиотека кодирования : x265 2.9+9-f74003e88622:[Windows][GCC 8.2.0][64 bit] 10bit
Настройки программы : cpuid=1111039 / frame-threads=13 / numa-pools=12 / wpp / no-pmode / no-pme / no-psnr / no-ssim / log-level=3 / input-csp=1 / input-res=1920x812 / interlace=0 / total-frames=0 / level-idc=41 / high-tier=1 / uhd-bd=0 / ref=5 / allow-non-conformance / no-repeat-headers / annexb / no-aud / no-hrd / info / hash=0 / no-temporal-layers / open-gop / min-keyint=23 / keyint=240 / gop-lookahead=0 / bframes=8 / b-adapt=2 / b-pyramid / bframe-bias=0 / rc-lookahead=60 / lookahead-slices=4 / scenecut=40 / radl=0 / no-intra-refresh / ctu=64 / min-cu-size=8 / rect / amp / max-tu-size=32 / tu-inter-depth=4 / tu-intra-depth=4 / limit-tu=0 / rdoq-level=2 / dynamic-rd=0.00 / no-ssim-rd / signhide / no-tskip / nr-intra=0 / nr-inter=0 / no-constrained-intra / no-strong-intra-smoothing / max-merge=5 / limit-refs=2 / limit-modes / me=3 / subme=7 / merange=57 / temporal-mvp / weightp / weightb / no-analyze-src-pics / deblock=-3:-3 / no-sao / no-sao-non-deblock / rd=6 / no-early-skip / rskip / no-fast-intra / no-tskip-fast / no-cu-lossless / b-intra / no-splitrd-skip / rdpenalty=0 / psy-rd=2.00 / psy-rdoq=1.00 / no-rd-refine / no-lossless / cbqpoffs=0 / crqpoffs=0 / rc=crf / crf=17.0 / qcomp=0.70 / qpstep=4 / stats-write=0 / stats-read=0 / vbv-maxrate=50000 / vbv-bufsize=50000 / vbv-init=0.9 / crf-max=0.0 / crf-min=0.0 / ipratio=1.40 / pbratio=1.30 / aq-mode=2 / aq-strength=1.00 / no-cutree / zone-count=0 / no-strict-cbr / qg-size=32 / no-rc-grain / qpmax=69 / qpmin=0 / no-const-vbv / sar=1 / overscan=0 / videoformat=5 / range=0 / colorprim=1 / transfer=1 / colormatrix=1 / chromaloc=0 / display-window=0 / max-cll=0,0 / min-luma=0 / max-luma=1023 / log2-max-poc-lsb=8 / vui-timing-info / vui-hrd-info / slices=1 / no-opt-qp-pps / no-opt-ref-list-length-pps / no-multi-pass-opt-rps / scenecut-bias=0.05 / no-opt-cu-delta-qp / aq-motion / no-hdr / no-hdr-opt / no-dhdr10-opt / no-idr-recovery-sei / analysis-reuse-level=5 / scale-factor=0 / refine-intra=0 / refine-inter=0 / refine-mv=0 / no-limit-sao / ctu-info=0 / no-lowpass-dct / refine-mv-type=0 / copy-pic=1 / max-ausize-factor=1.0 / no-dynamic-refine / no-single-sei
Язык : English
Default : Да
Forced : Нет
Цветовой диапазон : Limited
Основные цвета : BT.709
Характеристики трансфера : BT.709
Коэффициенты матрицы : BT.709
Аудио #1
Идентификатор : 2
Формат : AC-3
Формат/Информация : Audio Coding 3
Идентификатор кодека : A_AC3
Продолжительность : 1 ч. 41 м.
Вид битрейта : Постоянный
Битрейт : 384 Кбит/сек
Каналы : 6 каналов
Расположение каналов : Front: L C R, Side: L R, LFE
Частота : 48,0 КГц
Частота кадров : 31,250 кадров/сек (1536 SPF)
Битовая глубина : 16 бит
Метод сжатия : С потерями
Размер потока : 278 Мбайт (3%)
Заголовок : Дублированный («Мосфильм»)
Язык : Russian
ServiceKind/String : Complete Main
Default : Да
Forced : Нет
Аудио #2
Идентификатор : 3
Формат : AC-3
Формат/Информация : Audio Coding 3
Идентификатор кодека : A_AC3
Продолжительность : 1 ч. 41 м.
Вид битрейта : Постоянный
Битрейт : 448 Кбит/сек
Каналы : 6 каналов
Расположение каналов : Front: L C R, Side: L R, LFE
Частота : 48,0 КГц
Частота кадров : 31,250 кадров/сек (1536 SPF)
Битовая глубина : 16 бит
Метод сжатия : С потерями
Размер потока : 325 Мбайт (3%)
Заголовок : Авторский Д.Пучков
Язык : Russian
ServiceKind/String : Complete Main
Default : Нет
Forced : Нет
Аудио #3
Идентификатор : 4
Формат : AC-3
Формат/Информация : Audio Coding 3
Идентификатор кодека : A_AC3
Продолжительность : 1 ч. 41 м.
Вид битрейта : Постоянный
Битрейт : 448 Кбит/сек
Каналы : 6 каналов
Расположение каналов : Front: L C R, Side: L R, LFE
Частота : 48,0 КГц
Частота кадров : 31,250 кадров/сек (1536 SPF)
Битовая глубина : 16 бит
Метод сжатия : С потерями
Размер потока : 325 Мбайт (3%)
Заголовок : Оригинал
Язык : English
ServiceKind/String : Complete Main
Default : Нет
Forced : Нет
Текст #1
Идентификатор : 5
Формат : UTF-8
Идентификатор кодека : S_TEXT/UTF8
Идентификатор кодека/Информация : UTF-8 Plain Text
Продолжительность : 1 ч. 39 м.
Битрейт : 60 бит/сек
ElementCount : 969
Размер потока : 44,3 Кбайт (0%)
Заголовок : full
Язык : Russian
Default : Нет
Forced : Нет
Текст #2
Идентификатор : 6
Формат : UTF-8
Идентификатор кодека : S_TEXT/UTF8
Идентификатор кодека/Информация : UTF-8 Plain Text
Продолжительность : 1 ч. 36 м.
Битрейт : 39 бит/сек
ElementCount : 972
Размер потока : 27,7 Кбайт (0%)
Заголовок : full
Язык : English
Default : Нет
Forced : Нет
Меню
00:00:00.000 : :Old habits
00:07:38.124 : :You're not dead
00:12:49.060 : :Not enough
00:20:16.590 : :Arthur Stegman
00:27:41.743 : :Can't you see I'm working?
00:34:28.190 : :Rosie
00:39:57.270 : :No hard feelings
00:43:30.650 : :Mr. Carter
00:48:52.429 : :New friends
00:56:15.831 : :What good are you?
01:02:10.101 : :Nobody has this number
01:05:43.481 : :Moving up in the world
01:13:50.593 : :Bury them first
01:16:30.628 : :Happy Birthday Johnny
01:19:49.118 : :Only seventy thousand?
01:25:44.890 : :This little piggy
01:32:57.030 : :24 Fielding
01:36:09.555 : :Aiming high

Внимание. H.265/HEVC:

H.265/HEVC (High Efficiency Video Coding) - это новый стандарт кодирования видео.
- Стандарт H.265/HEVC является логическим продолжением стандарта
H.264/AVC (Advanced Video Coding), и характеризуется более эффективными
алгоритмами сжатия, а также поддержкой высокого разрешения вплоть до 8K UHD
(8192x4320). Первая версия стандарта H.265 была опубликована в начале 2013 года.
- Рипы в фомате HEVC поддерживается не всеми аппаратными проигрывателями.
- Для корректного воспроизведения может потребоваться обновление ПО.
- Владельцам несовместимого железа просьба не беспокоить,
есть альтернативные релизы.
Скриншоты:
       

Clavik

Post 20-Aug-2019 19:10

[Quote]

Франкенштейн / Frankenstein (1994) BDRip - Производство: США, Япония, Великобритания / American Zoetrope, IndieProd Company Productions, Japan Satellite Broadcasting Inc. (JBS), TriStar Pictures
Жанр: Ужасы, фантастика, драма, мелодрама
Режиссер: Кеннет Брана
Актеры: Роберт Де Ниро, Кеннет Брана, Том Халс, Хелена Бонем Картер, Эйдан Куинн, Иэн Холм, Ричард Брирс, Джон Клиз, Роберт Харди, Шери Лунги
Описание:
Капитан Роберт Уолтон, исследователь, одержимый маниакальным стремлением во что бы то ни стало достичь Северного полюса, в арктической пустыне встречает доктора Виктора Франкенштейна, преследующего таинственное человекоподобное существо.
Узнав о цели капитана, Франкенштейн рассказывает ему свою печальную и жуткую историю. Еще в юности Виктор увлекся наукой. А после смерти матери твердо решил стать ученым и победить смерть. Его одержимость привела к ужасающе трагическим последствиям и для него самого, и для всех его близких…

Возраст: 16+ (зрителям, достигшим 16 лет)
Рейтинг MPAA: R (лицам до 17 лет обязательно присутствие взрослого)
Релиз от: k.e.n & MegaPeer
Продолжительность: 02:03:10
Качество видео: BDRip
Перевод: Дублированный, профессиональный многоголосый, авторский одноголосый
Субтитры: русские, английские
Видео: AVC, 1280x694, 23.976 fps, 5000 kbps
Аудио #1: AC3, 48 kHz, 6 ch, 448 kbps - (Русский - DUB)
Аудио #2: AC3, 48 kHz, 2 ch, 192 kbps - (Русский - MVO)
Аудио #3: AC3, 48 kHz, 6 ch, 448 kbps - (Русский - AVO, А.Гаврилов)
Аудио #4: AC3, 48 kHz, 2 ch, 192 kbps - (Русский - AVO, Ю.Сербин)
Аудио #5: AC3, 48 kHz, 2 ch, 192 kbps - (Русский - AVO, С.Визгунов)
Аудио #6: AC3, 48 kHz, 6 ch, 448 kbps - (Английский - оригинал)

MediaInfo:

Полное имя                               : D:\ФИЛЬМЫ\Франкенштейн Мэри Шелли.1994 (Р.Де Ниро).mkv
Формат : Matroska
Версия формата : Version 2
Размер файла : 5,95 Гбайт
Продолжительность : 2 ч. 3 м.
Общий поток : 6920 Кбит/сек
Дата кодирования : UTC 2019-08-20 08:51:34
Программа кодирования : mkvmerge v5.3.0 ('I could have danced') built on Feb 9 2012 10:38:07
Библиотека кодирования : libebml v1.2.3 + libmatroska v1.3.0
Attachments : poster.jpg
Видео
Идентификатор : 1
Формат : AVC
Формат/Информация : Advanced Video Codec
Профиль формата : [url=mailto:[email protected]][email protected][/url]
Настройки формата : CABAC / 9 Ref Frames
Параметр CABAC формата : Да
Параметр RefFrames формата : 9 кадров
Идентификатор кодека : V_MPEG4/ISO/AVC
Продолжительность : 2 ч. 3 м.
Битрейт : 5000 Кбит/сек
Ширина : 1280 пикселей
Высота : 694 пикселя
Соотношение сторон : 1,85:1
Режим частоты кадров : Постоянный
Частота кадров : 23,976 (24000/1001) кадра/сек
Цветовое пространство : YUV
Субдискретизация насыщенности : 4:2:0
Битовая глубина : 8 бит
Тип развёртки : Прогрессивная
Бит/(Пиксели*Кадры) : 0.235
Размер потока : 4,18 Гбайт (70%)
Библиотека кодирования : x264 core 157 r2945 72db437
Настройки программы : cabac=1 / ref=9 / deblock=1:-3:-3 / analyse=0x3:0x133 / me=umh / subme=11 / psy=1 / psy_rd=1.00:0.00 / mixed_ref=1 / me_range=32 / chroma_me=1 / trellis=2 / 8x8dct=1 / cqm=0 / deadzone=21,11 / fast_pskip=0 / chroma_qp_offset=-2 / threads=12 / lookahead_threads=3 / sliced_threads=0 / nr=0 / decimate=0 / interlaced=0 / bluray_compat=0 / constrained_intra=0 / bframes=10 / b_pyramid=2 / b_adapt=2 / b_bias=0 / direct=3 / weightb=1 / open_gop=0 / weightp=2 / keyint=240 / keyint_min=23 / scenecut=40 / intra_refresh=0 / rc=2pass / mbtree=0 / bitrate=5000 / ratetol=1.0 / qcomp=0.65 / qpmin=0 / qpmax=69 / qpstep=4 / cplxblur=20.0 / qblur=0.5 / ip_ratio=1.30 / pb_ratio=1.30 / aq=3:0.90
Язык : English
Default : Да
Forced : Нет
Цветовой диапазон : Limited
Основные цвета : BT.709
Характеристики трансфера : BT.709
Коэффициенты матрицы : BT.709
Аудио #1
Идентификатор : 2
Формат : AC-3
Формат/Информация : Audio Coding 3
Коммерческое название : Dolby Digital
Идентификатор кодека : A_AC3
Продолжительность : 2 ч. 3 м.
Вид битрейта : Постоянный
Битрейт : 448 Кбит/сек
Каналы : 6 каналов
ChannelLayout : L R C LFE Ls Rs
Частота : 48,0 КГц
Частота кадров : 31,250 кадров/сек (1536 SPF)
Битовая глубина : 16 бит
Метод сжатия : С потерями
Размер потока : 395 Мбайт (6%)
Заголовок : DUB
Язык : Russian
ServiceKind/String : Complete Main
Default : Да
Forced : Нет
Аудио #2
Идентификатор : 3
Формат : AC-3
Формат/Информация : Audio Coding 3
Коммерческое название : Dolby Digital
Идентификатор кодека : A_AC3
Продолжительность : 2 ч. 3 м.
Вид битрейта : Постоянный
Битрейт : 192 Кбит/сек
Каналы : 2 канала
ChannelLayout : L R
Частота : 48,0 КГц
Частота кадров : 31,250 кадров/сек (1536 SPF)
Битовая глубина : 16 бит
Метод сжатия : С потерями
Размер потока : 169 Мбайт (3%)
Заголовок : MVO
Язык : Russian
ServiceKind/String : Complete Main
Default : Нет
Forced : Нет
Аудио #3
Идентификатор : 4
Формат : AC-3
Формат/Информация : Audio Coding 3
Коммерческое название : Dolby Digital
Идентификатор кодека : A_AC3
Продолжительность : 2 ч. 3 м.
Вид битрейта : Постоянный
Битрейт : 448 Кбит/сек
Каналы : 6 каналов
ChannelLayout : L R C LFE Ls Rs
Частота : 48,0 КГц
Частота кадров : 31,250 кадров/сек (1536 SPF)
Битовая глубина : 16 бит
Метод сжатия : С потерями
Размер потока : 395 Мбайт (6%)
Заголовок : AVO А.Гаврилов
Язык : Russian
ServiceKind/String : Complete Main
Default : Нет
Forced : Нет
Аудио #4
Идентификатор : 5
Формат : AC-3
Формат/Информация : Audio Coding 3
Коммерческое название : Dolby Digital
Идентификатор кодека : A_AC3
Продолжительность : 2 ч. 3 м.
Вид битрейта : Постоянный
Битрейт : 192 Кбит/сек
Каналы : 2 канала
ChannelLayout : L R
Частота : 48,0 КГц
Частота кадров : 31,250 кадров/сек (1536 SPF)
Битовая глубина : 16 бит
Метод сжатия : С потерями
Размер потока : 169 Мбайт (3%)
Заголовок : AVO Ю.Сербин
Язык : Russian
ServiceKind/String : Complete Main
Default : Нет
Forced : Нет
Аудио #5
Идентификатор : 6
Формат : AC-3
Формат/Информация : Audio Coding 3
Коммерческое название : Dolby Digital
Идентификатор кодека : A_AC3
Продолжительность : 2 ч. 3 м.
Вид битрейта : Постоянный
Битрейт : 192 Кбит/сек
Каналы : 2 канала
ChannelLayout : L R
Частота : 48,0 КГц
Частота кадров : 31,250 кадров/сек (1536 SPF)
Битовая глубина : 16 бит
Метод сжатия : С потерями
Размер потока : 169 Мбайт (3%)
Заголовок : AVO С.Визгунов
Язык : Russian
ServiceKind/String : Complete Main
Default : Нет
Forced : Нет
Аудио #6
Идентификатор : 7
Формат : AC-3
Формат/Информация : Audio Coding 3
Коммерческое название : Dolby Digital
Идентификатор кодека : A_AC3
Продолжительность : 2 ч. 3 м.
Вид битрейта : Постоянный
Битрейт : 448 Кбит/сек
Каналы : 6 каналов
ChannelLayout : L R C LFE Ls Rs
Частота : 48,0 КГц
Частота кадров : 31,250 кадров/сек (1536 SPF)
Битовая глубина : 16 бит
Метод сжатия : С потерями
Размер потока : 395 Мбайт (6%)
Заголовок : Original
Язык : English
ServiceKind/String : Complete Main
Default : Нет
Forced : Нет
Текст #1
Идентификатор : 8
Формат : UTF-8
Идентификатор кодека : S_TEXT/UTF8
Идентификатор кодека/Информация : UTF-8 Plain Text
Заголовок : full
Язык : English
Default : Нет
Forced : Нет
Текст #2
Идентификатор : 9
Формат : UTF-8
Идентификатор кодека : S_TEXT/UTF8
Идентификатор кодека/Информация : UTF-8 Plain Text
Заголовок : full
Язык : Russian
Default : Нет
Forced : Нет
Меню
00:00:00.000 : :Chapter 1
00:07:31.784 : :Chapter 2
00:13:46.617 : :Chapter 3
00:20:19.051 : :Chapter 4
00:30:20.360 : :Chapter 5
00:35:45.101 : :Chapter 6
00:43:30.065 : :Chapter 7
00:50:27.232 : :Chapter 8
00:56:47.529 : :Chapter 9
01:03:01.152 : :Chapter 10
01:13:12.513 : :Chapter 11
01:21:36.808 : :Chapter 12
01:30:09.821 : :Chapter 13
01:37:28.968 : :Chapter 14
01:44:06.073 : :Chapter 15
01:52:59.981 : :Chapter 16
Скриншоты:
       

Varius

Post 19-May-2019 20:30

[Quote]

Водопой №3 / Waterhole #3 (1967) WEB-DLRip [H.264] - Производство: США / Geoffrey Productions Inc.
Жанр: Комедия, Вестерн
Режиссер: Уильям А. Грэм
Продюсер: Джозеф Т. Стэк, Оуэн Крамп, Кен Уэльс
Актеры: Джеймс Коберн, Кэррол О’Коннор, Маргарет Блай, Клод Экинс, Тимоти Кэри, Брюс Дерн, Джоан Блонделл, Джеймс Уитмор, Гарри ДэвисЯ, Рой Дженсон
Описание:
Три проходимца решили облегчить армию США на ящик золота. Все прошло гладко. Потом, для безопасности, они разбежались, договорившись, что встретятся и разделят золото позднее. Один из бандитов спрятал золото в укромном месте, о котором знал он один…

Продолжительность: 01:35:51
Качество видео: WEB-DLRip
Перевод: Многоголосый закадровый, одноголосый закадровый
Субтитры: Русские, английские
Видео: AVC/H.264, 1024x432, ~2875 Kbps
Аудио 1: AC3, 2 ch, 192 Kbps, 48.0 kHz – Русский MVO, Paramount Channel
Аудио 2: AC3, 2 ch, 192 Kbps, 48.0 kHz – Русский VO, 2 Stalk
Аудио 3: AC3, 2 ch, 192 Kbps, 48.0 kHz – Английский

Mediainfo:

Общее
Уникальный идентификатор : 186915784265478232747950331870811903897 (0x8C9EABAC6983DB4A8BC4D1D92245D799)
Полное имя : B:\Downloads\Водопой №3. 1967. NNMCLUB.mkv
Формат : Matroska
Версия формата : Version 4 / Version 2
Размер файла : 2,31 Гбайт
Продолжительность : 1 ч. 35 м.
Общий поток : 3451 Кбит/сек
Дата кодирования : UTC 2019-05-19 05:23:21
Программа кодирования : mkvmerge v7.9.0 ('Birds') 64bit
Библиотека кодирования : libebml v1.3.1 + libmatroska v1.4.2
Видео
Идентификатор : 1
Формат : AVC
Формат/Информация : Advanced Video Codec
Профиль формата : [url=mailto:[email protected]][email protected][/url]
Настройки формата : CABAC / 12 Ref Frames
Параметр CABAC формата : Да
Параметр RefFrames формата : 12 кадров
Идентификатор кодека : V_MPEG4/ISO/AVC
Продолжительность : 1 ч. 35 м.
Битрейт : 2875 Кбит/сек
Ширина : 1024 пикселя
Высота : 432 пикселя
Соотношение сторон : 2,40:1
Режим частоты кадров : Постоянный
Частота кадров : 23,976 (24000/1001) кадра/сек
Цветовое пространство : YUV
Субдискретизация насыщенности : 4:2:0
Битовая глубина : 8 бит
Тип развёртки : Прогрессивная
Бит/(Пиксели*Кадры) : 0.271
Размер потока : 1,93 Гбайт (83%)
Заголовок : Waterhole #3
Библиотека кодирования : x264 core 146 r2538 121396c
Настройки программы : cabac=1 / ref=12 / deblock=1:-1:-1 / analyse=0x3:0x113 / me=umh / subme=10 / psy=1 / psy_rd=1.00:0.10 / mixed_ref=1 / me_range=32 / chroma_me=1 / trellis=2 / 8x8dct=1 / cqm=0 / deadzone=21,11 / fast_pskip=0 / chroma_qp_offset=-3 / threads=6 / lookahead_threads=1 / sliced_threads=0 / nr=0 / decimate=0 / interlaced=0 / bluray_compat=0 / constrained_intra=0 / bframes=7 / b_pyramid=2 / b_adapt=2 / b_bias=0 / direct=3 / weightb=1 / open_gop=0 / weightp=2 / keyint=250 / keyint_min=25 / scenecut=40 / intra_refresh=0 / rc_lookahead=60 / rc=2pass / mbtree=1 / bitrate=2875 / ratetol=1.0 / qcomp=0.60 / qpmin=0 / qpmax=69 / qpstep=4 / cplxblur=20.0 / qblur=0.5 / vbv_maxrate=14000 / vbv_bufsize=14000 / nal_hrd=none / filler=0 / ip_ratio=1.40 / aq=1:1.00
Язык : English
Default : Да
Forced : Нет
Аудио #1
Идентификатор : 2
Формат : AC-3
Формат/Информация : Audio Coding 3
Идентификатор кодека : A_AC3
Продолжительность : 1 ч. 35 м.
Вид битрейта : Постоянный
Битрейт : 192 Кбит/сек
Каналы : 2 канала
Расположение каналов : Front: L R
Частота : 48,0 КГц
Частота кадров : 31,250 кадров/сек (1536 SPF)
Битовая глубина : 16 бит
Метод сжатия : С потерями
Размер потока : 131 Мбайт (6%)
Заголовок : Многоголосый закадровый, Paramount Channel
Язык : Russian
ServiceKind/String : Complete Main
Default : Да
Forced : Нет
Аудио #2
Идентификатор : 3
Формат : AC-3
Формат/Информация : Audio Coding 3
Идентификатор кодека : A_AC3
Продолжительность : 1 ч. 35 м.
Вид битрейта : Постоянный
Битрейт : 192 Кбит/сек
Каналы : 2 канала
Расположение каналов : Front: L R
Частота : 48,0 КГц
Частота кадров : 31,250 кадров/сек (1536 SPF)
Битовая глубина : 16 бит
Метод сжатия : С потерями
Размер потока : 131 Мбайт (6%)
Заголовок : Одноголосый закадровый, 2 Stalk
Язык : Russian
ServiceKind/String : Complete Main
Default : Нет
Forced : Нет
Аудио #3
Идентификатор : 4
Формат : AC-3
Формат/Информация : Audio Coding 3
Идентификатор кодека : A_AC3
Продолжительность : 1 ч. 35 м.
Вид битрейта : Постоянный
Битрейт : 192 Кбит/сек
Каналы : 2 канала
Расположение каналов : Front: L R
Частота : 48,0 КГц
Частота кадров : 31,250 кадров/сек (1536 SPF)
Битовая глубина : 16 бит
Метод сжатия : С потерями
Размер потока : 131 Мбайт (6%)
Заголовок : Английский
Язык : English
ServiceKind/String : Complete Main
Default : Нет
Forced : Нет
Текст #1
Идентификатор : 5
Формат : UTF-8
Идентификатор кодека : S_TEXT/UTF8
Идентификатор кодека/Информация : UTF-8 Plain Text
Продолжительность : 1 ч. 35 м.
Битрейт : 88 бит/сек
ElementCount : 980
Размер потока : 61,8 Кбайт (0%)
Заголовок : SRT
Язык : Russian
Default : Нет
Forced : Нет
Текст #2
Идентификатор : 6
Формат : UTF-8
Идентификатор кодека : S_TEXT/UTF8
Идентификатор кодека/Информация : UTF-8 Plain Text
Продолжительность : 1 ч. 35 м.
Битрейт : 55 бит/сек
ElementCount : 1321
Размер потока : 38,8 Кбайт (0%)
Заголовок : SDH
Язык : English
Default : Нет
Forced : Нет
Скриншоты:
       

Дополнительные скриншоты:

       

Theseus

Post 10-Sep-2017 23:44

[Quote]

Город тьмы / Темный город / Dark City
Режиссерская версия / Director's cut
Год выхода: 1998
Страна: Австралия, США
Жанр: фантастика, фэнтези, боевик, триллер
Продолжительность: 01:51:43
Перевод: Профессиональный (многоголосый закадровый) | Киномания
Субтитры: Русские (2 вида), Английские | Внешние
Режиссер: Алекс Пройас-В ролях: Руфус Сьюэлл, Уильям Хёрт, Кифер Сазерленд, Дженнифер Коннелли, Ричард О’Брайэн, Иэн Ричардсон, Брюс Спенс, Колин Фрилз, Джон Блузал, Митчел Бутел-О фильме: Убийцу, не помнящего своего имени и прошлого, преследует полицейский инспектор Фрэнк Бастед. Его ищет жена Эмма, за ним охотятся чужаки, а он по обрывкам воспоминаний пытается разобраться в том, что происходит.- -Качество: BDRip
Формат: AVI
Видео кодек: XviD
Аудио кодек: AC3
Видео: 720x304 (2.37:1), 23.976 fps, XviD build 50 ~1894 kbps avg, 0.36 bit/pixel
Аудио 1: Rus; 48 kHz, AC3 Dolby Digital, 3/2 (L,C,R,l,r) + LFE ch, ~448 kbps
Аудио 2: Eng; 48 kHz, AC3 Dolby Digital, 3/2 (L,C,R,l,r) + LFE ch, ~448 kbps-

Трейлер

-     - - -

bard0962

Post 07-Feb-2017 20:00

[Quote]

-Храм Шаолинь 3: Боевые искусства Шаолиня / Nan bei Shao Lin / Martial arts of Shaolin- Год выпуска: 1986
Страна: Гонконг, Китай
Жанр: боевик
Продолжительность: 01:29:47
Перевод: Любительский (одноголосый закадровый)
Режиссер: Чиа-Лянг Лиу сценарий Yang-Ping Shi

В ролях: Джет Ли, Квингфу Пан, Ху Джиан Кванг, Chau-Yin Wong, Cheng-Hui Yu, Хай Ю
Описание: Жи Минг, монах из северного Храма Шаолиня узнает, что жестокий правитель, который убил его родителей, устраивает празднество по случаю своего дня рождения. Планируя отомстить диктатору, монах находит еще двух помошников из южного Шаолиня.
Качество: DVDRip
Видео: XviD, 2128 Кбит/с, 720x320, 29,970 кадр/сек, 0.308Бит/(Пиксели*Кадры)
Аудио: AC3, 2 ch, 192 Кбит/с, 48,0 КГц

MI

General
Complete name : Hram Shaolinya III_Boevie.iskusstva.Shaolinya.DVDRip.avi
Format : AVI
Format/Info : Audio Video Interleave
File size : 1.46 GiB
Duration : 1h 29mn
Overall bit rate : 2 325 Kbps
Writing application : VirtualDubMod 1.5.4.1 (build 2178/release)
Writing library : VirtualDubMod build 2178/release
Video #0
ID : 0
Format : MPEG-4 Visual
Format profile : Advanced [email protected]
Format settings, BVOP : 1
Format settings, QPel : No
Format settings, GMC : No warppoints
Format settings, Matrix : Custom
Codec ID : XVID
Codec ID/Hint : XviD
Duration : 1h 29mn
Bit rate : 2 126 Kbps
Width : 720 pixels
Height : 320 pixels
Display aspect ratio : 2.25:1
Frame rate : 29.970 fps
Color space : YUV
Chroma subsampling : 4:2:0
Bit depth : 8 bits
Scan type : Progressive
Compression mode : Lossy
Bits/(Pixel*Frame) : 0.308
Stream size : 1.33 GiB (91%)
Writing library : XviD 1.2.0.dev47 (UTC 2006-11-01)
Audio #1
ID : 1
Format : AC-3
Format/Info : Audio Coding 3
Mode extension : CM (complete main)
Codec ID : 2000
Duration : 1h 29mn
Bit rate mode : Constant
Bit rate : 192 Kbps
Channel(s) : 2 channels
Channel positions : Front: L R
Sampling rate : 48.0 KHz
Bit depth : 16 bits
Compression mode : Lossy
Stream size : 123 MiB (8%)
Alignment : Split accross interleaves
Interleave, duration : 96 ms (2.88 video frames)
Interleave, preload duration : 96 ms
-        -

}{@R0N

Post 30-Jan-2017 20:51

[Quote]

Короткое замыкание / Short Circuit - Производство: США
Жанр: Фантастика, комедия, семейный
Режиссер: Джон Бэдэм
Актеры: Элли Шиди, Стив Гуттенберг, Фишер Стивенс, Остин Пендлтон, Брайан МакНамара, Тим Блэйни, Марвин Дж. МакИнтайр, Джон Гарбер, Пенни Сантон, Вернон Уиддл
Описание: Разряд молнии попадает в робота под номером 5, и он оживает наподобие создания Франкенштейна. Вся штука в том, что его создатель и те, кто замыслил использовать робота в военных целях, не подозревали даже, какой могучий заряд ч
[imdb][/imdb]

Возраст: 12+ (зрителям, достигшим 12 лет)
Рейтинг MPAA: PG (рекомендуется присутствие родителей)
Продолжительность: 01:38:34
Качество видео: HDRip (AVC)
Перевод: Дублированный, профессиональный многоголосый, авторский
Субтитры: Отсутствуют
Видео: AVC, 1232x512 (2.40:1), 29.970 fps, 2 926 Kbps (0.155 bit/pixel)
Аудио #1: AC-3, 48.0 KHz, 2 ch, 192 Kbps, CBR | Дублированный
Аудио #2: AC-3, 48.0 KHz, 2 ch, 192 Kbps, CBR | Многоголосый
Аудио #3: AC-3, 48.0 KHz, 2 ch, 192 Kbps, CBR | Авторский (Живов)
Аудио #4: AC-3, 48.0 KHz, 2 ch, 192 Kbps, CBR | Английский

MediaInfo:

Общее
Уникальный идентификатор : 179729844448992165334743880520911516859 (0x8736B57C98A1B85784B585AC3DDB74BB)
Полное имя : C:\NNM\Короткое замыкание\Korotkoe zamykanie 1986 HDRip.mkv
Формат : Matroska
Версия формата : Version 4 / Version 2
Размер файла : 2,59 Гбайт
Продолжительность : 1 ч. 38 м.
Общий поток : 3769 Кбит/сек
Дата кодирования : UTC 2017-01-30 16:52:45
Программа кодирования : mkvmerge v6.9.1 ('Blue Panther') 32bit built on Apr 18 2014 18:15:44
Библиотека кодирования : libebml v1.3.0 + libmatroska v1.4.1
Видео
Идентификатор : 1
Формат : AVC
Формат/Информация : Advanced Video Codec
Профиль формата : [email protected]
Параметр CABAC формата : Да
Параметр ReFrames формата : 9 кадров
Идентификатор кодека : V_MPEG4/ISO/AVC
Продолжительность : 1 ч. 38 м.
Битрейт : 2926 Кбит/сек
Ширина : 1232 пикселя
Высота : 512 пикселей
Соотношение сторон : 2,40:1
Режим частоты кадров : Постоянный
Частота кадров : 29,970 (30000/1001) кадров/сек
Цветовое пространство : YUV
Субдискретизация насыщенности : 4:2:0
Битовая глубина : 8 бит
Тип развёртки : Прогрессивная
Бит/(Пиксели*Кадры) : 0.155
Размер потока : 2,01 Гбайт (78%)
Заголовок : Короткой замыкание / Short Circuit [by Juicy_J] [x264, 1232x512 (2.406:1), 2876kbps, 29,970fps, 0,152b/px]
Библиотека кодирования : x264 core 68 r1183M f21daff
Настройки программы : cabac=1 / ref=9 / deblock=1:-2:-1 / analyse=0x3:0x113 / me=umh / subme=7 / psy_rd=1.3:0.5 / mixed_ref=1 / me_range=24 / chroma_me=1 / trellis=1 / 8x8dct=1 / cqm=0 / deadzone=21,11 / chroma_qp_offset=-4 / threads=3 / nr=0 / decimate=1 / mbaff=0 / bframes=6 / b_pyramid=1 / b_adapt=2 / b_bias=0 / direct=1 / wpredb=1 / keyint=250 / keyint_min=25 / scenecut=40 / rc=crf / crf=23.2 / qcomp=0.60 / qpmin=10 / qpmax=51 / qpstep=4 / ip_ratio=1.40 / pb_ratio=1.30 / aq=1:1.10
Язык : English
Default : Да
Forced : Нет
Аудио #1
Идентификатор : 2
Формат : AC-3
Формат/Информация : Audio Coding 3
Расширение режима : CM (complete main)
Параметр Endianness формата : Big
Идентификатор кодека : A_AC3
Продолжительность : 1 ч. 38 м.
Вид битрейта : Постоянный
Битрейт : 192 Кбит/сек
Каналы : 2 канала
Расположение каналов : Front: L R
Частота : 48,0 КГц
Частота кадров : 31,250 кадров/сек (1536 spf)
Битовая глубина : 16 бит
Метод сжатия : С потерями
Размер потока : 135 Мбайт (5%)
Заголовок : Rus DUB
Язык : Russian
Default : Да
Forced : Нет
Аудио #2
Идентификатор : 3
Формат : AC-3
Формат/Информация : Audio Coding 3
Расширение режима : CM (complete main)
Параметр Endianness формата : Big
Идентификатор кодека : A_AC3
Продолжительность : 1 ч. 38 м.
Вид битрейта : Постоянный
Битрейт : 192 Кбит/сек
Каналы : 2 канала
Расположение каналов : Front: L R
Частота : 48,0 КГц
Частота кадров : 31,250 кадров/сек (1536 spf)
Битовая глубина : 16 бит
Метод сжатия : С потерями
Размер потока : 135 Мбайт (5%)
Заголовок : Rus MVO
Язык : Russian
Default : Нет
Forced : Нет
Аудио #3
Идентификатор : 4
Формат : AC-3
Формат/Информация : Audio Coding 3
Расширение режима : CM (complete main)
Параметр Endianness формата : Big
Идентификатор кодека : A_AC3
Продолжительность : 1 ч. 38 м.
Вид битрейта : Постоянный
Битрейт : 192 Кбит/сек
Каналы : 2 канала
Расположение каналов : Front: L R
Частота : 48,0 КГц
Частота кадров : 31,250 кадров/сек (1536 spf)
Битовая глубина : 16 бит
Метод сжатия : С потерями
Размер потока : 135 Мбайт (5%)
Заголовок : AVO Zhivov
Язык : Russian
Default : Нет
Forced : Нет
Аудио #4
Идентификатор : 5
Формат : AC-3
Формат/Информация : Audio Coding 3
Расширение режима : CM (complete main)
Параметр Endianness формата : Big
Идентификатор кодека : A_AC3
Продолжительность : 1 ч. 38 м.
Вид битрейта : Постоянный
Битрейт : 192 Кбит/сек
Каналы : 2 канала
Расположение каналов : Front: L R
Частота : 48,0 КГц
Частота кадров : 31,250 кадров/сек (1536 spf)
Битовая глубина : 16 бит
Метод сжатия : С потерями
Размер потока : 135 Мбайт (5%)
Заголовок : Eng
Язык : English
Default : Нет
Forced : Нет
Текст
Идентификатор : 6
Формат : UTF-8
Идентификатор кодека : S_TEXT/UTF8
Идентификатор кодека/Информация : UTF-8 Plain Text
Заголовок : русские
Язык : Russian
Default : Нет
Forced : Нет
Скриншоты:        

Russian Mafia

Post 01-Sep-2016 10:58

[Quote]

Барбароса / Barbarosa (Фред Скеписи) [1982, Вестерн, BDRip] AVO Страна: США
Производство: Incorporated Television Company (ITC)
Жанр: Вестерн
Год выпуска: 1982
Продолжительность: 01:29:50
Перевод: Авторский одноголосый (Гаврилов, Михалев)
Оригинальная аудиодорожка: Английская
Режиссер: Фред Скеписи
В ролях: Уилли Нельсон, Гэри Бьюзи, Исела Вега, Гилберт Роланд, Дэнни Де Ла Пас, Альма Мартинес, Джордж Восковек, Шэрон Комптон, Хоуланд Чемберлен, Гарри Цеза
Описание: Имя знаменитого разбойника Барбаросы наводит ужас на жителей маленького городка в Южном Техасе. Цель жизни каждого мужчины — найти и убить Барбаросу. Но будет ли счастье в поселке, лишенном легенды?

Исходник: BD50 / 1080p AVC
Тип релиза: BDRip
Контейнер: AVI
Видео: 704x304 (2.32:1), 23.976 fps, XviD MPEG-4 ~1736 kbps avg, 0.34 bit/pixel
Аудио 1: АС3, 2 ch, 192 Кбит/с (Гаврилов)
Аудио 2: АС3, 2 ch, 192 Кбит/с (Михалев)
Аудио 3: АС3, 2 ch, 192 Кбит/с (Английский)

MediaInfo

Общее
Полное имя : D:ААА2Barbarosa.avi
Формат : AVI
Формат/Информация : Audio Video Interleave
Размер файла : 1,46 Гбайт
Продолжительность : 1 ч. 29 м.
Общий поток : 2333 Кбит/сек
Программа кодирования : VirtualDubMod 1.5.10.2 (build 2540/release)
Библиотека кодирования : VirtualDubMod build 2540/release
Видео
Идентификатор : 0
Формат : MPEG-4 Visual
Профиль формата : Advanced [email protected]
Параметр BVOP формата : 2
Параметр QPel формата : Нет
Параметр GMC формата : Без точки перехода
Параметр матрицы формата : Default (H.263)
Режим смешивания : Сжатый битовый поток
Идентификатор кодека : XVID
Идентификатор кодека/Подсказка : XviD
Продолжительность : 1 ч. 29 м.
Битрейт : 1738 Кбит/сек
Ширина : 704 пикселя
Высота : 304 пикселя
Соотношение сторон : 2,35:1
Частота кадров : 23,976 кадра/сек
Цветовое пространство : YUV
Субдискретизация насыщенности : 4:2:0
Битовая глубина : 8 бит
Тип развёртки : Прогрессивная
Метод сжатия : С потерями
Бит/(Пиксели*Кадры) : 0.339
Размер потока : 1,09 Гбайт (74%)
Библиотека кодирования : XviD 1.2.1 (UTC 2008-12-04)
Аудио #1
Идентификатор : 1
Формат : AC-3
Формат/Информация : Audio Coding 3
Расширение режима : CM (complete main)
Параметр Endianness формата : Big
Идентификатор кодека : 2000
Продолжительность : 1 ч. 29 м.
Вид битрейта : Постоянный
Битрейт : 192 Кбит/сек
Каналы : 2 канала
Расположение каналов : Front: L R
Частота : 48,0 КГц
Битовая глубина : 16 бит
Метод сжатия : С потерями
Размер потока : 123 Мбайт (8%)
Выравнивание : Разделение по промежуткам
Продолжительность промежутка : 42 мс. (1,00 видеокадр)
Время предзагрузки промежутка : 500 мс.
Аудио #2
Идентификатор : 2
Формат : AC-3
Формат/Информация : Audio Coding 3
Расширение режима : CM (complete main)
Параметр Endianness формата : Big
Идентификатор кодека : 2000
Продолжительность : 1 ч. 29 м.
Вид битрейта : Постоянный
Битрейт : 192 Кбит/сек
Каналы : 2 канала
Расположение каналов : Front: L R
Частота : 48,0 КГц
Битовая глубина : 16 бит
Метод сжатия : С потерями
Размер потока : 123 Мбайт (8%)
Выравнивание : Разделение по промежуткам
Продолжительность промежутка : 42 мс. (1,00 видеокадр)
Время предзагрузки промежутка : 500 мс.
Аудио #3
Идентификатор : 3
Формат : AC-3
Формат/Информация : Audio Coding 3
Расширение режима : CM (complete main)
Параметр Endianness формата : Big
Идентификатор кодека : 2000
Продолжительность : 1 ч. 29 м.
Вид битрейта : Постоянный
Битрейт : 192 Кбит/сек
Каналы : 2 канала
Расположение каналов : Front: L R
Частота : 48,0 КГц
Битовая глубина : 16 бит
Метод сжатия : С потерями
Размер потока : 123 Мбайт (8%)
Выравнивание : Разделение по промежуткам
Продолжительность промежутка : 42 мс. (1,00 видеокадр)
Время предзагрузки промежутка : 500 мс.

Скриншоты

       
Автор рипа:

Russian Mafia

Post 24-Aug-2016 18:39

[Quote]

Производство: США / Avon Productions (II), Metro-Goldwyn-Mayer (MGM)
Жанр: Драма, Мелодрама
Режиссер: Ричард Брукс
Актеры: Элизабет Тейлор, Пол Ньюман, Берл Айвз, Джек Карсон, Джудит Андерсон, Мадлен Шервуд, Ларри Гейтс, Вон Тейлор, Зельда Кливер, Брайан Коркоран
Описание:
Богатый престарелый южанин узнает, что скоро должен умереть. Все члены его жадной семьи, за исключением шалопая-сына, лезут из кожи вон, лишь бы получить наследство.

Продолжительность: 01:48:04
Качество видео: BDRip Сэмпл
Перевод: Многоголосый закадровый, авторский
Язык субтитров: Русский, английский
Вид субтитров: Вшитые отключаемые
Видео: AVC/H.264, 1024x576, ~2950 Kbps
Аудио 1: Русский, AC3, 2 ch, 192 Kbps, 48.0 kHz (MVO, R5)
Аудио 2: Русский, AC3, 2 ch, 192 Kbps, 48.0 kHz (MVO, SomeWax)
Аудио 3: Русский, AC3, 2 ch, 192 Kbps, 48.0 kHz (АVO, В.Горчаков)
Аудио 4: Английский, AC3, 2 ch, 192 Kbps, 48.0 kHz (Оригинал)

Mediainfo:

Код:
General
Unique ID                                : 243430207606255300276382388356693292193 (0xB722F3DEE2F4F4BD84941A06E142F4A1)
Complete name                            : F:\Downloads\Кошка на раскаленной крыше. 1958. NNMCLUB.mkv
Format                                   : Matroska
Format version                           : Version 4 / Version 2
File size                                : 2.81 GiB
Duration                                 : 1h 48mn
Overall bit rate                         : 3 721 Kbps
Encoded date                             : UTC 2016-08-16 13:39:52
Writing application                      : mkvmerge v7.0.0 ('Where We Going') 32bit built on Jun  9 2014 15:08:34
Writing library                          : libebml v1.3.0 + libmatroska v1.4.1
_STATISTICS_WRITING_APP                  : mkvmerge v7.0.0 ('Where We Going') 32bit built on Jun  9 2014 15:08:34
_STATISTICS_WRITING_DATE_UTC             : 2016-08-16 13:39:52
_STATISTICS_TAGS                         : BPS DURATION NUMBER_OF_FRAMES NUMBER_OF_BYTES
DURATION                                 : 01:44:56.365000000
NUMBER_OF_FRAMES                         : 1608
NUMBER_OF_BYTES                          : 66222
Video
ID                                       : 1
Format                                   : AVC
Format/Info                              : Advanced Video Codec
Format profile                           : [url=mailto:[email protected]][email protected][/url]
Format settings, CABAC                   : Yes
Format settings, ReFrames                : 8 frames
Codec ID                                 : V_MPEG4/ISO/AVC
Duration                                 : 1h 48mn
Bit rate                                 : 2 950 Kbps
Width                                    : 1 024 pixels
Height                                   : 576 pixels
Display aspect ratio                     : 16:9
Frame rate mode                          : Constant
Frame rate                               : 23.976 fps
Color space                              : YUV
Chroma subsampling                       : 4:2:0
Bit depth                                : 8 bits
Scan type                                : Progressive
Bits/(Pixel*Frame)                       : 0.209
Stream size                              : 2.17 GiB (77%)
Title                                    : Cat on a Hot Tin Roof
Writing library                          : x264 core 125 r2208 d9d2288
Encoding settings                        : cabac=1 / ref=8 / deblock=1:-1:-1 / analyse=0x3:0x133 / me=umh / subme=9 / psy=1 / psy_rd=1.00:0.10 / mixed_ref=1 / me_range=32 / chroma_me=1 / trellis=2 / 8x8dct=1 / cqm=0 / deadzone=21,11 / fast_pskip=0 / chroma_qp_offset=-3 / threads=6 / lookahead_threads=1 / sliced_threads=0 / nr=0 / decimate=1 / interlaced=0 / bluray_compat=0 / constrained_intra=0 / bframes=3 / b_pyramid=2 / b_adapt=2 / b_bias=0 / direct=3 / weightb=1 / open_gop=0 / weightp=2 / keyint=250 / keyint_min=25 / scenecut=40 / intra_refresh=0 / rc_lookahead=60 / rc=2pass / mbtree=1 / bitrate=2950 / ratetol=1.0 / qcomp=0.60 / qpmin=0 / qpmax=69 / qpstep=4 / cplxblur=20.0 / qblur=0.5 / ip_ratio=1.40 / aq=1:1.00
Language                                 : English
Default                                  : Yes
Forced                                   : No
Audio #1
ID                                       : 2
Format                                   : AC-3
Format/Info                              : Audio Coding 3
Mode extension                           : CM (complete main)
Format settings, Endianness              : Big
Codec ID                                 : A_AC3
Duration                                 : 1h 48mn
Bit rate mode                            : Constant
Bit rate                                 : 192 Kbps
Channel(s)                               : 2 channels
Channel positions                        : Front: L R
Sampling rate                            : 48.0 KHz
Bit depth                                : 16 bits
Compression mode                         : Lossy
Stream size                              : 148 MiB (5%)
Title                                    : Многоголосый закадровый, R5
Language                                 : Russian
Default                                  : Yes
Forced                                   : No
Audio #2
ID                                       : 3
Format                                   : AC-3
Format/Info                              : Audio Coding 3
Mode extension                           : CM (complete main)
Format settings, Endianness              : Big
Codec ID                                 : A_AC3
Duration                                 : 1h 48mn
Bit rate mode                            : Constant
Bit rate                                 : 192 Kbps
Channel(s)                               : 2 channels
Channel positions                        : Front: L R
Sampling rate                            : 48.0 KHz
Bit depth                                : 16 bits
Compression mode                         : Lossy
Stream size                              : 148 MiB (5%)
Title                                    : Многоголосый закадровый, SomeWax
Language                                 : Russian
Default                                  : No
Forced                                   : No
Audio #3
ID                                       : 4
Format                                   : AC-3
Format/Info                              : Audio Coding 3
Mode extension                           : CM (complete main)
Format settings, Endianness              : Big
Codec ID                                 : A_AC3
Duration                                 : 1h 48mn
Bit rate mode                            : Constant
Bit rate                                 : 192 Kbps
Channel(s)                               : 2 channels
Channel positions                        : Front: L R
Sampling rate                            : 48.0 KHz
Bit depth                                : 16 bits
Compression mode                         : Lossy
Stream size                              : 148 MiB (5%)
Title                                    : Авторский, В.Горчаков
Language                                 : Russian
Default                                  : No
Forced                                   : No
Audio #4
ID                                       : 5
Format                                   : AC-3
Format/Info                              : Audio Coding 3
Mode extension                           : CM (complete main)
Format settings, Endianness              : Big
Codec ID                                 : A_AC3
Duration                                 : 1h 48mn
Bit rate mode                            : Constant
Bit rate                                 : 192 Kbps
Channel(s)                               : 2 channels
Channel positions                        : Front: L R
Sampling rate                            : 48.0 KHz
Bit depth                                : 16 bits
Compression mode                         : Lossy
Stream size                              : 148 MiB (5%)
Title                                    : Оригинал
Language                                 : English
Default                                  : No
Forced                                   : No
Text #1
ID                                       : 6
Format                                   : UTF-8
Codec ID                                 : S_TEXT/UTF8
Codec ID/Info                            : UTF-8 Plain Text
Title                                    : R5
Language                                 : Russian
Default                                  : No
Forced                                   : No
Text #2
ID                                       : 7
Format                                   : UTF-8
Codec ID                                 : S_TEXT/UTF8
Codec ID/Info                            : UTF-8 Plain Text
Title                                    : SRT
Language                                 : English
Default                                  : No
Forced                                   : No

Скриншоты

       

Дополнительные скриншоты:

       

Russian Mafia

Post 14-Aug-2016 18:04

[Quote]

Производство: США / American International Pictures (AIP)
Жанр: Боевик, Драма, Криминал, Биография
Режиссер: Джон Милиус
Актеры: Уоррен Оутс, Бен Джонсон, Мишель Филлипс, Клорис Личмен, Гарри Дин Стэнтон, Джеффри Льюис, Джон П. Райан, Ричард Дрейфусс, Стив Кэнэли, Джон Мартино, Рой Дженсон, Рид Морган, Фрэнк МакРей, Дэвид Дорр, Роланд Боб Харрис
Описание: Действие фильма охватывает период с июня 1933 по июль 1934 гг. и рассказывает о судьбе знаменитого гангстера Джона Герберта Диллинджера, грабившего банки на Среднем Западе США. В центре сюжета - противостояние Диллинджера и специального агента ФБР Мэлвина Пёрвиса.

Продолжительность: 01:47:20
Качество видео: BDRip
Перевод: Профессиональный (многоголосый закадровый)
Вид субтитров: Вшитые, отключаемые
Язык субтитров: Русский, Английский
Видео: AVC/H.264, 2300 Kbps, 1024x554
Аудио 1: AC3 2.0, 192 Kbps, 48.0 KHz - Русский (MVO, Пятый канал)
Аудио 2: AC3 1.0, 384 Kbps, 48.0 KHz - Английский (Оригинал)

MediaInfo

Код:
Общее
Полное имя                               : Диллинджер.mkv
Формат                                   : Matroska
Версия формата                           : Version 4 / Version 2
Размер файла                             : 2,18 Гбайт
Продолжительность                        : 1 ч. 47 м.
Общий поток                              : 2904 Кбит/сек
Дата кодирования                         : UTC 2016-07-26 14:14:01
Программа кодирования                    : mkvmerge v9.2.0 ('Photograph') 32bit
Библиотека кодирования                   : libebml v1.3.3 + libmatroska v1.4.4
Видео
Идентификатор                            : 1
Формат                                   : AVC
Формат/Информация                        : Advanced Video Codec
Профиль формата                          : [url=mailto:[email protected]][email protected][/url]
Параметр CABAC формата                   : Да
Параметр ReFrames формата                : 10 кадров
Идентификатор кодека                     : V_MPEG4/ISO/AVC
Продолжительность                        : 1 ч. 47 м.
Битрейт                                  : 2300 Кбит/сек
Ширина                                   : 1024 пикселя
Высота                                   : 554 пикселя
Соотношение сторон                       : 1,85:1
Режим частоты кадров                     : Постоянный
Частота кадров                           : 23,976 (24000/1001) кадра/сек
Цветовое пространство                    : YUV
Субдискретизация насыщенности            : 4:2:0
Битовая глубина                          : 8 бит
Тип развёртки                            : Прогрессивная
Бит/(Пиксели*Кадры)                      : 0.169
Размер потока                            : 1,72 Гбайт (79%)
Заголовок                                : Диллинджер (1973)
Библиотека кодирования                   : x264 core 148 r2638 7599210
Настройки программы                      : cabac=1 / ref=10 / deblock=1:-3:-3 / analyse=0x3:0x133 / me=umh / subme=10 / psy=1 / psy_rd=1.00:0.10 / mixed_ref=1 / me_range=48 / chroma_me=1 / trellis=2 / 8x8dct=1 / cqm=0 / deadzone=21,11 / fast_pskip=0 / chroma_qp_offset=-3 / threads=6 / lookahead_threads=1 / sliced_threads=0 / nr=0 / decimate=1 / interlaced=0 / bluray_compat=0 / constrained_intra=0 / bframes=5 / b_pyramid=2 / b_adapt=2 / b_bias=0 / direct=3 / weightb=1 / open_gop=0 / weightp=2 / keyint=240 / keyint_min=22 / scenecut=40 / intra_refresh=0 / rc_lookahead=40 / rc=2pass / mbtree=1 / bitrate=2300 / ratetol=1.0 / qcomp=0.60 / qpmin=10 / qpmax=51 / qpstep=4 / cplxblur=20.0 / qblur=0.5 / ip_ratio=1.40 / aq=1:1.00
Язык                                     : English
Default                                  : Нет
Forced                                   : Нет
Аудио #1
Идентификатор                            : 2
Формат                                   : AC-3
Формат/Информация                        : Audio Coding 3
Расширение режима                        : CM (complete main)
Параметр Endianness формата              : Big
Идентификатор кодека                     : A_AC3
Продолжительность                        : 1 ч. 47 м.
Вид битрейта                             : Постоянный
Битрейт                                  : 192 Кбит/сек
Каналы                                   : 2 канала
Расположение каналов                     : Front: L R
Частота                                  : 48,0 КГц
Частота кадров                           : 31,250 кадров/сек (1536 spf)
Метод сжатия                             : С потерями
Размер потока                            : 147 Мбайт (7%)
Заголовок                                : AC3 (Многоголосый) Пятый канал
Язык                                     : Russian
Default                                  : Да
Forced                                   : Нет
Аудио #2
Идентификатор                            : 3
Формат                                   : AC-3
Формат/Информация                        : Audio Coding 3
Расширение режима                        : CM (complete main)
Параметр Endianness формата              : Big
Идентификатор кодека                     : A_AC3
Продолжительность                        : 1 ч. 47 м.
Вид битрейта                             : Постоянный
Битрейт                                  : 384 Кбит/сек
Каналы                                   : 1 канал
Расположение каналов                     : Front: C
Частота                                  : 48,0 КГц
Частота кадров                           : 31,250 кадров/сек (1536 spf)
Метод сжатия                             : С потерями
Размер потока                            : 295 Мбайт (13%)
Заголовок                                : AC3 (Оригинал)
Язык                                     : English
Default                                  : Нет
Forced                                   : Нет
Текст #1
Идентификатор                            : 4
Формат                                   : PGS
Режим смешивания                         : zlib
Идентификатор кодека                     : S_HDMV/PGS
Идентификатор кодека/Информация          : Picture based subtitle format used on BDs/HD-DVDs
Продолжительность                        : 1 ч. 47 м.
Битрейт                                  : 18,5 Кбит/сек
Count of elements                        : 1916
Размер потока                            : 14,2 Мбайт (1%)
Заголовок                                : Русские
Язык                                     : Russian
Default                                  : Нет
Forced                                   : Нет
Текст #2
Идентификатор                            : 5
Формат                                   : PGS
Режим смешивания                         : zlib
Идентификатор кодека                     : S_HDMV/PGS
Идентификатор кодека/Информация          : Picture based subtitle format used on BDs/HD-DVDs
Продолжительность                        : 1 ч. 47 м.
Битрейт                                  : 7580 бит/сек
Count of elements                        : 2078
Размер потока                            : 5,81 Мбайт (0%)
Заголовок                                : Английские
Язык                                     : English
Default                                  : Нет
Forced                                   : Нет

Дополнительная информация

» Фильм стал режиссёрским дебютом Джона Милиуса, к тому времени имевшему опыт сценариста в таких фильмах, как «Грязный Гарри» и «Жизнь и времена судьи Роя Бина».
» Уоррен Оутс и Бен Джонсон ранее сыграли вместе в фильме Сэма Пекинпа «Дикая банда». Оутс, сыгравший Диллинджера, внешне очень похож на него, однако, намного старше своего героя (Диллинджеру, когда он погиб, был тридцать один год, Оутсу во время съёмок фильма — сорок пять). Видимо, поэтому и для роли Мелвина Пёрвиса, ровесника Диллинджера, был выбран достаточно пожилой Бен Джонсон (1918 года рождения, т. о. во время съемок фильма ему было более пятидесяти лет). Роль подруги Диллинджера сыграла певица Мишель Филлипс — участница группы «Mamas & Papas».

Скриншоты

       

Russian Mafia

Post 14-Aug-2016 07:11

[Quote]

Производство: США / Universal International Pictures (UI or U-I)
Жанр: Вестерн
Режиссер: Джордж Шерман
Актеры: Джон Ланд, Джефф Чандлер, Сюзан Кэбот, Брюс Коулинг, Беверли Тайлер, Ричард Иган, Джей Сильверхилс, Джон Хадсон, Джек Элам, Режис Туми
Описание:
Майор кавалерии США Джим Колтон поддерживает дружеские отношения с вождем апачей чирикауа — Кочизом. Амбициозный агент по делам индейцев Бейлор намерен выгнать апачей с их земли, и поместить в резервацию Сан-Карлос. Он заключает сделку с врагом Кочиза, вождем моголлонов Джеронимо, который совершает нападение на мирных жителей, похищает сына местного фермера, и оставляет улики против Кочиза. В отсутствии Колтона, Бейлор убеждает лейтенанта Джорджа Баскома в том, что он должен возглавить военный поход против апачей Кочиза, чтобы вернуть мальчика. Поход заканчивается катастрофой, и заложниками, взятыми с обеих сторон. Племена индейцев объединяются и встречаются с войсками Колтона на Перевале Апачей, но индейцы еще не знают, что им придется противостоять современной артиллерии.

Продолжительность: 01:21:28
Качество видео: DVDRip Сэмпл
Перевод: Одноголосый закадровый (NezPerce)
Язык субтитров: Русский
Вид субтитров: Вшитые отключаемые
Видео: AVC/H.264, 720x544, ~1675 Kbps
Аудио 1: AC3, 2 ch, 192 Kbps, 48.0 kHz Русский
Аудио 2: AC3, 2 ch, 192 Kbps, 48.0 kHz Английский

Mediainfo:

Код:
General
Unique ID                                : 226057840303169360134292830268543006113 (0xAA1128088AB6237F8A15C2D07854F5A1)
Complete name                            : F:\Downloads\Битва на Перевале Апачей. 1952. NNMCLUB.mkv
Format                                   : Matroska
Format version                           : Version 4 / Version 2
File size                                : 1.17 GiB
Duration                                 : 1h 21mn
Overall bit rate                         : 2 061 Kbps
Encoded date                             : UTC 2016-08-07 10:51:11
Writing application                      : mkvmerge v7.0.0 ('Where We Going') 32bit built on Jun  9 2014 15:08:34
Writing library                          : libebml v1.3.0 + libmatroska v1.4.1
DURATION                                 : 01:21:15.631000000
NUMBER_OF_FRAMES                         : 697
NUMBER_OF_BYTES                          : 43215
_STATISTICS_WRITING_APP                  : mkvmerge v7.0.0 ('Where We Going') 32bit built on Jun  9 2014 15:08:34
_STATISTICS_WRITING_DATE_UTC             : 2016-08-07 10:51:11
_STATISTICS_TAGS                         : BPS DURATION NUMBER_OF_FRAMES NUMBER_OF_BYTES
Video
ID                                       : 1
Format                                   : AVC
Format/Info                              : Advanced Video Codec
Format profile                           : [url=mailto:[email protected]][email protected][/url]
Format settings, CABAC                   : Yes
Format settings, ReFrames                : 8 frames
Codec ID                                 : V_MPEG4/ISO/AVC
Duration                                 : 1h 21mn
Bit rate                                 : 1 675 Kbps
Width                                    : 720 pixels
Height                                   : 544 pixels
Display aspect ratio                     : 4:3
Frame rate mode                          : Constant
Frame rate                               : 25.000 fps
Color space                              : YUV
Chroma subsampling                       : 4:2:0
Bit depth                                : 8 bits
Scan type                                : Progressive
Bits/(Pixel*Frame)                       : 0.171
Stream size                              : 953 MiB (79%)
Title                                    : The Battle at Apache Pass
Writing library                          : x264 core 125 r2208 d9d2288
Encoding settings                        : cabac=1 / ref=8 / deblock=1:-1:-1 / analyse=0x3:0x133 / me=umh / subme=9 / psy=1 / psy_rd=1.00:0.10 / mixed_ref=1 / me_range=32 / chroma_me=1 / trellis=2 / 8x8dct=1 / cqm=0 / deadzone=21,11 / fast_pskip=0 / chroma_qp_offset=-3 / threads=6 / lookahead_threads=1 / sliced_threads=0 / nr=0 / decimate=1 / interlaced=0 / bluray_compat=0 / constrained_intra=0 / bframes=3 / b_pyramid=2 / b_adapt=2 / b_bias=0 / direct=3 / weightb=1 / open_gop=0 / weightp=2 / keyint=250 / keyint_min=25 / scenecut=40 / intra_refresh=0 / rc_lookahead=60 / rc=2pass / mbtree=1 / bitrate=1675 / ratetol=1.0 / qcomp=0.60 / qpmin=0 / qpmax=69 / qpstep=4 / cplxblur=20.0 / qblur=0.5 / ip_ratio=1.40 / aq=1:1.00
Language                                 : English
Default                                  : Yes
Forced                                   : No
Audio #1
ID                                       : 2
Format                                   : AC-3
Format/Info                              : Audio Coding 3
Mode extension                           : CM (complete main)
Format settings, Endianness              : Big
Codec ID                                 : A_AC3
Duration                                 : 1h 21mn
Bit rate mode                            : Constant
Bit rate                                 : 192 Kbps
Channel(s)                               : 2 channels
Channel positions                        : Front: L R
Sampling rate                            : 48.0 KHz
Bit depth                                : 16 bits
Compression mode                         : Lossy
Stream size                              : 112 MiB (9%)
Title                                    : Одноголосый закадровый
Language                                 : Russian
Default                                  : Yes
Forced                                   : No
Audio #2
ID                                       : 3
Format                                   : AC-3
Format/Info                              : Audio Coding 3
Mode extension                           : CM (complete main)
Format settings, Endianness              : Big
Codec ID                                 : A_AC3
Duration                                 : 1h 21mn
Bit rate mode                            : Constant
Bit rate                                 : 192 Kbps
Channel(s)                               : 2 channels
Channel positions                        : Front: L R
Sampling rate                            : 48.0 KHz
Bit depth                                : 16 bits
Compression mode                         : Lossy
Stream size                              : 112 MiB (9%)
Title                                    : Оригинал
Language                                 : English
Default                                  : No
Forced                                   : No
Text
ID                                       : 4
Format                                   : UTF-8
Codec ID                                 : S_TEXT/UTF8
Codec ID/Info                            : UTF-8 Plain Text
Title                                    : SRT
Language                                 : Russian
Default                                  : No
Forced                                   : No
Скриншоты:
       

Дополнительные скриншоты:

       

Анатолий Солошенко

Post 14-Jun-2016 16:04

[Quote]

а ведь действительно, раньше как то в фильмы больше смысла вкладывали, а сейчас больше спецэффектов, недавно смотрел драконов на тв на каналах [ссылка удалена] классный фильм, джеки там молодец

O.S.A.

Post 27-May-2016 13:28

[Quote]

--Блеск и нищета куртизанок / Splendeurs et misères des courtisanes--
  • Год выпуска: 1975
  • Страна: Франция, Бельгия, Швейцария, Германия (ФРГ)
  • Жанр: экранизация, драма
  • Продолжительность: 9 х ~00:57:00
  • Перевод: Профессиональный (многоголосый закадровый)-
  • Режиссёр: Морис Казенёв-
  • В ролях: Жорж Жере, Бруно Гарсен, Хольгер Лёвенадлер, Иван Десни, Жан Винигер, Мишель Пейрелон, Корина Ле Пулен, Паскаль Одре, Малка Рибовска, Мартин Сарси...-
  • Сериал по одноименному роману Оноре де Бальзака со сложной интригой и большим количеством действующих лиц — представителей самых разнообразных слоев парижского общества: высшего света, уголовного мира, «полусвета». Молодой человек по имени Люсьен Шардан собирается застрелиться на берегу реки. Его останавливает от непоправимого шага проезжавший мимо священник Карлос Эррера. Аббат едет во Францию по поручению испанского короля с секретной миссией. Он предлагает молодому человеку покровительство и деньги, и обещает помочь поквитаться с врагами. И вот Люсьену Шардану возвращено фамильное имя де Рюбампре. Теперь он постоянно бывает в свете, перед ним вновь открываются двери домов, захлопнувшиеся 10 лет назад. Блистательный Люсьен пользуется благосклонностью прекрасных дам. Но вскоре неожиданно влюбляется в девушку легкого поведения Эстер… «Блеск и нищета куртизанок» — возможно, самый блестящий из эпизодов бальзаковской «Человеческой комедии». Этот фильм, пожалуй, беспощаднейший и жесточайший из портретов современного Бальзаку Парижа — Парижа, где продается и покупается все — карьера и положение, дружба и любовь. Здесь — во всем своем ослепительном блеске и во всей своей душевной нищете царят «богини продажной любви» — парижские куртизанки...-
  • Премьера в мире: 20 декабря 1975--
  • --
  • Качество видео: DVDRip
  • Формат видео: AVI
  • Видео кодек: XviD
  • Аудио кодек: AC3
  • Видео: 720x512 (1.41:1), 25.000 fps, XviD MPEG-4, ~1915 kbps avg, 0.208 bit/pixel
  • Аудио: 48.0 kHz, AC3 Dolby Digital, 2/0 (L,R) ch, ~192.00 kbps avg
  • Субтитры: нет
--

Media Info

General
Complete name : D:\O.S.A.\Мои видеозаписи\Сборник старых фильмов\Blesk.i.nischeta.kurtizanok.(9.serij.iz.9).1975.XviD.DVDRip.GeimsLast\Blesk.i.nischeta.kurtizanok.(1.serya.iz.9).1975.XviD.DVDRip.GeimsLast.avi
Format : AVI
Format/Info : Audio Video Interleave
File size : 852 MiB
Duration : 56mn 18s
Overall bit rate : 2 116 Kbps
Movie name : C
Director : G
Writing application : VirtualDubModRus 1.5.10.2 (build 2542/release)
Writing library : VirtualDubMod build 2542/release
Video
ID : 0
Format : MPEG-4 Visual
Format profile : Advanced [email protected]
Format settings, BVOP : 1
Format settings, QPel : No
Format settings, GMC : No warppoints
Format settings, Matrix : Default (MPEG)
Muxing mode : Packed bitstream
Codec ID : XVID
Codec ID/Hint : XviD
Duration : 56mn 18s
Bit rate : 1 915 Kbps
Width : 720 pixels
Height : 512 pixels
Display aspect ratio : 1.406
Frame rate : 25.000 fps
Color space : YUV
Chroma subsampling : 4:2:0
Bit depth : 8 bits
Scan type : Progressive
Compression mode : Lossy
Bits/(Pixel*Frame) : 0.208
Stream size : 771 MiB (90%)
Writing library : XviD 1.2.1 (UTC 2008-12-04)
Audio
ID : 1
Format : AC-3
Format/Info : Audio Coding 3
Mode extension : CM (complete main)
Codec ID : 2000
Duration : 56mn 18s
Bit rate mode : Constant
Bit rate : 192 Kbps
Channel(s) : 2 channels
Channel positions : Front: L R
Sampling rate : 48.0 KHz
Bit depth : 16 bits
Compression mode : Lossy
Stream size : 77.3 MiB (9%)
Alignment : Split accross interleaves
Interleave, duration : 40 ms (1.00 video frame)
Interleave, preload duration : 500 ms
--    -- --

KottoSOFT

Post 14-Apr-2016 09:44

[Quote]

Крестный отец / The Godfather (1972) BDRip - Производство: США / Paramount Pictures, Alfran Productions
Жанр: Драма, Криминал
Режиссер: Френсис Форд Коппола
Актеры: Марлон Брандо, Аль Пачино, Джеймс Каан, Роберт Дювалл, Стерлинг Хейден, Ричард С. Кастеллано, Талия Шайр, Сальваторе Корситто, Аль Леттьери, Дайан Китон, Джон Марли, Ричард Конте, Ричард Брайт, Джанни Руссо, Моргана Кинг, Аль Мартино, Тере Ливрано, Ленни Монтана, Джон Мартино, Джон Казале, Эйб Вигода, Алекс Рокко, Тони Джорджо, Вито Скотти, Руди Бонд, Симонетта Стефанелли, Анджело Инфанти
Описание:
Криминальная сага, повествующая о нью-йоркской сицилийской мафиозной семье Корлеоне. Фильм охватывает период 1945-1955 годов. Глава семьи, Дон Вито Корлеоне, выдаёт замуж свою дочь. В это время со Второй мировой войны возвращается его любимый сын Майкл. Майкл, герой войны, гордость семьи, не выражает желания заняться жестоким семейным бизнесом. Дон Корлеоне ведёт дела по старым правилам, но наступают иные времена, и появляются люди, желающие изменить сложившиеся порядки. На Дона Корлеоне совершается покушение.

Возраст: 16+ (зрителям, достигшим 16 лет)
Рейтинг MPAA: R (лицам до 17 лет обязательно присутствие взрослого)
Релиз от: PirateMKV
Продолжительность: 02:57:09
Качество видео: BDRip
Перевод: Многоголосый закадровый, профессиональный (Киномания)
Язык субтитров: Итальянский, английский, русский
Вид субтитров: Вшитые (отключаемые)
Видео: HEVC/H.265, 1920x1080, ~6566 Kbps
Аудио: AC3, 6 ch, 448 Kbps, CBR

Mediainfo:

Код:
Общее
Уникальный идентификатор                 : 213041977037615520632821166673894843128 (0xA046646DB20ADCD29FE523C23DC422F8)
Полное имя                               : E:\Video\Крестный отец (The Godfather).mkv
Формат                                   : Matroska
Версия формата                           : Version 4 / Version 2
Размер файла                             : 8,68 Гбайт
Продолжительность                        : 2 ч. 57 м.
Общий поток                              : 7016 Кбит/сек
Название фильма                          : Крестный отец / The Godfather
Дата кодирования                         : UTC 2016-04-13 11:55:03
Программа кодирования                    : mkvmerge v9.0.1 ('Obstacles') 64bit
Библиотека кодирования                   : libebml v1.3.3 + libmatroska v1.4.4
Attachments                              : eb33d97ae819cf2ad6ba323eaef3cbcd.jpg
Видео
Идентификатор                            : 1
Формат                                   : HEVC
Формат/Информация                        : High Efficiency Video Coding
Профиль формата                          : [email protected]@Main
Идентификатор кодека                     : V_MPEGH/ISO/HEVC
Продолжительность                        : 2 ч. 57 м.
Битрейт                                  : 6566 Кбит/сек
Ширина                                   : 1920 пикселей
Высота                                   : 1080 пикселей
Соотношение сторон                       : 16:9
Режим частоты кадров                     : Постоянный
Частота кадров                           : 23,976 (24000/1001) кадра/сек
Цветовое пространство                    : YUV
Субдискретизация насыщенности            : 4:2:0
Битовая глубина                          : 8 бит
Бит/(Пиксели*Кадры)                      : 0.132
Размер потока                            : 8,12 Гбайт (94%)
Библиотека кодирования                   : x265 1.9:[Windows][GCC 5.2.0][64 bit] 8bit
Настройки программы                      : wpp / ctu=64 / min-cu-size=8 / max-tu-size=32 / tu-intra-depth=3 / tu-inter-depth=3 / me=2 / subme=4 / merange=57 / no-rect / no-amp / max-merge=3 / temporal-mvp / no-early-skip / rdpenalty=0 / no-tskip / no-tskip-fast / strong-intra-smoothing / no-lossless / no-cu-lossless / no-constrained-intra / fast-intra / open-gop / no-temporal-layers / interlace=0 / keyint=250 / min-keyint=23 / scenecut=40 / rc-lookahead=40 / lookahead-slices=0 / bframes=8 / bframe-bias=0 / b-adapt=2 / ref=4 / limit-refs=1 / limit-modes / weightp / weightb / aq-mode=1 / qg-size=32 / aq-strength=2.00 / cbqpoffs=0 / crqpoffs=0 / rd=4 / psy-rd=1.00 / rdoq-level=0 / psy-rdoq=0.00 / signhide / deblock=-1:-1 / sao / no-sao-non-deblock / b-pyramid / no-cutree / no-intra-refresh / rc=crf / crf=23.5 / qcomp=0.60 / qpmin=0 / qpmax=51 / qpstep=4 / vbv-maxrate=12000 / vbv-bufsize=12000 / crf-max=0.0 / ipratio=1.40 / pbratio=1.30
Язык                                     : English
Default                                  : Да
Forced                                   : Нет
Цветовой диапазон                        : Limited
Коэффициенты матрицы                     : BT.709
Аудио
Идентификатор                            : 6
Формат                                   : AC-3
Формат/Информация                        : Audio Coding 3
Расширение режима                        : CM (complete main)
Параметр Endianness формата              : Big
Идентификатор кодека                     : A_AC3
Продолжительность                        : 2 ч. 57 м.
Вид битрейта                             : Постоянный
Битрейт                                  : 448 Кбит/сек
Каналы                                   : 6 каналов
Расположение каналов                     : Front: L C R, Side: L R, LFE
Частота                                  : 48,0 КГц
Частота кадров                           : 31,250 кадров/сек (1536 spf)
Метод сжатия                             : С потерями
Размер потока                            : 568 Мбайт (6%)
Заголовок                                : Перевод: Профессиональный (многоголосый закадровый) Киномания
Язык                                     : Russian
Default                                  : Да
Forced                                   : Нет
Текст #1
Идентификатор                            : 2
Формат                                   : UTF-8
Идентификатор кодека                     : S_TEXT/UTF8
Идентификатор кодека/Информация          : UTF-8 Plain Text
Продолжительность                        : 44 м.
Битрейт                                  : 1 бит/сек
Count of elements                        : 9
Размер потока                            : 340 байт (0%)
Заголовок                                : Forced
Язык                                     : Italian
Default                                  : Нет
Forced                                   : Да
Текст #2
Идентификатор                            : 3
Формат                                   : UTF-8
Идентификатор кодека                     : S_TEXT/UTF8
Идентификатор кодека/Информация          : UTF-8 Plain Text
Продолжительность                        : 1 ч. 23 м.
Битрейт                                  : 3 бит/сек
Count of elements                        : 74
Размер потока                            : 2,05 Кбайт (0%)
Заголовок                                : Forced
Язык                                     : English
Default                                  : Нет
Forced                                   : Нет
Текст #3
Идентификатор                            : 4
Формат                                   : UTF-8
Идентификатор кодека                     : S_TEXT/UTF8
Идентификатор кодека/Информация          : UTF-8 Plain Text
Продолжительность                        : 2 ч. 55 м.
Битрейт                                  : 41 бит/сек
Count of elements                        : 1261
Размер потока                            : 53,2 Кбайт (0%)
Заголовок                                : Normal
Язык                                     : Italian
Default                                  : Нет
Forced                                   : Нет
Текст #4
Идентификатор                            : 5
Формат                                   : UTF-8
Идентификатор кодека                     : S_TEXT/UTF8
Идентификатор кодека/Информация          : UTF-8 Plain Text
Продолжительность                        : 2 ч. 51 м.
Битрейт                                  : 42 бит/сек
Count of elements                        : 1312
Размер потока                            : 53,8 Кбайт (0%)
Заголовок                                : Normal
Язык                                     : English
Default                                  : Нет
Forced                                   : Нет
Текст #5
Идентификатор                            : 7
Формат                                   : UTF-8
Идентификатор кодека                     : S_TEXT/UTF8
Идентификатор кодека/Информация          : UTF-8 Plain Text
Продолжительность                        : 2 ч. 51 м.
Битрейт                                  : 67 бит/сек
Count of elements                        : 1324
Размер потока                            : 85,1 Кбайт (0%)
Заголовок                                : iTunes
Язык                                     : Russian
Default                                  : Нет
Forced                                   : Нет
Текст #6
Идентификатор                            : 8
Формат                                   : UTF-8
Идентификатор кодека                     : S_TEXT/UTF8
Идентификатор кодека/Информация          : UTF-8 Plain Text
Продолжительность                        : 2 ч. 51 м.
Битрейт                                  : 77 бит/сек
Count of elements                        : 1686
Размер потока                            : 97,0 Кбайт (0%)
Заголовок                                : Карусель
Язык                                     : Russian
Default                                  : Да
Forced                                   : Нет
Текст #7
Идентификатор                            : 9
Формат                                   : UTF-8
Идентификатор кодека                     : S_TEXT/UTF8
Идентификатор кодека/Информация          : UTF-8 Plain Text
Продолжительность                        : 2 ч. 51 м.
Битрейт                                  : 82 бит/сек
Count of elements                        : 1804
Размер потока                            : 104 Кбайт (0%)
Заголовок                                : Позитив-мультимедиа
Язык                                     : Russian
Default                                  : Нет
Forced                                   : Нет
Меню
00:00:00.000                             : en:00:00:00.000
00:07:30.784                             : en:00:07:30.784
00:18:03.624                             : en:00:18:03.624
00:27:03.455                             : en:00:27:03.455
00:34:20.183                             : en:00:34:20.183
00:40:17.749                             : en:00:40:17.749
00:48:52.304                             : en:00:48:52.304
00:58:18.328                             : en:00:58:18.328
01:08:44.579                             : en:01:08:44.579
01:15:49.003                             : en:01:15:49.003
01:30:00.687                             : en:01:30:00.687
01:37:06.863                             : en:01:37:06.863
01:46:18.163                             : en:01:46:18.163
01:49:30.189                             : en:01:49:30.189
01:53:57.664                             : en:01:53:57.664
02:03:21.311                             : en:02:03:21.311
02:06:37.256                             : en:02:06:37.256
02:13:28.125                             : en:02:13:28.125
02:19:47.462                             : en:02:19:47.462
02:25:56.706                             : en:02:25:56.706
02:36:56.032                             : en:02:36:56.032
02:44:43.540                             : en:02:44:43.540
02:53:05.750                             : en:02:53:05.750
XMP
Xmp.video.FileName           : E:\Video\Крестный отец (The Godfather).mkv
Xmp.video.FileSize           : -9.53674e-007
Xmp.video.MimeType           : video/matroska
Xmp.video.EBMLVersion        : 1
Xmp.video.EBMLReadVersion    : 1
Xmp.video.DocType            : matroska
Xmp.video.DocTypeVersion     : 4
Xmp.video.DocTypeReadVersion : 2
Xmp.video.TimecodeScale      : 0.001
Xmp.video.MuxingApp          : libebml v1.3.3 + libmatroska v1.4.4
Xmp.video.WritingApp         : mkvmerge v9.0.1 ('Obstacles') 64bit
Xmp.video.Duration           : 10629161
Xmp.video.DateUTC            : 482241303
Xmp.video.Title              : Крестный отец / The Godfather
Xmp.video.TotalStream        : 27
Xmp.video.TrackLacing        : No
Xmp.video.Codec              : V_MPEGH/ISO/HEVC
Xmp.video.FrameRate          : 23.976
Xmp.video.Width              : 1920
Xmp.video.Height             : 1080
Xmp.video.SubTDefaultOn      : No
Xmp.video.SubTTrackForced    : Yes
Xmp.video.SubTTrackLacing    : No
Xmp.video.SubTCodec          : S_TEXT/UTF8
Xmp.video.SubTLang           : rus
Xmp.video.TrackName          : Позитив-мультимедиа
Xmp.audio.Compressor         : A_AC3
Xmp.audio.DefaultDuration    : 32000
Xmp.audio.TrackLang          : rus
Xmp.audio.SampleRate         : 48000
Xmp.video.AttachFileName     : eb33d97ae819cf2ad6ba323eaef3cbcd.jpg
Xmp.video.AttachFileMIME     : image/jpeg
Xmp.video.AttachFileUID      : 5574855362368084386
Xmp.video.AttachFileDesc     : BD cover
Xmp.video.AspectRatio        : 16:9
Скриншоты:
       

Region_13

Post 12-Apr-2016 12:44

[Quote]

Мужество в бою / Courage Under Fire Перевод: Профессиональный (многоголосый, закадровый), cубтитры: отсутствуют
Страна: США
Режиссер: Эдвард Цвик
Жанр: боевик, детектив, военный
Продолжительность: 01:56:28
Год выпуска: 1996
В ролях: Дензел Вашингтон, Мег Райан, Лу Даймонд Филлипс, Майкл Мориарти, Мэтт Дэймон, Бронсон Пинчот, Сет Гиллиам, Реджина Тейлор, Желько Иванек, Скотт Гленн
Описание: Февраль 1991 года. Мир следит за войной в Персидском Заливе. Полковник Серлинг, командир танкового подразделения, совершает страшную ошибку во время ночной атаки, в результате чего погибают американские военнослужащие. Начальство решает замять это дело и отправляет Серлинга на бумажную работу в Пентагон. Ему поручают проверить, годится ли кандидат на Медаль Почета Конгресса, капитан Карен Уолден, для вручения этой награды за проявленное ею «мужество в бою». В ходе расследования честный служака натыкается на множество фактов, которые военное командование США хотело бы скрыть.


Качество:HDRip-AVC
Формат:MKV
Видео Кодек:AVC
Аудио Кодек:AC3
Видео: 1280 x 688 (1.85:1), 23.976 fps, AVC, х264, [email protected], ~ 2318 Kbps, 0.110 bit/pixel
Аудио: 48 kHz, AC3 Dolby Digital, 3/2 (L,C,R,l,r) + LFE ch, ~384 kbps

MI

Код:
General
Unique ID : 180913398679574784198613343534446656528 (0x881AA7372F04C732BE338C12FF51BC10)
Complete name : F:\Myzhestvo.v.bou.1996.HDRip-AVC.H.264..2,18 Gb.RG.Films.mkv
Format : Matroska
Format version : Version 2
File size : 2.20 GiB
Duration : 1h 56mn
Overall bit rate : 2 702 Kbps
Encoded date : UTC 2013-08-27 18:25:16
Writing application : mkvmerge v5.8.0 ('No Sleep / Pillow') built on Sep 2 2012 15:37:04
Writing library : libebml v1.2.3 + libmatroska v1.3.0
Video
ID : 1
Format : AVC
Format/Info : Advanced Video Codec
Format profile : Hig[email protected]
Format settings, CABAC : Yes
Format settings, ReFrames : 8 frames
Codec ID : V_MPEG4/ISO/AVC
Duration : 1h 56mn
Bit rate : 2 318 Kbps
Width : 1 280 pixels
Height : 688 pixels
Display aspect ratio : 1.85:1
Frame rate mode : Constant
Frame rate : 23.976 fps
Color space : YUV
Chroma subsampling : 4:2:0
Bit depth : 8 bits
Scan type : Progressive
Bits/(Pixel*Frame) : 0.110
Stream size : 1.84 GiB (84%)
Writing library : x264 core 125 r2208 d9d2288
Encoding settings : cabac=1 / ref=8 / deblock=1:-1:-1 / analyse=0x3:0x133 / me=umh / subme=10 / psy=1 / psy_rd=1.00:0.10 / mixed_ref=1 / me_range=24 / chroma_me=1 / trellis=2 / 8x8dct=1 / cqm=0 / deadzone=21,11 / fast_pskip=0 / chroma_qp_offset=-3 / threads=12 / lookahead_threads=2 / sliced_threads=0 / nr=0 / decimate=1 / interlaced=0 / bluray_compat=0 / constrained_intra=0 / bframes=3 / b_pyramid=2 / b_adapt=2 / b_bias=0 / direct=3 / weightb=1 / open_gop=0 / weightp=2 / keyint=250 / keyint_min=23 / scenecut=40 / intra_refresh=0 / rc_lookahead=50 / rc=2pass / mbtree=1 / bitrate=2318 / ratetol=1.0 / qcomp=0.60 / qpmin=0 / qpmax=69 / qpstep=4 / cplxblur=20.0 / qblur=0.5 / ip_ratio=1.40 / aq=1:1.00
Default : Yes
Forced : No
Audio
ID : 2
Format : AC-3
Format/Info : Audio Coding 3
Mode extension : CM (complete main)
Format settings, Endianness : Big
Codec ID : A_AC3
Duration : 1h 56mn
Bit rate mode : Constant
Bit rate : 384 Kbps
Channel(s) : 6 channels
Channel positions : Front: L C R, Side: L R, LFE
Sampling rate : 48.0 KHz
Bit depth : 16 bits
Compression mode : Lossy
Stream size : 320 MiB (14%)
Default : Yes
Forced : No

Скриншоты

                             
 

The time now is: Today 15:50

All times are GMT + 3 Hours