Today is a free download without charge Download

Search found 500 matches

Author Message

Clavik

Post 06-Oct-2019 22:57

[Quote]

Путешествия / Европа / HDlife: Smart Travels / Europe (2012) HDTV [H.264/1080i] (Часть 2, 14 фильмов) - Производство: США, Small World Productions Inc., Seattle
Жанр: Документальный, история, путешествия
Участники: ведущий: Руди Макса
Описание:
Smart Travels: Европа - от города знаменитой статуи Давида, работы Микеланджело, до неоновых ночных клубов Парижа и уютных деревенских церквей, предлагает лучшие сюжеты о Европе от Руди Максы.
Релиз от: BLUEBIRD
Продолжительность: серии x ~00:26:38
Качество видео: HDTV
Перевод: Одноголосый закадровый, профессиональный (Видеопродакшн)
Субтитры: отсутствуют
Видео: AVC/H.264, 1920x1080, ~6961 Kbps
Аудио: MP2, 2 ch, 192 Kbps

Mediainfo: (тех. данные всех серий идентичны)

Общее
Уникальный идентификатор : 189500215071171598475697112180300249449 (0x8E9069F335BE35AFB9601115E6B0F969)
Полное имя : F:\КИНО\HDLIFE_PART_2_HDTV_BLUEBIRD\Florence.mkv
Формат : Matroska
Версия формата : Version 2
Размер файла : 1,36 Гбайт
Продолжительность : 26 м. 38 с.
Общий поток : 7298 Кбит/сек
Дата кодирования : UTC 2012-05-02 13:11:52
Программа кодирования : mkvmerge v5.5.0 ('Healer') built on Apr 6 2012 21:43:24
Библиотека кодирования : libebml v1.2.3 + libmatroska v1.3.0
Видео
Идентификатор : 1
Формат : AVC
Формат/Информация : Advanced Video Codec
Профиль формата : [email protected]
Настройки формата : CABAC / 4 Ref Frames
Параметр CABAC формата : Да
Параметр RefFrames формата : 4 кадра
Идентификатор кодека : V_MPEG4/ISO/AVC
Продолжительность : 26 м. 38 с.
Битрейт : 6961 Кбит/сек
Ширина : 1920 пикселей
Высота : 1080 пикселей
Соотношение сторон : 16:9
Режим частоты кадров : Постоянный
Частота кадров : 25,000 кадров/сек
Стандарт вещания : Component
Цветовое пространство : YUV
Субдискретизация насыщенности : 4:2:0
Битовая глубина : 8 бит
Тип развёртки : Чересстрочная
Метод сохранения типа развёртки : Раздельные поля
Порядок развёртки : Верхнее поле первое
Бит/(Пиксели*Кадры) : 0.134
Размер потока : 1,30 Гбайт (95%)
Default : Да
Forced : Нет
Цветовой диапазон : Limited
Основные цвета : BT.709
Характеристики трансфера : BT.709
Коэффициенты матрицы : BT.709
Аудио
Идентификатор : 2
Формат : MPEG Audio
Версия формата : Version 1
Профиль формата : Layer 2
Идентификатор кодека : A_MPEG/L2
Идентификатор кодека/Подсказка : MP2
Продолжительность : 26 м. 38 с.
Вид битрейта : Постоянный
Битрейт : 192 Кбит/сек
Каналы : 2 канала
Частота : 48,0 КГц
Метод сжатия : С потерями
Размер потока : 36,6 Мбайт (3%)
Язык : Russian
Default : Да
Forced : Нет

Содержание:

Английская глубинка
Барселона и Коста-Браво
Бельгия
Европа эпохи возрождения
Флоренция
Лондон
Голландия и Амстердам
Копенгаген и Дания
Мадрид
Мюнхен и Бавария
Париж
Рим
Прованс
Города-крепости Тосканы и Умбрии
Скриншоты:
       

Clavik

Post 03-Oct-2019 00:12

[Quote]

Загадки тёмной материи / The Mystery of Dark Matter (2012) WEB-DL [H.264/1080p] - Производство: Франция, ARTE France, Scientifilms, CEA, CNRS Images
Жанр: Документальный, познавательный, научно-популярный
Режиссер: Сесиль Данжан
Описание:
Факты упрямая вещь: масса всех объектов во Вселенной, которые мы знаем и можем наблюдать, составляет лишь 5%. Все остальное - это неизвестный материал, материя, которую мы не видим и не можем найти. Её назвали "чёрная материя". Какова природа этого феномена и существует ли он? Если да, то это приведет к необходимости переписать все постулаты физики со времен Ньютона и Эйнштейна...

Релиз от: DaVinci (Science)
Продолжительность: 00:54:56
Качество видео: WEB-DL
Перевод: Одноголосый закадровый, профессиональный
Субтитры: Английские, Английские (SDH)
Видео: AVC/H.264, 1920x1080, ~7949 Kbps
Аудио#1: AC3, 2 ch, 192 Kbps | Русский (ГТРК "Культура")
Аудио#2: AC3, 2 ch, 192 Kbps | Украинский (Перший)
Аудио#3: AC3, 2 ch, 224 Kbps | Английский

Mediainfo:

Общее
Уникальный идентификатор : 246805040714738674062985900478811705338 (0xB9ACEBFD4D2878BDB1BA1D0EECED8FFA)
Полное имя : F:\КИНО\The.Mystery.of.Dark.Matter.(2012).1080p.WEB-DL.Rus.Ukr.Eng-BLUEBIRD.mkv
Формат : Matroska
Версия формата : Version 4
Размер файла : 3,28 Гбайт
Продолжительность : 54 м. 55 с.
Режим общего битрейта : Переменный
Общий поток : 8560 Кбит/сек
Дата кодирования : UTC 2018-01-04 11:13:18
Программа кодирования : mkvmerge v8.0.0 ('Til The Day That I Die') 32bit
Библиотека кодирования : libebml v1.3.1 + libmatroska v1.4.2
Видео
Идентификатор : 1
Формат : AVC
Формат/Информация : Advanced Video Codec
Профиль формата : [email protected]
Настройки формата : CABAC / 4 Ref Frames
Параметр CABAC формата : Да
Параметр RefFrames формата : 4 кадра
Идентификатор кодека : V_MPEG4/ISO/AVC
Продолжительность : 54 м. 55 с.
Вид битрейта : Переменный
Битрейт : 7949 Кбит/сек
Максимальный битрейт : 15,0 Мбит/сек
Ширина : 1920 пикселей
Высота : 1080 пикселей
Соотношение сторон : 16:9
Режим частоты кадров : Постоянный
Частота кадров : 25,000 кадров/сек
Цветовое пространство : YUV
Субдискретизация насыщенности : 4:2:0
Битовая глубина : 8 бит
Тип развёртки : Прогрессивная
Бит/(Пиксели*Кадры) : 0.153
Размер потока : 3,05 Гбайт (93%)
Default : Да
Forced : Нет
Цветовой диапазон : Limited
Основные цвета : BT.709
Характеристики трансфера : BT.709
Коэффициенты матрицы : BT.709
Аудио #1
Идентификатор : 2
Формат : AC-3
Формат/Информация : Audio Coding 3
Коммерческое название : Dolby Digital
Идентификатор кодека : A_AC3
Продолжительность : 54 м. 55 с.
Вид битрейта : Постоянный
Битрейт : 192 Кбит/сек
Каналы : 2 канала
ChannelLayout : L R
Частота : 48,0 КГц
Частота кадров : 31,250 кадров/сек (1536 SPF)
Метод сжатия : С потерями
Размер потока : 75,4 Мбайт (2%)
Заголовок : rus 2.0
Язык : Russian
ServiceKind/String : Complete Main
Default : Да
Forced : Да
Аудио #2
Идентификатор : 3
Формат : AC-3
Формат/Информация : Audio Coding 3
Коммерческое название : Dolby Digital
Идентификатор кодека : A_AC3
Продолжительность : 54 м. 55 с.
Вид битрейта : Постоянный
Битрейт : 192 Кбит/сек
Каналы : 2 канала
ChannelLayout : L R
Частота : 48,0 КГц
Частота кадров : 31,250 кадров/сек (1536 SPF)
Метод сжатия : С потерями
Размер потока : 75,4 Мбайт (2%)
Заголовок : ukr 2.0
Язык : Ukrainian
ServiceKind/String : Complete Main
Default : Нет
Forced : Нет
Аудио #3
Идентификатор : 4
Формат : AC-3
Формат/Информация : Audio Coding 3
Коммерческое название : Dolby Digital
Идентификатор кодека : A_AC3
Продолжительность : 54 м. 55 с.
Вид битрейта : Постоянный
Битрейт : 224 Кбит/сек
Каналы : 2 канала
ChannelLayout : L R
Частота : 48,0 КГц
Частота кадров : 31,250 кадров/сек (1536 SPF)
Метод сжатия : С потерями
Размер потока : 88,0 Мбайт (3%)
Заголовок : eng 2.0
Язык : English
ServiceKind/String : Complete Main
Default : Нет
Forced : Нет
Текст #1
Идентификатор : 5
Формат : UTF-8
Идентификатор кодека : S_TEXT/UTF8
Идентификатор кодека/Информация : UTF-8 Plain Text
Продолжительность : 54 м. 9 с.
Битрейт : 83 бит/сек
ElementCount : 894
Размер потока : 33,2 Кбайт (0%)
Заголовок : SRT
Язык : English
Default : Нет
Forced : Нет
Текст #2
Идентификатор : 6
Формат : UTF-8
Идентификатор кодека : S_TEXT/UTF8
Идентификатор кодека/Информация : UTF-8 Plain Text
Продолжительность : 54 м. 26 с.
Битрейт : 86 бит/сек
ElementCount : 916
Размер потока : 34,5 Кбайт (0%)
Заголовок : SDH
Язык : English
Default : Нет
Forced : Нет
Скриншоты:
       

Clavik

Post 02-Oct-2019 19:58

[Quote]

Русская пятёрка / The Russian Five (2018) WEB-DL [H.264/1080p]- Производство: Канада, Россия, США / Lucky Hat Entertainment
Жанр: Документальный, спорт, история
Режиссер: Джошуа Риль
Актеры: Владимир Константинов, Вячеслав Фетисов, Игорь Ларионов, Сергей Федоров, Вячеслав Козлов, Джефф Дэниелс, Джим Девеллано, Уэйн Гретцки
Описание:
Документальный фильм о главном русском сочетании в истории «Детройта» и всей НХЛ. В нём — истории появления каждого из участников — Константинова, Фетисова, Ларионова, Федорова и Козлова — в команде и рассказ об их игре, которая привела «Ред Уингс» к победам в Кубке Стэнли.

Возраст: 12+ (зрителям, достигшим 12 лет)
Продолжительность: 01:38:47
Качество видео: WEB-DL
Перевод: Профессиональный многоголосый (iTunes)
Субтитры: Русские (Forced, full)
Видео: AVC/H.264, 1920x1080, ~9022 Kbps
Аудио #1: AC3, 6 ch, 384 Kbps - Русский
Аудио #2: E-AC3, 2 ch, 224 Kbps - Английский

MediaInfo:

Общее
Уникальный идентификатор : 244958899373012644947055599609383778139 (0xB8495E319F1411058324C4116C64775B)
Полное имя : D:\NNM\Russian_Five\The.Russian.Five.2018.WEB-DL.1080p.mkv
Формат : Matroska
Версия формата : Version 4
Размер файла : 6,78 Гбайт
Продолжительность : 1 ч. 38 м.
Общий поток : 9825 Кбит/сек
Дата кодирования : UTC 2019-10-02 12:43:35
Программа кодирования : mkvmerge v6.9.1 ('Blue Panther') 32bit built on Apr 18 2014 18:15:44
Библиотека кодирования : libebml v1.3.0 + libmatroska v1.4.1
Видео
Идентификатор : 1
Формат : AVC
Формат/Информация : Advanced Video Codec
Профиль формата : [email protected]
Настройки формата : CABAC / 4 Ref Frames
Параметр CABAC формата : Да
Параметр RefFrames формата : 4 кадра
Идентификатор кодека : V_MPEG4/ISO/AVC
Продолжительность : 1 ч. 38 м.
Вид битрейта : Постоянный
Битрейт : 9022 Кбит/сек
Номинальный битрейт : 10000 Кбит/сек
Ширина : 1920 пикселей
Высота : 1080 пикселей
Соотношение сторон : 16:9
Режим частоты кадров : Постоянный
Частота кадров : 23,976 (24000/1001) кадра/сек
Цветовое пространство : YUV
Субдискретизация насыщенности : 4:2:0
Битовая глубина : 8 бит
Тип развёртки : Прогрессивная
Бит/(Пиксели*Кадры) : 0.181
Размер потока : 6,23 Гбайт (92%)
Default : Да
Forced : Нет
Цветовой диапазон : Limited
Основные цвета : BT.709
Характеристики трансфера : BT.709
Коэффициенты матрицы : BT.709
Аудио #1
Идентификатор : 2
Формат : AC-3
Формат/Информация : Audio Coding 3
Коммерческое название : Dolby Digital
Идентификатор кодека : A_AC3
Продолжительность : 1 ч. 38 м.
Вид битрейта : Постоянный
Битрейт : 384 Кбит/сек
Каналы : 6 каналов
ChannelLayout : L R C LFE Ls Rs
Частота : 48,0 КГц
Частота кадров : 31,250 кадров/сек (1536 SPF)
Битовая глубина : 16 бит
Метод сжатия : С потерями
Размер потока : 271 Мбайт (4%)
Заголовок : iTunes
Язык : Russian
ServiceKind/String : Complete Main
Default : Да
Forced : Нет
Аудио #2
Идентификатор : 3
Формат : E-AC-3
Формат/Информация : Enhanced AC-3
Коммерческое название : Dolby Digital Plus
Идентификатор кодека : A_EAC3
Продолжительность : 1 ч. 38 м.
Вид битрейта : Постоянный
Битрейт : 224 Кбит/сек
Каналы : 2 канала
ChannelLayout : L R
Частота : 48,0 КГц
Частота кадров : 31,250 кадров/сек (1536 SPF)
Метод сжатия : С потерями
Размер потока : 158 Мбайт (2%)
Язык : English
ServiceKind/String : Complete Main
Default : Нет
Forced : Нет
Текст #1
Идентификатор : 4
Формат : UTF-8
Идентификатор кодека : S_TEXT/UTF8
Идентификатор кодека/Информация : UTF-8 Plain Text
Заголовок : Forced
Язык : Russian
Default : Да
Forced : Да
Текст #2
Идентификатор : 5
Формат : UTF-8
Идентификатор кодека : S_TEXT/UTF8
Идентификатор кодека/Информация : UTF-8 Plain Text
Заголовок : Full
Язык : Russian
Default : Нет
Forced : Нет
Меню
00:00:00.000 : en:Глава 1
00:03:29.084 : en:Глава 2
00:09:44.084 : en:Глава 3
00:17:34.220 : en:Глава 4
00:28:02.223 : en:Глава 5
00:32:10.596 : en:Глава 6
00:35:56.863 : en:Глава 7
00:41:28.152 : en:Глава 8
00:50:47.044 : en:Глава 9
00:56:31.555 : en:Глава 10
01:05:38.393 : en:Глава 11
01:10:19.924 : en:Глава 12
01:17:39.780 : en:Глава 13
01:22:26.358 : en:Глава 14
01:27:51.433 : en:Глава 15
01:35:34.687 : en:Глава 16
Скриншоты:        

Clavik

Post 02-Oct-2019 19:44

[Quote]

Следы на Луне. 50 лет спустя / Footprints on the Moon. 50 years later (2019) WEB-DL [H.264/1080p-LQ] - Производство: США, Independent Film Channel (IFC)
Жанр: Документальный, история, космос
Режиссер: Алесь Кругляков
Участники: Нил Армстронг, Майкл Коллинз, Эдвин Олдрин, Джеймс Ловелл, Уильям Андерс, Фред Хейз
Описание:
Неизвестные страницы программы «Аполлон», уникальные интервью непосредственных участников лунной программы и тех, кто 20 июля 1969 года обеспечивал полет «Аполлона-11» в Центре пилотируемых космических полётов в Хьюстоне.
Продолжительность: 00:56:18
Качество видео: WEB-DL
Перевод: Одноголосый закадровый, профессиональный
Субтитры: отсутствуют
Видео: AVC/H.264, 1920x1080, ~7308 Kbps
Аудио: AAC, 2 ch, 192 Kbps

Mediainfo:

Общее
Уникальный идентификатор : 92287019672970211935911670644169132550 (0x456DD55E11E4D0D03D216A7B87F64A06)
Полное имя : F:\КИНО\Следы на Луне. 50 лет спустя.mkv
Формат : Matroska
Версия формата : Version 4
Размер файла : 2,95 Гбайт
Продолжительность : 56 м. 18 с.
Общий поток : 7507 Кбит/сек
Дата кодирования : UTC 2019-07-20 17:09:05
Программа кодирования : mkvmerge v35.0.0 ('All The Love In The World') 64-bit
Библиотека кодирования : libebml v1.3.9 + libmatroska v1.5.2
Видео
Идентификатор : 1
Формат : AVC
Формат/Информация : Advanced Video Codec
Профиль формата : [url=mailto:[email protected]][email protected][/url]
Настройки формата : 2 Ref Frames
Параметр CABAC формата : Нет
Параметр RefFrames формата : 2 кадра
Параметр GOP формата : M=3, N=13
Идентификатор кодека : V_MPEG4/ISO/AVC
Продолжительность : 56 м. 18 с.
Битрейт : 7308 Кбит/сек
Ширина : 1920 пикселей
Высота : 1080 пикселей
Соотношение сторон : 16:9
Режим частоты кадров : Постоянный
Частота кадров : 25,000 кадров/сек
Цветовое пространство : YUV
Субдискретизация насыщенности : 4:2:0
Битовая глубина : 8 бит
Тип развёртки : Прогрессивная
Бит/(Пиксели*Кадры) : 0.141
Размер потока : 2,87 Гбайт (97%)
Default : Да
Forced : Нет
Основные цвета : BT.709
Характеристики трансфера : BT.709
Коэффициенты матрицы : BT.709
Аудио
Идентификатор : 2
Формат : AAC LC
Формат/Информация : Advanced Audio Codec Low Complexity
Идентификатор кодека : A_AAC-2
Продолжительность : 56 м. 18 с.
Битрейт : 192 Кбит/сек
Каналы : 2 канала
ChannelLayout : L R
Частота : 48,0 КГц
Частота кадров : 46,875 кадров/сек (1024 SPF)
Метод сжатия : С потерями
Размер потока : 78,8 Мбайт (3%)
Default : Да
Forced : Нет
Скриншоты:
       

Clavik

Post 02-Oct-2019 09:45

[Quote]

History Channel. Нацисты на наркотиках: Гитлер и блицкриг (Наркотический блицкриг Гитлера) / Nazis on Drugs: Hitler and the Blitzkrieg (2019) HDTVRip - Производство: США, A&E Television Networks, History Channel
Жанр: Документальный, война, история, исследования
Описание:
Несмотря на разговоры о расовой чистоте, о духовном и физическом совершенстве, нацисты не чурались наркотиков.
Этот фильм исследует происхождение, воздействие и долгосрочные последствия спонсируемого государством употребления наркотиков, которые способствовали возвышению, а потом и падению Третьего Рейха. Новые источники информации, в том числе подробный журнал, который вел личный врач Гитлера, показывают степень зависимости не только его, но и всей нацистской верхушки от наркотиков.

Релиз от: alf62
Продолжительность: 01:14:40
Качество видео: HDTVRip
Перевод: Документальный дубляж (голос рассказчика - полный дубляж, интервью - слышна оригинальная речь)
Видео: AVC/H.264, 1280х720, ~4000 Kbps
Аудио: AAC, 2 ch, 192 Kbps

MediaInfo:

Общее
Уникальный идентификатор : 224090634735584176886174661893588502650 (0xA896494F81494CE09FEA627B5D3BC87A)
Полное имя : D:\Запись\Наркотический блицкриг Гитлера\HC.Нацисты.на.наркотиках.Гитлер.и.блицкриг.2019.HDTVRip.(720p).alf62.mkv
Формат : Matroska
Версия формата : Version 2
Размер файла : 2,18 Гбайт
Продолжительность : 1 ч. 14 м.
Общий поток : 4188 Кбит/сек
Дата кодирования : UTC 2019-09-30 08:40:50
Программа кодирования : mkvmerge v7.8.0 ('River Man') 32bit built on Apr 3 2015 12:11:22
Библиотека кодирования : libebml v1.3.1 + libmatroska v1.4.2
Видео
Идентификатор : 1
Формат : AVC
Формат/Информация : Advanced Video Codec
Профиль формата : [url=mailto:[email protected]][email protected][/url]
Параметр CABAC формата : Да
Параметр ReFrames формата : 8 кадров
Идентификатор кодека : V_MPEG4/ISO/AVC
Продолжительность : 1 ч. 14 м.
Номинальный битрейт : 4000 Кбит/сек
Ширина : 1280 пикселей
Высота : 720 пикселей
Соотношение сторон : 16:9
Режим частоты кадров : Постоянный
Частота кадров : 25,000 кадров/сек
Цветовое пространство : YUV
Субдискретизация насыщенности : 4:2:0
Битовая глубина : 8 бит
Тип развёртки : Прогрессивная
Бит/(Пиксели*Кадры) : 0.174
Библиотека кодирования : x264 core 146 r2538 121396c
Настройки программы : cabac=1 / ref=8 / deblock=1:-1:-2 / analyse=0x3:0x113 / me=umh / subme=10 / psy=1 / psy_rd=1.00:0.00 / mixed_ref=1 / me_range=32 / chroma_me=1 / trellis=2 / 8x8dct=1 / cqm=0 / deadzone=21,11 / fast_pskip=0 / chroma_qp_offset=-2 / threads=6 / lookahead_threads=1 / sliced_threads=0 / nr=0 / decimate=0 / interlaced=0 / bluray_compat=0 / constrained_intra=0 / bframes=9 / b_pyramid=2 / b_adapt=2 / b_bias=0 / direct=3 / weightb=1 / open_gop=0 / weightp=2 / keyint=250 / keyint_min=25 / scenecut=40 / intra_refresh=0 / rc_lookahead=40 / rc=2pass / mbtree=1 / bitrate=4000 / ratetol=1.0 / qcomp=0.60 / qpmin=10 / qpmax=51 / qpstep=4 / cplxblur=20.0 / qblur=0.5 / vbv_maxrate=14000 / vbv_bufsize=14000 / nal_hrd=none / filler=0 / ip_ratio=1.40 / aq=1:0.80
Default : Да
Forced : Нет
Аудио
Идентификатор : 2
Формат : AAC
Формат/Информация : Advanced Audio Codec
Профиль формата : LC
Идентификатор кодека : A_AAC
Продолжительность : 1 ч. 14 м.
Каналы : 2 канала
Расположение каналов : Front: L R
Частота : 48,0 КГц
Частота кадров : 46,875 кадров/сек (1024 spf)
Метод сжатия : С потерями
Default : Да
Forced : Нет
Скриншоты:
       

Дополнительные скриншоты:

     

Clavik

Post 18-Sep-2019 19:44

[Quote]

Вторая мировая война: взгляд из космоса / World War II From Space (2012) BDRip - Производство: США, A&E Television Networks, History Channel
Жанр: Документальный, война, история
Режиссер: Саймон Джордж
Описание:
Такой эту войну еще не видел никто. В этом фильме используется всевидящий глаз CGI, который предлагает спутниковое представление о конфликте, позволяя вам воспринимать его так, чтобы ключевые события и переломные моменты рассматривались в глобальной перспективе. Воссоздавая важные моменты, которые никогда не могли быть запечатлены на камеру, и иллюстрируя важность одновременности и скрытых последствий критических инцидентов, фильм представляет монументальные моменты войны в ранее невиданном контексте.
Политические альянсы начинают масштабную борьбу за ресурсы, разворачивается военно-промышленный комплекс, который в будущем определит исход самого великого вооруженного конфликта.

Релиз от: alf62
Большое СПАСИБО nyctalus, за сведение русской звуковой дорожки!
Продолжительность: 01:32:04
Качество видео: BDRip
Перевод: Документальный дубляж (голос рассказчика - дубляж, интервью - одноголосый закадровый перевод)
Субтитры: Русские (на непереведенные фрагменты 2 х 30 сек)
Видео: AVC/H.264, 1280х720, ~5000 Kbps
Аудио: AC3, 2 ch, 192 Kbps
Аудио 1: AC3, 2 ch, 192 Kbps | Русский
Аудио 2: ААС, 2 ch, 192 Kbps | Английский

MediaInfo:

Общее
Уникальный идентификатор : 235608263545295219434430037484777778501 (0xB1408040ED207AC09A68003DC9B02D45)
Полное имя : D:\Работа\WWII.From.Space.2012.1080p.BluRay.x264-BiQ[hotpena]\ВМВ.взгляд.из.космоса.2012.BDRip.(720p).alf62\ВМВ.взгляд.из.космоса.2012.BDRip.(720p).alf62.mkv
Формат : Matroska
Версия формата : Version 4 / Version 2
Размер файла : 3,45 Гбайт
Продолжительность : 1 ч. 32 м.
Общий поток : 5363 Кбит/сек
Дата кодирования : UTC 2019-09-17 20:29:28
Программа кодирования : mkvmerge v6.0.0 ('Coming Up For Air') built on Jan 20 2013 09:52:00
Библиотека кодирования : libebml v1.3.0 + libmatroska v1.4.0
Видео
Идентификатор : 1
Формат : AVC
Формат/Информация : Advanced Video Codec
Профиль формата : [url=mailto:[email protected]][email protected][/url]
Параметр CABAC формата : Да
Параметр ReFrames формата : 8 кадров
Идентификатор кодека : V_MPEG4/ISO/AVC
Продолжительность : 1 ч. 32 м.
Номинальный битрейт : 5000 Кбит/сек
Ширина : 1280 пикселей
Высота : 720 пикселей
Соотношение сторон : 16:9
Режим частоты кадров : Постоянный
Частота кадров : 23,976 (24000/1001) кадра/сек
Цветовое пространство : YUV
Субдискретизация насыщенности : 4:2:0
Битовая глубина : 8 бит
Тип развёртки : Прогрессивная
Бит/(Пиксели*Кадры) : 0.226
Библиотека кодирования : x264 core 146 r2538 121396c
Настройки программы : cabac=1 / ref=8 / deblock=1:-1:-2 / analyse=0x3:0x113 / me=umh / subme=10 / psy=1 / psy_rd=1.00:0.00 / mixed_ref=1 / me_range=32 / chroma_me=1 / trellis=2 / 8x8dct=1 / cqm=0 / deadzone=21,11 / fast_pskip=0 / chroma_qp_offset=-2 / threads=6 / lookahead_threads=1 / sliced_threads=0 / nr=0 / decimate=0 / interlaced=0 / bluray_compat=0 / constrained_intra=0 / bframes=9 / b_pyramid=2 / b_adapt=2 / b_bias=0 / direct=3 / weightb=1 / open_gop=0 / weightp=2 / keyint=250 / keyint_min=23 / scenecut=40 / intra_refresh=0 / rc_lookahead=40 / rc=2pass / mbtree=1 / bitrate=5000 / ratetol=1.0 / qcomp=0.60 / qpmin=10 / qpmax=51 / qpstep=4 / cplxblur=20.0 / qblur=0.5 / vbv_maxrate=14000 / vbv_bufsize=14000 / nal_hrd=none / filler=0 / ip_ratio=1.40 / aq=1:0.80
Default : Да
Forced : Нет
Аудио #1
Идентификатор : 2
Формат : AC-3
Формат/Информация : Audio Coding 3
Расширение режима : CM (complete main)
Параметр Endianness формата : Big
Идентификатор кодека : A_AC3
Продолжительность : 1 ч. 32 м.
Вид битрейта : Постоянный
Битрейт : 192 Кбит/сек
Каналы : 2 канала
Расположение каналов : Front: L R
Частота : 48,0 КГц
Частота кадров : 31,250 кадров/сек (1536 spf)
Метод сжатия : С потерями
Размер потока : 126 Мбайт (4%)
Default : Да
Forced : Да
Аудио #2
Идентификатор : 3
Формат : AAC
Формат/Информация : Advanced Audio Codec
Профиль формата : LC
Идентификатор кодека : A_AAC
Продолжительность : 1 ч. 32 м.
Каналы : 2 канала
Расположение каналов : Front: L R
Частота : 48,0 КГц
Частота кадров : 46,875 кадров/сек (1024 spf)
Метод сжатия : С потерями
Default : Нет
Forced : Нет
Скриншоты:
       

Дополнительные скриншоты:

       
       

Clavik

Post 11-Sep-2019 17:25

[Quote]

Илон Маск: Настоящий железный человек / Elon Musk: The Real Life Iron Man (2018) WEB-DLRip - Производство: Великобритания, Premiere Picture, SEIS Reel
Жанр: Документальный, биография
Режиссер: Соня Андерсон
Участники: Илон Маск, Эмбер Хёрд, Талула Райли, Кэри Купер, Даниэла Альберс, Джули Андерсон Аскенбрандт, Ричард Брэнсон, Сара Круддас, Стив Фаулер, Дэвид Айк
Описание:
История жизни и достижений одного из самых ярких людей нынешнего столетия - изобретателя, предпринимателя, филантропа и безудержного мечтателя. Родившийся в Южной Африке в семье простого инженера и фотомодели, Илон Маск за свои 48 лет успел основать около десятка успешных инновационных компаний, с нуля заработать на своих идеях несколько десятков миллиардов долларов, трижды жениться, стать отцом пятерых детей... И он не сомневается, что его SpaceX совершит пилотируемый полет на Марс не позднее 2025 года.

Релиз от: iTunes
Продолжительность: 01:14:17
Качество видео: WEB-DLRip
Перевод: Многоголосый закадровый, профессиональный (Мосфильм-Мастер)
Субтитры: отсутствуют
Видео: XviD, 688x384, ~1896 Kbps
Аудио: AC3, 2 ch, 192 Kbps

Mediainfo:

Общее
Полное имя : F:\КИНО\Илон Маск.Настоящий железный человек_2018_WEB-DLRip.avi
Формат : AVI
Формат/Информация : Audio Video Interleave
Размер файла : 1,09 Гбайт
Продолжительность : 1 ч. 14 м.
Общий поток : 2098 Кбит/сек
Название фильма : Илон Маск.Настоящий железный человек_2018_WEB-DLRip
Программа кодирования : VirtualDubMod 1.5.10.3 | www.virtualdub-fr.org || (build 2550/release)
Авторское право : порошков
Видео
Идентификатор : 0
Формат : MPEG-4 Visual
Профиль формата : Advanced [email protected]
Настройки формата : BVOP1 / Custom Matrix
Параметр BVOP формата : 1
Параметр QPel формата : Нет
Параметр GMC формата : Без точки перехода
Параметр матрицы формата : Выборочная
Идентификатор кодека : XVID
Идентификатор кодека/Подсказка : XviD
Продолжительность : 1 ч. 14 м.
Битрейт : 1897 Кбит/сек
Ширина : 688 пикселей
Высота : 384 пикселя
Соотношение сторон : 16:9
Частота кадров : 24,000 кадра/сек
Цветовое пространство : YUV
Субдискретизация насыщенности : 4:2:0
Битовая глубина : 8 бит
Тип развёртки : Прогрессивная
Метод сжатия : С потерями
Бит/(Пиксели*Кадры) : 0.299
Размер потока : 1008 Мбайт (90%)
Библиотека кодирования : XviD 73
Аудио
Идентификатор : 1
Формат : AC-3
Формат/Информация : Audio Coding 3
Коммерческое название : Dolby Digital
Идентификатор кодека : 2000
Продолжительность : 1 ч. 14 м.
Вид битрейта : Постоянный
Битрейт : 192 Кбит/сек
Каналы : 2 канала
ChannelLayout : L R
Частота : 48,0 КГц
Частота кадров : 31,250 кадров/сек (1536 SPF)
Битовая глубина : 16 бит
Метод сжатия : С потерями
Размер потока : 102 Мбайт (9%)
Выравнивание : Разделение по промежуткам
Продолжительность промежутка : 42 мс. (1,00 видеокадр)
Время предзагрузки промежутка : 500 мс.
ServiceKind/String : Complete Main
Скриншоты:
       

Адвокат FM 111

Post 29-May-2018 20:13

[Quote]

Сейчас такое время все куда-то бегут и мало времени у всех. Фильм показывает очень интересные взгляд на жизнь.

cfgkjhyhh

Post 08-Apr-2018 16:41

[Quote]

Здравствуйте!
Востановите, пожалуйста, закачку
https://dark-os.com/viewtopic.php?t=173034
Падение запада (Галина Царёва) [2013, Православно-познавательный, DVD5]
Желаю всем здоровья!

}{@R0N

Post 14-Oct-2017 17:07

[Quote]

Битва экстрасенсов - Телекомпания: ТНТ
Жанр: Реалити Шоу
Ведущий: Марат Башаров
Описание:
С 23 сентября на ТНТ стартует долгожданный 18-й сезон «Битвы экстрасенсов» — самого мистического, непредсказуемого и загадочного проекта российского ТВ. Масштабный кастинг, новые яркие участники и высокие технологии в мире экстрасенсорики. Новый сезон обещает стать самым необычным и удивительным в истории шоу. «Мне бы очень хотелось, чтобы в новом сезоне экстрасенсы поменьше обращали бы внимание на свою самореализацию, а больше помогали людям. Ведь каждый сезон к нам обращаются те, кто действительно ждет помощи. И это, по-моему, для людей со сверхспособностями должно быть приоритетным!», — Марат Башаров, ведущий проекта.
Продолжительность: ~ 01:10:12
Качество видео: SATRip
Субтитры: Отсутствуют
Реклама: Присутствуют вставки текстовой рекламы
Видео: MPEG4, XviD, 720x400 (16:9), 25.000 fps, 1 800 Kbps (0.250 bit/pixel)
Аудио: MP3, 48.0 KHz, 2 ch, 128 Kbps, CBR

Mediainfo:

Код:
Общее
Полное имя                               : D:\[1]\Битва экстрасенсов\Битва экстрасенсов. Сезон 18. Выпуск 04 (2017.10.14).avi
Формат                                   : AVI
Формат/Информация                        : Audio Video Interleave
Размер файла                             : 975 Мбайт
Продолжительность                        : 1 ч. 10 м.
Общий поток                              : 1941 Кбит/сек
Видео
Идентификатор                            : 0
Формат                                   : MPEG-4 Visual
Профиль формата                          : Advanced [email protected]
Параметр BVOP формата                    : 2
Параметр QPel формата                    : Нет
Параметр GMC формата                     : Без точки перехода
Параметр матрицы формата                 : Default (H.263)
Идентификатор кодека                     : XVID
Идентификатор кодека/Подсказка           : XviD
Продолжительность                        : 1 ч. 10 м.
Битрейт                                  : 1800 Кбит/сек
Ширина                                   : 720 пикселей
Высота                                   : 400 пикселей
Соотношение сторон                       : 16:9
Частота кадров                           : 25,000 кадров/сек
Цветовое пространство                    : YUV
Субдискретизация насыщенности            : 4:2:0
Битовая глубина                          : 8 бит
Тип развёртки                            : Прогрессивная
Метод сжатия                             : С потерями
Бит/(Пиксели*Кадры)                      : 0.250
Размер потока                            : 904 Мбайт (93%)
Библиотека кодирования                   : XviD 1.2.1 (UTC 2008-12-04)
Аудио
Идентификатор                            : 1
Формат                                   : MPEG Audio
Версия формата                           : Version 1
Профиль формата                          : Layer 3
Режим                                    : Joint stereo
Расширение режима                        : MS Stereo
Идентификатор кодека                     : 55
Идентификатор кодека/Подсказка           : MP3
Продолжительность                        : 1 ч. 10 м.
Вид битрейта                             : Постоянный
Битрейт                                  : 128 Кбит/сек
Каналы                                   : 2 канала
Частота                                  : 48,0 КГц
Метод сжатия                             : С потерями
Размер потока                            : 64,3 Мбайт (7%)
Выравнивание                             : Соединение по промежуткам
Продолжительность промежутка             : 24  мс. (0,60 видеокадр)
Библиотека кодирования                   : LAME3.99r
Настройки программы                      : -m j -V 4 -q 9 -lowpass 17 -b 128
Скриншоты:
       

siabr

Post 03-Aug-2017 16:25

[Quote]

Где остальные 8 сезонов?

victorhulcko

Post 23-Jul-2017 10:45

[Quote]

Малороссия
Дата выхода: 18 июля 2017
Страна: Украина ДНР
Жанр: Документальный, Реальные события
Продолжительность: 00:57:30- Описание: 18 июля 2017 года, в столице Донецкой Народной Республики рассмотрели политическую декларацию о создании нового государства, которое сможет стать правопреемником «Украины». Новое государственное образование предположительно будет состоять из 19 областей бывшей Украины и носить название Малороссия с центром нового государства в Донецке. Об этом с места проведения форума «Донбасс говорит» сообщает корреспондент официального сайта ДНР. «Все мы здесь собрались говорить о будущем. Мы предлагаем план реинтеграции страны через закон и Конституцию. Мы должны построить новую страну, в которой не забыты понятия совести и чести. Мы предлагаем жителям Украины мирный выход из тяжелой сложившейся ситуации, без войны. Это наше последнее предложение не только украинцам, но и всем странам, которые поддержали гражданскую войну в Донбассе. Я убежден, что мы сделаем все возможное и невозможное», — сказал присутствующим Глава ДНР Александр Захарченко. На мероприятии присутствовали Глава ДНР Александр Захарченко, советник Главы Захар Прилепин, заместитель Председателя Совета министров, министр доходов и сборов Республики Александр Тимофеев, а также представители большинства областей, ранее входивших в состав Украины. Все присутствующие делегаты проголосовали на открытом голосовании единогласно за подписание политической декларации о создании Малороссии с центром в Донецке. «Малороссия — федеративное государство с широкой автономией регионов. Право региональных языков гарантированно сохраняется, государственным флагом признается флаг Богдана Хмельницкого» , — процитировал конституционный акт Александр Тимофеев.
В ходе собрания подписантов политической декларации о создании нового государства Малороссии выступили делегаты из разных областей бывшей Украины, которые выразили надежду на то, что провозглашенное федеративное государство с центром в Донецке поможет избавить исконно русские земли от преступного киевского режима. Об этом сообщает корреспондент официального сайта Донецкой Народной Республики. «Мы долгих три года ждали этого дня! Просто верьте в нас — и мы вас не подведем, — сошлись во мнении представители разных областей бывшей Украины. — Мы вернем былое могущество своей страны. Ради нашей земли и памяти наших предков стоит сражаться». Глава ДНР Александр Захарченко заявил, что ситуация на Украине зашла в глухой тупик, и выходом из сложившейся ситуации может стать создание на переходный период до трех лет нового государства — Малороссии. «Чтобы остановить гражданскую войну, мы обсудили ситуацию и пришли к выводу, что Украина показала себя как несостоявшееся государство. Киевский режим не в состоянии оставить гражданскую войну», — сказал Захарченко. По словам Александра Захарченко, Малороссия сможет стать независимым молодым федеративным государством. Главнокомандующий ДНР уверен, что создание Малороссии поможет остановить конфликт в Донбассе, но для этого потребуется поддержка международного сообщества и жителей Республик. Он также назвал создание нового независимого государства последним предложением для выхода из гражданской войны. В свою очередь секретарь исполкома Александр Казаков отметил, что провозглашение Малороссии не противоречит Минским договоренностям: «Наоборот, наше предложение украинскому народу восполняет Соглашения. Война теперь невозможна, мы один народ», — отметил он. «Придется нашим оппонентам перезагружать свою риторику, потому что люди, живущие здесь и на территории теперь уже бывшей Украины, — не сепаратисты и не террористы. Это люди, мирным путем принявшие решение менять ситуацию на благо. У Донецкой Народной Республики есть все основания сегодня и здесь объявить о точке отсчета нового государства», — сказал Захар Прилепин.- Размер: 2.70 Гб
Качество: WEBRip
Формат: MKV
Видео: MPEG4 AVC, 1280x720 (16:9), 6 586 kb/s, 25.000 fps
Аудио: AAC, 128 kb/s, 2 channels, 44.1 kHz
Официальный сайт Донецкой Народной Республики ©

Видео: Глава ДНР заявил о создании государства Малороссия

Скриншоты

                               

Фотографии

                         

MediaInfo

Код:
General
Unique ID                   : 174836494791439296104568406495708559014 (0x838848B8BFDEFD5083B2B3B7195BB6A6)
Format                      : Matroska
Format version              : Version 4 / Version 2
File size                   : 2.70 GiB
Duration                    : 57 min 30 s
Overall bit rate            : 6 714 kb/s
Encoded date                : UTC 2017-07-21 04:37:34
Writing application         : mkvmerge v12.0.0 ('Trust / Lust') 64bit
Writing library             : libebml v1.3.4 + libmatroska v1.4.5
Video
ID                          : 1
Format                      : AVC
Format/Info                 : Advanced Video Codec
Format profile              : [email protected]
Format settings, CABAC      : Yes
Format settings, RefFrames  : 4 frames
Codec ID                    : V_MPEG4/ISO/AVC
Duration                    : 57 min 30 s
Bit rate                    : 6 586 kb/s
Width                       : 1 280 pixels
Height                      : 720 pixels
Display aspect ratio        : 16:9
Frame rate mode             : Constant
Frame rate                  : 25.000 FPS
Standard                    : PAL
Color space                 : YUV
Chroma subsampling          : 4:2:0
Bit depth                   : 8 bits
Scan type                   : Progressive
Bits/(Pixel*Frame)          : 0.286
Stream size                 : 2.65 GiB (98%)
Language                    : English
Default                     : Yes
Forced                      : No
Color range                 : Limited
Color primaries             : BT.709
Transfer characteristics    : BT.709
Matrix coefficients         : BT.709
Audio
ID                          : 2
Format                      : AAC
Format/Info                 : Advanced Audio Codec
Format profile              : LC
Codec ID                    : A_AAC
Duration                    : 57 min 30 s
Bit rate                    : 126 kb/s
Channel(s)                  : 2 channels
Channel positions           : Front: L R
Sampling rate               : 44.1 kHz
Frame rate                  : 43.066 FPS (1024 SPF)
Compression mode            : Lossy
Stream size                 : 51.7 MiB (2%)
Language                    : English
Default                     : Yes
Forced                      : No

}{@R0N

Post 10-May-2017 09:37

[Quote]

Парад Победы, посвященный 72-ой годовщине Победы в ВОВ 1941-1945г. (Москва)- Жанр: Документальный, военный парад
Описание:
Военный парад, посвященный 72-й годовщине Победы в Великой Отечественной войне.
Каждый год 9 мая во многих странах мира отмечают День Победы над немецко-фашистскими захватчиками. Но нигде этот праздник не празднуют с таким размахом, как в России. В 2017 году отмечается 72 год со Дня Победы.
Релиз от: svlesin
Продолжительность: 00:55:01
Качество видео: WEB-DL
Субтитры: Отсутствуют
Видео: AVC, 1920x1080 (16:9), 25.000 fps, 3 950 Kbps (0.076 bit/pixel)
Аудио: AC-3, 44.1 KHz, 2 ch, 192 Kbps, CBR

Mediainfo:

Код:
Общее
Уникальный идентификатор                 : 226876941065365677860686223969708965955 (0xAAAEE8D1A43E57329AC37B8754EC8043)
Полное имя                               : D:\[1]\Парад победы\Парад Победы. Москва (2017.05.09)_1080.mkv
Формат                                   : Matroska
Версия формата                           : Version 4 / Version 2
Размер файла                             : 1,62 Гбайт
Продолжительность                        : 55 м.
Режим общего битрейта                    : Переменный
Общий поток                              : 4226 Кбит/сек
Название фильма                          : Парад Победы. Москва (2017.05.09)_1080_nnmclub.to
Дата кодирования                         : UTC 2017-05-09 08:31:22
Программа кодирования                    : mkvmerge v7.6.0 ('Garden of Dreams') 64bit built on Feb  8 2015 13:04:34
Библиотека кодирования                   : libebml v1.3.1 + libmatroska v1.4.2
DURATION                                 : 00:55:01.878000000
NUMBER_OF_FRAMES                         : 94800
NUMBER_OF_BYTES                          : 79245060
_STATISTICS_WRITING_APP                  : mkvmerge v7.6.0 ('Garden of Dreams') 64bit built on Feb  8 2015 13:04:34
_STATISTICS_WRITING_DATE_UTC             : 2017-05-09 08:31:22
_STATISTICS_TAGS                         : BPS DURATION NUMBER_OF_FRAMES NUMBER_OF_BYTES
Видео
Идентификатор                            : 1
Формат                                   : AVC
Формат/Информация                        : Advanced Video Codec
Профиль формата                          : [url=mailto:[email protected]][email protected][/url]
Параметр CABAC формата                   : Да
Параметр ReFrames формата                : 4 кадра
Идентификатор кодека                     : V_MPEG4/ISO/AVC
Продолжительность                        : 55 м.
Вид битрейта                             : Переменный
Битрейт                                  : 3950 Кбит/сек
Максимальный битрейт                     : 4500 Кбит/сек
Ширина                                   : 1920 пикселей
Высота                                   : 1080 пикселей
Соотношение сторон                       : 16:9
Режим частоты кадров                     : Постоянный
Частота кадров                           : 25,000 кадров/сек
Цветовое пространство                    : YUV
Субдискретизация насыщенности            : 4:2:0
Битовая глубина                          : 8 бит
Тип развёртки                            : Прогрессивная
Бит/(Пиксели*Кадры)                      : 0.076
Размер потока                            : 1,52 Гбайт (93%)
Default                                  : Да
Forced                                   : Нет
Аудио
Идентификатор                            : 2
Формат                                   : AC-3
Формат/Информация                        : Audio Coding 3
Расширение режима                        : CM (complete main)
Параметр Endianness формата              : Big
Идентификатор кодека                     : A_AC3
Продолжительность                        : 55 м.
Вид битрейта                             : Постоянный
Битрейт                                  : 192 Кбит/сек
Каналы                                   : 2 канала
Расположение каналов                     : Front: L R
Частота                                  : 44,1 КГц
Битовая глубина                          : 16 бит
Метод сжатия                             : С потерями
Размер потока                            : 75,6 Мбайт (5%)
Default                                  : Да
Forced                                   : Нет
Скриншоты:
       

}{@R0N

Post 28-Mar-2017 12:25

[Quote]

Хунань. Реальный мир Аватара / Hunan, l'autre monde d'Avatar- Телекомпания: Франция / France 5
Жанр: Документальный
Автор сценария и режиссер: Laurence Thiriat
Описание:
Многие из нас смотрели знаменитый фильм Джеймса Кэмерона "Аватар" и были в восхищении от изумительной красоты мира Пандоры. Однако, не многие знают, что мир Аватара - это далеко не визуализированный компьютерными гениями вымысел художников. Все это существует на самом деле и не на другой планете, а на нашей родной планете Земля. Реальный мир Пандоры существует! Парящие горы есть в Китае!
Добро пожаловать в мир по другую сторону от "Аватара" - мир, существующий между небом и землей. Мир невероятных историй и традиций, мир под названием Хунань.
Продолжительность: 00:52:37
Качество видео: HDTVRip
Перевод: Двухголосый закадровый, профессиональный (Видеофильм ТВ)
Видео: AVC/H.264, 1280 x 720, ~10000 Kbps
Аудио: AAC, 2 ch, 192 Kbps

Mediainfo:

Общее
Уникальный идентификатор : 279498568335251836389009377681120567274 (0xD2457759FFAFE0EA45CA7A6E58761FEA)
Полное имя : F:\КИНО\Хунань. Реальный мир Аватара.mkv
Формат : Matroska
Версия формата : Version 4 / Version 2
Размер файла : 1,90 Гбайт
Продолжительность : 52 м. 37 с.
Режим общего битрейта : Переменный
Общий поток : 5158 Кбит/сек
Программа кодирования : Lavf56.15.102
Библиотека кодирования : Lavf56.15.102 / Lavf56.15.102
Видео
Идентификатор : 1
Формат : AVC
Формат/Информация : Advanced Video Codec
Профиль формата : [url=mailto:[email protected]][email protected][/url]
Параметр CABAC формата : Нет
Параметр ReFrames формата : 1 кадр
Параметр GOP формата : M=1, N=12
Идентификатор кодека : V_MPEG4/ISO/AVC
Продолжительность : 52 м. 37 с.
Вид битрейта : Переменный
Максимальный битрейт : 10 Mбит/сек
Ширина : 1280 пикселей
Высота : 720 пикселей
Соотношение сторон : 16:9
Режим частоты кадров : Постоянный
Частота кадров : 25,000 кадров/сек
Цветовое пространство : YUV
Субдискретизация насыщенности : 4:2:0
Битовая глубина : 8 бит
Тип развёртки : Прогрессивная
Default : Да
Forced : Нет
Аудио
Идентификатор : 2
Формат : AAC
Формат/Информация : Advanced Audio Codec
Профиль формата : LC
Идентификатор кодека : A_AAC
Продолжительность : 52 м. 37 с.
Каналы : 2 канала
Расположение каналов : Front: L R
Частота : 44,1 КГц
Частота кадров : 43,066 кадра/сек (1024 spf)
Метод сжатия : С потерями
Задержка видео : -63 мс.
Default : Да
Forced : Нет

Это интересно!

Чжанцзяцзе — национальный лесной парк в городском округе Чжанцзяцзе, провинция Хунань, Китай. Парк расположен на живописной территории Улинъюань, признанной ЮНЕСКО объектом Всемирного наследия. Парк примечателен большим количеством пиков-столбов из песчаника и кварца, самый живописный из них — "Колонна Южное Небо" высотой 1080 метров, который в январе 2010 года официально был переименован в "гора Аватар-Аллилуйя" в честь известного фильма "Аватар".
Создатели фильма заявили, что на создание в ленте летающих скал их вдохновили разные горы мира, в том числе и находящиеся в парке Чжанцзяцзе. Всего в парке более 3000 подобных геологических образований, в том числе треть из них имеют высоту более 200 метров. Высшая точка парка — гора Doupeng высотой 1890 метров.
Скриншоты:
       

Дополнительные скриншоты:

       
       

}{@R0N

Post 15-Mar-2017 21:34

[Quote]

Оружие, которое изменило мир / Triggers: Weapons That Changed the World - Телекомпания: США, Morningstar Enterteiment
Жанр: Документальный, вооружение, история
Участники: Уилл Уиллис
Описание:
Мало что до такой степени повлияло на ход истории, как изобретение и применение огнестрельного оружия. Огневая мощь - ни что лучше не определяет военный потенциал. Документальный сериал прослеживает историю огнестрельного оружия и то, как появление каждого нового вида необратимо изменяло мир. Каждая серия рассказывает об отдельном знаменитом виде оружия, о том, что было до и после, и как появление одного вида оружия влияло на создание последующего. Помимо испытания оружия, в каждой серии воссозданы знаменитые сражения, в которых оно применялось. Ведущий Уилл Уиллис, бывший американский спецназовец, тщательно обследует, характеризует и испытывает каждый вид оружия.

Релиз от: alf62
Большое спасибо ПЕЧАЛЬ, за предоставленный постер!
Продолжительность: 5 х ~ 00:47:00
Качество видео: HDTVRip Сэмпл
Перевод: Одноголосый закадровый, профессиональный
Видео: AVC/H.264, 1280x720, ~3500 kbps
Аудио: AC3, 2 ch, 192 kbps

Список выпусков/серий

1. Браунинг М2 / Browning M2
Это второе оружие, после винтовки, изменившие методы видения боевых действий. Станковый пулемет 50-калибра (12,7 мм) Browning M2, прозванный «Ma Deuce» («Двойной М»), уже более восьмидесяти лет служит на поле боя. Уилл Уиллис тестирует это легендарное оружие и другие крупнокалиберные пулеметы.
2. Дробовые ружья / Combat Shotguns
Смертельные в непосредственной близости дробовые ружья являются мощным инструментом любой армии. Уилл Уиллис расскажет историю дробового ружья, от мушкетона до современных Benelli M4 и Mossburg 590.
3. Гатлинг и A-10 / Gatling and the A-10
Мировой рекордсмен по скорострельности среди пулеметов снова в бою. Авиационная пушка Гатлинга имеет самый высокий темп стрельбы по сравнению с любым стрелковым оружием в мире.
4. Пистолеты для спецподразделений / Spec Ops Pistols
Специальные подразделения, часто работают в глубоком тылу противника, выполняя секретные операции и когда развергается ад, личный пистолет – последнее спасение. Уиллис опробует пистолет SIG Sauer P226, состоящий на вооружении «морских котиков» США, а затем его предшественников: Walther PPK Джеймса Бонда, советского ТТ и тяжелого Desert Eagle.
5. Танк «Абрамс» / The Abrams Tank
В этом эпизоде прослеживается история развития танков .Танк M1 «Абрамс» («Abrams») является самым тяжелым танком в мире. Мы будем отслеживать его развитие с помощью его предшественников - танка M18 Hellcat времен Второй мировой и советского Т-55 из эпохи холодной войны и постараемся понять, почему эти «звери» правили на земле войны на протяжении десятилетий.
6.Ручные пулеметы / The SAW
Пехота использует в бою не только винтовки, но и легкие (ручные) пулеметы. Мы проследим эволюцию этого революционного оружия от его использования в Первой мировой войне в своем современном воплощении.

Mediainfo:

Оружие.которое.изменило.мир.(2.сезон).2013.AVC.720p.x264.HDTVRip.alf62\1.серия.Браунинг.М2.2013.AVC.720p.x264.HDTVRip.alf62.mkv
Формат : Matroska
Версия формата : Version 2
Размер файла : 1,20 Гбайт
Продолжительность : 46 м.
Общий поток : 3692 Кбит/сек
Дата кодирования : UTC 2017-02-13 14:03:48
Программа кодирования : mkvmerge v7.8.0 ('River Man') 32bit built on Apr 3 2015 12:11:22
Библиотека кодирования : libebml v1.3.1 + libmatroska v1.4.2
Видео
Идентификатор : 1
Формат : AVC
Формат/Информация : Advanced Video Codec
Профиль формата : [url=mailto:[email protected]][email protected][/url]
Параметр CABAC формата : Да
Параметр ReFrames формата : 9 кадров
Идентификатор кодека : V_MPEG4/ISO/AVC
Продолжительность : 46 м.
Битрейт : 3500 Кбит/сек
Ширина : 1280 пикселей
Высота : 720 пикселей
Соотношение сторон : 16:9
Режим частоты кадров : Постоянный
Частота кадров : 25,000 кадров/сек
Цветовое пространство : YUV
Субдискретизация насыщенности : 4:2:0
Битовая глубина : 8 бит
Тип развёртки : Прогрессивная
Бит/(Пиксели*Кадры) : 0.152
Размер потока : 1,11 Гбайт (93%)
Библиотека кодирования : x264 core 146 r2538 121396c
Настройки программы : cabac=1 / ref=9 / deblock=1:-2:-2 / analyse=0x3:0x113 / me=umh / subme=10 / psy=1 / psy_rd=1.00:0.00 / mixed_ref=1 / me_range=32 / chroma_me=1 / trellis=2 / 8x8dct=1 / cqm=0 / deadzone=21,11 / fast_pskip=0 / chroma_qp_offset=-2 / threads=6 / lookahead_threads=1 / sliced_threads=0 / nr=0 / decimate=0 / interlaced=0 / bluray_compat=0 / constrained_intra=0 / bframes=9 / b_pyramid=2 / b_adapt=2 / b_bias=0 / direct=3 / weightb=1 / open_gop=0 / weightp=2 / keyint=250 / keyint_min=25 / scenecut=40 / intra_refresh=0 / rc_lookahead=40 / rc=2pass / mbtree=0 / bitrate=3500 / ratetol=1.0 / qcomp=0.60 / qpmin=10 / qpmax=51 / qpstep=4 / cplxblur=20.0 / qblur=0.5 / vbv_maxrate=14000 / vbv_bufsize=14000 / nal_hrd=none / filler=0 / ip_ratio=1.40 / pb_ratio=1.30 / aq=1:0.80
Default : Да
Forced : Нет
Аудио
Идентификатор : 2
Формат : AC-3
Формат/Информация : Audio Coding 3
Расширение режима : CM (complete main)
Параметр Endianness формата : Big
Идентификатор кодека : A_AC3
Продолжительность : 46 м.
Вид битрейта : Постоянный
Битрейт : 192 Кбит/сек
Каналы : 2 канала
Расположение каналов : Front: L R
Частота : 48,0 КГц
Битовая глубина : 16 бит
Метод сжатия : С потерями
Размер потока : 63,7 Мбайт (5%)
Default : Да
Forced : Нет
Скриншоты:
       

Дополнительные скриншоты:

       
 
 

The time now is: Today 10:14

All times are GMT + 3 Hours