Today is a free download without charge Download

Зверопой / Sing (Кристоф Лурделе, Гарт Дженнингс) [2016, мультфильм, комедия, семейный, музыка, BDRip 720p] DUB | Лицензия

Reply to topic
 
Author
Message

Theseus ®

Gender:

Longevity: 8 years 4 months

Posts: 2053

Торрент-статистика

Post 17-Apr-2017 22:10

[Quote]

Зверопой / Sing- Страна: США
Жанр: мультфильм, комедия, семейный, музыка
Год выпуска: 2016
Премьера (РФ): 2017
Продолжительность: 01:47:53
Перевод: Профессиональный (полное дублирование) | R5 | Лицензия
Режиссер: Кристоф Лурделе, Гарт Дженнингс-В ролях: Мэттью МакКонахи, Риз Уизерспун, Сет МакФарлейн, Скарлетт Йоханссон, Джон Си Райли, Тэрон Эджертон, Тори Келли, Дженнифер Сондерс, Дженнифер Хадсон, Гарт Дженнингс-Описание: В мире, который населяют звери, коала по имени Бастер Мун изо всех сил пытается предотвратить закрытие своего театра. В итоге Бастер и его друг, баран Эдди, устраивают конкурс певцов, предлагая принять участие каждому жителю города.- -Качество: BDRip 720p
Формат: MKV
Видео кодек: x.264
Аудио кодек: AC3
Видео: 1280x692 (1,85:1), 23.976 fps, MPEG-4 AVC ~ 7667 kbps avg, 0.361 bit/pixel
Аудио 1: AC3, 48 kHz, 6 ch, ~384.00 kbps avg | русский
Аудио 2: АС3, 48 kHz, 6 ch, ~640.00 kbps avg | английский
Субтитры: Русские (полные), английские (full, SDH)-

MediaInfo

General
Unique ID : 187062654704952802653431922685068824685 (0x8CBAF4F1FA3E5D1C8A36B2426949D06D)
Complete name : Sing.2016.720p.BluRay.Rus.Eng.mkv
Format : Matroska
Format version : Version 4 / Version 2
File size : 6.55 GiB
Duration : 1 h 47 min
Overall bit rate : 8 694 kb/s
Encoded date : UTC 2017-04-15 22:55:20
Writing application : mkvmerge v9.7.1 ('Pandemonium') 64bit
Writing library : libebml v1.3.4 + libmatroska v1.4.5
Video
ID : 1
Format : AVC
Format/Info : Advanced Video Codec
Format profile : [email protected]
Format settings, CABAC : Yes
Format settings, ReFrames : 9 frames
Codec ID : V_MPEG4/ISO/AVC
Duration : 1 h 47 min
Bit rate : 7 667 kb/s
Width : 1 280 pixels
Height : 692 pixels
Display aspect ratio : 1.85:1
Frame rate mode : Constant
Frame rate : 23.976 (24000/1001) FPS
Color space : YUV
Chroma subsampling : 4:2:0
Bit depth : 8 bits
Scan type : Progressive
Bits/(Pixel*Frame) : 0.361
Stream size : 5.78 GiB (88%)
Title : Sing.2016.720p.BluRay.Rus.Eng
Writing library : x264 core 148 r2744 b97ae06
Encoding settings : cabac=1 / ref=9 / deblock=1:-3:-3 / analyse=0x3:0x113 / me=umh / subme=10 / psy=1 / psy_rd=1.03:0.00 / mixed_ref=1 / me_range=32 / chroma_me=1 / trellis=2 / 8x8dct=1 / cqm=1 / deadzone=21,11 / fast_pskip=0 / chroma_qp_offset=-1 / threads=12 / lookahead_threads=2 / sliced_threads=0 / nr=0 / decimate=1 / interlaced=0 / bluray_compat=0 / constrained_intra=0 / bframes=8 / b_pyramid=2 / b_adapt=2 / b_bias=0 / direct=3 / weightb=1 / open_gop=0 / weightp=2 / keyint=230 / keyint_min=23 / scenecut=40 / intra_refresh=0 / rc_lookahead=40 / rc=crf / mbtree=0 / crf=15.5 / qcomp=0.61 / qpmin=10 / qpmax=69 / qpstep=4 / vbv_maxrate=62500 / vbv_bufsize=78125 / crf_max=0.0 / nal_hrd=none / filler=0 / ip_ratio=1.30 / pb_ratio=1.20 / aq=1:0.75
Language : English
Default : Yes
Forced : No
Audio #1
ID : 2
Format : AC-3
Format/Info : Audio Coding 3
Format settings, Endianness : Big
Codec ID : A_AC3
Duration : 1 h 47 min
Bit rate mode : Constant
Bit rate : 384 kb/s
Channel(s) : 6 channels
Channel positions : Front: L C R, Side: L R, LFE
Sampling rate : 48.0 kHz
Frame rate : 31.250 FPS (1536 spf)
Bit depth : 16 bits
Compression mode : Lossy
Stream size : 296 MiB (4%)
Title : Dub | DD 5.1 @ 384 kbps (R5)
Language : Russian
Service kind : Complete Main
Default : Yes
Forced : No
Audio #2
ID : 3
Format : AC-3
Format/Info : Audio Coding 3
Format settings, Endianness : Big
Codec ID : A_AC3
Duration : 1 h 47 min
Bit rate mode : Constant
Bit rate : 640 kb/s
Channel(s) : 6 channels
Channel positions : Front: L C R, Side: L R, LFE
Sampling rate : 48.0 kHz
Frame rate : 31.250 FPS (1536 spf)
Bit depth : 16 bits
Compression mode : Lossy
Stream size : 494 MiB (7%)
Title : Original
Language : English
Service kind : Complete Main
Default : No
Forced : No
Text #1
ID : 4
Format : UTF-8
Codec ID : S_TEXT/UTF8
Codec ID/Info : UTF-8 Plain Text
Duration : 1 h 39 min
Bit rate : 90 b/s
Count of elements : 1378
Stream size : 65.6 KiB (0%)
Title : Full
Language : Russian
Default : Yes
Forced : No
Text #2
ID : 5
Format : UTF-8
Codec ID : S_TEXT/UTF8
Codec ID/Info : UTF-8 Plain Text
Duration : 1 h 39 min
Bit rate : 90 b/s
Count of elements : 1378
Stream size : 65.6 KiB (0%)
Title : Full
Language : English
Default : No
Forced : No
Text #3
ID : 6
Format : UTF-8
Codec ID : S_TEXT/UTF8
Codec ID/Info : UTF-8 Plain Text
Duration : 1 h 39 min
Bit rate : 67 b/s
Count of elements : 1733
Stream size : 49.3 KiB (0%)
Title : SDH
Language : English
Default : No
Forced : No
Menu
00:00:00.000 : en:Chapter 1
00:04:29.352 : en:Chapter 2
00:10:36.469 : en:Chapter 3
00:14:04.677 : en:Chapter 4
00:18:32.653 : en:Chapter 5
00:25:14.722 : en:Chapter 6
00:30:04.052 : en:Chapter 7
00:35:11.776 : en:Chapter 8
00:40:07.405 : en:Chapter 9
00:44:36.132 : en:Chapter 10
00:50:26.649 : en:Chapter 11
00:55:36.208 : en:Chapter 12
01:04:40.710 : en:Chapter 13
01:14:03.981 : en:Chapter 14
01:19:17.962 : en:Chapter 15
01:23:59.159 : en:Chapter 16
01:26:56.461 : en:Chapter 17
01:30:38.266 : en:Chapter 18
01:34:47.181 : en:Chapter 19
01:40:16.010 : en:Chapter 20
-     - - -

_________________
Other forum [Profile] [PM]
Display posts from previous:    
Reply to topic

The time now is: Today 18:10

All times are GMT + 3 Hours



You cannot post new topics in this forum
You cannot reply to topics in this forum
You cannot edit your posts in this forum
You cannot delete your posts in this forum
You cannot vote in polls in this forum
You cannot attach files in this forum
You cannot download files in this forum