Today is a free download without charge Download

Сказ о Петре и Февронии (2017) WEB-DL [H.264/1080p-LQ]

Reply to topic
 
Author
Message

XP1971 ®

Торрент-статистика

Post 31-Dec-2017 00:26

[Quote]

Сказ о Петре и Февронии (2017) WEB-DL [H.264/1080p-LQ]- Производство: Россия
Жанр: Мультфильм, Детский, Развивающий
Режиссер: Юрий Рязанов, Юрий Кулаков
Актеры: Владислав Юдин, Юлия Горохова, Иван Охлобыстин, Владимир Антоник, Константин Карасик, Виктор Вержбицкий, Диомид Виноградов, Вадим Медведев, Арзу Сулейманова, Сергей Усков
Описание:
Славным городом Муромом правил князь Павел. И вот однажды злой змей искуситель, принявший облик Павла, стал являться его жене. Одолеть змея смог только брат Петра - Павел чудесным агриковым мечом. Однако кровь поганого попала на тело Петра и он покрылся смертельными язвами, от которых даже самые лучшие врачеватели избавить его не могли. Излечить Петра было под силу только святой Февронии (простой деревенской девушке), на том лишь условии, что Павел возьмёт её в жёны.

Возраст: 6+ (зрителям, достигшим 6 лет)
Дата российской премьеры: 6 июля 2017
Продолжительность: 01:18:04
Качество видео: WEB-DL
Субтитры: Отсутствуют
Видео: AVC, 1920x1080 (16:9), 25.000 fps, 4 072 Kbps (0.079 bit/pixel)
Аудио: AC-3, 48.0 KHz, 6 ch, 448 Kbps, CBR

Mediainfo:

Общее
Уникальный идентификатор : 178987660663807957865858458286594941361 (0x86A7C5003BFA1F65B289E46B9EFF61B1)
Полное имя : D:\[1]\Мультфильмы\Сказ о Петре и Февронии (2017)_1080.mkv
Формат : Matroska
Версия формата : Version 4 / Version 2
Размер файла : 2,46 Гбайт
Продолжительность : 1 ч. 18 м.
Режим общего битрейта : Постоянный
Общий поток : 4518 Кбит/сек
Дата кодирования : UTC 2017-12-29 13:44:26
Программа кодирования : mkvmerge v7.8.0 ('River Man') 64bit built on Mar 27 2015 16:31:37
Библиотека кодирования : libebml v1.3.1 + libmatroska v1.4.2
DURATION : 01:18:04.288000000
NUMBER_OF_FRAMES : 146384
NUMBER_OF_BYTES : 262320128
_STATISTICS_WRITING_APP : mkvmerge v7.8.0 ('River Man') 64bit built on Mar 27 2015 16:31:37
_STATISTICS_WRITING_DATE_UTC : 2017-12-29 13:44:26
_STATISTICS_TAGS : BPS DURATION NUMBER_OF_FRAMES NUMBER_OF_BYTES
Видео
Идентификатор : 1
Формат : AVC
Формат/Информация : Advanced Video Codec
Профиль формата : [email protected]
Параметр CABAC формата : Да
Параметр ReFrames формата : 1 кадр
Параметр GOP формата : M=1, N=25
Идентификатор кодека : V_MPEG4/ISO/AVC
Продолжительность : 1 ч. 18 м.
Вид битрейта : Постоянный
Битрейт : 4072 Кбит/сек
Ширина : 1920 пикселей
Высота : 1080 пикселей
Соотношение сторон : 16:9
Режим частоты кадров : Постоянный
Частота кадров : 25,000 кадров/сек
Цветовое пространство : YUV
Субдискретизация насыщенности : 4:2:0
Битовая глубина : 8 бит
Тип развёртки : Прогрессивная
Бит/(Пиксели*Кадры) : 0.079
Размер потока : 2,17 Гбайт (88%)
Язык : Russian
Default : Да
Forced : Нет
Аудио
Идентификатор : 2
Формат : AC-3
Формат/Информация : Audio Coding 3
Расширение режима : CM (complete main)
Параметр Endianness формата : Big
Идентификатор кодека : A_AC3
Продолжительность : 1 ч. 18 м.
Вид битрейта : Постоянный
Битрейт : 448 Кбит/сек
Каналы : 6 каналов
Расположение каналов : Front: L C R, Side: L R, LFE
Частота : 48,0 КГц
Битовая глубина : 16 бит
Метод сжатия : С потерями
Размер потока : 250 Мбайт (10%)
Язык : Russian
Default : Да
Forced : Нет
Скриншоты:
       
 
Display posts from previous:    
Reply to topic

The time now is: Today 18:08

All times are GMT + 3 Hours



You cannot post new topics in this forum
You cannot reply to topics in this forum
You cannot edit your posts in this forum
You cannot delete your posts in this forum
You cannot vote in polls in this forum
You cannot attach files in this forum
You cannot download files in this forum