Today is a free download without charge Download

(Melodic Power Metal) Mob Rules - Beast Reborn (Limited Edition) (2CD) - 2018 [FLAC, image +.cue, lossless]

Reply to topic
 
Author
Message

sergej644 ®

Gender:

Longevity: 6 years 11 months

Posts: 626

Торрент-статистика

Post 24-Aug-2018 10:27

[Quote]

-Mob Rules - Beast Reborn (Limited Edition) (2CD)--
Год издания: 2018
Страна: Germany
Жанр: Melodic Power Metal
Продолжительность: 01:08:54-Лейбл издания: Steamhammer
Страна-выпуска диска: Germany
Номер по каталогу: SPV 286769 BOX-Формат: FLAC
Битрейт аудио: Lossless
Тип рипа: image +.cue
Наличие сканов в содержимом раздачи: да
-

Трэклист

CD 1 | 00:57:32


01. Beast Reborn (1:00)
02. Ghost Of A Chance (4:45)
03. Shores Ahead (5:30)
04. Sinister Light (4:24)
05. Traveller In Time (6:14)
06. Children's Crusade (4:45)
07. War Of Currents (8:17)
08. The Explorer (5:01)
09. Revenant Of The Sea (7:15)
10. Way Back Home (4:32)
11. My Sobriety Mind (For Those Who Left) (5:49)

CD 2 | 00:11:22


01. Sacred Heart (6:00)
02. Lord Of Madness (Re-Recorded) (5:22)
-

Лог создания рипа

CD 1

Код:
Exact Audio Copy V1.3 from 2. September 2016
EAC extraction logfile from 23. August 2018, 12:09
Mob Rules / Beast Reborn
Used drive  : HP      DVD Writer 1170d   Adapter: 1  ID: 1
Read mode               : Secure
Utilize accurate stream : Yes
Defeat audio cache      : Yes
Make use of C2 pointers : No
Read offset correction                      : 6
Overread into Lead-In and Lead-Out          : No
Fill up missing offset samples with silence : Yes
Delete leading and trailing silent blocks   : No
Null samples used in CRC calculations       : Yes
Used interface                              : Native Win32 interface for Win NT & 2000
Used output format              : User Defined Encoder
Selected bitrate                : 1024 kBit/s
Quality                         : High
Add ID3 tag                     : No
Command line compressor         : C:\Program Files (x86)\Exact Audio Copy\Flac\flac.exe
Additional command line options : -V -8 -T "Date=%year%" -T "Genre=%genre%" %source%
TOC of the extracted CD
     Track |   Start  |  Length  | Start sector | End sector
    ---------------------------------------------------------
        1  |  0:00.00 |  1:00.01 |         0    |     4500
        2  |  1:00.01 |  4:45.11 |      4501    |    25886
        3  |  5:45.12 |  5:29.61 |     25887    |    50622
        4  | 11:14.73 |  4:24.20 |     50623    |    70442
        5  | 15:39.18 |  6:13.45 |     70443    |    98462
        6  | 21:52.63 |  4:45.20 |     98463    |   119857
        7  | 26:38.08 |  8:16.43 |    119858    |   157100
        8  | 34:54.51 |  5:01.24 |    157101    |   179699
        9  | 39:56.00 |  7:15.25 |    179700    |   212349
       10  | 47:11.25 |  4:31.54 |    212350    |   232728
       11  | 51:43.04 |  5:48.71 |    232729    |   258899
Range status and errors
Selected range
     Filename C:\EAC\ungern666\Mob Rules - Beast Reborn.wav
     Peak level 97.7 %
     Extraction speed 7.3 X
     Range quality 100.0 %
     Test CRC 663DA9F7
     Copy CRC 663DA9F7
     Copy OK
No errors occurred
AccurateRip summary
Track  1  not present in database
Track  2  not present in database
Track  3  not present in database
Track  4  not present in database
Track  5  not present in database
Track  6  not present in database
Track  7  not present in database
Track  8  not present in database
Track  9  not present in database
Track 10  not present in database
Track 11  not present in database
None of the tracks are present in the AccurateRip database
End of status report

CD 2

Код:
Exact Audio Copy V1.3 from 2. September 2016
EAC extraction logfile from 23. August 2018, 12:30
Mob Rules / Sacred Heart
Used drive  : TSSTcorpBDDVDW SE-506CB   Adapter: 1  ID: 1
Read mode               : Secure
Utilize accurate stream : Yes
Defeat audio cache      : Yes
Make use of C2 pointers : No
Read offset correction                      : 6
Overread into Lead-In and Lead-Out          : No
Fill up missing offset samples with silence : Yes
Delete leading and trailing silent blocks   : No
Null samples used in CRC calculations       : Yes
Used interface                              : Native Win32 interface for Win NT & 2000
Used output format              : User Defined Encoder
Selected bitrate                : 1024 kBit/s
Quality                         : High
Add ID3 tag                     : No
Command line compressor         : C:\Program Files (x86)\Exact Audio Copy\Flac\flac.exe
Additional command line options : -V -8 -T "Date=%year%" -T "Genre=%genre%" %source%
TOC of the extracted CD
     Track |   Start  |  Length  | Start sector | End sector
    ---------------------------------------------------------
        1  |  0:00.00 |  5:59.59 |         0    |    26983
        2  |  5:59.59 |  5:22.16 |     26984    |    51149
Range status and errors
Selected range
     Filename C:\EAC\ungern666\Mob Rules - Sacred Heart.wav
     Peak level 97.7 %
     Extraction speed 1.3 X
     Range quality 99.9 %
     Test CRC EBC36BA6
     Copy CRC EBC36BA6
     Copy OK
No errors occurred
AccurateRip summary
Track  1  not present in database
Track  2  not present in database
None of the tracks are present in the AccurateRip database
End of status report

Индексная карта (non-compilant .cue)

CD 1

Код:
REM DATE 2018
REM DISCID 890D7C0B
REM COMMENT "ExactAudioCopy v1.3"
PERFORMER "Mob Rules"
TITLE "Beast Reborn"
FILE "Mob Rules - Beast Reborn.flac" WAVE
  TRACK 01 AUDIO
    TITLE "Beast Reborn"
    PERFORMER "Mob Rules"
    INDEX 01 00:00:00
  TRACK 02 AUDIO
    TITLE "Ghost Of A Chance"
    PERFORMER "Mob Rules"
    INDEX 01 01:00:01
  TRACK 03 AUDIO
    TITLE "Shores Ahead"
    PERFORMER "Mob Rules"
    INDEX 01 05:45:12
  TRACK 04 AUDIO
    TITLE "Sinister Light"
    PERFORMER "Mob Rules"
    INDEX 01 11:14:73
  TRACK 05 AUDIO
    TITLE "Traveller In Time"
    PERFORMER "Mob Rules"
    INDEX 01 15:39:18
  TRACK 06 AUDIO
    TITLE "Children's Crusade"
    PERFORMER "Mob Rules"
    INDEX 01 21:52:63
  TRACK 07 AUDIO
    TITLE "War Of Currents"
    PERFORMER "Mob Rules"
    INDEX 01 26:38:08
  TRACK 08 AUDIO
    TITLE "The Explorer"
    PERFORMER "Mob Rules"
    INDEX 01 34:54:51
  TRACK 09 AUDIO
    TITLE "Revenant Of The Sea"
    PERFORMER "Mob Rules"
    INDEX 01 39:56:00
  TRACK 10 AUDIO
    TITLE "Way Back Home"
    PERFORMER "Mob Rules"
    INDEX 01 47:11:25
  TRACK 11 AUDIO
    TITLE "My Sobriety Mind (For Those Who Left)"
    PERFORMER "Mob Rules"
    INDEX 01 51:43:04

CD 2

Код:
REM DATE 2018
REM DISCID 0C02AA02
REM COMMENT "ExactAudioCopy v1.3"
PERFORMER "Mob Rules"
TITLE "Sacred Heart"
FILE "Mob Rules - Sacred Heart.flac" WAVE
  TRACK 01 AUDIO
    TITLE "Sacred Heart"
    PERFORMER "Mob Rules"
    INDEX 01 00:00:00
  TRACK 02 AUDIO
    TITLE "Lord Of Madness (Re-Recorded)"
    PERFORMER "Mob Rules"
    INDEX 01 05:59:59
-

для ознакомления:

--

_________________
Other forum [Profile] [PM]
Similar theme
Forum Topic Author Torrent Replies Last Post
./templates/default/images/folder_dl.gif Metal (Melodic Power/Heavy Metal) Artizan - Discography - 2011-2015 (3 CD) MP3, 320 kbps Omen
0 | 1

0 | 854

8

2015-05-09 18:00
Omen Latest
Display posts from previous:    
Reply to topic

The time now is: Today 16:07

All times are GMT + 3 Hours



You cannot post new topics in this forum
You cannot reply to topics in this forum
You cannot edit your posts in this forum
You cannot delete your posts in this forum
You cannot vote in polls in this forum
You cannot attach files in this forum
You cannot download files in this forum