Today is a free download without charge Download

(Melodic Heavy Metal) Starbreaker - Dysphoria (Japanese Edition) - 2019 [FLAC, image +.cue, lossless]

Reply to topic
 
Author
Message

sergej644 ®

Gender:

Longevity: 6 years 11 months

Posts: 626

Торрент-статистика

Post 27-Jan-2019 14:35

[Quote]

-Starbreaker - Dysphoria (Japanese Edition) - 2019--
Год издания: 2018
Страна: Norway
Жанр: Melodic Heavy Metal
Продолжительность: 00:49:32-Лейбл издания: King Record Co., Ltd.
Страна-выпуска диска: Japan
Номер по каталогу: KICP-1965-Формат: FLAC
Битрейт аудио: Lossless
Тип рипа: image +.cue
Наличие сканов в содержимом раздачи: да
-

Трэклист


01. Pure Evil (3:54)
02. Wild Butterflies (4:47)
03. Last December (3:58)
04. How Many More Goodbyes (5:00)
05. Beautiful One (4:17)
06. Dysphoria (4:31)
07. My Heart Belongs To You (4:44)
08. Fire Away (4:11)
09. Bright Star Blind Me (5:47)
10. Starbreaker (4:06)
11. Beautiful One (Acoustic Version) (Bonus Track) (4:18)
-

Лог создания рипа

Код:
Exact Audio Copy V1.3 from 2. September 2016
EAC extraction logfile from 17. January 2019, 18:44
Starbreaker / Dysphoria (Japan)
Used drive  : ATAPI   iHAS124   F   Adapter: 2  ID: 0
Read mode               : Secure
Utilize accurate stream : Yes
Defeat audio cache      : Yes
Make use of C2 pointers : No
Read offset correction                      : 6
Overread into Lead-In and Lead-Out          : No
Fill up missing offset samples with silence : Yes
Delete leading and trailing silent blocks   : No
Null samples used in CRC calculations       : Yes
Used interface                              : Installed external ASPI interface
Used output format              : User Defined Encoder
Selected bitrate                : 1024 kBit/s
Quality                         : High
Add ID3 tag                     : No
Command line compressor         : C:\Program Files\FLAC\flac.exe
Additional command line options : -V -8 -T "Date=%year%" -T "Genre=%genre%" -T"COMMENT=Ripped by  Ilijan [MeTaLMaDNeSS.TeaM]" -8 -V %source%
TOC of the extracted CD
     Track |   Start  |  Length  | Start sector | End sector
    ---------------------------------------------------------
        1  |  0:00.00 |  3:54.06 |         0    |    17555
        2  |  3:54.06 |  4:47.19 |     17556    |    39099
        3  |  8:41.25 |  3:58.21 |     39100    |    56970
        4  | 12:39.46 |  4:59.38 |     56971    |    79433
        5  | 17:39.09 |  4:17.14 |     79434    |    98722
        6  | 21:56.23 |  4:30.53 |     98723    |   119025
        7  | 26:27.01 |  4:43.72 |    119026    |   140322
        8  | 31:10.73 |  4:11.30 |    140323    |   159177
        9  | 35:22.28 |  5:46.44 |    159178    |   185171
       10  | 41:08.72 |  4:05.68 |    185172    |   203614
       11  | 45:14.65 |  4:17.43 |    203615    |   222932
Range status and errors
Selected range
     Filename D:\Starbreaker - Dysphoria (Japan).wav
     Peak level 98.8 %
     Extraction speed 8.0 X
     Range quality 100.0 %
     Test CRC CFDC668A
     Copy CRC CFDC668A
     Copy OK
No errors occurred
AccurateRip summary
Track  1  not present in database
Track  2  not present in database
Track  3  not present in database
Track  4  not present in database
Track  5  not present in database
Track  6  not present in database
Track  7  not present in database
Track  8  not present in database
Track  9  not present in database
Track 10  not present in database
Track 11  not present in database
None of the tracks are present in the AccurateRip database
End of status report
---- CUETools DB Plugin V2.1.6
[CTDB TOCID: KW_TY5iBJ6RlCve6ZfTXf4lF3UE-] found
Submit result: KW_TY5iBJ6RlCve6ZfTXf4lF3UE- has been confirmed
Track | CTDB Status
  1   | (2/2) Accurately ripped
  2   | (2/2) Accurately ripped
  3   | (2/2) Accurately ripped
  4   | (2/2) Accurately ripped
  5   | (2/2) Accurately ripped
  6   | (2/2) Accurately ripped
  7   | (2/2) Accurately ripped
  8   | (2/2) Accurately ripped
  9   | (2/2) Accurately ripped
10   | (2/2) Accurately ripped
11   | (2/2) Accurately ripped

Индексная карта (non-compilant .cue)

Код:
REM GENRE "Melodic Heavy Metal"
REM DATE 2018
REM DISCID 890B9C0B
REM COMMENT "ExactAudioCopy v1.3"
PERFORMER "Starbreaker"
TITLE "Dysphoria (Japan)"
FILE "Starbreaker - Dysphoria (Japan).flac" WAVE
  TRACK 01 AUDIO
    TITLE "Pure Evil"
    PERFORMER "Starbreaker"
    INDEX 01 00:00:00
  TRACK 02 AUDIO
    TITLE "Wild Butterflies"
    PERFORMER "Starbreaker"
    INDEX 01 03:54:06
  TRACK 03 AUDIO
    TITLE "Last December"
    PERFORMER "Starbreaker"
    INDEX 01 08:41:25
  TRACK 04 AUDIO
    TITLE "How Many More Goodbyes"
    PERFORMER "Starbreaker"
    INDEX 01 12:39:46
  TRACK 05 AUDIO
    TITLE "Beautiful One"
    PERFORMER "Starbreaker"
    INDEX 01 17:39:09
  TRACK 06 AUDIO
    TITLE "Dysphoria"
    PERFORMER "Starbreaker"
    INDEX 01 21:56:23
  TRACK 07 AUDIO
    TITLE "My Heart Belongs To You"
    PERFORMER "Starbreaker"
    INDEX 01 26:27:01
  TRACK 08 AUDIO
    TITLE "Fire Away"
    PERFORMER "Starbreaker"
    INDEX 01 31:10:73
  TRACK 09 AUDIO
    TITLE "Bright Star Blind Me"
    PERFORMER "Starbreaker"
    INDEX 01 35:22:28
  TRACK 10 AUDIO
    TITLE "Starbreaker"
    PERFORMER "Starbreaker"
    INDEX 01 41:08:72
  TRACK 11 AUDIO
    TITLE "Beautiful One (Acoustic Version) (Bonus Track)"
    PERFORMER "Starbreaker"
    INDEX 01 45:14:65
-

для ознакомления:

--

_________________
Other forum [Profile] [PM]
Similar theme
Forum Topic Author Torrent Replies Last Post
./templates/default/images/folder_dl.gif Rock (Melodic Hard Rock) Magnum - Lost On The Road To Eternity (2CD) - 2018 [FLAC, image +.cue, lossless] sergej644
1 | 0

0 | 1907

15

2018-01-27 13:58
sergej644 Latest
./templates/default/images/folder_dl.gif Rock (Melodic Hard Rock) Wildness - Wildness - 2017 [FLAC, image +.cue, lossless] sergej644
1 | 0

0 | 1746

6

2018-01-30 18:49
sergej644 Latest
./templates/default/images/folder_dl.gif Metal (Melodic Heavy Metal) Axel Rudi Pell - Love Ballads - 2002 [APE, image +.cue, lossless] sergej644
1 | 0

0 | 508

3

2019-01-28 21:12
sergej644 Latest
./templates/default/images/folder_dl.gif Rock (Melodic Hard Rock) Praying Mantis - Gravity - 2018 [FLAC, image +.cue, lossless] sergej644
1 | 0

0 | 503

2

2019-02-02 21:42
sergej644 Latest
Display posts from previous:    
Reply to topic

The time now is: Today 22:57

All times are GMT + 3 Hours



You cannot post new topics in this forum
You cannot reply to topics in this forum
You cannot edit your posts in this forum
You cannot delete your posts in this forum
You cannot vote in polls in this forum
You cannot attach files in this forum
You cannot download files in this forum