Today is a free download without charge Download

Рэтчет и Кланк: Галактические рейнджеры / Ratchet & Clank (Кевин Манро, Джерика Клилэнд) [2015, Мультфильм, фантастика, боевик, комедия, приключения, BDRip 1080p] iTunes

Reply to topic
 
Author
Message

Russian Mafia ®

Gender:

Longevity: 4 years 6 months

Posts: 339

Торрент-статистика

Post 09-Aug-2016 09:28

[Quote]

Производство: Гонконг, Канада, США, Aperture Media Partners, Blockade Entertainment, CNHK Media
Жанр: Мультфильм, фантастика, боевик, комедия, приключения
Режиссер: Кевин Манро, Джерика Клилэнд
Актеры: Джеймс Арнольд Тейлор, Дэвид Кэй, Джим Уорд, Йен Джеймс Корлетт, Эндрю Каунден, Розарио Доусон, Брайан Добсон, Брайан Драммонд, Пол Джаматти
Описание:
Большеухий ловкач Рэтчет всегда мечтал присоединиться к Галактическим космическим рейнджерам, но самовлюбленный супергерой Капитан Кварк не принимает его в команду. И все же, когда робот Кланк приносит весть о коварном плане злодея Дрека из расы Блэрг создать новую планету для своего вида, предварительно избавившись от рейнджеров и уничтожив Солнечную систему, миссия по спасению галактики ложится именно на пушистые плечи остряка Рэтчета. А металлический Кланк становится его верным спутником и помощником.

Продолжительность: 01:34:00
Качество видео: BDRip (DRONES)
Перевод: Дублированный (iTunes)
Субтитры: английский
Видео: AVC, 1920x808 (2,40:1), 23,976 fps, 5138 Kbps
Аудио 1: AC-3, 48.0 KHz, 6 ch, 384 Kbps, CBR | русский
Аудио 2: DTS, 48.0 KHz, 6 ch, 1509 Kbps, CBR | английский

Mediainfo:

Общее
Полное имя : \Ratchet & Clank.2015.BDRip.1080p.ru.en.NNMCLUB.mkv
Формат : Matroska
Версия формата : Version 2
Размер файла : 4,62 Гбайт
Продолжительность : 1 ч. 34 м.
Общий поток : 7032 Кбит/сек
Название фильма : Ratchet & Clank.2015.BDRip.1080p.ru.en.NNMCLUB
Дата кодирования : UTC 2016-08-09 05:06:14
Программа кодирования : mkvmerge v7.7.0 ('Six Voices') 64bit built on Feb 28 2015 23:39:33
Библиотека кодирования : libebml v1.3.1 + libmatroska v1.4.2
Видео
Идентификатор : 1
Формат : AVC
Формат/Информация : Advanced Video Codec
Профиль формата : [url=mailto:[email protected]][email protected][/url]
Параметр CABAC формата : Да
Параметр ReFrames формата : 5 кадров
Идентификатор кодека : V_MPEG4/ISO/AVC
Продолжительность : 1 ч. 34 м.
Битрейт : 5138 Кбит/сек
Ширина : 1920 пикселей
Высота : 808 пикселей
Соотношение сторон : 2,40:1
Режим частоты кадров : Постоянный
Частота кадров : 23,976 кадра/сек
Цветовое пространство : YUV
Субдискретизация насыщенности : 4:2:0
Битовая глубина : 8 бит
Тип развёртки : Прогрессивная
Бит/(Пиксели*Кадры) : 0.138
Размер потока : 3,29 Гбайт (71%)
Заголовок : Ratchet & Clank.2015.BDRip.1080p.ru.en.NNMCLUB
Библиотека кодирования : x264 core 148 r2692 64f4e24
Настройки программы : cabac=1 / ref=5 / deblock=1:0:0 / analyse=0x3:0x133 / me=umh / subme=7 / psy=1 / psy_rd=1.00:0.00 / mixed_ref=1 / me_range=16 / chroma_me=1 / trellis=1 / 8x8dct=1 / cqm=0 / deadzone=21,11 / fast_pskip=0 / chroma_qp_offset=-2 / threads=25 / lookahead_threads=4 / sliced_threads=0 / nr=0 / decimate=1 / interlaced=0 / bluray_compat=0 / constrained_intra=0 / bframes=3 / b_pyramid=2 / b_adapt=1 / b_bias=0 / direct=1 / weightb=1 / open_gop=0 / weightp=2 / keyint=250 / keyint_min=23 / scenecut=40 / intra_refresh=0 / rc_lookahead=40 / rc=2pass / mbtree=1 / bitrate=5138 / ratetol=1.0 / qcomp=0.60 / qpmin=0 / qpmax=69 / qpstep=4 / cplxblur=20.0 / qblur=0.5 / ip_ratio=1.40 / aq=1:1.00
Язык : English
Default : Да
Forced : Нет
Statistics Tags Issue : mkvmerge v8.3.0 ('Over the Horizon') 64bit 2016-08-08 22:09:24 / mkvmerge v7.7.0 ('Six Voices') 64bit built on Feb 28 2015 23:39:33 2016-08-09 05:06:14
FromStats_BitRate : 5136369
FromStats_Duration : 01:34:07.276000000
FromStats_FrameCount : 135399
FromStats_StreamSize : 3625812064
Аудио #1
Идентификатор : 2
Формат : AC-3
Формат/Информация : Audio Coding 3
Расширение режима : CM (complete main)
Параметр Endianness формата : Big
Идентификатор кодека : A_AC3
Продолжительность : 1 ч. 34 м.
Вид битрейта : Постоянный
Битрейт : 384 Кбит/сек
Каналы : 6 каналов
Расположение каналов : Front: L C R, Side: L R, LFE
Частота : 48,0 КГц
Частота кадров : 31,250 кадров/сек (1536 spf)
Метод сжатия : С потерями
Размер потока : 259 Мбайт (5%)
Заголовок : Дублированный (iTunes)
Язык : Russian
Default : Да
Forced : Нет
Аудио #2
Идентификатор : 3
Формат : DTS
Формат/Информация : Digital Theater Systems
Режим : 16
Параметр Endianness формата : Big
Идентификатор кодека : A_DTS
Продолжительность : 1 ч. 34 м.
Вид битрейта : Постоянный
Битрейт : 1509 Кбит/сек
Каналы : 6 каналов
Расположение каналов : Front: L C R, Side: L R, LFE
Частота : 48,0 КГц
Частота кадров : 93,750 кадра/сек (512 spf)
Битовая глубина : 24 бит
Метод сжатия : С потерями
Размер потока : 1016 Мбайт (21%)
Язык : English
Default : Нет
Forced : Нет
Statistics Tags Issue : mkvmerge v8.3.0 ('Over the Horizon') 64bit 2016-08-08 22:09:24 / mkvmerge v7.7.0 ('Six Voices') 64bit built on Feb 28 2015 23:39:33 2016-08-09 05:06:14
FromStats_BitRate : 1509000
FromStats_Duration : 01:34:07.360000000
FromStats_FrameCount : 529440
FromStats_StreamSize : 1065233280
Текст
Идентификатор : 4
Формат : UTF-8
Идентификатор кодека : S_TEXT/UTF8
Идентификатор кодека/Информация : UTF-8 Plain Text
Язык : English
Default : Нет
Forced : Нет
Меню
00:00:00.000 : en:00:00:00.000
00:03:12.526 : en:00:03:12.526
00:08:50.822 : en:00:08:50.822
00:14:23.112 : en:00:14:23.112
00:17:40.059 : en:00:17:40.059
00:21:49.892 : en:00:21:49.892
00:26:15.783 : en:00:26:15.783
00:31:23.340 : en:00:31:23.340
00:36:22.847 : en:00:36:22.847
00:41:23.940 : en:00:41:23.940
00:46:11.185 : en:00:46:11.185
00:49:30.342 : en:00:49:30.342
00:53:28.247 : en:00:53:28.247
00:57:00.459 : en:00:57:00.459
01:01:44.743 : en:01:01:44.743
01:07:42.767 : en:01:07:42.767
01:11:16.731 : en:01:11:16.731
01:18:47.473 : en:01:18:47.473
01:23:20.120 : en:01:23:20.120
01:27:53.810 : en:01:27:53.810

Скриншоты

       
Other forum [Profile] [PM]
Display posts from previous:    
Reply to topic

The time now is: Today 18:33

All times are GMT + 3 Hours



You cannot post new topics in this forum
You cannot reply to topics in this forum
You cannot edit your posts in this forum
You cannot delete your posts in this forum
You cannot vote in polls in this forum
You cannot attach files in this forum
You cannot download files in this forum