Today is a free download without charge Download

Тайная жизнь домашних животных / The Secret Life of Pets (Крис Рено, Ярроу Чейни) [2016, Мультфильм, комедия, приключения, семейный, HDTV 1080p] [Line]

Reply to topic
 
Author
Message

Russian Mafia ®

Gender:

Longevity: 4 years 6 months

Posts: 339

Торрент-статистика

Post 01-Sep-2016 13:21

[Quote]

Тайная жизнь домашних животных / The Secret Life of Pets (2016) HDTV 1080p] [Line] - Производство: Япония, США, Illumination Entertainment, Universal Pictures
Жанр: Мультфильм, комедия, приключения, семейный
Режиссер: Крис Рено, Ярроу Чейни
Продюсер: Крис Меледандри, Джанет Хели
Актеры: Луи Секей, Эрик Стоунстрит, Кевин Харт, Элли Кемпер, Бобби Мойнихан, Лейк Белл, Дана Харвей, Ганнибал Бёресс, Джени Слэйт, Альберт Брукс
Описание:
Что делают домашние животные пока хозяева пропадают на работе? С тоской смотрят в окно? Смиренно дремлют на коврике у двери? Как бы не так. Они ведут свою тайную жизнь.

Возраст: 6+ (зрителям, достигшим 6 лет)
Рейтинг MPAA: PG (рекомендуется присутствие родителей)
Дата мировой премьеры: 18 июня 2016
Дата российской премьеры: 18 августа 2016, «UPI»
Продолжительность: 01:25:47
Качество видео: HDTV Сэмпл
Перевод: Дублированный (Чистый звук)
Вид субтитров: Отсутствуют
Реклама: Присутствуют вставки голосовой и текстовой рекламы
Видео: AVC, 1920x1036 (1.853), 29.970 fps, 5 845 Kbps (0.098 bit/pixel)
Аудио: AC-3, 48.0 KHz, 2 ch, 384 Kbps, CBR

Mediainfo:

Код:
Общее
Уникальный идентификатор                 : 243121462650572482136302365240319044138 (0xB6E77D91AED895CABDF553D5E8046A2A)
Полное имя                               : D:\[1]\Тайная жизнь домашних животных\Тайная жизнь домашних животных - The Secret Life of Pets (2016)_HDTV.1080p.mkv
Формат                                   : Matroska
Версия формата                           : Version 4 / Version 2
Размер файла                             : 3,81 Гбайт
Продолжительность                        : 1 ч. 25 м.
Режим общего битрейта                    : Постоянный
Общий поток                              : 6356 Кбит/сек
Дата кодирования                         : UTC 2016-09-01 04:49:50
Программа кодирования                    : mkvmerge v7.6.0 ('Garden of Dreams') 64bit built on Feb  8 2015 13:04:34
Библиотека кодирования                   : libebml v1.3.1 + libmatroska v1.4.2
_STATISTICS_WRITING_APP                  : mkvmerge v7.6.0 ('Garden of Dreams') 64bit built on Feb  8 2015 13:04:34
_STATISTICS_WRITING_DATE_UTC             : 2016-09-01 04:49:50
_STATISTICS_TAGS                         : BPS DURATION NUMBER_OF_FRAMES NUMBER_OF_BYTES
DURATION                                 : 01:25:47.776000000
NUMBER_OF_FRAMES                         : 160868
NUMBER_OF_BYTES                          : 247093248
Видео
Идентификатор                            : 1
Формат                                   : AVC
Формат/Информация                        : Advanced Video Codec
Профиль формата                          : [url=mailto:[email protected]][email protected][/url]
Параметр CABAC формата                   : Да
Параметр ReFrames формата                : 4 кадра
Идентификатор кодека                     : V_MPEG4/ISO/AVC
Продолжительность                        : 1 ч. 25 м.
Вид битрейта                             : Постоянный
Битрейт                                  : 5845 Кбит/сек
Номинальный битрейт                      : 6500 Кбит/сек
Ширина                                   : 1920 пикселей
Высота                                   : 1036 пикселей
Соотношение сторон                       : 1,85:1
Режим частоты кадров                     : Постоянный
Частота кадров                           : 29,970 кадров/сек
Стандарт вещания                         : Component
Цветовое пространство                    : YUV
Субдискретизация насыщенности            : 4:2:0
Битовая глубина                          : 8 бит
Тип развёртки                            : Прогрессивная
Бит/(Пиксели*Кадры)                      : 0.098
Размер потока                            : 3,50 Гбайт (92%)
Default                                  : Да
Forced                                   : Нет
Цветовой диапазон                        : Limited
Основные цвета                           : BT.709
Характеристики трансфера                 : BT.709
Коэффициенты матрицы                     : BT.709
Аудио
Идентификатор                            : 2
Формат                                   : AC-3
Формат/Информация                        : Audio Coding 3
Расширение режима                        : CM (complete main)
Параметр Endianness формата              : Big
Идентификатор кодека                     : A_AC3
Продолжительность                        : 1 ч. 25 м.
Вид битрейта                             : Постоянный
Битрейт                                  : 384 Кбит/сек
Каналы                                   : 2 канала
Расположение каналов                     : Front: L R
Частота                                  : 48,0 КГц
Битовая глубина                          : 16 бит
Метод сжатия                             : С потерями
Задержка видео                           : 44 мс.
Размер потока                            : 236 Мбайт (6%)
Default                                  : Да
Forced                                   : Нет

Скриншоты

       
Other forum [Profile] [PM]
Similar theme
Forum Topic Author Torrent Replies Last Post
./templates/default/images/folder_dl.gif Приключения и квесты Mystery Trackers: Blackrow\'s Secret Collector\'s Edition / Охотники за тайнами. Загадка рода Блэкроу. Коллекционное издание [P] [RUS / ENG] (2014) Omen
5 | 0

0 | 1968

26

2015-06-06 00:09
Omen Latest
Display posts from previous:    
Reply to topic

The time now is: Today 19:31

All times are GMT + 3 Hours



You cannot post new topics in this forum
You cannot reply to topics in this forum
You cannot edit your posts in this forum
You cannot delete your posts in this forum
You cannot vote in polls in this forum
You cannot attach files in this forum
You cannot download files in this forum