Today is a free download without charge Download

Арти: приключение начинается / The Arti: The Adventure Begins (Huang Wen Chang) [2015, Кукольный, Компьютерная анимация, Фентези,BDRip 720p] VO (BadBajo)

Reply to topic
 
Author
Message

}{@R0N ®

Longevity: 3 years 11 months

Posts: 7616

Торрент-статистика

Post 07-Jan-2017 21:15

[Quote]

Арти: приключение начинается / The Arti: The Adventure Begins - Производство: Тайвань, PiLi International Multimedia
Жанр: Кукольный, Компьютерная анимация, Фентези
Режиссер: Хуанг Вень Чанг
Персонажи: Рики Хсиао, Хсяо-Шун Хсю, Чиа-Чиа Пенг, Ян Пуи, Хуан Вэнь Тзе
Описание:
Однажды, молодой мастер Мо получил в подарок от отца деревянного робота по имени Арти. Но жителей окрестностей испугало это изобретение и они напали на отца мастера Мо и убили его. Сам Мо сбежал со своей сестрой и своим роботом. Шестнадцать лет спустя, единственный источник силы - Ориджин, питавший Арти, стал иссякать. Мо ничего не остается, как отправиться на поиски нового источника для своего робота...

Возраст: 16+ (зрителям, достигшим 16 лет)
Рейтинг MPAA: R (лицам до 17 лет обязательно присутствие взрослого)
Релиз от: BadBajo
Продолжительность: 01:43:19
Качество видео: BDRip Сэмпл
Перевод: Одноголосый закадровый, любительский
Озвучка / Автор перевода: BadBajo
Реклама: Отсутствует
Видео: AVC/H.264, 1280х674, ~6290 Kbps
Аудио: AC3, 6 ch, 640 Kbps, CBR l Русский (AVO, BadBajo)
Аудио: AC3, 6 ch, 640 Kbps, CBR l Китайский

Mediainfo:

Format                      : Matroska
Format version : Version 4 / Version 2
File size : 5.46 GiB
Duration : 1 h 43 min
Overall bit rate : 7 572 kb/s
Movie name : Jubowo @ WiKi
Encoded date : UTC 2017-01-06 20:47:03
Writing application : mkvmerge v9.5.0 ('Quiet Fire') 64bit
Writing library : libebml v1.3.4 + libmatroska v1.4.5
Cover : Yes
Attachments : cover.jpg
Video
ID : 1
Format : AVC
Format/Info : Advanced Video Codec
Format profile : [url=mailto:[email protected]][email protected][/url]
Format settings, CABAC : Yes
Format settings, ReFrames : 9 frames
Codec ID : V_MPEG4/ISO/AVC
Duration : 1 h 43 min
Bit rate : 6 290 kb/s
Width : 1 280 pixels
Height : 674 pixels
Display aspect ratio : 1.899
Frame rate mode : Constant
Frame rate : 23.976 (24000/1001) FPS
Color space : YUV
Chroma subsampling : 4:2:0
Bit depth : 8 bits
Scan type : Progressive
Bits/(Pixel*Frame) : 0.304
Stream size : 4.54 GiB (83%)
Writing library : x264 core 129 r2245+704+36 8e61944 tMod+MixAQ [[email protected]:2:0 X86_64]
Encoding settings : cabac=1 / ref=9 / deblock=1:-3:-3 / analyse=0x3:0x133 / me=umh / subme=11 / psy=1 / fade_compensate=0.00 / psy_rd=1.05:0.10 / mixed_ref=1 / me_range=32 / chroma_me=1 / trellis=2 / 8x8dct=1 / cqm=0 / deadzone=21,11 / fast_pskip=0 / chroma_qp_offset=-3 / threads=18 / lookahead_threads=3 / sliced_threads=0 / nr=0 / decimate=0 / interlaced=0 / bluray_compat=0 / constrained_intra=0 / fgo=0 / bframes=10 / b_pyramid=2 / b_adapt=2 / b_bias=0 / direct=3 / weightb=1 / open_gop=0 / weightp=2 / keyint=250 / keyint_min=23 / scenecut=40 / intra_refresh=0 / rc_lookahead=80 / rc=2pass / mbtree=1 / bitrate=6290 / ratetol=1.0 / qcomp=0.70 / qpmin=0 / qpmax=69 / qpstep=4 / cplxblur=20.0 / qblur=0.5 / ip_ratio=1.40 / aq=1 / aq-strength=0.85 / aq-sensitivity=10.00 / aq-ifactor=1.00 / aq-pfactor=1.00 / aq-bfactor=1.00 / aq2=0
Language : Chinese
Default : Yes
Forced : No
Audio #1
ID : 2
Format : AC-3
Format/Info : Audio Coding 3
Mode extension : CM (complete main)
Format settings, Endianness : Big
Codec ID : A_AC3
Duration : 1 h 43 min
Bit rate mode : Constant
Bit rate : 640 kb/s
Channel(s) : 6 channels
Channel positions : Front: L C R, Side: L R, LFE
Sampling rate : 48.0 kHz
Frame rate : 31.250 FPS (1536 spf)
Compression mode : Lossy
Stream size : 473 MiB (8%)
Title : Arti_rus_BadBajo
Language : Russian
Default : Yes
Forced : Yes
Audio #2
ID : 3
Format : AC-3
Format/Info : Audio Coding 3
Mode extension : CM (complete main)
Format settings, Endianness : Big
Codec ID : A_AC3
Duration : 1 h 43 min
Bit rate mode : Constant
Bit rate : 640 kb/s
Channel(s) : 6 channels
Channel positions : Front: L C R, Side: L R, LFE
Sampling rate : 48.0 kHz
Frame rate : 31.250 FPS (1536 spf)
Compression mode : Lossy
Stream size : 473 MiB (8%)
Language : Chinese
Default : No
Forced : No
Menu
00:00:00.000 : en:00:00:00.000
00:12:04.557 : en:00:12:04.557
00:24:33.013 : en:00:24:33.013
00:35:00.556 : en:00:35:00.556
00:52:13.130 : en:00:52:13.130
01:04:17.645 : en:01:04:17.645
01:17:40.822 : en:01:17:40.822
01:28:08.283 : en:01:28:08.283

Дополнительная информация:

Трейлер
Скриншоты:
       
Other forum [Profile] [PM]
Display posts from previous:    
Reply to topic

The time now is: Today 00:36

All times are GMT + 3 Hours



You cannot post new topics in this forum
You cannot reply to topics in this forum
You cannot edit your posts in this forum
You cannot delete your posts in this forum
You cannot vote in polls in this forum
You cannot attach files in this forum
You cannot download files in this forum