Today is a free download without charge Download

(Heavy Metal) Michael Schenker Fest - Resurrection - 2018 [FLAC, image +.cue, lossless]

Reply to topic
 
Author
Message

sergej644 ®

Gender:

Longevity: 6 years 11 months

Posts: 626

Торрент-статистика

Post 28-Jan-2019 19:40

[Quote]

-Michael Schenker Fest - Resurrection--
Год издания: 2018
Страна: Germany
Жанр: Heavy Metal
Продолжительность: 00:52:16-Лейбл издания: Nuclear Blast
Страна-выпуска диска: EU
Номер по каталогу: 27361 41732-Формат: FLAC
Битрейт аудио: Lossless
Тип рипа: image +.cue
Наличие сканов в содержимом раздачи: да
-

Трэклист


01. Heart And Soul (4:21)
02. Warrior (5:22)
03. Take Me To The Church (4:46)
04. Night Moods (4:30)
05. The Girl With The Stars In Her Eyes (3:49)
06. Everest (3:42)
07. Messin' Around (4:34)
08. Time Knows When Itґs Time (4:23)
09. Anchors Away (4:26)
10. Salvation (3:38)
11. Livin' A Life Worth Livin' (3:52)
12. The Last Supper (4:52)
-

Лог создания рипа

Код:
Exact Audio Copy V1.3 from 2. September 2016
Отчёт EAC об извлечении, выполненном 19. марта 2018, 19:00
Michael Schenker Fest / Resurrection
Дисковод: HL-DT-STDVDRAM GU40N   Adapter: 1  ID: 0
Режим чтения                 : Достоверность
Использование точного потока : Да
Отключение кэша аудио        : Да
Использование указателей C2  : Нет
Коррекция смещения при чтении                     : 103
Способность читать области Lead-in и Lead-out     : Нет
Заполнение пропущенных сэмплов тишиной            : Да
Удаление блоков с тишиной в начале и конце        : Нет
При вычислениях CRC использовались нулевые сэмплы : Да
Интерфейс                                         : Встроенный Win32-интерфейс для Win NT/2000
Выходной формат          : Пользовательский кодировщик
Выбранный битрейт        : 1024 kBit/s
Качество                 : Высокий
Добавление ID3-тега      : Нет
Утилита сжатия           : C:\Program Files (x86)\Exact Audio Copy\Flac\flac.exe
Дополнительные параметры :  -V -8 -T "Date=%year%" -T "Genre=%genre%" %source%
TOC извлечённого CD
     Трек |   Старт  | Длительность | Начальный сектор | Конечный сектор
    ---------------------------------------------------------------------
       1  |  0:00.00 |    4:20.67   |           0      |      19566
       2  |  4:20.67 |    5:21.64   |       19567      |      43705
       3  |  9:42.56 |    4:46.31   |       43706      |      65186
       4  | 14:29.12 |    4:29.62   |       65187      |      85423
       5  | 18:58.74 |    3:48.62   |       85424      |     102585
       6  | 22:47.61 |    3:42.21   |      102586      |     119256
       7  | 26:30.07 |    4:34.05   |      119257      |     139811
       8  | 31:04.12 |    4:23.04   |      139812      |     159540
       9  | 35:27.16 |    4:26.13   |      159541      |     179503
      10  | 39:53.29 |    3:38.24   |      179504      |     195877
      11  | 43:31.53 |    3:51.64   |      195878      |     213266
      12  | 47:23.42 |    4:52.07   |      213267      |     235173
Характеристики диапазона извлечения и сообщения об ошибках
Выбранный диапазон
     Имя файла C:\Users\ Desktop\Michael Schenker Fest - Resurrection 2018\Michael Schenker Fest - Resurrection.wav
     Пиковый уровень 92.2 %
     Скорость извлечения 2.0 X
     Качество диапазона 100.0 %
     CRC теста 6C0373D0
     CRC копии 6C0373D0
     Копирование... OK
Ошибок не произошло
AccurateRip: сводка
Трек  1  отсутствует в базе данных
Трек  2  отсутствует в базе данных
Трек  3  отсутствует в базе данных
Трек  4  отсутствует в базе данных
Трек  5  отсутствует в базе данных
Трек  6  отсутствует в базе данных
Трек  7  отсутствует в базе данных
Трек  8  отсутствует в базе данных
Трек  9  отсутствует в базе данных
Трек 10  отсутствует в базе данных
Трек 11  отсутствует в базе данных
Трек 12  отсутствует в базе данных
Ни одного трека нет в базе AccurateRip
Конец отчёта
---- CUETools DB Plugin V2.1.6
[CTDB TOCID: nQpJIroEco5KoFp8sTSXpNbVKBg-] found
Submit result: nQpJIroEco5KoFp8sTSXpNbVKBg- has been confirmed
Track | CTDB Status
  1   | (43/43) Accurately ripped
  2   | (43/43) Accurately ripped
  3   | (43/43) Accurately ripped
  4   | (43/43) Accurately ripped
  5   | (43/43) Accurately ripped
  6   | (43/43) Accurately ripped
  7   | (43/43) Accurately ripped
  8   | (43/43) Accurately ripped
  9   | (43/43) Accurately ripped
10   | (43/43) Accurately ripped
11   | (43/43) Accurately ripped
12   | (43/43) Accurately ripped

Индексная карта (non-compilant .cue)

Код:
REM GENRE "Hard Rock"
REM DATE 2018
REM DISCID AC0C3F0C
REM COMMENT "ExactAudioCopy v1.3"
PERFORMER "Michael Schenker Fest"
TITLE "Resurrection"
REM COMPOSER ""
FILE "Michael Schenker Fest - Resurrection.flac" WAVE
  TRACK 01 AUDIO
    TITLE "Heart And Soul"
    PERFORMER "Michael Schenker Fest"
    REM COMPOSER ""
    INDEX 01 00:00:00
  TRACK 02 AUDIO
    TITLE "Warrior"
    PERFORMER "Michael Schenker Fest"
    REM COMPOSER ""
    INDEX 01 04:20:67
  TRACK 03 AUDIO
    TITLE "Take Me To The Church"
    PERFORMER "Michael Schenker Fest"
    REM COMPOSER ""
    INDEX 01 09:42:56
  TRACK 04 AUDIO
    TITLE "Night Moods"
    PERFORMER "Michael Schenker Fest"
    REM COMPOSER ""
    INDEX 01 14:29:12
  TRACK 05 AUDIO
    TITLE "The Girl With The Stars In Her Eyes"
    PERFORMER "Michael Schenker Fest"
    REM COMPOSER ""
    INDEX 01 18:58:74
  TRACK 06 AUDIO
    TITLE "Everest"
    PERFORMER "Michael Schenker Fest"
    REM COMPOSER ""
    INDEX 01 22:47:61
  TRACK 07 AUDIO
    TITLE "Messin' Around"
    PERFORMER "Michael Schenker Fest"
    REM COMPOSER ""
    INDEX 01 26:30:07
  TRACK 08 AUDIO
    TITLE "Time Knows When Itґs Time"
    PERFORMER "Michael Schenker Fest"
    REM COMPOSER ""
    INDEX 01 31:04:12
  TRACK 09 AUDIO
    TITLE "Anchors Away"
    PERFORMER "Michael Schenker Fest"
    REM COMPOSER ""
    INDEX 01 35:27:16
  TRACK 10 AUDIO
    TITLE "Salvation"
    PERFORMER "Michael Schenker Fest"
    REM COMPOSER ""
    INDEX 01 39:53:29
  TRACK 11 AUDIO
    TITLE "Livin' A Life Worth Livin'"
    PERFORMER "Michael Schenker Fest"
    REM COMPOSER ""
    INDEX 01 43:31:53
  TRACK 12 AUDIO
    TITLE "The Last Supper"
    PERFORMER "Michael Schenker Fest"
    REM COMPOSER ""
    INDEX 01 47:23:42
-

для ознакомления:

--

_________________
Other forum [Profile] [PM]
Similar theme
Forum Topic Author Torrent Replies Last Post
./templates/default/images/folder_dl.gif Metal (Heavy Metal) Ossian - Lélekerő (Lelekero) (2015), MP3, 320 kbps Omen
1 | 0

0 | 2570

18

2015-04-18 03:44
Omen Latest
./templates/default/images/folder_dl.gif Metal (Heavy Metal) [CD] Armored Saint - Дискография - 1984-2015 (31CD), FLAC (image+.cue), lossless Omen
0 | 1

0 | 1406

7

2015-07-19 12:11
Omen Latest
./templates/default/images/folder_dl.gif Metal (Heavy Metal / Power Metal) [WEB] Black Majesty - Cross of Thorns - 2015, FLAC (tracks), lossless Omen
0 | 1

0 | 862

3

2015-09-08 12:22
Omen Latest
./templates/default/images/folder_dl.gif Metal (Heavy Metal/Instrumental) Solarburn - Red - 2015, MP3, 320 kbps Omen
0 | 1

0 | 679

1

2015-09-12 15:00
Omen Latest
./templates/default/images/folder_dl.gif Metal (Heavy Metal) Ossyris - Renacer - 2015, MP3, 320 kbps Omen
0 | 1

0 | 885

2

2015-09-15 18:00
Omen Latest
./templates/default/images/folder_dl.gif Metal (Heavy Metal) Sfyrokalymnon - The Sign Of Concrete Creation - 2015, MP3, 320 kbps Omen
0 | 1

0 | 796

1

2015-09-30 18:00
Omen Latest
./templates/default/images/folder_dl.gif Metal (Heavy Metal) Ram - Svbversvm - 2015, MP3, 320 kbps Omen
1 | 0

0 | 1652

9

2015-10-30 00:00
Omen Latest
Display posts from previous:    
Reply to topic

The time now is: Today 16:07

All times are GMT + 3 Hours



You cannot post new topics in this forum
You cannot reply to topics in this forum
You cannot edit your posts in this forum
You cannot delete your posts in this forum
You cannot vote in polls in this forum
You cannot attach files in this forum
You cannot download files in this forum