Today is a free download without charge Download

Игра престолов / Game of Thrones / Сезон: 8 / Серии: 1-6 из 6 (Алан Тейлор / Alan Taylor) [2019, фэнтези, боевик, драма, мелодрама, приключения, WEB-DL 1080p] MVO (Amedia / Новамедиа) + Original + Sub (Rus, Eng) ¶

Reply to topic
 
Author
Message

}{@R0N ®

Longevity: 3 years 11 months

Posts: 7616

Торрент-статистика

Post 20-May-2019 12:02

[Quote]

Игра престолов / Game of Thrones- Производство: США, Великобритания / Home Box Office (HBO), Television 360, Grok! Studio
Жанр: фэнтези, боевик, драма, мелодрама, приключения
Режиссер: Дэвид Наттер, Алан Тейлор, Алекс Грейвз
Актеры: Питер Динклэйдж, Лина ХидиЮ Эмилия Кларк, Кит Харингтон, Софи Тернер, Мэйси Уильямс, Николай Костер-Вальдау, Иэн Глен, Алфи Аллен, Джон Брэдли и др.
Описание:
«Игра престолов» новый сериал HBO, основанный на бестселлерах Джорджа Р.Р. Мартина. В мире, где лето и зимы длятся десятилетиями, на кону корона Вестероса. Предательство, похоть, интриги и сверхъестественные силы сотрясают все четыре стороны Королевства — от плетущего интриги юга, диких восточных земель, до замерзшего севера и древней Стены, что защищает королевство от тьмы за нею. Короли и королевы, рыцари и мятежники, лжецы и благородные люди борются за власть в кровавом сражении за Железный Трон.

Возраст: 18+ (зрителям, достигшим 18 лет)
Продолжительность: ~00:59:00 серия
Качество видео: WEB-DL Сэмпл
Перевод: Многоголосый закадровый, профессиональный - студия Новамедиа по заказу Amedia
Субтитры: русские, английские
Видео: AVC/H.264, 1920x1080 (16:9), ~6796 Kbps
Аудио 1: AC3, 2 ch, 192 kbps - русский, многоголосый закадровый
Аудио 2: E-AC3, 6 ch, 640 kbps - английский

MediaInfo

Общее
Уникальный идентификатор : 303886304363025537646059608091705499370 (0xE49E5F924E2B454E7C530AF070D05EEA)
Полное имя : D:\Game of Thrones - Игра престолов. Сезон 8. Amedia. 1080p\Game.of.Thrones.s08e02.WEB-DL.1080p.Amedia.mkv
Формат : Matroska
Версия формата : Version 4
Размер файла : 3,12 Гбайт
Продолжительность : 59 м. 11 с.
Общий поток : 7554 Кбит/сек
Дата выпуска : UTC 2019-04-21 21:00:00
Дата кодирования : UTC 2019-04-22 09:15:10
Программа кодирования : mkvmerge v32.0.0 ('Astral Progressions') 32-bit
Библиотека кодирования : libebml v1.3.7 + libmatroska v1.5.0
Видео
Идентификатор : 1
Формат : AVC
Формат/Информация : Advanced Video Codec
Профиль формата : [email protected]
Настройки формата : CABAC / 4 Ref Frames
Параметр CABAC формата : Да
Параметр RefFrames формата : 4 кадра
Идентификатор кодека : V_MPEG4/ISO/AVC
Продолжительность : 59 м. 11 с.
Вид битрейта : Постоянный
Битрейт : 6716 Кбит/сек
Номинальный битрейт : 10000 Кбит/сек
Ширина : 1920 пикселей
Высота : 1080 пикселей
Соотношение сторон : 16:9
Режим частоты кадров : Постоянный
Частота кадров : 23,976 (24000/1001) кадра/сек
Цветовое пространство : YUV
Субдискретизация насыщенности : 4:2:0
Битовая глубина : 8 бит
Тип развёртки : Прогрессивная
Бит/(Пиксели*Кадры) : 0.135
Размер потока : 2,78 Гбайт (89%)
Язык : English
Default : Да
Forced : Нет
Цветовой диапазон : Limited
Основные цвета : BT.709
Характеристики трансфера : BT.709
Коэффициенты матрицы : BT.709
Аудио #1
Идентификатор : 2
Формат : AC-3
Формат/Информация : Audio Coding 3
Коммерческое название : Dolby Digital
Идентификатор кодека : A_AC3
Продолжительность : 59 м. 11 с.
Вид битрейта : Постоянный
Битрейт : 192 Кбит/сек
Каналы : 2 канала
Channel layout : L R
Частота : 48,0 КГц
Частота кадров : 31,250 кадров/сек (1536 SPF)
Битовая глубина : 16 бит
Метод сжатия : С потерями
Размер потока : 81,3 Мбайт (3%)
Заголовок : AC3 2.0 @ 192 kbps - MVO, Novamedia
Язык : Russian
ServiceKind/String : Complete Main
Default : Да
Forced : Нет
Аудио #2
Идентификатор : 3
Формат : E-AC-3
Формат/Информация : Enhanced AC-3
Коммерческое название : Dolby Digital Plus
Идентификатор кодека : A_EAC3
Продолжительность : 59 м. 11 с.
Вид битрейта : Постоянный
Битрейт : 640 Кбит/сек
Каналы : 6 каналов
Channel layout : L R C LFE Ls Rs
Частота : 48,0 КГц
Частота кадров : 31,250 кадров/сек (1536 SPF)
Метод сжатия : С потерями
Задержка видео : 24 мс.
Размер потока : 271 Мбайт (8%)
Заголовок : E-AC3 5.1 @ 640 kbps - Original
Язык : English
ServiceKind/String : Complete Main
Default : Нет
Forced : Нет
Текст #1
Идентификатор : 4
Формат : UTF-8
Идентификатор кодека : S_TEXT/UTF8
Идентификатор кодека/Информация : UTF-8 Plain Text
Продолжительность : 58 м. 21 с.
Битрейт : 2 бит/сек
ElementCount : 23
Размер потока : 1,10 Кбайт (0%)
Заголовок : Forced
Язык : Russian
Default : Да
Forced : Да
Текст #2
Идентификатор : 5
Формат : UTF-8
Идентификатор кодека : S_TEXT/UTF8
Идентификатор кодека/Информация : UTF-8 Plain Text
Продолжительность : 58 м. 28 с.
Битрейт : 70 бит/сек
ElementCount : 679
Размер потока : 30,3 Кбайт (0%)
Заголовок : Full
Язык : Russian
Default : Нет
Forced : Нет
Текст #3
Идентификатор : 6
Формат : UTF-8
Идентификатор кодека : S_TEXT/UTF8
Идентификатор кодека/Информация : UTF-8 Plain Text
Продолжительность : 59 м. 2 с.
Битрейт : 50 бит/сек
ElementCount : 777
Размер потока : 21,7 Кбайт (0%)
Заголовок : Full
Язык : English
Default : Нет
Forced : Нет
Текст #4
Идентификатор : 7
Формат : UTF-8
Идентификатор кодека : S_TEXT/UTF8
Идентификатор кодека/Информация : UTF-8 Plain Text
Продолжительность : 59 м. 2 с.
Битрейт : 55 бит/сек
ElementCount : 864
Размер потока : 23,8 Кбайт (0%)
Заголовок : Full SDH
Язык : English
Default : Нет
Forced : Нет
Меню
00:00:00.000 : en:Previously On
00:00:42.928 : en:Opening Credits
00:02:36.928 : en:The fate of a Lannister
00:08:08.928 : en:The faces of death
00:10:51.928 : en:Jaime makes a round of apologies
00:17:10.928 : en:What about the North
00:23:40.928 : en:The North plans for battle
00:31:06.928 : en:Night's watch at Winterfell
00:34:51.928 : en:Sharing one last drink
00:38:50.928 : en:Seize the night
00:44:36.928 : en:A knight of the Seven Kingdoms
00:48:46.928 : en:Samwell passes on a gift to Jorah
00:51:04.928 : en:How about a song
00:52:53.928 : en:Jon confides in Danny
00:57:17.928 : en:End Credits
00:58:38.928 : en:Next On
00:59:10.928 : en:Inside the Episode

Список серий

1. Winterfell | Винтерфелл
2. A Knight of the Seven Kingdoms | Рыцарь семи королевств
3. The Long Night | Долгая Ночь
4. The Last of the Starks | Последние из Старков
5. The Bells | Колокола
6. The Iron Throne | Железный трон
Скриншоты:
       
Other forum [Profile] [PM]
Display posts from previous:    
Reply to topic

The time now is: Today 17:36

All times are GMT + 3 Hours



You cannot post new topics in this forum
You cannot reply to topics in this forum
You cannot edit your posts in this forum
You cannot delete your posts in this forum
You cannot vote in polls in this forum
You cannot attach files in this forum
You cannot download files in this forum