Today is a free download without charge Download

Взлет и падение: поворотные моменты Второй мировой войны / Rise and Fall: The Turning Points of WW II (2019) HDTVRip [H.264/1080p-LQ] (серии 1-3 из 6) (Обновляемая)

Reply to topic
 
Author
Message

Clavik ®

Gender:

Longevity: 6 years

Posts: 2207

Location: Украина

Торрент-статистика

Post 20-Aug-2019 08:49

[Quote]

Взлет и падение: поворотные моменты Второй мировой войны / Rise and Fall: The Turning Points of WW II (2019) HDTVRip [H.264/1080p-LQ] (серии 1-3 из 6) - Производство: Австралия, Wildbear Entertainment
Жанр: Документальный, война, история
Режиссер: Джим Уилкс
Описание:
1 сентября 1939 года, Германия обрушила свою мощь на соседнюю Польшу. За атакой последовал самый катастрофический конфликт в истории. Он затронул почти все без исключений нации. Народам пришлось вступить во Вторую мировую войну. Долгие шесть лет, судьба всего мира балансировала на грани. Её определяли ключевые битвы, победы и поражения, ошибки и подвиги. Этот сериал будет посвящен им, поворотным моментам, которые происходили по обе стороны конфликта, вплоть до окончательной победы.
Мы рассмотрим военные кампании, чтобы понять, что решало исход войн на полях сражений Европы, Азии и Северной Африки, и в мировом океане.
Продолжительность: серии x ~ 00:49:59
Качество видео: HDTVRip
Перевод: Одноголосый закадровый, профессиональный (SDI Media)
Субтитры: отсутствуют
Видео: AVC/H.264, 1920x1080, ~4055 Kbps
Аудио: AAC, 2 ch, 192 Kbps (текст читал: Кирилл Дмитриев)

Mediainfo: (тех. данные всех серий идентичны)

Общее
Уникальный идентификатор : 215437660689750105417118253139376274761 (0xA213C8C07C92D2A96073E1EF9D9CFD49)
Полное имя : F:\КИНО\Взлет.и.падение.поворотные.моменты.ВМВ.2019.HDTVRip\01.Надвигающаяся.буря.2019.HDTVRip.mkv
Формат : Matroska
Версия формата : Version 4
Размер файла : 1,48 Гбайт
Продолжительность : 49 м. 59 с.
Режим общего битрейта : Переменный
Общий поток : 4247 Кбит/сек
Дата кодирования : UTC 2019-08-16 03:59:00
Программа кодирования : mkvmerge v36.0.0 ('Is That Jazz?') 64-bit
Библиотека кодирования : libebml v1.3.9 + libmatroska v1.5.2
Видео
Идентификатор : 1
Формат : AVC
Формат/Информация : Advanced Video Codec
Профиль формата : [email protected]
Настройки формата : CABAC / 4 Ref Frames
Параметр CABAC формата : Да
Параметр RefFrames формата : 4 кадра
Идентификатор кодека : V_MPEG4/ISO/AVC
Продолжительность : 49 м. 59 с.
Вид битрейта : Переменный
Битрейт : 4055 Кбит/сек
Максимальный битрейт : 4500 Кбит/сек
Ширина : 1920 пикселей
Высота : 1080 пикселей
Соотношение сторон : 16:9
Режим частоты кадров : Постоянный
Частота кадров : 25,000 кадров/сек
Цветовое пространство : YUV
Субдискретизация насыщенности : 4:2:0
Битовая глубина : 8 бит
Тип развёртки : Прогрессивная
Бит/(Пиксели*Кадры) : 0.078
Размер потока : 1,42 Гбайт (95%)
Default : Да
Forced : Нет
Аудио
Идентификатор : 2
Формат : AAC LC
Формат/Информация : Advanced Audio Codec Low Complexity
Идентификатор кодека : A_AAC-2
Продолжительность : 49 м. 59 с.
Битрейт : 192 Кбит/сек
Каналы : 2 канала
ChannelLayout : L R
Частота : 48,0 КГц
Частота кадров : 46,875 кадров/сек (1024 SPF)
Метод сжатия : С потерями
Размер потока : 67,7 Мбайт (4%)
Default : Да
Forced : Нет

Содержание:

1. Надвигающаяся буря / The Gathering Storm
После Первой мировой войны победители подписали Версальский договор. Мы начнем этот сериал через двадцать лет после Первой мировой войны, с событий, которые положили начало Второй мировой.
2. Блицкриг / Blitzkrieg
В этой серии мы поговорим о первых годах на европейских полях сражений, от вторжения во Францию до последующей Дюнкеркской операции и нарушения Гитлером договора со Сталиным.
3. Мировой пожар / All The Players
Мы изучим ключевые события на Тихоокеанском театре боевых действий - Сингапурскую оборону, и битвы за Мидуэй и Кокоду, а также наступление Роммеля в Африке и европейские бомбардировки союзников.
4-я серия
Силы Оси начинают терять первоначально захваченные плацдармы. Контроль Японии над юго-восточной Азией слабеет, а Германия терпит поражение за поражением в Европе. Ход Второй мировой войны переломлен.
5-я серия
Эта серия рассказывает о моментах войны, которые стали началом наступления союзников: снятие Ленинградской блокады, освобождение Парижа, высадка в Нормандии и освобождение нацистских концлагерей.
6-я серия
Мы видим последние мгновения и последствия Второй мировой войны, суды на военными преступниками (такими, как Нюрнбергский трибунал) и движение к миру с созданием ООН.

Внимание! Раздача ведётся путём добавления новых серий:

При каждом добавлении создаётся новый торрент. Чтобы начать докачку новой серии, пользователям
необходимо сделать следующее:
- Остановить скачивание.
- Удалить старый торрент у себя из клиента (старые серии удалять не надо).
- Скачать новый торрент и запустить его у себя в клиенте вместо старого, при этом указать клиенту путь в старую папку куда и должно происходить скачивание новых серий.

Дополнительная информация:

Отдельная благодарность коллеге alf62 за любезно предоставленный материал!
Скриншоты:
       

_________________


Other forum [Profile] [PM]
Display posts from previous:    
Reply to topic

The time now is: Today 18:56

All times are GMT + 3 Hours



You cannot post new topics in this forum
You cannot reply to topics in this forum
You cannot edit your posts in this forum
You cannot delete your posts in this forum
You cannot vote in polls in this forum
You cannot attach files in this forum
You cannot download files in this forum