Today is a free download without charge Download

План побега 3 / Escape Plan: The Extractors (Джон Херцфелд) [2019, Боевик, BDRip 720p] [DUB] [Расширенная версия] [iTunes]

Reply to topic
DL-List and Torrent activity
Size:  5.03 GB   |    Registered:  1 month 12 days   |    Completed:  0 times

Seeder not seen: 2 days 19 hours

 
 
 
 
 
Author
Message

Орлов Владимир ®

Gender:

Longevity: 1 month 13 days

Posts: 109

Location: Россия , Долгопрудный, Моск.обл

Торрент-статистика

Post 10-Sep-2019 20:43

[Quote]

-План побега 3 / Escape Plan: The Extractors (Джон Херцфелд) [2019, Боевик, BDRip 720p] [DUB] [Расширенная версия] [iTunes]- Информация о фильме
Название: План побега 3
Оригинальное название: Escape Plan: The Extractors
Год выпуска: 2019
Страна: США, Япония
Производство: Emmett/Furla/Oasis Films (EFO Films), Leomus Pictures, Twirly Films Limited
Жанр: Боевик---Режиссёр: Джон Херцфелд
В ролях: Сильвестр Сталлоне, Дэйв Батиста, 50 Cent, Джейми Кинг, Макс Чжан, Девон Сава, Гарри Шам мл., Расселл Вонг, Дэниэл Бернхард, Лидия Халл--Перевод: Дублированный | [iTunes]
Субтитры: Нет--Описание: Непревзойденный взломщик тюрем Рэй Бреслин опять ввязался в смертельно опасную авантюру: вместе со своей командой он берётся разыскать похищенную дочь своего друга — бизнесмена из Гонконга. Нити расследования приводят к одной из самых секретных тюрем Америки, которая называется «Пункт Дьявола».-- --Качество: BDRip 720p
Продолжительность: 01:37:20--Формат: MKV
Видео кодек: MPEG-4 AVC
Аудио кодек: AC3
Видео: 1280x534 (2.40:1), 23,976 fps, x264 ~5 521 kbps avg, 0.337 bit/pixel
Аудио #1: 48 kHz, AC3 Dolby Digital, 3/2 (L,C,R,l,r) + LFE ch, ~384.00 kbps avg | RUS (iTunes)
Аудио #2: 48 kHz, DTS Dolby Theater System, 3/2 (L,C,R,l,r) + LFE ch, ~1 509.00 kbps avg | ENG--Дата премьеры (мир): 8 июня 2019
Дата премьеры (РФ): 27 июня 2019, «MEGOGO Distribution»
Цифровой релиз:
--

Тех.данные видеофайла

Общее
Уникальный идентификатор: 133620610079989845476144097066333351569 (0x648664B6C83B43BF96FC8836DD09AE91)
Полное имя: F:\OlLanDGroup\Escape.Plan.The.Extractors.2019.Extended.Cut.BDRip(720p).OllanDGroup.mkv
Формат: Matroska
Версия формата: Version 4 / Version 2
Размер файла: 5,03 Гбайт
Продолжительность: 1 ч. 37 м.
Общий поток: 7403 Кбит/сек
Название фильма: Escape Plan The Extractors 2019 #TorpedoUK#
Дата кодирования: UTC 2019-09-10 16:49:57
Программа кодирования: mkvmerge v29.0.0 ('Like It Or Not') 64-bit
Библиотека кодирования: libebml v1.3.6 + libmatroska v1.4.9
Видео
Идентификатор: 1
Формат: AVC
Формат/Информация: Advanced Video Codec
Профиль формата: [email protected]
Параметр CABAC формата: Да
Параметр ReFrames формата: 10 кадров
Идентификатор кодека: V_MPEG4/ISO/AVC
Продолжительность: 1 ч. 37 м.
Битрейт: 5521 Кбит/сек
Ширина: 1280 пикселей
Высота: 534 пикселя
Соотношение сторон: 2,40:1
Режим частоты кадров: Постоянный
Частота кадров: 23,976 (24000/1001) кадра/сек
Цветовое пространство: YUV
Субдискретизация насыщенности: 4:2:0
Битовая глубина: 8 бит
Тип развёртки: Прогрессивная
Бит/(Пиксели*Кадры): 0.337
Размер потока: 3,74 Гбайт (74%)
Библиотека кодирования: x264 core 146 r2538 121396c
Настройки программы: cabac=1 / ref=10 / deblock=1:-2:-3 / analyse=0x3:0x113 / me=umh / subme=11 / psy=1 / psy_rd=0.90:0.10 / mixed_ref=1 / me_range=64 / chroma_me=1 / trellis=2 / 8x8dct=1 / cqm=0 / deadzone=21,11 / fast_pskip=1 / chroma_qp_offset=-6 / threads=6 / lookahead_threads=3 / sliced_threads=0 / nr=0 / decimate=1 / interlaced=0 / bluray_compat=0 / constrained_intra=0 / bframes=10 / b_pyramid=2 / b_adapt=2 / b_bias=0 / direct=3 / weightb=1 / open_gop=0 / weightp=2 / keyint=240 / keyint_min=23 / scenecut=40 / intra_refresh=0 / rc_lookahead=40 / rc=2pass / mbtree=0 / bitrate=5521 / ratetol=1.0 / qcomp=0.60 / qpmin=0 / qpmax=69 / qpstep=4 / cplxblur=20.0 / qblur=0.5 / vbv_maxrate=50000 / vbv_bufsize=62500 / nal_hrd=none / filler=0 / ip_ratio=1.40 / pb_ratio=1.30 / aq=1:1.00
Язык: English
Default: Да
Forced: Нет
Аудио #1
Идентификатор: 2
Формат: AC-3
Формат/Информация: Audio Coding 3
Расширение режима: CM (complete main)
Параметр Endianness формата: Big
Идентификатор кодека: A_AC3
Продолжительность: 1 ч. 37 м.
Вид битрейта: Постоянный
Битрейт: 384 Кбит/сек
Каналы: 6 каналов
Расположение каналов: Front: L C R, Side: L R, LFE
Частота: 48,0 КГц
Частота кадров: 31,250 кадров/сек (1536 spf)
Битовая глубина: 16 бит
Метод сжатия: С потерями
Размер потока: 267 Мбайт (5%)
Заголовок: DUB [iTunes]
Язык: Russian
Default: Да
Forced: Нет
Аудио #2
Идентификатор: 3
Формат: DTS
Формат/Информация: Digital Theater Systems
Режим: 16
Параметр Endianness формата: Big
Идентификатор кодека: A_DTS
Продолжительность: 1 ч. 37 м.
Вид битрейта: Постоянный
Битрейт: 1509 Кбит/сек
Каналы: 6 каналов
Расположение каналов: Front: L C R, Side: L R, LFE
Частота: 48,0 КГц
Частота кадров: 93,750 кадра/сек (512 spf)
Битовая глубина: 24 бит
Метод сжатия: С потерями
Размер потока: 1,03 Гбайт (20%)
Заголовок: [Original]
Язык: English
Default: Нет
Forced: Нет
Меню
00:00:00.000: fr:00:00:00.000
00:09:22.979: fr:00:09:22.979
00:17:31.133: fr:00:17:31.133
00:24:01.607: fr:00:24:01.607
00:30:59.274: fr:00:30:59.274
00:37:19.737: fr:00:37:19.737
00:43:40.034: fr:00:43:40.034
00:50:12.426: fr:00:50:12.426
00:58:11.405: fr:00:58:11.405
01:05:44.190: fr:01:05:44.190
01:16:39.220: fr:01:16:39.220
01:27:37.294: fr:01:27:37.294

Скриншоты

           
[dark-os.com].t337275.torrent 
Torrent: Registered   [ 2019-09-10 20:43 ]

Download

26 KB

Воспроизвести онлайн

Status: checked
Completed: 0 times
Size: 5.03 GB, InfoHash (Google it!)
Score:  - (vote: 0)
Default: 0  Thank you
 

_________________

Other forum [Profile] [PM]
Display posts from previous:    
Reply to topic

The time now is: Today 18:08

All times are GMT + 3 Hours



You cannot post new topics in this forum
You cannot reply to topics in this forum
You cannot edit your posts in this forum
You cannot delete your posts in this forum
You cannot vote in polls in this forum
You cannot attach files in this forum
You can download files in this forum