Today is a free download without charge Download

(Doom/Melodic Metal) Amorphis - Circle (Limited Edition) - 2013, FLAC (image+.cue), lossless

Reply to topic
 
Author
Message

Omen ®

Longevity: 1 year 11 months

Posts: 80346

Торрент-статистика

Post 27-Apr-2013 08:43

[Quote]

Amorphis - Circle - 2013- Жанр: Doom/Melodic Metal
Год издания: 2013
Издатель (лейбл): Nuclear Blast Records
Номер по каталогу: 27361 29970
Страна: Finland (Helsinki)
Аудиокодек: FLAC (*.flac)
Тип рипа: image+.cue
Битрейт аудио: lossless
Продолжительность: 00:50:35
Источник (релизер): ilijan спасибо
Наличие сканов: Да, Complete 600 DPI
Треклист:
01. Shades of Gray 05:27
02. Mission 04:33
03. The Wanderer 04:43
04. Narrow Path 04:23
05. Hopeless Days 05:08
06. Nightbird's Song 05:00
07. Into the Abyss 05:36
08. Enchanted by the Moon 05:32
09. A New Day 06:00
10. Dead Man's Dream (Bonus Track) 04:03
Состав:
Tomi Joutsen - Vocals
Jan Rechberger - Drums, Keyboards
Esa Holopainen - Guitars (lead)
Tomi Koivusaari - Guitars (rhythm)
Santeri Kallio - Keyboards
Niclas Etelävuori - Bass
Доп. информация:
Home Page
Encyclopaedia Metallum-

Лог создания рипа

Exact Audio Copy V0.99 prebeta 5 from 4. May 2009
EAC extraction logfile from 26. April 2013, 10:45
Amorphis / Circle
Used drive : ATAPI iHAS624 B Adapter: 2 ID: 0
Read mode : SecureUtilize accurate stream : YesDefeat audio cache : YesMake use of C2 pointers : No
Read offset correction : 6Overread into Lead-In and Lead-Out : NoFill up missing offset samples with silence : YesDelete leading and trailing silent blocks : NoNull samples used in CRC calculations : YesUsed interface : Installed external ASPI interface
Used output format : User Defined EncoderSelected bitrate : 40 kBit/sQuality : HighAdd ID3 tag : NoCommand line compressor : C:\Program Files\Exact Audio Copy\Flac\flac.exeAdditional command line options : -6 -V %s
TOC of the extracted CD
Track | Start | Length | Start sector | End sector --------------------------------------------------------- 1 | 0:00.00 | 5:28.46 | 0 | 24645 2 | 5:28.46 | 4:33.63 | 24646 | 45183 3 | 10:02.34 | 4:44.32 | 45184 | 66515 4 | 14:46.66 | 4:23.64 | 66516 | 86304 5 | 19:10.55 | 5:08.56 | 86305 | 109460 6 | 24:19.36 | 5:01.11 | 109461 | 132046 7 | 29:20.47 | 5:37.11 | 132047 | 157332 8 | 34:57.58 | 5:32.74 | 157333 | 182306 9 | 40:30.57 | 6:00.70 | 182307 | 209376 10 | 46:31.52 | 4:03.39 | 209377 | 227640
Range status and errors
Selected range
Filename D:\Download\Amorphis - Circle.wav
Peak level 100.0 % Range quality 100.0 % Copy CRC E8C39FCB Copy OK
No errors occurred
AccurateRip summary
Track 1 not present in databaseTrack 2 not present in databaseTrack 3 not present in databaseTrack 4 not present in databaseTrack 5 not present in databaseTrack 6 not present in databaseTrack 7 not present in databaseTrack 8 not present in databaseTrack 9 not present in databaseTrack 10 not present in database
None of the tracks are present in the AccurateRip database
End of status report
-
Other forum [Profile] [PM]
Display posts from previous:    
Reply to topic

The time now is: Today 23:55

All times are GMT + 4 Hours



You cannot post new topics in this forum
You cannot reply to topics in this forum
You cannot edit your posts in this forum
You cannot delete your posts in this forum
You cannot vote in polls in this forum
You cannot attach files in this forum
You cannot download files in this forum