Сегодня идет свободное скачивание без начисления Download

Результатов поиска: 26

Автор Сообщение

sashau

Пост 25-Июн-2015 18:08

[Цитировать]

Кунг-фу Панда 3 / Kung Fu Panda 3 - Производство: США, Китай, DreamWorks Animation, Oriental DreamWorks
Жанр: Боевик, Приключения
Режиссер: Дженнифер Ю, Алессандро Карлони
Актеры: Джек Блэк, Анджелина Джоли, Джеки Чан, Сет Роген, Люси Лью, Дэвид Кросс, Джеймс Хонг, Брайан Крэнстон, Ребел Уилсон, Дастин Хоффман
Описание:
Воссоединившись со своим давно потерянным отцом, По отправляется в тайный рай для панд, где его ожидает встреча с множеством веселых сородичей. Однако вскоре злодей Кай начинает зачистку — он уничтожает кунг-фу мастеров по всему Китаю.
По предстоит сделать невозможное — обучить боевому искусству деревню, полную его веселых, неуклюжих собратьев, и тем самым превратить их в отряд кунг-фу панд.

Дата мировой премьеры: 29 января 2016
Дата премьеры в России: 17 марта 2016, «Двадцатый Век Фокс СНГ»
Продолжительность: 00:01:43
Качество видео: WEBRip
Перевод: Дублированный
Видео: AVC/H.264, 1920x1080, ~18.0 Mbps
Аудио: AC3, 6 ch, 448 Kbps, CBR

Mediainfo:

Код:
General
Unique ID                   : 180597710857120737644437695444747670293 (0x87DDDA9AAE73B55CA74A3CCEC22DD315)
Complete name               : D:\KFP3_trailer_rus_HD.mkv
Format                      : Matroska
Format version              : Version 4 / Version 2
File size                   : 235 MiB
Duration                    : 1mn 43s
Overall bit rate            : 19.1 Mbps
Writing application         : Lavf55.37.101
Writing library             : Lavf55.37.101
Video
ID                          : 1
Format                      : AVC
Format/Info                 : Advanced Video Codec
Format profile              : [url=mailto:[email protected]][email protected][/url]
Format settings, CABAC      : No
Format settings, ReFrames   : 1 frame
Codec ID                    : V_MPEG4/ISO/AVC
Duration                    : 1mn 43s
Bit rate                    : 18.0 Mbps
Width                       : 1 920 pixels
Height                      : 1 080 pixels
Display aspect ratio        : 16:9
Frame rate mode             : Constant
Frame rate                  : 23.976 fps
Color space                 : YUV
Chroma subsampling          : 4:2:0
Bit depth                   : 8 bits
Scan type                   : Progressive
Bits/(Pixel*Frame)          : 0.362
Stream size                 : 225 MiB (96%)
Writing library             : x264 core 119
Encoding settings           : cabac=0 / ref=1 / deblock=0:0:0 / analyse=0:0 / me=dia / subme=0 / psy=1 / psy_rd=1.00:0.00 / mixed_ref=0 / me_range=16 / chroma_me=1 / trellis=0 / 8x8dct=0 / cqm=0 / deadzone=21,11 / fast_pskip=1 / chroma_qp_offset=0 / threads=4 / sliced_threads=0 / nr=0 / decimate=1 / interlaced=0 / bluray_compat=0 / constrained_intra=0 / bframes=0 / weightp=0 / keyint=250 / keyint_min=23 / scenecut=0 / intra_refresh=0 / rc=abr / mbtree=0 / bitrate=18000 / ratetol=1.0 / qcomp=0.60 / qpmin=0 / qpmax=69 / qpstep=4 / ip_ratio=1.40 / aq=0
Default                     : Yes
Forced                      : No
HANDLER_NAME                : VideoHandler
Audio
ID                          : 2
Format                      : AC-3
Format/Info                 : Audio Coding 3
Mode extension              : CM (complete main)
Format settings, Endianness : Big
Codec ID                    : A_AC3
Duration                    : 1mn 43s
Bit rate mode               : Constant
Bit rate                    : 448 Kbps
Channel(s)                  : 6 channels
Channel positions           : Front: L C R, Side: L R, LFE
Sampling rate               : 48.0 KHz
Bit depth                   : 32 bits
Compression mode            : Lossy
Delay relative to video     : -5ms
Stream size                 : 5.52 MiB (2%)
Language                    : English
Default                     : Yes
Forced                      : No
Encoded date                : UTC 2015-06-18 14:04:11
HANDLER_NAME                : IsoMedia File Produced by Google, 5-11-2011
Скриншоты:
       

sashau

Пост 25-Июн-2015 17:56

[Цитировать]

Кунг-фу Панда 3 / Kung Fu Panda 3 - Производство: США, Китай, DreamWorks Animation, Oriental DreamWorks
Жанр: Боевик, Приключения
Режиссер: Дженнифер Ю, Алессандро Карлони
Актеры: Джек Блэк, Анджелина Джоли, Джеки Чан, Сет Роген, Люси Лью, Дэвид Кросс, Джеймс Хонг, Брайан Крэнстон, Ребел Уилсон, Дастин Хоффман
Описание:
Воссоединившись со своим давно потерянным отцом, По отправляется в тайный рай для панд, где его ожидает встреча с множеством веселых сородичей. Однако вскоре злодей Кай начинает зачистку — он уничтожает кунг-фу мастеров по всему Китаю.
По предстоит сделать невозможное — обучить боевому искусству деревню, полную его веселых, неуклюжих собратьев, и тем самым превратить их в отряд кунг-фу панд.

Дата мировой премьеры: 29 января 2016
Дата премьеры в России: 17 марта 2016, «Двадцатый Век Фокс СНГ»
Продолжительность: 00:00:59
Качество видео: WEBRip
Язык: Японский
Перевод: Отсутствует
Видео: AVC/H.264, 1920x1080, ~18.0 Mbps
Аудио: AC3, 6 ch, 448 Kbps, CBR

Mediainfo:

Код:
General
Unique ID                   : 210835516966112114371362570627014750682 (0x9E9D718C441AE0B48321CB3A0E6071DA)
Complete name               : D:\KFP3_teaser_1080p.mkv
Format                      : Matroska
Format version              : Version 4 / Version 2
File size                   : 131 MiB
Duration                    : 59s 182ms
Overall bit rate            : 18.6 Mbps
Movie name                  : [l0ngb0y4nnm]
Encoded date                : UTC 2015-06-14 14:27:28
Writing application         : mkvmerge v7.8.0 ('River Man') 32bit built on Mar 27 2015 16:18:02
Writing library             : Lavf55.37.101
Attachements                : cover.jpg
Video
ID                          : 1
Format                      : AVC
Format/Info                 : Advanced Video Codec
Format profile              : [url=mailto:[email protected]][email protected][/url]
Format settings, CABAC      : No
Format settings, ReFrames   : 1 frame
Codec ID                    : V_MPEG4/ISO/AVC
Duration                    : 59s 200ms
Bit rate                    : 18.0 Mbps
Width                       : 1 920 pixels
Height                      : 1 080 pixels
Display aspect ratio        : 16:9
Frame rate mode             : Constant
Frame rate                  : 25.000 fps
Color space                 : YUV
Chroma subsampling          : 4:2:0
Bit depth                   : 8 bits
Scan type                   : Progressive
Bits/(Pixel*Frame)          : 0.347
Stream size                 : 126 MiB (96%)
Writing library             : x264 core 119
Encoding settings           : cabac=0 / ref=1 / deblock=0:0:0 / analyse=0:0 / me=dia / subme=0 / psy=1 / psy_rd=1.00:0.00 / mixed_ref=0 / me_range=16 / chroma_me=1 / trellis=0 / 8x8dct=0 / cqm=0 / deadzone=21,11 / fast_pskip=1 / chroma_qp_offset=0 / threads=4 / sliced_threads=0 / nr=0 / decimate=1 / interlaced=0 / bluray_compat=0 / constrained_intra=0 / bframes=0 / weightp=0 / keyint=250 / keyint_min=25 / scenecut=0 / intra_refresh=0 / rc=abr / mbtree=0 / bitrate=18000 / ratetol=1.0 / qcomp=0.60 / qpmin=0 / qpmax=69 / qpstep=4 / ip_ratio=1.40 / aq=0
Default                     : Yes
Forced                      : No
HANDLER_NAME                : VideoHandler
DURATION                    : 00:00:59.160000000
NUMBER_OF_FRAMES            : 1479
NUMBER_OF_BYTES             : 134287428
_STATISTICS_WRITING_APP     : mkvmerge v7.8.0 ('River Man') 32bit built on Mar 27 2015 16:18:02
_STATISTICS_WRITING_DATE_UT : 2015-06-14 14:27:28
_STATISTICS_TAGS            : BPS DURATION NUMBER_OF_FRAMES NUMBER_OF_BYTES
Audio
ID                          : 2
Format                      : AC-3
Format/Info                 : Audio Coding 3
Mode extension              : CM (complete main)
Format settings, Endianness : Big
Codec ID                    : A_AC3
Duration                    : 59s 182ms
Bit rate mode               : Constant
Bit rate                    : 448 Kbps
Channel(s)                  : 6 channels
Channel positions           : Front: L C R, Side: L R, LFE
Sampling rate               : 48.0 KHz
Compression mode            : Lossy
Delay relative to video     : -22ms
Stream size                 : 3.16 MiB (2%)
Default                     : Yes
Forced                      : No
HANDLER_NAME                : SoundHandler
DURATION                    : 00:00:59.168000000
NUMBER_OF_FRAMES            : 1849
NUMBER_OF_BYTES             : 3313408
_STATISTICS_WRITING_APP     : mkvmerge v7.8.0 ('River Man') 32bit built on Mar 27 2015 16:18:02
_STATISTICS_WRITING_DATE_UT : 2015-06-14 14:27:28
_STATISTICS_TAGS            : BPS DURATION NUMBER_OF_FRAMES NUMBER_OF_BYTES
Скриншоты:
       

Omen

Пост 29-Мар-2015 11:53

[Цитировать]

Терминатор: Генезис / Terminator: Genisys- Производство: США
Жанр: Боевик, Фантастика, Приключения
Режиссер: Алан Тейлор / Alan Taylor
Актеры: Эмилия Кларк, Джай Кортни, Арнольд Шварценеггер, Мэтт Смит, Джейсон Кларк, Ли Бён Хон, Аарон В. Уильямсон, Дж.К. Симмонс, Сандрин Холт, Кортни Б. Вэнс, Дуглас Смит
Описание фильма:
Когда Джон Коннор, лидер сопротивления, посылает сержанта Кайла Риза назад в 1984 год, чтобы защитить Сару Коннор и спасти будущее, неожиданный поворот событий создает разлом во времени. Сержант Риз оказывается в новой, незнакомой версии прошлого, где он встречает неожиданных союзников, в том числе Терминатора, новых опасных врагов, и новую миссию: изменить будущее…

Премьера (мир): 25 июня 2015, ...
Премьера (РФ): 2 июля 2015, «Централ Партнершип» 3D
Релиз на Blu-Ray: 22 ноября 2015, «Новый Диск», ...
Релиз на DVD: 22 ноября 2015, «Новый Диск», ...
Продолжительность: 00:02:34 + 00:01:31
Качество видео: DCPrip
Перевод: Дублированный
Трейлер 1
Видео: MPEG-4 AVC, 2048x858(2K),2,40:1,24,000 кадра/сек,~38,01 Mbps (~100 Mbps peak)
Звук: Rus, FLAC (24 Бит),48.0 КГц,~3434 Кбит/сек,Front: L C R, Back: L R, LFE
Трейлер 2
Видео: MPEG-4 AVC, 2048x858(2K),2,40:1,24,000 кадра/сек,~39,01 Mbps (~106 Mbps peak)
Звук: Rus, FLAC (24 Бит),48.0 КГц,~3344 Кбит/сек,Front: L C R, Back: L R, LFE

Mediainfo:

Код:
Общее
Уникальный идентификатор                 : 233019917246380039920231171371203790882 (0xAF4E00EDA7F47590B4D88290CC978822)
Полное имя                               : J:\Видео\TERMINATOR\TERMINATOR - Трейлер 2 [DCPrip 2K Hi444PP Hi10P].mkv
Формат                                   : Matroska
Версия формата                           : Version 4 / Version 2
Размер файла                             : 479 Мбайт
Продолжительность                        : 1 м. 31 с.
Режим общего битрейта                    : Переменный
Общий поток                              : 43,7 Мбит/сек
Название фильма                          : TERMINATOR_TLR
Дата кодирования                         : UTC 2014-12-11 12:06:41
Программа кодирования                    : mkvmerge v7.1.0 ('Good Love') 64bit built on Jul 27 2014 13:06:55
Библиотека кодирования                   : libebml v1.3.0 + libmatroska v1.4.1
Видео
Идентификатор                            : 1
Формат                                   : AVC
Формат/Информация                        : Advanced Video Codec
Профиль формата                          : High 4:4:4 [url=mailto:[email protected]][email protected][/url]
Параметр CABAC формата                   : Да
Параметр ReFrames формата                : 12 кадров
Идентификатор кодека                     : V_MPEG4/ISO/AVC
Продолжительность                        : 1 м. 31 с.
Ширина                                   : 2048 пикселей
Высота                                   : 858 пикселей
Соотношение сторон                       : 2,40:1
Режим частоты кадров                     : Постоянный
Частота кадров                           : 24,000 кадра/сек
Цветовое пространство                    : YUV
Субдискретизация насыщенности            : 4:4:4
Битовая глубина                          : 10 бит
Тип развёртки                            : Прогрессивная
Заголовок                                : DCPrip, h264, 10-bit, 444 css, pc range
Библиотека кодирования                   : x264 core 142 r2431+42 c69a006 tMod [[email protected] X86_64]
Настройки программы                      : cabac=1 / ref=12 / deblock=1:-3:-2 / analyse=0x3:0x133 / me=tesa / subme=11 / psy=1 / fade_compensate=0.00 / psy_rd=0.70:0.10 / mixed_ref=1 / me_range=32 / chroma_me=1 / trellis=2 / 8x8dct=1 / cqm=0 / deadzone=21,11 / fast_pskip=0 / chroma_qp_offset=3 / threads=6 / lookahead_threads=1 / sliced_threads=0 / nr=0 / decimate=0 / interlaced=0 / bluray_compat=0 / constrained_intra=0 / fgo=0 / bframes=16 / b_pyramid=2 / b_adapt=2 / b_bias=0 / direct=3 / weightb=1 / open_gop=0 / weightp=2 / keyint=250 / keyint_min=24 / scenecut=40 / intra_refresh=0 / rc_lookahead=72 / rc=crf / mbtree=1 / crf=12.0000 / qcomp=0.75 / qpmin=0:0:0 / qpmax=81:81:81 / qpstep=4 / ip_ratio=1.40 / aq=1:1.00 / aq-sensitivity=10.00 / aq-factor=1.00:1.00:1.00 / aq2=0 / aq3=0
Default                                  : Да
Forced                                   : Нет
Основные цвета                           : BT.709
Характеристики трансфера                 : BT.709
Коэффициенты матрицы                     : BT.709
colour_range                             : Full
Аудио
Идентификатор                            : 2
Формат                                   : FLAC
Формат/Информация                        : Free Lossless Audio Codec
Идентификатор кодека                     : A_FLAC
Продолжительность                        : 1 м. 31 с.
Вид битрейта                             : Переменный
Каналы                                   : 6 каналов
Частота                                  : 48,0 КГц
Битовая глубина                          : 24 бит
Заголовок                                : FLAC
Библиотека кодирования                   : libFLAC 1.2.1 (UTC 2007-09-17)
Default                                  : Да
Forced                                   : Нет
Код:
Общее
Уникальный идентификатор                 : 253813580980584902884192412365343758571 (0xBEF2B7B3FEE5B6F1BDE0811DB3C518EB)
Полное имя                               : J:\Видео\TERMINATOR\TERMINATOR - Трейлер [DCPrip 2K Hi444PP Hi10P].mkv
Формат                                   : Matroska
Версия формата                           : Version 4 / Version 2
Размер файла                             : 786 Мбайт
Продолжительность                        : 2 м. 34 с.
Режим общего битрейта                    : Переменный
Общий поток                              : 42,7 Мбит/сек
Название фильма                          : TERMINATOR_TLR-A
Дата кодирования                         : UTC 2014-12-14 22:08:40
Программа кодирования                    : mkvmerge v7.1.0 ('Good Love') 64bit built on Jul 27 2014 13:06:55
Библиотека кодирования                   : libebml v1.3.0 + libmatroska v1.4.1
Видео
Идентификатор                            : 1
Формат                                   : AVC
Формат/Информация                        : Advanced Video Codec
Профиль формата                          : High 4:4:4 [url=mailto:[email protected]][email protected][/url]
Параметр CABAC формата                   : Да
Параметр ReFrames формата                : 12 кадров
Идентификатор кодека                     : V_MPEG4/ISO/AVC
Продолжительность                        : 2 м. 34 с.
Ширина                                   : 2048 пикселей
Высота                                   : 858 пикселей
Соотношение сторон                       : 2,40:1
Режим частоты кадров                     : Постоянный
Частота кадров                           : 24,000 кадра/сек
Цветовое пространство                    : YUV
Субдискретизация насыщенности            : 4:4:4
Битовая глубина                          : 10 бит
Тип развёртки                            : Прогрессивная
Заголовок                                : DCPrip, h264, 10-bit, 444 css, pc range
Библиотека кодирования                   : x264 core 142 r2431+42 c69a006 tMod [[email protected] X86_64]
Настройки программы                      : cabac=1 / ref=12 / deblock=1:-3:-2 / analyse=0x3:0x133 / me=tesa / subme=11 / psy=1 / fade_compensate=0.00 / psy_rd=0.70:0.10 / mixed_ref=1 / me_range=32 / chroma_me=1 / trellis=2 / 8x8dct=1 / cqm=0 / deadzone=21,11 / fast_pskip=0 / chroma_qp_offset=3 / threads=6 / lookahead_threads=1 / sliced_threads=0 / nr=0 / decimate=0 / interlaced=0 / bluray_compat=0 / constrained_intra=0 / fgo=0 / bframes=16 / b_pyramid=2 / b_adapt=2 / b_bias=0 / direct=3 / weightb=1 / open_gop=0 / weightp=2 / keyint=250 / keyint_min=24 / scenecut=40 / intra_refresh=0 / rc_lookahead=72 / rc=crf / mbtree=1 / crf=12.0000 / qcomp=0.75 / qpmin=0:0:0 / qpmax=81:81:81 / qpstep=4 / ip_ratio=1.40 / aq=1:1.00 / aq-sensitivity=10.00 / aq-factor=1.00:1.00:1.00 / aq2=0 / aq3=0
Default                                  : Да
Forced                                   : Нет
Основные цвета                           : BT.709
Характеристики трансфера                 : BT.709
Коэффициенты матрицы                     : BT.709
colour_range                             : Full
Аудио
Идентификатор                            : 2
Формат                                   : FLAC
Формат/Информация                        : Free Lossless Audio Codec
Идентификатор кодека                     : A_FLAC
Продолжительность                        : 2 м. 34 с.
Вид битрейта                             : Переменный
Каналы                                   : 6 каналов
Частота                                  : 48,0 КГц
Битовая глубина                          : 24 бит
Заголовок                                : FLAC
Библиотека кодирования                   : libFLAC 1.2.1 (UTC 2007-09-17)
Язык                                     : Russian
Default                                  : Да
Forced                                   : Нет
Скриншоты:
       

Varius

Пост 02-Фев-2015 05:29

[Цитировать]

Игра престолов / Game of Thrones [5 сезон] (2015) WEBRip - Производство: США, Великобритания | Home Box Office (HBO), Television 360, Grok! Studio
Жанр: Фэнтези, Приключения
Режиссер: Алан Тейлор, Дэвид Наттер, Алекс Грейвз
Актеры: Питер Динклэйдж, Лина Хиди, Эмилия Кларк, Кит Харингтон, Николай Костер-Вальдау, Мэйси Уильямс, Софи Тернер, Айзек Хемпстед-Райт, Шон Бин
Описание фильма: К концу подходит время благоденствия, и лето, длившееся почти десятилетие, угасает. Вокруг средоточия власти Семи королевств, Железного трона, зреет заговор, и в это непростое время король решает искать поддержки у друга юности Эддарда Старка. В мире, где все — от короля до наемника — рвутся к власти, плетут интриги и готовы вонзить нож в спину, есть место и благородству, состраданию и любви. Между тем, никто не замечает пробуждение тьмы из легенд далеко на Севере — и лишь Стена защищает живых к югу от нее
Язык: Английский
Перевод: Отсутствует- -Дата мировой премьеры: 12 апреля 2015
Дата российской премьеры: -/-
Продолжительность: 00:02:05
Качество видео: WEBRip [1080p]
Видеокодек: MPEG-4 AVC
Битрейт видео: ~18.0 Mbps
Размер кадра: 1920х1080
Аудио: (Английский) 48,0 kHz, АС3 5.1, ~448 Kbps, CBR

MediaInfo

Код:
General
Unique ID                   : 193070801209895478560216915045638386086 (0x914015703A192DBEA31A21C71236B1A6)
Complete name               : F:\Game.of.Thrones_S5_Trailer.mkv
Format                      : Matroska
Format version              : Version 4 / Version 2
File size                   : 263 MiB
Duration                    : 2mn 5s
Overall bit rate            : 17.6 Mbps
Movie name                  : 10152715877082734
Encoded date                : UTC 2015-02-01 07:58:20
Writing application         : mkvmerge v7.5.0 ('Glass Culture') 64bit built on Jan  4 2015 16:48:44
Writing library             : Lavf55.37.101
Attachements                : cover.png
Video
ID                          : 1
Format                      : AVC
Format/Info                 : Advanced Video Codec
Format profile              : [url=mailto:[email protected]][email protected][/url]
Format settings, CABAC      : No
Format settings, ReFrames   : 1 frame
Codec ID                    : V_MPEG4/ISO/AVC
Duration                    : 2mn 5s
Bit rate                    : 16.8 Mbps
Nominal bit rate            : 18.0 Mbps
Width                       : 1 920 pixels
Height                      : 1 080 pixels
Display aspect ratio        : 16:9
Frame rate mode             : Constant
Frame rate                  : 23.976 fps
Color space                 : YUV
Chroma subsampling          : 4:2:0
Bit depth                   : 8 bits
Scan type                   : Progressive
Bits/(Pixel*Frame)          : 0.337
Stream size                 : 251 MiB (95%)
Writing library             : x264 core 119
Encoding settings           : cabac=0 / ref=1 / deblock=0:0:0 / analyse=0:0 / me=dia / subme=0 / psy=1 / psy_rd=1.00:0.00 / mixed_ref=0 / me_range=16 / chroma_me=1 / trellis=0 / 8x8dct=0 / cqm=0 / deadzone=21,11 / fast_pskip=1 / chroma_qp_offset=0 / threads=4 / sliced_threads=0 / nr=0 / decimate=1 / interlaced=0 / bluray_compat=0 / constrained_intra=0 / bframes=0 / weightp=0 / keyint=250 / keyint_min=23 / scenecut=0 / intra_refresh=0 / rc=abr / mbtree=0 / bitrate=18000 / ratetol=1.0 / qcomp=0.60 / qpmin=0 / qpmax=69 / qpstep=4 / ip_ratio=1.40 / aq=0
Language                    : English
Default                     : Yes
Forced                      : No
HANDLER_NAME                : VideoHandler
DURATION                    : 00:02:05.188000000
NUMBER_OF_FRAMES            : 3002
NUMBER_OF_BYTES             : 268248824
_STATISTICS_WRITING_APP     : mkvmerge v7.5.0 ('Glass Culture') 64bit built on Jan  4 2015 16:48:44
_STATISTICS_WRITING_DATE_UT : 2015-02-01 07:58:20
_STATISTICS_TAGS            : BPS DURATION NUMBER_OF_FRAMES NUMBER_OF_BYTES
Audio
ID                          : 2
Format                      : AC-3
Format/Info                 : Audio Coding 3
Mode extension              : CM (complete main)
Format settings, Endianness : Big
Codec ID                    : A_AC3
Duration                    : 2mn 5s
Bit rate mode               : Constant
Bit rate                    : 448 Kbps
Channel(s)                  : 6 channels
Channel positions           : Front: L C R, Side: L R, LFE
Sampling rate               : 48.0 KHz
Bit depth                   : 16 bits
Compression mode            : Lossy
Delay relative to video     : -172ms
Stream size                 : 6.69 MiB (3%)
Language                    : English
Default                     : Yes
Forced                      : No
HANDLER_NAME                : SoundHandler
DURATION                    : 00:02:05.344000000
NUMBER_OF_FRAMES            : 3917
NUMBER_OF_BYTES             : 7019264
_STATISTICS_WRITING_APP     : mkvmerge v7.5.0 ('Glass Culture') 64bit built on Jan  4 2015 16:48:44
_STATISTICS_WRITING_DATE_UT : 2015-02-01 07:58:20
_STATISTICS_TAGS            : BPS DURATION NUMBER_OF_FRAMES NUMBER_OF_BYTES
Скриншоты:-        -

sashau

Пост 05-Мар-2014 12:58

[Цитировать]

Трансформеры: Эпоха истребления / Transformers: Age Of Extinction - Год выпуска: 2014
Производство: США, Paramount Pictures, Hasbro, Di Bonaventura Pictures
Жанр: Фантастика, боевик, приключения
Язык: Русский
Перевод: Профессиональный (полное дублирование)
Дата мировой премьеры: 25 июня 2014
Дата российской премьеры: 26 июня 2014, «Централ Партнершип» 3D
Дата выхода DVD/Blu-Ray: Ноябрь 2014, «Новый Диск»
Режиссер: Майкл Бэй
Актеры: Марк Уолберг, Никола Пельц, Джек Рейнор, Брентон Туэйтс, Келси Грэммер, София Майлс
Описание фильма: Автоботы и десептиконы покинули планету, оставив человечество собирать ее по кусочкам. Между тем группа могущественных бизнесменов и гениальных ученых пытается извлечь уроки из ошибок прошлого и улучшить технологии до такой степени, чтобы выйти за пределы контролируемого ранее. В это время другая группа — древних мощных трансформеров — берет Землю под прицел.- -Продолжительность: 00:02:31
Качество видео: HDTVRip
Видеокодек: MPEG-4 AVC/H.264
Битрейт видео: ~12.0 Mbps
Размер кадра: 1920x1080
Аудиокодек: AAC 2.0
Битрейт аудио: 152 Kbps

MI

General
Complete name : F:\transformers_AOE_trailer_rus.mp4
Format : MPEG-4
Format profile : Base Media
Codec ID : isom
File size : 219 MiB
Duration : 2mn 31s
Overall bit rate mode : Variable
Overall bit rate : 12.1 Mbps
Writing application : Lavf53.18.0
Video
ID : 1
Format : AVC
Format/Info : Advanced Video Codec
Format profile : [url=mailto:[email protected]][email protected][/url]
Format settings, CABAC : Yes
Format settings, ReFrames : 4 frames
Codec ID : avc1
Codec ID/Info : Advanced Video Coding
Duration : 2mn 31s
Bit rate : 12.0 Mbps
Width : 1 920 pixels
Height : 1 080 pixels
Display aspect ratio : 16:9
Frame rate mode : Constant
Frame rate : 29.970 fps
Color space : YUV
Chroma subsampling : 4:2:0
Bit depth : 8 bits
Scan type : Progressive
Bits/(Pixel*Frame) : 0.193
Stream size : 216 MiB (99%)
Writing library : x264 core 119
Encoding settings : cabac=1 / ref=1 / deblock=1:0:0 / analyse=0x3:0x3 / me=dia / subme=1 / psy=1 / psy_rd=1.00:0.00 / mixed_ref=0 / me_range=16 / chroma_me=1 / trellis=0 / 8x8dct=1 / cqm=0 / deadzone=21,11 / fast_pskip=1 / chroma_qp_offset=0 / threads=4 / sliced_threads=0 / nr=0 / decimate=1 / interlaced=0 / bluray_compat=0 / constrained_intra=0 / bframes=3 / b_pyramid=2 / b_adapt=1 / b_bias=0 / direct=1 / weightb=1 / open_gop=0 / weightp=1 / keyint=250 / keyint_min=25 / scenecut=40 / intra_refresh=0 / rc=abr / mbtree=0 / bitrate=12000 / ratetol=1.0 / qcomp=0.60 / qpmin=0 / qpmax=69 / qpstep=4 / ip_ratio=1.40 / pb_ratio=1.30 / aq=1:1.00
Audio
ID : 2
Format : AAC
Format/Info : Advanced Audio Codec
Format profile : LC
Codec ID : 40
Duration : 2mn 31s
Bit rate mode : Variable
Bit rate : 150 Kbps
Maximum bit rate : 320 Kbps
Channel(s) : 2 channels
Channel positions : Front: L R
Sampling rate : 44.1 KHz
Compression mode : Lossy
Stream size : 2.70 MiB (1%)
-          --

O.S.A.

Пост 09-Ноя-2013 19:14

[Цитировать]

--Грязь / Filth-- Год выхода: 2013
Страна: Великобритания
Жанр: драма, комедия, криминал
Продолжительность: 00:02:13
Перевод: Профессиональный (полное дублирование)-Режиссер: Джон С. Бейрд-В ролях: Джеймс МакЭвой, Джейми Белл, Джим Бродбент, Имоджен Путс, Йен де Кестекер, Джоанн Фроггатт, Иман Эллиотт, Ширли Хендерсон, Эдди Марсан, Мартин Компстон...-Описание: Главный герой — продажный шотландский полицейский Брюс Робертсон, помешанный на сексе и кокаине. Ему бы надо расследовать убийство, но ему сильно мешают собственные странности, привычка разыгрывать коллег и беготня за девушками. За Робертсоном присматривают его напарник Рэй Леннокс и начальник Боб Тоал...-Премьера:
Мир: 16 сентября 2013
Россия: 28 ноября 2013, «Cinema Prestige»-- --Качество: HD 1080p
Формат: MP4
Видео кодек: H.264
Аудио кодек: AAC
Видео: 1920x804 (2.35:1), 25.000 fps, AVC [email protected], ~6960 kbps avg, 0.180 bit/pixel
Аудио: 48.0 kHz, AAC_LC, 2.0 (L,R) ch, ~126.00 kbps avg
Субтитры: нет--

Media info

General
Complete name : C:\Users\Грязь-Filth-трейлер[Александр14forTTR].mp4
Format : MPEG-4
Format profile : Base Media
Codec ID : isom
File size : 121 MiB
Duration : 2mn 23s
Overall bit rate : 7 091 Kbps
Encoded date : UTC 2013-11-07 09:59:02
Tagged date : UTC 2013-11-07 09:59:02
Writing application : Lavf51.12.1
Video
ID : 1
Format : AVC
Format/Info : Advanced Video Codec
Format profile : [email protected]
Format settings, CABAC : No
Format settings, ReFrames : 5 frames
Codec ID : avc1
Codec ID/Info : Advanced Video Coding
Duration : 2mn 23s
Bit rate mode : Variable
Bit rate : 6 960 Kbps
Width : 1 920 pixels
Height : 804 pixels
Display aspect ratio : 2.35:1
Frame rate mode : Constant
Frame rate : 25.000 fps
Color space : YUV
Chroma subsampling : 4:2:0
Bit depth : 8 bits
Scan type : Progressive
Bits/(Pixel*Frame) : 0.180
Stream size : 119 MiB (98%)
Encoded date : UTC 2013-11-07 09:59:02
Tagged date : UTC 2013-11-07 09:59:02
Audio
ID : 2
Format : AAC
Format/Info : Advanced Audio Codec
Format profile : LC
Codec ID : 40
Duration : 2mn 23s
Bit rate mode : Variable
Bit rate : 126 Kbps
Channel(s) : 2 channels
Channel positions : Front: L R
Sampling rate : 48.0 KHz
Compression mode : Lossy
Stream size : 2.15 MiB (2%)
Encoded date : UTC 2013-11-07 09:59:02
Tagged date : UTC 2013-11-07 09:59:02

Скриншоты

     
-- --

sashau

Пост 27-Окт-2013 09:42

[Цитировать]

Первый мститель: Другая война / Captain America: The Winter Soldier- Год выпуска: 2014
Производство: США / Marvel Entertainment, Marvel Studios
Жанр: фантастика, боевик, приключения
Перевод: Профессиональный (полное дублирование)
Язык: Русский-Дата мировой премьеры: 28 марта 2014
Дата российской премьеры: 4 апреля 2014, «WDSSPR»
Дата выхода DVD/Blu-Ray: 8 июля 2014, «Уолт Дисней Компани СНГ»-Режиссер: Энтони Руссо, Джо Руссо
Продюсер: Кевин Файги, Виктория Алонсо, Луис Д’Эспозито
Актеры: Крис Эванс, Скарлетт Йоханссон, Коби Смолдерс, Сэмюэль Л. Джексон, Хэйли Атуэлл, Себастьян Стэн-Описание фильма:
После событий в «Мстителях», Стив Роджерс пытается ужиться в современном мире, спокойно проживая в Вашингтоне. Но когда организацию Щ. И. Т. атакуют, Стив попадает в паутину интриг, которая ставит под угрозу весь мир. После того, как дело распутывается, Капитан Америка и Черная вдова объединяются с новым союзником, Ястребом. Несмотря на это, герои встречают неожиданного врага — Зимнего солдата.- -Продолжительность: 00:02:30
Качество видео: HDTVRip [1080p]-Видеокодек: MPEG-4 AVC/H.264
Битрейт видео: ~14.1 Mbps
Размер кадра: 1920х1080
Аудио: [Русский]: AАC-LC 2.0; 125.00 kbps; 44.1 KHz; 16-bits |Дубляж|

MediaInfo:

Код:
General
Complete name                            : E:\Captain-America.mp4
Format                                   : MPEG-4
Format profile                           : Base Media / Version 2
Codec ID                                 : mp42
File size                                : 255 MiB
Duration                                 : 2mn 30s
Overall bit rate mode                    : Variable
Overall bit rate                         : 14.2 Mbps
Genre                                    : Action
Encoded date                             : UTC 2013-10-24 18:24:35
Tagged date                              : UTC 2013-10-24 18:59:58
Copyright                                : Long_Boy
Cover                                    : Yes
hdvd                                     : 1
stik                                     : 9
Video
ID                                       : 1
Format                                   : AVC
Format/Info                              : Advanced Video Codec
Format profile                           : [url=mailto:[email protected]][email protected][/url]
Format settings, CABAC                   : Yes
Format settings, ReFrames                : 2 frames
Codec ID                                 : avc1
Codec ID/Info                            : Advanced Video Coding
Duration                                 : 2mn 30s
Bit rate mode                            : Variable
Bit rate                                 : 14.1 Mbps
Maximum bit rate                         : 26.5 Mbps
Width                                    : 1 920 pixels
Height                                   : 1 080 pixels
Display aspect ratio                     : 2.40:1
Original display aspect ratio            : 2.40:1
Frame rate mode                          : Constant
Frame rate                               : 23.976 fps
Color space                              : YUV
Chroma subsampling                       : 4:2:0
Bit depth                                : 8 bits
Scan type                                : Progressive
Bits/(Pixel*Frame)                       : 0.283
Stream size                              : 252 MiB (99%)
Language                                 : English
Encoded date                             : UTC 2013-10-24 18:24:35
Tagged date                              : UTC 2013-10-24 18:40:03
Audio
ID                                       : 2
Format                                   : AAC
Format/Info                              : Advanced Audio Codec
Format profile                           : LC
Codec ID                                 : 40
Duration                                 : 2mn 30s
Bit rate mode                            : Variable
Bit rate                                 : 125 Kbps
Maximum bit rate                         : 139 Kbps
Channel(s)                               : 2 channels
Channel positions                        : Front: L R
Sampling rate                            : 44.1 KHz
Compression mode                         : Lossy
Delay relative to video                  : 65ms
Stream size                              : 2.23 MiB (1%)
Title                                    : und
Encoded date                             : UTC 2013-10-24 18:24:35
Tagged date                              : UTC 2013-10-24 18:40:03
Menu
00:00:00.000                             : Start
Скриншоты:-          -

sashau

Пост 03-Окт-2013 13:32

[Цитировать]

Иван Царевич и Серый Волк 2- Год выпуска: 2013
Производство: Россия / Студия "Мельница", кинокомпания СТВ
Жанр: мультфильм
Перевод: Не требуется [русский язык]-Дата мировой премьеры: 26 декабря 2013
Дата российской премьеры: 26 декабря 2013, «Наше Кино»-Режиссер: Владимир Торопчин
Актеры: N/A-Описание фильма:
В Тридевятом царстве, где живут наши герои — тишь, да благодать. Иван женился на Василисе, и «жили они долго и счастливо», да не тут-то было. Иван целыми днями пропадает с Волком на службе — укрепляет рубежи и оборонную мощь, мечтает перевести стрелки часов на семь часов назад, чтобы меньше спать, и больше работать. А Василисе — скучно, как всем девушкам, ей хочется романтики, ну, такой, как в сказках. И тогда она решает организовать свое похищение… Однако, когда такое бывало, что в сказках все получалось так, как задумывалось?----Продолжительность: 00:01:58
Качество видео: HDTVRip-Видеокодек: MPEG-4 AVC
Битрейт видео: ~20.0 Mbps
Размер кадра: 1920х1080
Аудиокодек: АAC 2.0
Битрейт аудио: 158 Kbps

MediaInfo:

Код:
General
Complete name                            : D:\ITISV2_trailer_1080.mp4
Format                                   : MPEG-4
Format profile                           : Base Media / Version 2
Codec ID                                 : mp42
File size                                : 285 MiB
Duration                                 : 1mn 58s
Overall bit rate mode                    : Variable
Overall bit rate                         : 20.2 Mbps
Genre                                    : Animation
ContentType                              : Short Film
Encoded date                             : UTC 2013-10-03 07:58:20
Tagged date                              : UTC 2013-10-03 08:14:15
Copyright                                : Long_Boy®
Cover                                    : Yes
Video
ID                                       : 1
Format                                   : AVC
Format/Info                              : Advanced Video Codec
Format profile                           : [url=mailto:[email protected]][email protected][/url]
Format settings, CABAC                   : Yes
Format settings, ReFrames                : 2 frames
Format settings, GOP                     : M=4, N=30
Codec ID                                 : avc1
Codec ID/Info                            : Advanced Video Coding
Duration                                 : 1mn 58s
Bit rate mode                            : Variable
Bit rate                                 : 20.0 Mbps
Maximum bit rate                         : 52.7 Mbps
Width                                    : 1 920 pixels
Height                                   : 1 080 pixels
Display aspect ratio                     : 16:9
Frame rate mode                          : Constant
Frame rate                               : 29.970 fps
Color space                              : YUV
Chroma subsampling                       : 4:2:0
Bit depth                                : 8 bits
Scan type                                : Progressive
Bits/(Pixel*Frame)                       : 0.322
Stream size                              : 283 MiB (99%)
Language                                 : English
Encoded date                             : UTC 2013-10-03 07:58:20
Tagged date                              : UTC 2013-10-03 08:05:50
Audio
ID                                       : 2
Format                                   : AAC
Format/Info                              : Advanced Audio Codec
Format profile                           : LC
Codec ID                                 : 40
Duration                                 : 1mn 58s
Bit rate mode                            : Variable
Bit rate                                 : 158 Kbps
Maximum bit rate                         : 178 Kbps
Channel count                            : 2 channels
Channel positions                        : Front: L R
Sampling rate                            : 44.1 KHz
Compression mode                         : Lossy
Delay relative to video                  : -100ms
Stream size                              : 2.23 MiB (1%)
Title                                    : und
Encoded date                             : UTC 2013-10-03 07:58:20
Tagged date                              : UTC 2013-10-03 08:05:50
Menu
00:00:00.000                             : Start
Скриншоты:-          -

Omen

Пост 21-Апр-2013 18:20

[Цитировать]

Голодные игры: И вспыхнет пламя
The Hunger Games: Catching Fire
«Революции начинаются с искры»- Русское название: Голодные игры: И вспыхнет пламя
Оригинальное название: The Hunger Games: Catching Fire
Год выпуска: 2013
Производство: США
Жанр: Фантастика, Боевик, Приключения
Перевод: Дублированный
Субтитры: Отсутствуют
Дата мировой премьеры: 21 ноября 2013
Дата российской премьеры: 21 ноября 2013, «Вольга»
Режиссер: Френсис Лоуренс
Продюсер: Нина Джейкобсон, Джон Килик, Сюзанн Коллинз
Актеры: Дженнифер Лоуренс, Джош Хатчерсон, Элизабет Бэнкс, Лиам Хемсворт, Сэм Клафлин, Алан Ричсон, Джена Мэлоун, Стэнли Туччи, Вуди Харрельсон, Филип Сеймур Хоффман
Описание фильма:
Сумев выжить на безжалостных Голодных играх, Китнисс Эвердин и Пит Мелларк тщетно пытаются забыть о том, что произошло с ними в Капитолии. Но президент Сноу, диктатор государства Панем, и его клика не готовы оставить девушку и парня в покое, считая их опасными.
Власти решают устроить показательные Игры, в которых примут участие победители прошлых лет от каждого дистрикта. Жребий брошен: Китнисс и Пит вынуждены вернуться на Арену. Вновь они лицом к лицу со смертью — ради своих близких, ради своего будущего, ради своей любви!...

Продолжительность: 00:02:24
Качество видео: HDTVRip
Видеокодек: MPEG-4 AVC/H.264
Битрейт видео: ~5718 Kbit/s
Размер кадра: 1920 x 792
Аудиокодек: AAC 2.0
Битрейт аудио: 90 Kbit/s

MediaInfo

Общее
Полное имя : D:\Торренты\Голодные игры 2.mp4
Формат : MPEG-4
Профиль формата : QuickTime
Идентификатор кодека : qt
Размер файла : 99,8 Мбайт
Продолжительность : 2 м. 24 с.
Общий поток : 5795 Кбит/сек
Дата кодирования : UTC 2013-04-14 20:00:00
Дата пометки : UTC 2013-04-14 20:00:00
Программа кодирования : Lavf53.10.0
Видео
Идентификатор : 1
Формат : AVC
Формат/Информация : Advanced Video Codec
Профиль формата : [url=mailto:[email protected]][email protected][/url]
Параметр CABAC формата : Нет
Параметр ReFrames формата : 1 кадр
Параметры GOP формата : M=1, N=12
Идентификатор кодека : avc1
Идентификатор кодека/Информация : Advanced Video Coding
Продолжительность : 2 м. 23 с.
Вид битрейта : Переменный
Битрейт : 5718 Кбит/сек
Ширина : 1920 пикс.
Высота : 792 пикс.
Соотношение сторон : 2,40:1
Режим частоты кадров : Постоянный
Частота кадров : 24,000 кадр/сек
Цветовое пространство : YUV
Подвыборка цветности : 4:2:0
Битовая глубина : 8 бит
Тип развёртки : Прогрессивная
Бит/(Пиксели*Кадры) : 0.157
Размер потока : 98,1 Мбайт (98%)
Язык : English
Дата кодирования : UTC 2013-04-14 20:00:00
Дата пометки : UTC 2013-04-14 20:00:00
Аудио
Идентификатор : 2
Формат : AAC
Формат/Информация : Advanced Audio Codec
Профиль формата : LC
Идентификатор кодека : 40
Продолжительность : 2 м. 24 с.
Вид битрейта : Переменный
Битрейт : 90,3 Кбит/сек
Максимальный битрейт : 128 Кбит/сек
Каналы : 2 канала
Расположение каналов : Front: L R
Частота : 48,0 КГц
Метод сжатия : С потерями
Размер потока : 1,55 Мбайт (2%)
Язык : English
Дата кодирования : UTC 2013-04-14 20:00:00
Дата пометки : UTC 2013-04-14 20:00:00
Скриншоты:
         

Meshanik

Пост 09-Фев-2013 17:02

[Цитировать]

Форсаж 6 / Fast & Furious 6 -
Русское название: Форсаж 6
Оригинальное название: Fast & Furious 6
Год выпуска: 2013
Производство: США
Жанр: Боевик, Триллер, Драма, Криминал
Продолжительность: 00:03:16
Перевод: Профессиональный (полное дублирование)
Субтитры: Нет-Дата мировой премьеры: 22 мая 2013
Дата российской премьеры: 23 мая 2013, «UPI»
Дата выхода DVD/Blu Ray: 26 сентября 2013, «Двадцатый Век Фокс СНГ»-Режиссер: Джастин Лин
Продюсер: Вин Дизель, Нил Х. Мориц, Клэйтон Таунсенд, ...
В ролях: Вин Дизель, Дуэйн Джонсон, Пол Уокер, Ева Мендес, Мишель Родригес, Рианна, Джордана Брюстер, Джина Карано, Тайрез Гибсон, Люк Эванс, Джо Таслим, Cанг Кенг-Описание фильма:
После того, как Дом и Брайн были в Рио и ограбили, и свергли империю вора в законе, и их команда получила 100 миллионов, наши герои оказались разбросаны по всему миру. Но их не способность вернуться домой и вечно жить в бегах, сделала их жизнь неполной. Между тем, Хоббс отслеживал организацию смертельно опасных наемников-водителей по двенадцати странам, чьим вдохновителем и вторым-в-команде стала любовь Дома, которую считали мертвой, Летти. Единственный способ остановить криминальный наряд, это превосходить их на улицах, поэтому Хоббс спрашивает Дома, сможет ли собраться его элитная команда в Лондоне. Оплата? Полное помилование для всех, чтобы они смогли вернуться домой к своей семье.- -Качество видео: HDTVRip
Видеокодек: MPEG-4 AVC/H.264
Битрейт видео: ~10000 Кбит/сек
Размер кадра: 1920x1080
Аудиокодек: AC3 2.0
Битрейт аудио: 320 Kbps
-

MediaInfo...

Код:
Общее
Полное имя                              : E:\ТРЕЙЛЕРЫ\fastandfurious6_extendedfirstlook_rus_1080.mp4
Формат                                  : MPEG-4
Профиль формата                          : Base Media
Идентификатор кодека                    : isom
Размер файла                            : 242 Мбайт
Продолжительность                        : 3 м. 16 с.
Общий поток                              : 10,3 Мбит/сек
Программа кодирования                    : Lavf53.18.0
Видео
Идентификатор                            : 1
Формат                                  : AVC
Формат/Информация                        : Advanced Video Codec
Профиль формата                          : [email protected]
Параметр CABAC формата                  : Да
Параметр ReFrames формата                : 4 кадра
Идентификатор кодека                    : avc1
Идентификатор кодека/Информация          : Advanced Video Coding
Продолжительность                        : 3 м. 16 с.
Битрейт                                  : 10000 Кбит/сек
Ширина                                  : 1920 пикселей
Высота                                  : 1080 пикселей
Соотношение сторон                      : 16:9
Режим частоты кадров                    : Постоянный
Частота кадров                          : 29,970 кадров/сек
Цветовое пространство                    : YUV
Субдискретизация насыщенности            : 4:2:0
Битовая глубина                          : 8 бит
Тип развёртки                            : Прогрессивная
Бит/(Пиксели*Кадры)                      : 0.161
Размер потока                            : 234 Мбайт (97%)
Библиотека кодирования                  : x264 core 119
Настройки программы                      : cabac=1 / ref=1 / deblock=1:0:0 / analyse=0x3:0x3 / me=dia / subme=1 / psy=1 / psy_rd=1.00:0.00 / mixed_ref=0 / me_range=16 / chroma_me=1 / trellis=0 / 8x8dct=1 / cqm=0 / deadzone=21,11 / fast_pskip=1 / chroma_qp_offset=0 / threads=4 / sliced_threads=0 / nr=0 / decimate=1 / interlaced=0 / bluray_compat=0 / constrained_intra=0 / bframes=3 / b_pyramid=2 / b_adapt=1 / b_bias=0 / direct=1 / weightb=1 / open_gop=0 / weightp=1 / keyint=250 / keyint_min=25 / scenecut=40 / intra_refresh=0 / rc=abr / mbtree=0 / bitrate=10000 / ratetol=1.0 / qcomp=0.60 / qpmin=0 / qpmax=69 / qpstep=4 / ip_ratio=1.40 / pb_ratio=1.30 / aq=1:1.00
Аудио
Идентификатор                            : 2
Формат                                  : AC-3
Формат/Информация                        : Audio Coding 3
Расширение режима                        : CM (complete main)
Параметр Endianness формата              : Big
Идентификатор кодека                    : ac-3
Продолжительность                        : 3 м. 16 с.
Вид битрейта                            : Постоянный
Битрейт                                  : 320 Кбит/сек
Каналы                                  : 2 канала
Расположение каналов                    : Front: L R
Частота                                  : 48,0 КГц
Битовая глубина                          : 16 бит
Метод сжатия                            : С потерями
Задержка видео                          : 67 мс.
Размер потока                            : 7,50 Мбайт (3%)
-

Скриншоты...

           
-

Meshanik

Пост 24-Окт-2012 12:15

[Цитировать]

Железный человек 3 / Iron Man 3--
Год выпуска:2012
Страна: США, Китай
Жанр: Фантастика, боевик, приключения
Продолжительность: 00:02:03
Перевод: Дублированный-В ролях: Роберт Дауни-мл., Гвинет Пэлтроу, Дон Чидл, Гай Пирс, Бен Кингсли, Ребекка Холл, Джеймс Бэдж Дэйл, Уильям Сэдлер, Стефани Чостак, Эштон Хэмилтон, Ти Симпкинс, Стэн Ли, Джон Фавро
-Режиссёр: Шейн Блэк-Описание:
Вирус «Экстремис», разработанный военными при помощи нанотехнологий, должен был помочь солдатам регенерироваться после ранений. Однако вирус похищают террористы и вводят себе. Чтобы справиться с экстремистами, Старк вводит себе модифицированную версию вируса, после чего костюм Железного человека становится частью его самого.
-Качество: HDTVRip 1080p
Формат: MP4
Видео кодек: MPEG-4 AVC/H.264
Аудио кодек: AC-3
Видео: 1920x1080,12000 Кбит/с
Aудио: 48 kHz, AC3, 2 ch, 320 Кбит/с
-

Скриншоты:

       

Delia

Пост 23-Авг-2012 15:23

[Цитировать]

Мстители ( Бонус)The Avengers [Bonus Disk]Год выхода: 2012
Жанр: фантастика, боевик, триллер
Режиссер: Джосс Уидон
О фильме:
История создания фильмов Marvel Studios.
Assembling the Avengers (01:38:20)
Captain America The First Avenger (00:16:48)
Iron Man (00:19:37)
Страна: США
Студия: Marvel Studios Inc
Продолжительность: 01:38:20 , 00:16:47, 00:19:36
Перевод: Cубтитры
Файл
Кодек: H.264
Качество: BDRip 720p
Видео:
AVC, 1280x720 (16:9), 6044 kbps, 23,976 fps, 0,274 bpp
AVC, 1280x720 (16:9), 4665 kbps, 23,976 fps, 0,211 bpp
AVC, 1280x720 (16:9), 4000 kbps, 23,976 fps, 0,181 bpp
Звук: английский / AC3 / 2.0 / 48 kHz / 320 kbps / 16 bit
Субтитры: русские, английские

MI:Assembling the Avengers

General
Unique ID : 234074695105177309357094108327347901339 (0xB019257DEB87C168A111C523CC8E539B)
Complete name : E:торрентThe Avengers (2012) [Bonus Disk]Assembling the Avengers (2012)BDRip-F.HD.mkv
Format : Matroska
Format version : Version 2
File size : 4.37 GiB
Duration : 1h 38mn
Overall bit rate : 6 366 Kbps
Encoded date : UTC 2012-08-23 05:50:53
Writing application : mkvmerge v5.4.0 ('Piper') built on Mar 10 2012 13:34:39
Writing library : libebml v1.2.3 + libmatroska v1.3.0
Video
ID : 1
Format : AVC
Format/Info : Advanced Video Codec
Format profile : [email protected]
Format settings, CABAC : Yes
Format settings, ReFrames : 9 frames
Codec ID : V_MPEG4/ISO/AVC
Duration : 1h 38mn
Bit rate : 6 044 Kbps
Width : 1 280 pixels
Height : 720 pixels
Display aspect ratio : 16:9
Frame rate : 23.976 fps
Color space : YUV
Chroma subsampling : 4:2:0
Bit depth : 8 bits
Scan type : Progressive
Bits/(Pixel*Frame) : 0.274
Stream size : 4.07 GiB (93%)
Writing library : x264 core 125 r2208 d9d2288
Encoding settings : cabac=1 / ref=9 / deblock=1:0:0 / analyse=0x3:0x113 / me=umh / subme=10 / psy=1 / psy_rd=1.00:0.05 / mixed_ref=1 / me_range=32 / chroma_me=1 / trellis=2 / 8x8dct=1 / cqm=0 / deadzone=21,11 / fast_pskip=0 / chroma_qp_offset=1 / threads=6 / lookahead_threads=1 / sliced_threads=0 / nr=0 / decimate=1 / interlaced=0 / bluray_compat=0 / constrained_intra=0 / bframes=9 / b_pyramid=2 / b_adapt=2 / b_bias=0 / direct=3 / weightb=1 / open_gop=0 / weightp=2 / keyint=240 / keyint_min=23 / scenecut=40 / intra_refresh=0 / rc=2pass / mbtree=0 / bitrate=6044 / ratetol=1.0 / qcomp=0.70 / qpmin=0 / qpmax=69 / qpstep=4 / cplxblur=20.0 / qblur=0.5 / ip_ratio=1.40 / pb_ratio=1.30 / aq=2:0.90
Language : English
Default : Yes
Forced : No
Audio
ID : 2
Format : AC-3
Format/Info : Audio Coding 3
Mode extension : CM (complete main)
Codec ID : A_AC3
Duration : 1h 38mn
Bit rate mode : Constant
Bit rate : 320 Kbps
Channel(s) : 2 channels
Channel positions : Front: L R
Sampling rate : 48.0 KHz
Bit depth : 16 bits
Compression mode : Lossy
Stream size : 225 MiB (5%)
Language : English
Default : Yes
Forced : No
Text #1
ID : 3
Format : UTF-8
Codec ID : S_TEXT/UTF8
Codec ID/Info : UTF-8 Plain Text
Language : Russian
Default : Yes
Forced : No
Text #2
ID : 4
Format : UTF-8
Codec ID : S_TEXT/UTF8
Codec ID/Info : UTF-8 Plain Text
Language : English
Default : No
Forced : No
Text #3
ID : 5
Format : UTF-8
Codec ID : S_TEXT/UTF8
Codec ID/Info : UTF-8 Plain Text
Language : English
Default : No
Forced : No
Menu
00:00:00.000 : en:Chapter 01
00:11:35.736 : en:Chapter 02
00:31:12.662 : en:Chapter 03
00:41:37.745 : en:Chapter 04
00:54:18.213 : en:Chapter 05
01:06:23.354 : en:Chapter 06
01:23:10.944 : en:Chapter 07
01:38:19.810 : en:Chapter 08

MI:Captain America The First Avenger

General
Unique ID : 193921723389009710372465672231480645504 (0x91E3F7241323D899884F45C8013AD780)
Complete name : E:торрентThe Avengers (2012) [Bonus Disk]Captain America The First Avenger .BDRip-F.HD.mkv
Format : Matroska
Format version : Version 2
File size : 519 MiB
Duration : 16mn 47s
Overall bit rate : 4 323 Kbps
Encoded date : UTC 2012-08-23 10:52:54
Writing application : mkvmerge v5.4.0 ('Piper') built on Mar 10 2012 13:34:39
Writing library : libebml v1.2.3 + libmatroska v1.3.0
Video
ID : 1
Format : AVC
Format/Info : Advanced Video Codec
Format profile : [email protected]
Format settings, CABAC : Yes
Format settings, ReFrames : 9 frames
Codec ID : V_MPEG4/ISO/AVC
Duration : 16mn 47s
Bit rate : 4 000 Kbps
Width : 1 280 pixels
Height : 720 pixels
Display aspect ratio : 16:9
Frame rate : 23.976 fps
Color space : YUV
Chroma subsampling : 4:2:0
Bit depth : 8 bits
Scan type : Progressive
Bits/(Pixel*Frame) : 0.181
Stream size : 471 MiB (91%)
Writing library : x264 core 125 r2208 d9d2288
Encoding settings : cabac=1 / ref=9 / deblock=1:0:0 / analyse=0x3:0x113 / me=umh / subme=10 / psy=1 / psy_rd=1.00:0.05 / mixed_ref=1 / me_range=32 / chroma_me=1 / trellis=2 / 8x8dct=1 / cqm=0 / deadzone=21,11 / fast_pskip=0 / chroma_qp_offset=1 / threads=6 / lookahead_threads=1 / sliced_threads=0 / nr=0 / decimate=1 / interlaced=0 / bluray_compat=0 / constrained_intra=0 / bframes=8 / b_pyramid=2 / b_adapt=2 / b_bias=0 / direct=3 / weightb=1 / open_gop=0 / weightp=2 / keyint=240 / keyint_min=23 / scenecut=40 / intra_refresh=0 / rc=2pass / mbtree=0 / bitrate=4000 / ratetol=1.0 / qcomp=0.70 / qpmin=0 / qpmax=69 / qpstep=4 / cplxblur=20.0 / qblur=0.5 / ip_ratio=1.40 / pb_ratio=1.30 / aq=2:0.90
Language : English
Default : Yes
Forced : No
Audio
ID : 2
Format : AC-3
Format/Info : Audio Coding 3
Mode extension : CM (complete main)
Codec ID : A_AC3
Duration : 16mn 47s
Bit rate mode : Constant
Bit rate : 320 Kbps
Channel(s) : 2 channels
Channel positions : Front: L R
Sampling rate : 48.0 KHz
Bit depth : 16 bits
Compression mode : Lossy
Stream size : 38.4 MiB (7%)
Language : English
Default : Yes
Forced : No
Text #1
ID : 3
Format : UTF-8
Codec ID : S_TEXT/UTF8
Codec ID/Info : UTF-8 Plain Text
Language : Russian
Default : Yes
Forced : No
Text #2
ID : 4
Format : UTF-8
Codec ID : S_TEXT/UTF8
Codec ID/Info : UTF-8 Plain Text
Language : English
Default : No
Forced : No

MI: Iron Man

General
Unique ID : 218316192990706243743838057388001204096 (0xA43E2B5A086965C9AEA8ED8568501780)
Complete name : E:торрентThe Avengers (2012) [Bonus Disk]Iron Man.BDrip-F.HD.mkv
Format : Matroska
Format version : Version 2
File size : 700 MiB
Duration : 19mn 36s
Overall bit rate : 4 991 Kbps
Encoded date : UTC 2012-08-23 08:19:08
Writing application : mkvmerge v5.4.0 ('Piper') built on Mar 10 2012 13:34:39
Writing library : libebml v1.2.3 + libmatroska v1.3.0
Video
ID : 1
Format : AVC
Format/Info : Advanced Video Codec
Format profile : [email protected]
Format settings, CABAC : Yes
Format settings, ReFrames : 9 frames
Codec ID : V_MPEG4/ISO/AVC
Duration : 19mn 36s
Bit rate : 4 665 Kbps
Width : 1 280 pixels
Height : 720 pixels
Display aspect ratio : 16:9
Frame rate : 23.976 fps
Color space : YUV
Chroma subsampling : 4:2:0
Bit depth : 8 bits
Scan type : Progressive
Bits/(Pixel*Frame) : 0.211
Stream size : 641 MiB (92%)
Writing library : x264 core 125 r2208 d9d2288
Encoding settings : cabac=1 / ref=9 / deblock=1:0:0 / analyse=0x3:0x113 / me=umh / subme=10 / psy=1 / psy_rd=1.00:0.05 / mixed_ref=1 / me_range=32 / chroma_me=1 / trellis=2 / 8x8dct=1 / cqm=0 / deadzone=21,11 / fast_pskip=0 / chroma_qp_offset=1 / threads=6 / lookahead_threads=1 / sliced_threads=0 / nr=0 / decimate=1 / interlaced=0 / bluray_compat=0 / constrained_intra=0 / bframes=8 / b_pyramid=2 / b_adapt=2 / b_bias=0 / direct=3 / weightb=1 / open_gop=0 / weightp=2 / keyint=240 / keyint_min=23 / scenecut=40 / intra_refresh=0 / rc=2pass / mbtree=0 / bitrate=4665 / ratetol=1.0 / qcomp=0.70 / qpmin=0 / qpmax=69 / qpstep=4 / cplxblur=20.0 / qblur=0.5 / ip_ratio=1.40 / pb_ratio=1.30 / aq=2:0.90
Language : English
Default : Yes
Forced : No
Audio
ID : 2
Format : AC-3
Format/Info : Audio Coding 3
Mode extension : CM (complete main)
Codec ID : A_AC3
Duration : 19mn 36s
Bit rate mode : Constant
Bit rate : 320 Kbps
Channel(s) : 2 channels
Channel positions : Front: L R
Sampling rate : 48.0 KHz
Bit depth : 16 bits
Compression mode : Lossy
Stream size : 44.9 MiB (6%)
Language : English
Default : Yes
Forced : No
Text #1
ID : 3
Format : UTF-8
Codec ID : S_TEXT/UTF8
Codec ID/Info : UTF-8 Plain Text
Language : Russian
Default : Yes
Forced : No
Text #2
ID : 4
Format : UTF-8
Codec ID : S_TEXT/UTF8
Codec ID/Info : UTF-8 Plain Text
Language : English
Default : No
Forced : No

Скриншоты

       

Nugeiro

Пост 27-Апр-2012 15:42

[Цитировать]

Ну никто же никого не заставляет смотреть. Имхо

Haron

Пост 27-Апр-2012 15:15

[Цитировать]

Премьера 16 августа?? Жжешь,Nugeiro, :}
Первая часть так себе и не думаю что вторая хороша....

Antoha82

Пост 27-Апр-2012 15:14

[Цитировать]

Очень хочу посмотреть на старичков боевиков )))
 

Текущее время: Сегодня 02:11

Часовой пояс: GMT + 3