Сегодня идет свободное скачивание без начисления Download

Результатов поиска: 500

Автор Сообщение

Sparcs

Пост 14-Май-2017 17:32

[Цитировать]

Меч короля Артура / King Arthur: Legend of the Sword
Год выпуска: 2017
Страна: США
Жанр: фэнтези, боевик, драма, приключения
Продолжительность: 01:59:45
Перевод: Профессиональный(дублированный)
Режиссер: Гай Ричи
Продюссер: Брюс Берман, Стив Кларк-Холл, Дэвид Добкин
Сценарий: Джоби Харольд, Гай Ричи, Лайонел Уигрэм
Бюджет: $175 000 000
Премьера в мире: 27 апреля 2017
В ролях: Чарли Ханнэм, Астрид Берже-Фрисби, Джуд Лоу, Джимон Хонсу, Эрик Бана, Эйдан Гиллен, Фредди Фокс, Крэйг МакГинли, Том Ву, Кингсли Бен-Адир
Описание: Молодой Артур околачивается на окраинах Лондиниума со своей бандой. Своим происхождением он совершенно не дорожит и не интересуется. Так он живёт до момента, когда судьба сводит его с волшебным мечом Экскалибуром. После этого Артур кардинально меняется - влюбляется, присоединяется к движению сопротивления и объединяет вокруг себя людей, чтобы свергнуть тирана Вортигерна, убившего родителей Артура и захватившего трон.
Доп. информация: Присутствует реклама
Качество: CamRip
Формат: AVI
Видео кодек: XviD
Аудио кодек: AC3
Видео: 720x352 (2.05:1), 23.976 fps, XviD build 50 ~1403 kbps avg, 0.23 bit/pixel
Аудио: 48 kHz, AC3 Dolby Digital, 2/0 (L,R) ch, ~320 kbps

Скриншоты

     

Theseus

Пост 24-Мар-2017 14:53

[Цитировать]

Изгой-один: Звёздные войны. Истории / Rogue One: A Star Wars Story-
Год выпуска: 2016
Страна: США
Жанр: фантастика, боевик, приключения
Продолжительность: 02:13:57
Перевод: Профессиональный (полное дублирование) [iTunes]
Режиссер: Гарет Эдвардс-В ролях: Фелисити Джонс, Диего Луна, Алан Тьюдик, Донни Йен, Цзян Вэнь, Бен Мендельсон, Форест Уитакер, Риз Ахмед, Мадс Миккельсен, Джимми Смитс-Описание: Сопротивление собирает отряд для выполнения особой миссии — надо выкрасть чертежи самого совершенного и смертоносного оружия Империи. Возглавляет бойцов неуправляемая и бесстрашная Джин Эрсо, у которой в этом самоубийственном задании есть и личные мотивы. Не всем суждено вернуться домой, но герои готовы к этому, ведь на кону судьба Галактики- -Качество: HDRip-AVC
Формат: MKV
Видео кодек: x.264
Аудио кодек: AC3
Видео: AVC, 1024x428 (2.40:1), 23.976 fps, 1 675 Kbps (0.159 bit/pixel)
Аудио #1: AC-3, 48.0 KHz, 6 ch, 384 Kbps, CBR (Russian)
Аудио #2: AC-3, 48.0 KHz, 6 ch, 448 Kbps, CBR (English
Субтитры: Русские (forced, full), английские (full+SDH)
-

Трейлер

-     - - -

Theseus

Пост 23-Мар-2017 23:36

[Цитировать]

Изгой-один: Звёздные войны. Истории / Rogue One: A Star Wars Story-
Год выпуска: 2016
Страна: США
Жанр: фантастика, боевик, приключения
Продолжительность: 02:13:57
Перевод: Профессиональный (полное дублирование) [iTunes]
Режиссер: Гарет Эдвардс-В ролях: Фелисити Джонс, Диего Луна, Алан Тьюдик, Донни Йен, Цзян Вэнь, Бен Мендельсон, Форест Уитакер, Риз Ахмед, Мадс Миккельсен, Джимми Смитс-Описание: Сопротивление собирает отряд для выполнения особой миссии — надо выкрасть чертежи самого совершенного и смертоносного оружия Империи. Возглавляет бойцов неуправляемая и бесстрашная Джин Эрсо, у которой в этом самоубийственном задании есть и личные мотивы. Не всем суждено вернуться домой, но герои готовы к этому, ведь на кону судьба Галактики- -Качество: BDRip
Формат: AVI
Видео кодек: XviD
Аудио кодек: AC3
Видео: 720x304 (2.37:1), 23.976 fps, XviD build 73 ~1873 kbps avg, 0.36 bit/pixel
Аудио: 48 kHz, AC3 Dolby Digital, 3/2 (L,C,R,l,r) + LFE ch, ~384 kbps
Субтитры: Русские форсированные (на инопланетную речь) | Внешние
-

Трейлер

-     - - -

Theseus

Пост 23-Мар-2017 23:34

[Цитировать]

Изгой-один: Звёздные войны. Истории / Rogue One: A Star Wars Story-
Год выпуска: 2016
Страна: США
Жанр: фантастика, боевик, приключения
Продолжительность: 02:13:57
Перевод: Профессиональный (полное дублирование) [iTunes]
Режиссер: Гарет Эдвардс-В ролях: Фелисити Джонс, Диего Луна, Алан Тьюдик, Донни Йен, Цзян Вэнь, Бен Мендельсон, Форест Уитакер, Риз Ахмед, Мадс Миккельсен, Джимми Смитс-Описание: Сопротивление собирает отряд для выполнения особой миссии — надо выкрасть чертежи самого совершенного и смертоносного оружия Империи. Возглавляет бойцов неуправляемая и бесстрашная Джин Эрсо, у которой в этом самоубийственном задании есть и личные мотивы. Не всем суждено вернуться домой, но герои готовы к этому, ведь на кону судьба Галактики- -Качество: BDRip
Формат: AVI
Видео кодек: XviD
Аудио кодек: AC3
Видео: 720x304 (2.37:1), 23.976 fps, XviD build 73 ~1360 kbps avg, 0.26 bit/pixel
Аудио: 48 kHz, AC3 Dolby Digital, 2/0 (L,R) ch, ~192 kbps
Субтитры: Русские форсированные (на инопланетную речь) | Внешние
-

Трейлер

-     - - -

Theseus

Пост 22-Мар-2017 10:59

[Цитировать]

Изгой-один: Звёздные войны. Истории / Rogue One: A Star Wars Story-
Год выпуска: 2016
Страна: США
Жанр: фантастика, боевик, приключения
Продолжительность: 02:14:51
Перевод: Профессиональный (полное дублирование) [Чистый звук]
Режиссер: Гарет Эдвардс-В ролях: Фелисити Джонс, Диего Луна, Алан Тьюдик, Донни Йен, Цзян Вэнь, Бен Мендельсон, Форест Уитакер, Риз Ахмед, Мадс Миккельсен, Джимми Смитс-Описание: Сопротивление собирает отряд для выполнения особой миссии — надо выкрасть чертежи самого совершенного и смертоносного оружия Империи. Возглавляет бойцов неуправляемая и бесстрашная Джин Эрсо, у которой в этом самоубийственном задании есть и личные мотивы. Не всем суждено вернуться домой, но герои готовы к этому, ведь на кону судьба Галактики- -Качество: HDRip
Формат: AVI
Видео кодек: XviD
Аудио кодек: AC3
Видео: 720x304 (2.37:1), 23.976 fps, XviD build 50 ~1249 kbps avg, 0.24 bit/pixel
Аудио: 48 kHz, AC3 Dolby Digital, 2/0 (L,R) ch, ~192 kbps
- -

Трейлер

-   -

maxkiller

Пост 19-Мар-2017 19:01

[Цитировать]

Изгой-один: Звёздные войны. Истории / Rogue One: A Star Wars Story
Год выхода: 2016
Жанр: фантастика, боевик, приключения
Страна: США
Студия: Lucasfilm, Walt Disney Pictures
Продолжительность: 02:14:51
Перевод: Дублированный [Чистый звук]
Режиссер: Гарет Эдвардс
В ролях: Фелисити Джонс, Мадс Миккельсен, Алан Тьюдик, Донни Йен, Бен Мендельсон, Форест Уитакер, Диего Луна, Джонатан Арис, Риз Ахмед, Артур Л. Бернштейн
О фильме: Фильм рассказывает о группе повстанцев, планирующей выкрасть чертежи «Звезды смерти», мощнейшей боевой станции Империи, способной распылять целые планеты.


Файл
Качество: HDRip
Формат: AVI
Видео кодек: XviD
Аудио кодек: АС3
Видео: 720x304, 23.976 fps, XviD build 50 ~1798 kbps avg
Звук: 48 kHz, AC3 Dolby Digital, 2/0 (L,R) ch, ~448 kbps

Скриншоты

     

RazBoyNik

Пост 02-Фев-2017 17:40

[Цитировать]

Зловещий отряд / Sinister Squad - Производство: США
Жанр: Фантастика, фэнтези, боевик
Режиссер: Джереми Инман
Актеры: Джонни Рей Диас, Линдсей Сойер, Траэ Айрлэнд, Исаак Рейс, Фиона Рене, Джозеф Майкл Харрис, Ник Принсип, Аарон Моусес
Описание:
Когда сверхъестественный культ начинает угрожать Земле, Алиса должна собрать команду из сказочных злодеев, чтобы противостоять силам смерти.

Продолжительность: 01:30:31
Качество видео: HDRip
Перевод: Профессиональный многоголосый (Синема УС)
Субтитры: Отсутствуют
Реклама: Присутствуют вставки голосовой и текстовой рекламы!
Видео: MPEG4, XviD, 720x400 (16:9), 23.976 fps, 1 704 Kbps (0.247 bit/pixel)
Аудио: AC-3, 48.0 KHz, 2 ch, 448 Kbps, CBR

MediaInfo:

Общее
Полное имя : C\Зловещий отряд\Zlloveshij otryad 2016 HDRip.avi
Формат : AVI
Формат/Информация : Audio Video Interleave
Размер файла : 1,37 Гбайт
Продолжительность : 1 ч. 30 м.
Общий поток : 2161 Кбит/сек
Программа кодирования : VirtualDubMod 1.5.10.2 (build 2540/release)
Библиотека кодирования : VirtualDubMod build 2540/release
Видео
Идентификатор : 0
Формат : MPEG-4 Visual
Профиль формата : Advanced [email protected]
Параметр BVOP формата : 2
Параметр QPel формата : Нет
Параметр GMC формата : Без точки перехода
Параметр матрицы формата : Default (MPEG)
Идентификатор кодека : XVID
Идентификатор кодека/Подсказка : XviD
Продолжительность : 1 ч. 30 м.
Битрейт : 1704 Кбит/сек
Ширина : 720 пикселей
Высота : 400 пикселей
Соотношение сторон : 16:9
Частота кадров : 23,976 (24000/1001) кадра/сек
Цветовое пространство : YUV
Субдискретизация насыщенности : 4:2:0
Битовая глубина : 8 бит
Тип развёртки : Прогрессивная
Метод сжатия : С потерями
Бит/(Пиксели*Кадры) : 0.247
Размер потока : 1,08 Гбайт (79%)
Библиотека кодирования : XviD 1.2.1 (UTC 2008-12-04)
Аудио
Идентификатор : 1
Формат : AC-3
Формат/Информация : Audio Coding 3
Расширение режима : CM (complete main)
Параметр Endianness формата : Big
Идентификатор кодека : 2000
Продолжительность : 1 ч. 30 м.
Вид битрейта : Постоянный
Битрейт : 448 Кбит/сек
Каналы : 2 канала
Расположение каналов : Front: L R
Частота : 48,0 КГц
Частота кадров : 31,250 кадров/сек (1536 spf)
Битовая глубина : 16 бит
Метод сжатия : С потерями
Размер потока : 290 Мбайт (21%)
Выравнивание : Разделение по промежуткам
Продолжительность промежутка : 42 мс. (1,00 видеокадр)
Время предзагрузки промежутка : 500 мс.
Скриншоты:        

RazBoyNik

Пост 02-Фев-2017 12:05

[Цитировать]

Американское колдовство / American Conjuring- Производство: Канада
Жанр: Ужасы
Режиссер: Дэн Уолтон, Дэн Захари
Актеры: Хлоя Беар, Линн Ксонтос, Наташа Дэвидсон, Элиза Фариа, Дебора Финкел, Морган Линдсей Лэйн, Даррен Матесон, Маккензи Моуат
Описание: Семья переезжает жить в некогда заброшенный дом, бывший ранее приютом для брошенных детей. Вскоре герои узнают о нехорошей истории связанной с их новым домом, а так же понимают, что в доме они не одни...

Продолжительность: 01:25:02
Качество видео: HDRip
Перевод: Профессиональный многоголосый (Синема УC)
Субтитры: Отсутствуют
Реклама: Присутствуют вставки голосовой и текстовой рекламы!
Видео: MPEG4, XviD, 720x304 (2.35:1), 23.976 fps, 1 908 Kbps (0.364 bit/pixel)
Аудио: AC-3, 48.0 KHz, 2 ch, 384 Kbps, CBR

MediaInfo:

Общее
Полное имя : D:\_DOM-RU\00\Amerikanskoe koldovstvo 2016 HDRip.avi
Формат : AVI
Формат/Информация : Audio Video Interleave
Размер файла : 1,37 Гбайт
Продолжительность : 1 ч. 25 м.
Общий поток : 2301 Кбит/сек
Программа кодирования : VirtualDubMod 1.5.10.2 (build 2540/release)
Библиотека кодирования : VirtualDubMod build 2540/release
Видео
Идентификатор : 0
Формат : MPEG-4 Visual
Профиль формата : Advanced [email protected]
Параметр BVOP формата : 2
Параметр QPel формата : Нет
Параметр GMC формата : Без точки перехода
Параметр матрицы формата : Default (MPEG)
Идентификатор кодека : XVID
Идентификатор кодека/Подсказка : XviD
Продолжительность : 1 ч. 25 м.
Битрейт : 1908 Кбит/сек
Ширина : 720 пикселей
Высота : 304 пикселя
Соотношение сторон : 2,35:1
Частота кадров : 23,976 (24000/1001) кадра/сек
Цветовое пространство : YUV
Субдискретизация насыщенности : 4:2:0
Битовая глубина : 8 бит
Тип развёртки : Прогрессивная
Метод сжатия : С потерями
Бит/(Пиксели*Кадры) : 0.364
Размер потока : 1,13 Гбайт (83%)
Библиотека кодирования : XviD 1.2.1 (UTC 2008-12-04)
Аудио
Идентификатор : 1
Формат : AC-3
Формат/Информация : Audio Coding 3
Расширение режима : CM (complete main)
Параметр Endianness формата : Big
Идентификатор кодека : 2000
Продолжительность : 1 ч. 25 м.
Вид битрейта : Постоянный
Битрейт : 384 Кбит/сек
Каналы : 2 канала
Расположение каналов : Front: L R
Частота : 48,0 КГц
Частота кадров : 31,250 кадров/сек (1536 spf)
Битовая глубина : 16 бит
Метод сжатия : С потерями
Размер потока : 234 Мбайт (17%)
Выравнивание : Разделение по промежуткам
Продолжительность промежутка : 42 мс. (1,00 видеокадр)
Время предзагрузки промежутка : 500 мс.
Скриншоты:        

RazBoyNik

Пост 02-Фев-2017 11:24

[Цитировать]

7 вещей, которые вы не знали о мужчинах / 7 rzeczy, ktorych nie wiecie o facetach - Производство: Польша
Жанр: Комедия
Режиссер: Кинга Левинска
Актеры: Алиция Бахледа, Доминика Клузняк, Александра Хамкало, Збигнев Замаховский, Мачей Закосьцельны, Миколай Рознерский, Лешек Лихота, Петр Гловацкий, Павел Домагала ...
Описание: Главные герои фильма — современные мужчины: композитор Кордиан, шоумен Рики, менеджер по рекламе Томаш, польский «Питер Пэн» — Филип, инспектор санэпидемстанции Ярек и ветеран войны Стефан. У каждого из них одна и та же цель — изменить свою жизнь и найти в ней счастье…

Продолжительность: 01:59:54
Качество видео: HDRip
Перевод: Профессиональный многоголосый (GreenРай Studio)
Субтитры: Отсутствуют
Реклама: Присутствуют вставки голосовой и текстовой рекламы!
Видео: MPEG4, XviD, 720x400 (16:9), 24.000 fps, 1 431 Kbps (0.207 bit/pixel)
Аудио: AC-3, 48.0 KHz, 2 ch, 192 Kbps, CBR

MediaInfo:

Общее
Полное имя : C\7 вещей\7 veshej 2016 HDRip.avi
Формат : AVI
Формат/Информация : Audio Video Interleave
Размер файла : 1,37 Гбайт
Продолжительность : 1 ч. 59 м.
Общий поток : 1632 Кбит/сек
Программа кодирования : VirtualDubMod 1.5.10.2 (build 2540/release)
Библиотека кодирования : VirtualDubMod build 2540/release
Видео
Идентификатор : 0
Формат : MPEG-4 Visual
Профиль формата : Advanced [email protected]
Параметр BVOP формата : 2
Параметр QPel формата : Нет
Параметр GMC формата : Без точки перехода
Параметр матрицы формата : Default (MPEG)
Идентификатор кодека : XVID
Идентификатор кодека/Подсказка : XviD
Продолжительность : 1 ч. 59 м.
Битрейт : 1431 Кбит/сек
Ширина : 720 пикселей
Высота : 400 пикселей
Соотношение сторон : 16:9
Частота кадров : 24,000 кадра/сек
Цветовое пространство : YUV
Субдискретизация насыщенности : 4:2:0
Битовая глубина : 8 бит
Тип развёртки : Прогрессивная
Метод сжатия : С потерями
Бит/(Пиксели*Кадры) : 0.207
Размер потока : 1,20 Гбайт (88%)
Библиотека кодирования : XviD 1.2.1 (UTC 2008-12-04)
Аудио
Идентификатор : 1
Формат : AC-3
Формат/Информация : Audio Coding 3
Расширение режима : CM (complete main)
Параметр Endianness формата : Big
Идентификатор кодека : 2000
Продолжительность : 1 ч. 59 м.
Вид битрейта : Постоянный
Битрейт : 192 Кбит/сек
Каналы : 2 канала
Расположение каналов : Front: L R
Частота : 48,0 КГц
Частота кадров : 31,250 кадров/сек (1536 spf)
Битовая глубина : 16 бит
Метод сжатия : С потерями
Размер потока : 165 Мбайт (12%)
Выравнивание : Разделение по промежуткам
Продолжительность промежутка : 42 мс. (1,00 видеокадр)
Время предзагрузки промежутка : 500 мс.
Скриншоты:        

RazBoyNik

Пост 02-Фев-2017 11:12

[Цитировать]

Хорошие вести / Good Tidings- Производство: Великобритания
Жанр: Ужасы, триллер
Режиссер: Стюард В. Бэдфорд
Актеры: Колин Мурта, Александр Монси, Гарри МакМахон, Джонни Хёрст, Клер Кроссленд, Алан Малхолл, Джиованни Джентиль, Джулия Уолш
Описание: Бездомный ветеран войны должен положиться только на себя, когда он и его спутники оказываются заперты в доме вместе с тремя злобными психопатами, одетыми в костюмы Санта на Рождество.

Дата мировой премьеры: 6 декабря 2016
Продолжительность: 01:39:39
Качество видео: WEB-DLRip
Перевод: Любительский одноголосый (ХихиДок)
Субтитры: Отсутствуют
Реклама: Присутствует вставка голосовой рекламы!
Видео: MPEG4, XviD, 720x304 (2.35:1), 23.976 fps, 1 602 Kbps (0.305 bit/pixel)
Аудио #1: MP3, 44.1 KHz, 2 ch, 192 Kbps, CBR | Русский
Аудио #2: AC-3, 48.0 KHz, 1 ch, 256 Kbps, CBR | Английский

MediaInfo:

Общее
Полное имя : C\Хорошие вести\Horoshie vesti 2016 WEB-DLRip.avi
Формат : AVI
Формат/Информация : Audio Video Interleave
Профиль формата : OpenDML
Настройки формата : rec
Размер файла : 1,43 Гбайт
Продолжительность : 1 ч. 39 м.
Общий поток : 2056 Кбит/сек
Программа кодирования : AVI-Mux GUI 1.17.8.3, Feb 16 201019:42:50
Видео
Идентификатор : 0
Формат : MPEG-4 Visual
Профиль формата : Advanced [email protected]
Параметр BVOP формата : 2
Параметр QPel формата : Нет
Параметр GMC формата : Без точки перехода
Параметр матрицы формата : Default (H.263)
Режим смешивания : Сжатый битовый поток
Идентификатор кодека : XVID
Идентификатор кодека/Подсказка : XviD
Продолжительность : 1 ч. 39 м.
Битрейт : 1602 Кбит/сек
Ширина : 720 пикселей
Высота : 304 пикселя
Соотношение сторон : 2,35:1
Частота кадров : 23,976 (24000/1001) кадра/сек
Цветовое пространство : YUV
Субдискретизация насыщенности : 4:2:0
Битовая глубина : 8 бит
Тип развёртки : Прогрессивная
Метод сжатия : С потерями
Бит/(Пиксели*Кадры) : 0.305
Размер потока : 1,12 Гбайт (78%)
Библиотека кодирования : XviD 66
Аудио #1
Идентификатор : 1
Формат : MPEG Audio
Версия формата : Version 1
Профиль формата : Layer 3
Идентификатор кодека : 55
Идентификатор кодека/Подсказка : MP3
Продолжительность : 1 ч. 39 м.
Вид битрейта : Постоянный
Битрейт : 192 Кбит/сек
Каналы : 2 канала
Частота : 44,1 КГц
Метод сжатия : С потерями
Размер потока : 137 Мбайт (9%)
Выравнивание : Соединение по промежуткам
Продолжительность промежутка : 448 мс. (10,74 видеокадров)
Время предзагрузки промежутка : 209 мс.
Аудио #2
Идентификатор : 2
Формат : AC-3
Формат/Информация : Audio Coding 3
Расширение режима : CM (complete main)
Параметр Endianness формата : Big
Идентификатор кодека : 2000
Продолжительность : 1 ч. 39 м.
Вид битрейта : Постоянный
Битрейт : 256 Кбит/сек
Каналы : 2 канала
Channel(s)_Original : 1 канал
Расположение каналов : Front: C
Частота : 48,0 КГц
Частота кадров : 31,250 кадров/сек (1536 spf)
Битовая глубина : 16 бит
Метод сжатия : С потерями
Размер потока : 182 Мбайт (12%)
Выравнивание : Соединение по промежуткам
Продолжительность промежутка : 64 мс. (1,53 видеокадра)
Время предзагрузки промежутка : 192 мс.
Заголовок : Eng
Скриншоты:        

RazBoyNik

Пост 31-Янв-2017 22:21

[Цитировать]

iБой / iBoy - Производство: Великобритания
Жанр: Фантастика, Боевик, Триллер, Криминал
Режиссер: Адам Рэндолл
Актеры: Мэйси Уильямс, Рори Киннер, Миранда Ричардсон, Билл Милнер, Чарли Палмер Ротуэлл, Сьюзэн Фордхэм, МакКелл Дэвид, Джордан Болджер, Камерон Джек
Описание:
После столкновения с местными отморозками в мозг Тома попадают осколки его собственного смартфона. Выйдя из комы он понимает, что возвращение к нормальной подростковой жизни невозможно, потому что у него появились суперспособности

Дата мировой премьеры: 27 января 2017
Продолжительность: 01:30:05
Качество видео: WEB-DLRip
Перевод: Многоголосый закадровый, любительский (Синема УС)
Вид субтитров: Отсутствуют
Реклама: Присутствуют голосовые и текстовые вставки рекламы
Видео: Xvid, 720x304, ~1763 kbps
Аудио: AC3, 2 ch, 384 kbps, CBR

Mediainfo:

Общее
Полное имя : C:Торренты\iБой.2016.WEB-DLRip.avi
Формат : AVI
Формат/Информация : Audio Video Interleave
Размер файла : 1,36 Гбайт
Продолжительность : 1 ч. 30 м.
Общий поток : 2156 Кбит/сек
Программа кодирования : VirtualDubModRus 1.5.10.2 (build 2542/release)
Библиотека кодирования : VirtualDubMod build 2542/release
Видео
Идентификатор : 0
Формат : MPEG-4 Visual
Профиль формата : Advanced [email protected]
Параметр BVOP формата : 2
Параметр QPel формата : Нет
Параметр GMC формата : Без точки перехода
Параметр матрицы формата : Default (MPEG)
Идентификатор кодека : XVID
Идентификатор кодека/Подсказка : XviD
Продолжительность : 1 ч. 30 м.
Битрейт : 1763 Кбит/сек
Ширина : 720 пикселей
Высота : 304 пикселя
Соотношение сторон : 2,35:1
Частота кадров : 23,976 (24000/1001) кадра/сек
Цветовое пространство : YUV
Субдискретизация насыщенности : 4:2:0
Битовая глубина : 8 бит
Тип развёртки : Прогрессивная
Метод сжатия : С потерями
Бит/(Пиксели*Кадры) : 0.336
Размер потока : 1,11 Гбайт (82%)
Библиотека кодирования : XviD 1.2.1 (UTC 2008-12-04)
Аудио
Идентификатор : 1
Формат : AC-3
Формат/Информация : Audio Coding 3
Расширение режима : CM (complete main)
Параметр Endianness формата : Big
Идентификатор кодека : 2000
Продолжительность : 1 ч. 30 м.
Вид битрейта : Постоянный
Битрейт : 384 Кбит/сек
Каналы : 2 канала
Расположение каналов : Front: L R
Частота : 48,0 КГц
Частота кадров : 31,250 кадров/сек (1536 spf)
Битовая глубина : 16 бит
Метод сжатия : С потерями
Задержка видео : 27 мс.
Размер потока : 247 Мбайт (18%)
Выравнивание : Разделение по промежуткам
Продолжительность промежутка : 42 мс. (1,00 видеокадр)
Время предзагрузки промежутка : 500 мс.
Скриншоты:
       

Varius

Пост 03-Янв-2017 08:52

[Цитировать]

3 счастливых поросенка / Les 3 p'tits cochons 2 (2016) BDRip [H.264/1080p] - Производство: Канада
Жанр: Комедия, Мелодрама
Режиссер: Жан-Франсуа Пуле
Актеры: Пол Дусе, Гийом Леме-Тивьерж, Патрис Робитейлл, Софи Прегент, Изабель Рише, Максим Лепаж, Сяо Сунь, Катрин Бойли, Джулиан Кэйси, Тетчена Белланж
Описание:
Реми, Матьё и Кристиан — братья, чья гиперактивность доставляет массу неприятностей им самим, их ревнивым женам и подружкам. Всё только усложняется, когда Доминик, жена Реми, выставляет мужа за дверь и не прочь завести интрижку с его братом…

Возраст: 18+ (зрителям, достигшим 18 лет. запрещено для детей)
Рейтинг MPAA: R (лицам до 17 лет обязательно присутствие взрослого)
Дата мировой премьеры: 1 июля 2016
Дата российской премьеры: 29 декабря 2016, «Русский Репортаж»
Продолжительность: 01:43:20
Качество видео: BDRip
Перевод: Многоголосый закадровый, любительский
Озвучка / Автор перевода: Синема УС
Вид субтитров: Отсутствуют
Реклама: Присутствуют аудио и видео вставки рекламы
Видео: MPEG-4 AVC, 1920x800, 10.1 Мбит/с
Аудио: Русский AC3, 2 ch, 640 Кбит/с

Mediainfo:

General
Complete name : O:\Les.3.Ptits.Cochons.2.2016.P.BDRip.1O8Op.mkv
Format : Matroska
File size : 7.94 GiB
Duration : 1h 43mn
Overall bit rate : 11.0 Mbps
Encoded date : UTC 2017-01-02 13:59:02
Writing application : mkvmerge v8.3.0 ('Over the Horizon') 64bit
Writing library : libebml v1.3.1 + libmatroska v1.4.2
Video
ID : 1
Format : AVC
Format/Info : Advanced Video Codec
Format profile : [url=mailto:[email protected]][email protected][/url]
Format settings, CABAC : Yes
Format settings, ReFrames : 5 frames
Muxing mode : Container [email protected]
Codec ID : V_MPEG4/ISO/AVC
Duration : 1h 43mn
Bit rate : 10.1 Mbps
Width : 1 920 pixels
Height : 800 pixels
Display aspect ratio : 2.40:1
Frame rate : 23.976 fps
Standard : Component
Resolution : 8 bits
Colorimetry : 4:2:0
Scan type : Progressive
Bits/(Pixel*Frame) : 0.275
Stream size : 7.31 GiB (92%)
Color primaries : BT.709-5, BT.1361, IEC 61966-2-4, SMPTE RP177
Transfer characteristics : BT.709-5, BT.1361
Matrix coefficients : BT.709-5, BT.1361, IEC 61966-2-4 709, SMPTE RP177
Audio
ID : 2
Format : AC-3
Format/Info : Audio Coding 3
Codec ID : A_AC3
Duration : 1h 43mn
Bit rate mode : Constant
Bit rate : 640 Kbps
Channel(s) : 2 channels
Channel positions : L R
Sampling rate : 48.0 KHz
Stream size : 473 MiB (6%)
Скриншоты:
       

Russian Mafia

Пост 14-Сен-2016 06:52

[Цитировать]

Пришельцы 3: Взятие Бастилии / Les Visiteurs: La Revolution (2016) HDRip- Производство: Франция
Жанр: Комедия
Режиссер: Жан-Мари Пуаре
Актеры: Кристиан Клавье, Жан Рено, Франк Дюбоск, Карин Вьяр, Сильви Тестю, Мари-Анн Шазель, Эри Абиттан, Алекс Лутс, Стефани де Крэенкур, Вероника Буланжер
Описание:
В третьей части граф с оруженосцем отправляются в самое сложное для Франции время - период Французской революции.

Возраст: 12+ (зрителям, достигшим 12 лет)
Дата мировой премьеры: 6 апреля 2016
Дата российской премьеры: 7 апреля 2016
Продолжительность: 01:49:29
Качество видео: HDRip Сэмпл
Перевод: Дублированный (iTunes)
Субтитры: Отсутствуют
Видео: Xvid, 720x304, ~1394 Kbps
Аудио: AC3, 6 ch, 384 Kbps

MediaInfo:

Код:
Общее
Полное имя                               : F:\Bastile.3.2016.D.HDRip.NNM-CLUB.avi
Формат                                   : AVI
Формат/Информация                        : Audio Video Interleave
Размер файла                             : 1,37 Гбайт
Продолжительность                        : 1 ч. 49 м.
Общий поток                              : 1787 Кбит/сек
Программа кодирования                    : VirtualDubMod 1.5.10.2 (build 2540/release)
Библиотека кодирования                   : VirtualDubMod build 2540/release
Видео
Идентификатор                            : 0
Формат                                   : MPEG-4 Visual
Профиль формата                          : Advanced [email protected]
Параметр BVOP формата                    : 2
Параметр QPel формата                    : Нет
Параметр GMC формата                     : Без точки перехода
Параметр матрицы формата                 : Default (MPEG)
Идентификатор кодека                     : XVID
Идентификатор кодека/Подсказка           : XviD
Продолжительность                        : 1 ч. 49 м.
Битрейт                                  : 1394 Кбит/сек
Ширина                                   : 720 пикселей
Высота                                   : 304 пикселя
Соотношение сторон                       : 2,35:1
Частота кадров                           : 24,000 кадра/сек
Цветовое пространство                    : YUV
Субдискретизация насыщенности            : 4:2:0
Битовая глубина                          : 8 бит
Тип развёртки                            : Прогрессивная
Метод сжатия                             : С потерями
Бит/(Пиксели*Кадры)                      : 0.265
Размер потока                            : 1,07 Гбайт (78%)
Библиотека кодирования                   : XviD 1.2.1 (UTC 2008-12-04)
Аудио
Идентификатор                            : 1
Формат                                   : AC-3
Формат/Информация                        : Audio Coding 3
Расширение режима                        : CM (complete main)
Параметр Endianness формата              : Big
Идентификатор кодека                     : 2000
Продолжительность                        : 1 ч. 49 м.
Вид битрейта                             : Постоянный
Битрейт                                  : 384 Кбит/сек
Каналы                                   : 6 каналов
Расположение каналов                     : Front: L C R, Side: L R, LFE
Частота                                  : 48,0 КГц
Битовая глубина                          : 16 бит
Метод сжатия                             : С потерями
Размер потока                            : 301 Мбайт (21%)
Выравнивание                             : Разделение по промежуткам
Продолжительность промежутка             : 42  мс. (1,00 видеокадр)
Время предзагрузки промежутка            : 500  мс.

Скриншоты

       

Russian Mafia

Пост 31-Авг-2016 08:24

[Цитировать]

Производство: США
Жанр: Драма
Режиссер: Гас Ван Сент
Актеры: Мэттью МакКонахи, Наоми Уоттс, Кэтрин Аселтон, Джордан Джаварис, Кен Ватанабе, Джеймс Саито, Оуэн Бурк, Марк Бузенски, Сьюзэн ДеБерардинис, Маккензи Хоу
Описание:
Американец-самоубийца знакомится с японцем, потерявшимся в лесу рядом с горой Фудзи, и вместе они пытаются отыскать дорогу.

Возраст: 12+ (зрителям, достигшим 12 лет)
Рейтинг MPAA: PG-13 (детям до 13 лет просмотр нежелателен)
Продолжительность: 01:46:00
Качество видео: HDRip Сэмпл
Перевод: Многоголосый закадровый, любительский
Реклама: Присутствует от спонсора показа.
Видео: Xvid, 720х304, 1 570 kb/s
Аудио: AC3, 2 ch, 384 kb/s

Mediainfo:

Код:
The.sea.of.trees.2O15.P.HDRip.14OOMB.avi
Format                      : AVI
Format/Info                 : Audio Video Interleave
File size                   : 1.46 GiB
Duration                    : 1 h 46 min
Overall bit rate            : 1 964 kb/s
Writing application         : VirtualDubMod 1.5.10.2 (build 2540/release)
Writing library             : VirtualDubMod build 2540/release
Video
ID                          : 0
Format                      : MPEG-4 Visual
Format profile              : Advanced [email protected]
Format settings, BVOP       : 2
Format settings, QPel       : No
Format settings, GMC        : No warppoints
Format settings, Matrix     : Custom
Codec ID                    : XVID
Codec ID/Hint               : XviD
Duration                    : 1 h 46 min
Bit rate                    : 1 570 kb/s
Width                       : 720 pixels
Height                      : 304 pixels
Display aspect ratio        : 2.35:1
Frame rate                  : 25.000 FPS
Color space                 : YUV
Chroma subsampling          : 4:2:0
Bit depth                   : 8 bits
Scan type                   : Progressive
Compression mode            : Lossy
Bits/(Pixel*Frame)          : 0.287
Stream size                 : 1.16 GiB (80%)
Writing library             : XviD 1.2.1 (UTC 2008-12-04)
Audio
ID                          : 1
Format                      : AC-3
Format/Info                 : Audio Coding 3
Mode extension              : CM (complete main)
Format settings, Endianness : Big
Codec ID                    : 2000
Duration                    : 1 h 46 min
Bit rate mode               : Constant
Bit rate                    : 384 kb/s
Channel(s)                  : 2 channels
Channel positions           : Front: L R
Sampling rate               : 48.0 kHz
Frame rate                  : 31.250 FPS (1536 spf)
Compression mode            : Lossy
Stream size                 : 292 MiB (20%)
Alignment                   : Split accross interleaves
Interleave, duration        : 40  ms (1.00 video frame)
Interleave, preload duratio : 500  ms

Скриншоты

       

Russian Mafia

Пост 31-Авг-2016 08:19

[Цитировать]

Заклятие 2 / The Conjuring 2 - Производство: США, Atomic Monster, Evergreen Media, New Line Cinema
Жанр: Ужасы
Режиссер: Джеймс Ван
Актеры: Патрик Уилсон, Вера Фармига, Мэдисон Вульф, Фрэнсис О’Коннор, Лорен Эспозито, Саймон МакБерни, Мария Дойл Кеннеди, Саймон Делани
Описание:
Супругов занесло в город Энфильд. На этот раз экстрасенсам довелось столкнуться с могущественным демоном, претендующим на звание владыки здешних мест. Скептически настроенные горожане начали подозревать друг друга в происшествиях, в их сердцах поселилась вражда и ненависть.

Возраст: 16+ (зрителям, достигшим 16 лет)
Дата мировой премьеры: 28 мая 2016
Дата премьеры в РФ: 16 июня 2016, «Каро-Премьер»

Продолжительность: 02:13:40
Качество видео: HDRip Сэмпл
Перевод: Дублированный (iTunes)
Субтитры: Отсутствуют
Видео: XviD, 720x304, 1799 Kbps
Аудио: AC3, 6 ch, 384 kbps

Mediainfo:

Код:
Общее
Полное имя                               : E:\The.Conjuring.2.2016.D.HDRip.NNM-CLUB.avi
Формат                                   : AVI
Формат/Информация                        : Audio Video Interleave
Профиль формата                          : OpenDML
Размер файла                             : 2,05 Гбайт
Продолжительность                        : 2 ч. 13 м.
Общий поток                              : 2195 Кбит/сек
Программа кодирования                    : VirtualDubMod 1.5.10.2 (build 2540/release)
Библиотека кодирования                   : VirtualDubMod build 2540/release
Видео
Идентификатор                            : 0
Формат                                   : MPEG-4 Visual
Профиль формата                          : Advanced [email protected]
Параметр BVOP формата                    : 2
Параметр QPel формата                    : Нет
Параметр GMC формата                     : Без точки перехода
Параметр матрицы формата                 : Выборочная
Идентификатор кодека                     : XVID
Идентификатор кодека/Подсказка           : XviD
Продолжительность                        : 2 ч. 13 м.
Битрейт                                  : 1799 Кбит/сек
Ширина                                   : 720 пикселей
Высота                                   : 304 пикселя
Соотношение сторон                       : 2,35:1
Частота кадров                           : 23,976 кадра/сек
Цветовое пространство                    : YUV
Субдискретизация насыщенности            : 4:2:0
Битовая глубина                          : 8 бит
Тип развёртки                            : Прогрессивная
Метод сжатия                             : С потерями
Бит/(Пиксели*Кадры)                      : 0.343
Размер потока                            : 1,68 Гбайт (82%)
Библиотека кодирования                   : XviD 1.2.1 (UTC 2008-12-04)
Аудио
Идентификатор                            : 1
Формат                                   : AC-3
Формат/Информация                        : Audio Coding 3
Расширение режима                        : CM (complete main)
Параметр Endianness формата              : Big
Идентификатор кодека                     : 2000
Продолжительность                        : 2 ч. 13 м.
Вид битрейта                             : Постоянный
Битрейт                                  : 384 Кбит/сек
Каналы                                   : 6 каналов
Расположение каналов                     : Front: L C R, Side: L R, LFE
Частота                                  : 48,0 КГц
Битовая глубина                          : 16 бит
Метод сжатия                             : С потерями
Задержка видео                           : 900 мс.
Размер потока                            : 368 Мбайт (17%)
Выравнивание                             : Разделение по промежуткам
Продолжительность промежутка             : 42  мс. (1,00 видеокадр)
Время предзагрузки промежутка            : 500  мс.

Скриншоты

       
 

Текущее время: Сегодня 21:51

Часовой пояс: GMT + 3