Today is a free download without charge Download

Search found 500 matches

Author Message

SIRUS

Post 08-Jul-2020 19:12

[Quote]

Бойся своих желаний / Wish Upon --Информация о фильме
Название: Бойся своих желаний / Шкатулка
Оригинальное название: Wish Upon
Год выхода: 2017
Жанр: Ужасы, фэнтези, триллер
Режиссер: Джон Р. Леонетти
В ролях: Шерилин Фенн, Джои Кинг, Элизабет Рём, Райан Филипп, Шеннон Пёрсер, Реган Реворд, Ли Ги-хон, Сидни Парк, Элис Ли, Мишель Александр
О фильме :
Тихая неудачница Клэр получает в подарок от отца старинную шкатулку. К ее удивлению оказывается, что шкатулка умеет исполнять желания. Теперь-то она расквитается со всеми, кто над ней смеялся. Желания исполняются, но не совсем так, как задумывала Клэр, и с каждым новым желанием последствия становятся все страшнее. Какую еще плату попросит шкатулка взамен, и что за древнее зло скрывается в ней?
Страна: США
Продолжительность: 01:26:32
Перевод: Профессиональный (полное дублирование) - Line
Файл
Формат: MKV
Качество: WEB-DLRip-AVC
Видео: MPEG-4 AVC, 768x320, ~ 1129 Кбит/с
Аудио: AAC-HE, 2 ch, ~ 76 Кбит/с
Субтитры: Отсутствуют

MI

Общее
Уникальный идентификатор : 22191908072773514821747164157919919249 (0x10B2018B0DCD469E1C8A98A203AC7C91)
Полное имя : D:MOVIESWish.Upon.2017.ExKinoRay.mkv
Формат : Matroska
Версия формата : Version 2
Размер файла : 746 Мбайт
Продолжительность : 1 ч. 26 м.
Общий поток : 1206 Кбит/сек
Дата кодирования : UTC 2018-04-06 09:43:34
Программа кодирования : mkvmerge v22.0.0 ('At The End Of The World') 64-bit
Библиотека кодирования : libebml v1.3.5 + libmatroska v1.4.8
Видео
Идентификатор : 1
Формат : AVC
Формат/Информация : Advanced Video Codec
Профиль формата : [email protected]
Параметр CABAC формата : Да
Параметр RefFrames формата : 10 кадров
Идентификатор кодека : V_MPEG4/ISO/AVC
Продолжительность : 1 ч. 26 м.
Битрейт : 1129 Кбит/сек
Ширина : 768 пикселей
Высота : 320 пикселей
Соотношение сторон : 2,40:1
Режим частоты кадров : Постоянный
Частота кадров : 25,000 кадров/сек
Цветовое пространство : YUV
Субдискретизация насыщенности : 4:2:0
Битовая глубина : 8 бит
Тип развёртки : Прогрессивная
Бит/(Пиксели*Кадры) : 0.184
Размер потока : 698 Мбайт (94%)
Библиотека кодирования : x264 core 155 r2901 7d0ff22
Настройки программы : cabac=1 / ref=10 / deblock=1:-3:-3 / analyse=0x3:0x133 / me=umh / subme=11 / psy=1 / psy_rd=1.00:0.10 / mixed_ref=1 / me_range=32 / chroma_me=1 / trellis=2 / 8x8dct=1 / cqm=0 / deadzone=21,11 / fast_pskip=0 / chroma_qp_offset=-3 / threads=6 / lookahead_threads=1 / sliced_threads=0 / nr=0 / decimate=0 / interlaced=0 / bluray_compat=0 / constrained_intra=0 / bframes=10 / b_pyramid=2 / b_adapt=2 / b_bias=0 / direct=3 / weightb=1 / open_gop=0 / weightp=2 / keyint=250 / keyint_min=24 / scenecut=40 / intra_refresh=0 / rc_lookahead=40 / rc=2pass / mbtree=1 / bitrate=1129 / ratetol=1.0 / qcomp=0.60 / qpmin=0 / qpmax=69 / qpstep=4 / cplxblur=20.0 / qblur=0.5 / vbv_maxrate=50000 / vbv_bufsize=62500 / nal_hrd=none / filler=0 / ip_ratio=1.40 / aq=3:1.00
Default : Да
Forced : Нет
Аудио
Идентификатор : 2
Формат : AAC
Формат/Информация : Advanced Audio Codec
Профиль формата : HE-AAC / LC
Идентификатор кодека : A_AAC
Продолжительность : 1 ч. 26 м.
Битрейт : 76,0 Кбит/сек
Каналы : 2 канала
Расположение каналов : Front: L R
Частота : 48,0 КГц / 24,0 КГц
Частота кадров : 23,438 кадра/сек (1024 SPF)
Метод сжатия : С потерями
Задержка видео : 31 мс.
Размер потока : 47,0 Мбайт (6%)
Язык : Russian
Default : Да
Forced : Нет

Скриншоты

     

SIRUS

Post 08-Jul-2020 19:00

[Quote]

Блуждающая Земля / Liu lang di qiu / The Wandering Earth --Информация о фильме
Название: Блуждающая Земля
Оригинальное название: Liu lang di qiu / The Wandering Earth
Год выхода: 2019
Жанр: Фантастика, боевик
Режиссер: Франт Гво
В ролях: Джеки Ву, Цюй Чусяо, Ли Гуанцзе, Нг Ман-Тат, Чжао Цзиньмай, Цюй Цзинцзин, Чжан Ичи, Ян Хаоюй, Аркадий Шароградский, Ли Хунчэнь, Цзян Чжиган, Чжан Хуань, Лэй Цзяинь, Нин Хао, Ван Чжи
О фильме:
В ближайшем будущем становится известно, что Солнце скоро погаснет, и Солнечная система будет разрушена. Тогда человечество запускает масштабный проект под названием «Блуждающая Земля», цель которого — с помощью огромных двигателей по всему миру сдвинуть Землю и полететь искать новое пристанище. Через 17 лет путешествия земляне приближаются к Юпитеру. Гравитация гигантской планеты меняет траекторию Земли, вызывает глобальные землетрясения и ставит под угрозу весь проект по выживанию человечества.
Страна: Китай
Студия: Beijing Culture, China Film Company Limited., United Entertainment Partners
Продолжительность: 02:05:30
Перевод: Любительский двухголосый | Колобок
Файл
Формат: MKV
Качество: WEB-DLRip-AVC
Видео: MPEG-4 AVC, 816x320, - 753 Кбит/с
Аудио: AAC-HE, 2 ch, - 76 Кбит/с
Субтитры: Русские, английские

MI

Общее
Уникальный идентификатор : 38723318654341688767295024678613564664 (0x1D21D7034F287102E40A622448583CF8)
Полное имя : D:MOVIESThe.Wandering.Earth.2019.ExKinoRay.mkv
Формат : Matroska
Версия формата : Version 4 / Version 2
Размер файла : 746 Мбайт
Продолжительность : 2 ч. 5 м.
Общий поток : 831 Кбит/сек
Дата кодирования : UTC 2019-05-03 12:37:05
Программа кодирования : mkvmerge v32.0.0 ('Astral Progressions') 64-bit
Библиотека кодирования : libebml v1.3.7 + libmatroska v1.5.0
Видео
Идентификатор : 1
Формат : AVC
Формат/Информация : Advanced Video Codec
Профиль формата : [email protected]
Параметр CABAC формата : Да
Параметр RefFrames формата : 12 кадров
Идентификатор кодека : V_MPEG4/ISO/AVC
Продолжительность : 2 ч. 5 м.
Битрейт : 753 Кбит/сек
Ширина : 816 пикселей
Высота : 320 пикселей
Соотношение сторон : 2,550
Режим частоты кадров : Постоянный
Частота кадров : 24,000 кадра/сек
Цветовое пространство : YUV
Субдискретизация насыщенности : 4:2:0
Битовая глубина : 8 бит
Тип развёртки : Прогрессивная
Бит/(Пиксели*Кадры) : 0.120
Размер потока : 676 Мбайт (91%)
Библиотека кодирования : x264 core 152 r2851kMod ba24899
Настройки программы : cabac=1 / ref=12 / deblock=1:-3:-3 / analyse=0x3:0x133 / me=umh / subme=10 / psy=1 / fade_compensate=0.00 / psy_rd=1.00:0.12 / mixed_ref=1 / me_range=32 / chroma_me=1 / trellis=2 / 8x8dct=1 / cqm=0 / deadzone=21,11 / fast_pskip=0 / chroma_qp_offset=-3 / threads=6 / lookahead_threads=1 / sliced_threads=0 / nr=0 / decimate=0 / interlaced=0 / bluray_compat=0 / constrained_intra=0 / bframes=12 / b_pyramid=2 / b_adapt=2 / b_bias=0 / direct=3 / weightb=1 / open_gop=0 / weightp=2 / keyint=240 / keyint_min=24 / scenecut=40 / intra_refresh=0 / rc_lookahead=40 / rc=2pass / mbtree=1 / bitrate=753 / ratetol=1.0 / qcomp=0.60 / qpmin=0 / qpmax=69 / qpstep=4 / cplxblur=20.0 / qblur=0.5 / ip_ratio=1.40 / aq=3:1.00
Default : Да
Forced : Нет
Аудио
Идентификатор : 2
Формат : AAC
Формат/Информация : Advanced Audio Codec
Профиль формата : HE-AAC / LC
Идентификатор кодека : A_AAC
Продолжительность : 2 ч. 5 м.
Битрейт : 76,0 Кбит/сек
Каналы : 2 канала
Расположение каналов : Front: L R
Частота : 48,0 КГц / 24,0 КГц
Частота кадров : 23,438 кадра/сек (1024 SPF)
Метод сжатия : С потерями
Задержка видео : 31 мс.
Размер потока : 68,1 Мбайт (9%)
Язык : Russian
Default : Да
Forced : Нет
Текст #1
Идентификатор : 3
Формат : UTF-8
Идентификатор кодека : S_TEXT/UTF8
Идентификатор кодека/Информация : UTF-8 Plain Text
Продолжительность : 1 ч. 59 м.
Битрейт : 90 бит/сек
ElementCount : 1738
Размер потока : 78,9 Кбайт (0%)
Язык : Russian
Default : Нет
Forced : Нет
Текст #2
Идентификатор : 4
Формат : UTF-8
Идентификатор кодека : S_TEXT/UTF8
Идентификатор кодека/Информация : UTF-8 Plain Text
Продолжительность : 1 ч. 58 м.
Битрейт : 59 бит/сек
ElementCount : 1653
Размер потока : 51,6 Кбайт (0%)
Язык : English
Default : Нет
Forced : Нет
Текст #3
Идентификатор : 5
Формат : UTF-8
Идентификатор кодека : S_TEXT/UTF8
Идентификатор кодека/Информация : UTF-8 Plain Text
Продолжительность : 1 ч. 58 м.
Битрейт : 80 бит/сек
ElementCount : 2244
Размер потока : 69,7 Кбайт (0%)
Заголовок : SDH
Язык : English
Default : Нет
Forced : Нет

Скриншоты

     

SIRUS

Post 08-Jul-2020 18:47

[Quote]

Бладфест / Кровавый фестиваль / Blood Fest --Информация о фильме
Название: Кровавый фестиваль
Оригинальное название: Blood Fest
Год выхода: 2018
Жанр: Ужасы, комедия
Режиссер: Оуэн Эгертон
В ролях: Закари Ливай, Сейшелл Гэбриел, Тейт Донован, Робби Кей, Джейкоб Баталон, Исла Червелли, Барбара Данкельман, Оливия Грэйс Эпплгейт, Джульетт Кида, Пол Огола
О фильме :
Ещё ребенком Дакс стал свидетелем убийства матери, но после этого не перестал любить фильмы ужасов. Через несколько лет в компании единомышленников парень готовится поехать на «Кровавый фестиваль», посвященный самым известным картинам жанра, но отец сильно против. Все-таки пробравшись на заветное мероприятие, Дакс с друзьями вскоре обнаруживает, что название у фестиваля буквальное - фанаты фильмов ужасов сами оказываются участниками в кровавого хоррора.
Страна: США
Студия: Rooster Teeth Productions
Продолжительность: 01:32:41
Перевод: Профессиональный (многоголосый, закадровый) | HDrezka Studio
Файл
Формат: MKV
Качество: WEB-DLRip-AVC
Видео: MPEG-4 AVC, 768x384, ~ 1048 Кбит/с
Аудио: AAC-HE, 2 ch, ~ 76 Кбит/с
Субтитры: Нет

MI

Общее
Уникальный идентификатор : 245444902992276665633231739065741024413 (0xB8A6F805B3B1DE18965CB9E61DF71C9D)
Полное имя : D:MOVIESBlood Fest.2018.ExKinoRay.mkv
Формат : Matroska
Версия формата : Version 4 / Version 2
Размер файла : 746 Мбайт
Продолжительность : 1 ч. 32 м.
Общий поток : 1125 Кбит/сек
Дата кодирования : UTC 2018-09-09 16:07:08
Программа кодирования : mkvmerge v15.0.0 ('Duel with the Devil') 64-bit
Библиотека кодирования : libebml v1.3.5 + libmatroska v1.4.5
Видео
Идентификатор : 1
Формат : AVC
Формат/Информация : Advanced Video Codec
Профиль формата : [email protected]
Параметр CABAC формата : Да
Параметр RefFrames формата : 12 кадров
Идентификатор кодека : V_MPEG4/ISO/AVC
Продолжительность : 1 ч. 32 м.
Битрейт : 1048 Кбит/сек
Ширина : 768 пикселей
Высота : 384 пикселя
Соотношение сторон : 2,000
Режим частоты кадров : Постоянный
Частота кадров : 23,976 (24000/1001) кадра/сек
Цветовое пространство : YUV
Субдискретизация насыщенности : 4:2:0
Битовая глубина : 8 бит
Тип развёртки : Прогрессивная
Бит/(Пиксели*Кадры) : 0.148
Размер потока : 695 Мбайт (93%)
Библиотека кодирования : x264 core 152 r2851kMod ba24899
Настройки программы : cabac=1 / ref=12 / deblock=1:-3:-3 / analyse=0x3:0x133 / me=umh / subme=10 / psy=1 / fade_compensate=0.00 / psy_rd=1.00:0.17 / mixed_ref=1 / me_range=32 / chroma_me=1 / trellis=2 / 8x8dct=1 / cqm=0 / deadzone=21,11 / fast_pskip=0 / chroma_qp_offset=-3 / threads=6 / lookahead_threads=1 / sliced_threads=0 / nr=0 / decimate=0 / interlaced=0 / bluray_compat=0 / constrained_intra=0 / bframes=11 / b_pyramid=2 / b_adapt=2 / b_bias=0 / direct=3 / weightb=1 / open_gop=0 / weightp=2 / keyint=240 / keyint_min=23 / scenecut=40 / intra_refresh=0 / rc_lookahead=40 / rc=2pass / mbtree=1 / bitrate=1048 / ratetol=1.0 / qcomp=0.60 / qpmin=0 / qpmax=69 / qpstep=4 / cplxblur=20.0 / qblur=0.5 / ip_ratio=1.40 / aq=3:1.00
Default : Да
Forced : Нет
Аудио
Идентификатор : 2
Формат : AAC
Формат/Информация : Advanced Audio Codec
Профиль формата : HE-AAC / LC
Идентификатор кодека : A_AAC
Продолжительность : 1 ч. 32 м.
Битрейт : 76,0 Кбит/сек
Каналы : 2 канала
Расположение каналов : Front: L R
Частота : 48,0 КГц / 24,0 КГц
Частота кадров : 23,438 кадра/сек (1024 SPF)
Метод сжатия : С потерями
Задержка видео : 31 мс.
Размер потока : 50,4 Мбайт (7%)
Язык : Russian
Default : Да
Forced : Нет

Скриншоты

     

SIRUS

Post 08-Jul-2020 18:40

[Quote]

Агент Джонни Инглиш: Перезагрузка / Johnny English Reborn -- Информация о фильме
Название: Агент Джонни Инглиш: Перезагрузка
Оригинальное название: Johnny English Reborn
Год выхода: 2011
Жанр: Комедия, боевик, приключения
Режиссер: Оливер Паркер
В ролях: Роуэн Эткинсон, Джиллиан Андерсон, Доминик Уэст, Розамунд Пайк, Дэниэл Калуя, Ричард Шифф, Бен Миллер, Стивен Кэмпбелл Мур, Кристина Чонг, Жозефин Де Ла Буме
О фильме :
Действие фильма разворачивается через 8 лет после событий предшествующего фильма и с тех пор карьера сэра Джонни Инглиша ухудшается. За 5 лет до начала фильма его направили с заданием в Мозамбик, но миссия пошла ужасно плохо. С тех пор он живёт в пещере в горах Тибета, прячась ото всех из-за стыда, сожалений и обвинений в провале миссии. Фильм начинается, когда герой находится на крайне низком моральном уровне, пока ему не дают ещё один шанс. Британская разведка МИ-7 снова нуждается в нём и ей надо вернуть агента, чтобы тот сорвал заговор группы киллеров, планирующих убить китайского премьер-министра.
Выпущено: США, Франция, Великобритания
Продолжительность: 01:41:21
Перевод: Профессиональный (полное дублирование)
Файл
Формат: MKV
Качество: HDRip-AVC
Видео: MPEG-4 AVC, 768x320, ~ 951 Кбит/с
Аудио: AAC-LC, 2 ch, ~ 76 Кбит/с

MI

Общее
Уникальный идентификатор : 141073640859361159413308027416736136001 (0x6A21CB807F8C32865B69A5C886577B41)
Полное имя : D:MOVIESDzhonni.Inglish.Perezagruzka.2011.ExKinoRay.mkv
Формат : Matroska
Версия формата : Version 2
Размер файла : 746 Мбайт
Продолжительность : 1 ч. 41 м.
Общий поток : 1029 Кбит/сек
Дата кодирования : UTC 2018-01-15 20:32:46
Программа кодирования : mkvmerge v19.0.0 ('Brave Captain') 64-bit
Библиотека кодирования : libebml v1.3.5 + libmatroska v1.4.8
Видео
Идентификатор : 1
Формат : AVC
Формат/Информация : Advanced Video Codec
Профиль формата : [email protected]
Параметр CABAC формата : Да
Параметр RefFrames формата : 10 кадров
Идентификатор кодека : V_MPEG4/ISO/AVC
Продолжительность : 1 ч. 41 м.
Битрейт : 951 Кбит/сек
Ширина : 768 пикселей
Высота : 320 пикселей
Соотношение сторон : 2,40:1
Режим частоты кадров : Постоянный
Частота кадров : 23,976 (24000/1001) кадра/сек
Цветовое пространство : YUV
Субдискретизация насыщенности : 4:2:0
Битовая глубина : 8 бит
Тип развёртки : Прогрессивная
Бит/(Пиксели*Кадры) : 0.161
Размер потока : 689 Мбайт (92%)
Библиотека кодирования : x264 core 152 r2851kMod ba24899
Настройки программы : cabac=1 / ref=10 / deblock=1:-3:-2 / analyse=0x3:0x133 / me=umh / subme=11 / psy=1 / fade_compensate=0.00 / psy_rd=1.00:0.10 / mixed_ref=1 / me_range=32 / chroma_me=1 / trellis=2 / 8x8dct=1 / cqm=0 / deadzone=21,11 / fast_pskip=0 / chroma_qp_offset=-3 / threads=6 / lookahead_threads=1 / sliced_threads=0 / nr=0 / decimate=0 / interlaced=0 / bluray_compat=0 / constrained_intra=0 / bframes=10 / b_pyramid=2 / b_adapt=2 / b_bias=0 / direct=3 / weightb=1 / open_gop=0 / weightp=2 / keyint=240 / keyint_min=23 / scenecut=40 / intra_refresh=0 / rc_lookahead=40 / rc=2pass / mbtree=1 / bitrate=951 / ratetol=1.0 / qcomp=0.60 / qpmin=0 / qpmax=69 / qpstep=4 / cplxblur=20.0 / qblur=0.5 / vbv_maxrate=50000 / vbv_bufsize=62500 / nal_hrd=none / filler=0 / ip_ratio=1.40 / aq=3:1.00
Default : Да
Forced : Нет
Аудио
Идентификатор : 2
Формат : AAC
Формат/Информация : Advanced Audio Codec
Профиль формата : LC
Идентификатор кодека : A_AAC
Продолжительность : 1 ч. 41 м.
Битрейт : 76,0 Кбит/сек
Каналы : 2 канала
Расположение каналов : Front: L R
Частота : 48,0 КГц
Частота кадров : 46,875 кадров/сек (1024 SPF)
Метод сжатия : С потерями
Задержка видео : 9 мс.
Размер потока : 55,1 Мбайт (7%)
Язык : Russian
Default : Да
Forced : Нет

Скриншоты

     

SIRUS

Post 04-Jul-2020 21:38

[Quote]

Алита: Боевой ангел / Alita: Battle Angel --Информация о фильме
Название: Алита: Боевой ангел
Оригинальное название: Alita: Battle Angel
Год выхода: 2019
Жанр: Фантастика, боевик, триллер, мелодрама, приключения
Режиссер: Роберт Родригес
В ролях: Роза Салазар, Кристоф Вальц, Джеки Э. Хэйли, Дженнифер Коннелли, Эйса Гонсалес, Мишель Родригес, Махершала Али, Эд Скрейн, Каспер Ван Дьен, Джефф Фэйи, Лана Кондор, Эль ЛаМонт, Марко Зарор, Сэм Медина
О фильме:
Действие фильма разворачивается в далеком будущем после кровопролитной войны, которая случилась в результате создания человечеством киборгов-помощников. Однажды доктор Идо нашел на свалке останки девушки-киборга и, принеся их в свою мастерскую, оживил робота. Оказалось, что киборг не помнит, кто она такая и тогда доктор Идо дал ей имя Алита, а вскоре она открыла в себе способности к боевым искусствам. Алите предстоит собрать осколки своего прошлого и узнать правду о том, кто она такая.

Страна: Канада, Аргентина, США
Студия: Twentieth Century Fox, Lightstorm Entertainment, Troublemaker Studios
Продолжительность: 02:01:58
Перевод: Дублированный | Лицензия
Файл
Формат: MKV
Качество: BDRip-AVC (BDRemux 1080p)
Видео: MPEG-4 AVC, 744x312, - 777 Кбит/с
Аудио: AAC-HE, 2 ch, - 76 Кбит/с
Субтитры: Русские (Forced, Full), английские

MI

Общее
Уникальный идентификатор : 217929101373614591713589760960050043400 (0xA3F39E42EFFD62022555B29585111A08)
Полное имя : D:MOVIESAlita.Battle.Angel.2019.BDRip-AVC..mkv
Формат : Matroska
Версия формата : Version 4 / Version 2
Размер файла : 746 Мбайт
Продолжительность : 2 ч. 2 м.
Общий поток : 854 Кбит/сек
Дата кодирования : UTC 2019-07-15 04:51:57
Программа кодирования : mkvmerge v35.0.0 ('All The Love In The World') 64-bit
Библиотека кодирования : libebml v1.3.9 + libmatroska v1.5.2
Видео
Идентификатор : 1
Формат : AVC
Формат/Информация : Advanced Video Codec
Профиль формата : [email protected]
Параметр CABAC формата : Да
Параметр RefFrames формата : 12 кадров
Идентификатор кодека : V_MPEG4/ISO/AVC
Продолжительность : 2 ч. 1 м.
Битрейт : 777 Кбит/сек
Ширина : 744 пикселя
Высота : 312 пикселей
Соотношение сторон : 2,40:1
Режим частоты кадров : Постоянный
Частота кадров : 23,976 (24000/1001) кадра/сек
Цветовое пространство : YUV
Субдискретизация насыщенности : 4:2:0
Битовая глубина : 8 бит
Тип развёртки : Прогрессивная
Бит/(Пиксели*Кадры) : 0.140
Размер потока : 677 Мбайт (91%)
Библиотека кодирования : x264 core 152 r2851kMod ba24899
Настройки программы : cabac=1 / ref=12 / deblock=1:-2:-2 / analyse=0x3:0x133 / me=umh / subme=10 / psy=1 / fade_compensate=0.00 / psy_rd=1.00:0.08 / mixed_ref=1 / me_range=32 / chroma_me=1 / trellis=2 / 8x8dct=1 / cqm=0 / deadzone=21,11 / fast_pskip=0 / chroma_qp_offset=-3 / threads=6 / lookahead_threads=1 / sliced_threads=0 / nr=0 / decimate=0 / interlaced=0 / bluray_compat=0 / constrained_intra=0 / bframes=12 / b_pyramid=2 / b_adapt=2 / b_bias=0 / direct=3 / weightb=1 / open_gop=0 / weightp=2 / keyint=240 / keyint_min=23 / scenecut=40 / intra_refresh=0 / rc_lookahead=40 / rc=2pass / mbtree=1 / bitrate=777 / ratetol=1.0 / qcomp=0.60 / qpmin=0 / qpmax=69 / qpstep=4 / cplxblur=20.0 / qblur=0.5 / ip_ratio=1.40 / aq=3:1.00
Default : Да
Forced : Нет
Аудио
Идентификатор : 2
Формат : AAC
Формат/Информация : Advanced Audio Codec
Профиль формата : HE-AAC / LC
Идентификатор кодека : A_AAC
Продолжительность : 2 ч. 2 м.
Битрейт : 76,0 Кбит/сек
Каналы : 2 канала
Расположение каналов : Front: L R
Частота : 48,0 КГц / 24,0 КГц
Частота кадров : 23,438 кадра/сек (1024 SPF)
Метод сжатия : С потерями
Задержка видео : 31 мс.
Размер потока : 66,4 Мбайт (9%)
Default : Да
Forced : Нет
Текст #1
Идентификатор : 3
Формат : UTF-8
Идентификатор кодека : S_TEXT/UTF8
Идентификатор кодека/Информация : UTF-8 Plain Text
Продолжительность : 2 с. 544 мс.
Битрейт : 251 бит/сек
ElementCount : 1
Размер потока : 80,0 байт (0%)
Заголовок : Forced
Язык : Russian
Default : Да
Forced : Да
Текст #2
Идентификатор : 4
Формат : UTF-8
Идентификатор кодека : S_TEXT/UTF8
Идентификатор кодека/Информация : UTF-8 Plain Text
Продолжительность : 2 ч. 1 м.
Битрейт : 50 бит/сек
ElementCount : 1052
Размер потока : 44,9 Кбайт (0%)
Заголовок : Full [License]
Язык : Russian
Default : Нет
Forced : Нет
Текст #3
Идентификатор : 5
Формат : UTF-8
Идентификатор кодека : S_TEXT/UTF8
Идентификатор кодека/Информация : UTF-8 Plain Text
Продолжительность : 1 ч. 55 м.
Битрейт : 41 бит/сек
ElementCount : 1347
Размер потока : 34,9 Кбайт (0%)
Заголовок : Full
Язык : English
Default : Нет
Forced : Нет
Текст #4
Идентификатор : 6
Формат : UTF-8
Идентификатор кодека : S_TEXT/UTF8
Идентификатор кодека/Информация : UTF-8 Plain Text
Продолжительность : 1 ч. 56 м.
Битрейт : 46 бит/сек
ElementCount : 1590
Размер потока : 39,5 Кбайт (0%)
Заголовок : SDH
Язык : English
Default : Нет
Forced : Нет
Меню
00:00:00.000 : en:Chapter 01
00:03:28.625 : en:Chapter 02
00:07:51.680 : en:Chapter 03
00:10:07.982 : en:Chapter 04
00:13:06.703 : en:Chapter 05
00:15:06.739 : en:Chapter 06
00:18:04.542 : en:Chapter 07
00:22:58.711 : en:Chapter 08
00:25:35.325 : en:Chapter 09
00:31:40.899 : en:Chapter 10
00:33:29.216 : en:Chapter 11
00:36:32.816 : en:Chapter 12
00:38:30.892 : en:Chapter 13
00:42:05.481 : en:Chapter 14
00:45:58.214 : en:Chapter 15
00:48:31.450 : en:Chapter 16
00:52:57.007 : en:Chapter 17
00:55:14.353 : en:Chapter 18
01:00:39.761 : en:Chapter 19
01:02:56.564 : en:Chapter 20
01:05:16.788 : en:Chapter 21
01:10:50.496 : en:Chapter 22
01:13:37.288 : en:Chapter 23
01:16:35.216 : en:Chapter 24
01:18:52.227 : en:Chapter 25
01:22:48.297 : en:Chapter 26
01:24:55.340 : en:Chapter 27
01:28:25.217 : en:Chapter 28
01:33:18.551 : en:Chapter 29
01:36:08.763 : en:Chapter 30
01:41:54.692 : en:Chapter 31
01:45:23.442 : en:Chapter 32
01:48:16.490 : en:Chapter 33
01:51:43.655 : en:Chapter 34
01:54:43.668 : en:Chapter 35
01:56:51.504 : en:Chapter 36

Скриншоты

     

SIRUS

Post 04-Jul-2020 21:27

[Quote]

Аладдин / Aladdin --Информация о фильме
Название: Аладдин
Оригинальное название: Aladdin
Год выхода: 2019
Жанр: Мюзикл, фэнтези, мелодрама, комедия, приключения, семейный
Режиссер: Гай Ричи
В ролях: Мена Массуд, Наоми Скотт, Уилл Смит, Билли Магнуссен, Алан Тьюдик, Назим Педрад, Марван Кензари, Нуман Аджар, Фрэнк Уэлкер, Навид Негабан
О фильме:
Беспечный и ловкий Алладин из Аграбы не знает истинного происхождения и старается просто наслаждаться каждым моментом. Его жизненные планы кардинально меняются, когда парень знакомиться с милой принцессой Жасмин, пробуждающей в его сердце нежные чувства. Он не может и не желает бороться с влюбленностью, поэтому решает заполучить сердце любимой девушки став принцем. Одновременно с этим визирь королевства предлагает ловкому вору отправиться в таинственную пещеру и украсть для него волшебную лампу. Алладин соглашается не подозревая, что это приключение полностью изменит его жизнь и подарит лучшего друга.

Страна: США
Студия: The Walt Disney Studios, Lin Pictures,Marc Platt Productions
Продолжительность: 02:07:58
Перевод: Профессиональный (многоголосый, закадровый) | HDRezka Studio
Файл
Формат: MKV
Качество: WEB-DLRip-AVC
Видео: MPEG-4 AVC, 744x312, - 737 Кбит/с
Аудио: AAC-HE, 2 ch, - 76 Кбит/с
Субтитры: Русские (на песни)

MI

Общее
Уникальный идентификатор : 294539648995200093371180442399665274997 (0xDD9645E213CB60234A4E10650483C075)
Полное имя : D:MOVIESAladdin..2019..WEB-DLRip-AVC..mkv
Формат : Matroska
Версия формата : Version 4 / Version 2
Размер файла : 746 Мбайт
Продолжительность : 2 ч. 7 м.
Общий поток : 815 Кбит/сек
Дата кодирования : UTC 2019-08-13 04:44:34
Программа кодирования : mkvmerge v35.0.0 ('All The Love In The World') 64-bit
Библиотека кодирования : libebml v1.3.9 + libmatroska v1.5.2
Видео
Идентификатор : 1
Формат : AVC
Формат/Информация : Advanced Video Codec
Профиль формата : [email protected]
Параметр CABAC формата : Да
Параметр RefFrames формата : 12 кадров
Идентификатор кодека : V_MPEG4/ISO/AVC
Продолжительность : 2 ч. 7 м.
Битрейт : 737 Кбит/сек
Ширина : 744 пикселя
Высота : 312 пикселей
Соотношение сторон : 2,40:1
Режим частоты кадров : Постоянный
Частота кадров : 23,976 (24000/1001) кадра/сек
Цветовое пространство : YUV
Субдискретизация насыщенности : 4:2:0
Битовая глубина : 8 бит
Тип развёртки : Прогрессивная
Бит/(Пиксели*Кадры) : 0.132
Размер потока : 674 Мбайт (90%)
Библиотека кодирования : x264 core 152 r2851kMod ba24899
Настройки программы : cabac=1 / ref=12 / deblock=1:-3:-2 / analyse=0x3:0x133 / me=umh / subme=10 / psy=1 / fade_compensate=0.00 / psy_rd=1.00:0.11 / mixed_ref=1 / me_range=32 / chroma_me=1 / trellis=2 / 8x8dct=1 / cqm=0 / deadzone=21,11 / fast_pskip=0 / chroma_qp_offset=-3 / threads=6 / lookahead_threads=1 / sliced_threads=0 / nr=0 / decimate=0 / interlaced=0 / bluray_compat=0 / constrained_intra=0 / bframes=12 / b_pyramid=2 / b_adapt=2 / b_bias=0 / direct=3 / weightb=1 / open_gop=0 / weightp=2 / keyint=240 / keyint_min=23 / scenecut=40 / intra_refresh=0 / rc_lookahead=40 / rc=2pass / mbtree=1 / bitrate=737 / ratetol=1.0 / qcomp=0.60 / qpmin=0 / qpmax=69 / qpstep=4 / cplxblur=20.0 / qblur=0.5 / ip_ratio=1.40 / aq=3:1.00
Default : Да
Forced : Нет
Аудио
Идентификатор : 2
Формат : AAC
Формат/Информация : Advanced Audio Codec
Профиль формата : HE-AAC / LC
Идентификатор кодека : A_AAC
Продолжительность : 2 ч. 7 м.
Битрейт : 76,0 Кбит/сек
Каналы : 2 канала
Расположение каналов : Front: L R
Частота : 48,0 КГц / 24,0 КГц
Частота кадров : 23,438 кадра/сек (1024 SPF)
Метод сжатия : С потерями
Задержка видео : 31 мс.
Размер потока : 69,6 Мбайт (9%)
Язык : Russian
Default : Да
Forced : Нет
Текст
Идентификатор : 3
Формат : UTF-8
Идентификатор кодека : S_TEXT/UTF8
Идентификатор кодека/Информация : UTF-8 Plain Text
Продолжительность : 1 ч. 59 м.
Битрейт : 14 бит/сек
ElementCount : 291
Размер потока : 12,4 Кбайт (0%)
Default : Да
Forced : Да

Скриншоты

     

SIRUS

Post 04-Jul-2020 20:55

[Quote]

Аквамен / Aquaman--Информация о фильме
Название: Аквамен
Оригинальное название: Aquaman
Год выхода: 2018
Жанр: Фантастика, фэнтези, боевик, приключения
Режиссер: Джеймс Ван
В ролях: Джейсон Момоа, Эмбер Хёрд, Дольф Лундгрен, Николь Кидман, Джули Эндрюс, Патрик Уилсон, Уиллем Дефо, Грэм МакТавиш, Талия Джейд, Джимон Хонсу, Темуэра Моррисон, Майкл Бич-О фильме :
С виду Артур Карри кажется обычным человеком, но он умеет дышать под водой, быстро плавает и наделён огромной силой, а всё потому, что его мать была королевой подводного царства, которой пришлось оставить сына в мире людей, когда он был ещё совсем маленьким ребёнком. Теперь Артур вырос и ему предстоит столкнуться со сводным братом Ормом, который стал новым королём и намеревается начать войну против всего человечества.
Страна: Австралия, США
Студия: DC Comics, DC Entertainment, Panoramic Pictures
Продолжительность: 02:23:18
Перевод: Дублированный | iTunes
Файл
Формат: MKV
Качество: WEBRip-AVC
Видео: MPEG-4 AVC, 768x432, - 998 Кбит/с
Аудио: AAC-HE, 2 ch, - 76 Кбит/с
Субтитры: Русские (Forced, full), английские

MI

Общее
Уникальный идентификатор : 179394195203511325345678512323782287165 (0x86F610B383A1EAD4A4F2B15060A89F3D)
Полное имя : D:MOVIESAquaman.2018.Open.Matte.ExKinoRay.mkv
Формат : Matroska
Версия формата : Version 4 / Version 2
Размер файла : 1,08 Гбайт
Продолжительность : 2 ч. 23 м.
Общий поток : 1076 Кбит/сек
Дата кодирования : UTC 2019-03-15 04:25:52
Программа кодирования : mkvmerge v15.0.0 ('Duel with the Devil') 64-bit
Библиотека кодирования : libebml v1.3.5 + libmatroska v1.4.5
Видео
Идентификатор : 1
Формат : AVC
Формат/Информация : Advanced Video Codec
Профиль формата : [email protected]
Параметр CABAC формата : Да
Параметр RefFrames формата : 12 кадров
Идентификатор кодека : V_MPEG4/ISO/AVC
Продолжительность : 2 ч. 23 м.
Битрейт : 998 Кбит/сек
Ширина : 768 пикселей
Высота : 432 пикселя
Соотношение сторон : 16:9
Режим частоты кадров : Постоянный
Частота кадров : 23,976 (24000/1001) кадра/сек
Цветовое пространство : YUV
Субдискретизация насыщенности : 4:2:0
Битовая глубина : 8 бит
Тип развёртки : Прогрессивная
Бит/(Пиксели*Кадры) : 0.125
Размер потока : 1023 Мбайт (93%)
Библиотека кодирования : x264 core 152 r2851kMod ba24899
Настройки программы : cabac=1 / ref=12 / deblock=1:-3:-3 / analyse=0x3:0x133 / me=umh / subme=11 / psy=1 / fade_compensate=0.00 / psy_rd=1.00:0.14 / mixed_ref=1 / me_range=32 / chroma_me=1 / trellis=2 / 8x8dct=1 / cqm=0 / deadzone=21,11 / fast_pskip=0 / chroma_qp_offset=-3 / threads=6 / lookahead_threads=1 / sliced_threads=0 / nr=0 / decimate=0 / interlaced=0 / bluray_compat=0 / constrained_intra=0 / bframes=12 / b_pyramid=2 / b_adapt=2 / b_bias=0 / direct=3 / weightb=1 / open_gop=0 / weightp=2 / keyint=240 / keyint_min=23 / scenecut=40 / intra_refresh=0 / rc_lookahead=40 / rc=2pass / mbtree=1 / bitrate=998 / ratetol=1.0 / qcomp=0.60 / qpmin=0 / qpmax=69 / qpstep=4 / cplxblur=20.0 / qblur=0.5 / ip_ratio=1.40 / aq=3:1.00
Default : Да
Forced : Нет
Аудио
Идентификатор : 2
Формат : AAC
Формат/Информация : Advanced Audio Codec
Профиль формата : HE-AAC / LC
Идентификатор кодека : A_AAC
Продолжительность : 2 ч. 23 м.
Битрейт : 76,0 Кбит/сек
Каналы : 2 канала
Расположение каналов : Front: L R
Частота : 48,0 КГц / 24,0 КГц
Частота кадров : 23,438 кадра/сек (1024 SPF)
Метод сжатия : С потерями
Задержка видео : 31 мс.
Размер потока : 77,9 Мбайт (7%)
Default : Да
Forced : Нет
Текст #1
Идентификатор : 3
Формат : UTF-8
Идентификатор кодека : S_TEXT/UTF8
Идентификатор кодека/Информация : UTF-8 Plain Text
Продолжительность : 2 ч. 14 м.
Битрейт : 1 бит/сек
ElementCount : 27
Размер потока : 1,23 Кбайт (0%)
Заголовок : Forced
Язык : Russian
Default : Да
Forced : Да
Текст #2
Идентификатор : 4
Формат : UTF-8
Идентификатор кодека : S_TEXT/UTF8
Идентификатор кодека/Информация : UTF-8 Plain Text
Продолжительность : 2 ч. 22 м.
Битрейт : 55 бит/сек
ElementCount : 1119
Размер потока : 58,0 Кбайт (0%)
Заголовок : Full
Язык : Russian
Default : Нет
Forced : Нет
Текст #3
Идентификатор : 5
Формат : UTF-8
Идентификатор кодека : S_TEXT/UTF8
Идентификатор кодека/Информация : UTF-8 Plain Text
Продолжительность : 2 ч. 14 м.
Битрейт : 38 бит/сек
ElementCount : 1132
Размер потока : 37,5 Кбайт (0%)
Заголовок : Full SDH
Язык : English
Default : Нет
Forced : Нет
Меню
00:00:00.000 : en:1
00:11:07.293 : en:2
00:22:09.621 : en:3
00:30:09.017 : en:4
00:40:26.718 : en:5
00:50:22.647 : en:6
01:01:13.756 : en:7
01:08:55.092 : en:8
01:21:39.272 : en:9
01:34:48.436 : en:10
01:39:35.431 : en:11
01:49:30.818 : en:12
02:01:34.541 : en:13
02:10:17.897 : en:14

Скриншоты

     

kilmister777

Post 30-Jun-2020 22:27

[Quote]

Бюро человечества / The Humanity Bureau- Год выпуска: 2017
Страна: Канада
Жанр: фантастика, боевик
Продолжительность: 01:34:35
Перевод: Профессиональный (многоголосый закадровый) iTunes- -Режиссер: Роб В. Кинг-В ролях: Николас Кейдж, Сара Линд, Хью Диллон, Виселос Реон Шеннон, Джейкоб Дейвис, Лорни Кардинал, Джетт Клине, Дэвид Ловгрен, Лео Фафард, Курт Макс Рунте-Описание: В отдалённом будущем американское правительство утвердило секретную программу, по которой бедных, необразованных и неугодных стране людей сначала высылают в колонию, а затем уничтожают. Одно из таких дел попадает в руки агента. Проникшись симпатией к одинокой матери и её сыну, он решает помочь им бежать.-Качество: HDRip
Формат: AVI
Видео кодек: XviD
Аудио кодек: AC3
Видео: 720x304 (2.37:1), 24.000 fps, XviD build 73 ~2006 kbps avg, 0.30 bit/pixel
Аудио: 48 kHz, AC3 Dolby Digital, 2/0 (L,R) ch, ~192 kbps-

Скриншоты

       

kilmister777

Post 28-Jun-2020 07:46

[Quote]

Земля гангстеров / In the Absence of Good Men- Год выпуска: 2017
Страна: США
Жанр: драма, криминал, реальные события
Продолжительность: 01:28:05
Перевод: Профессиональный (многоголосый закадровый) iTunes- -Режиссер: Тимоти Вудворд мл.-В ролях: Шон Фэрис, Майло Гибсон, Джейсон Патрик, Джейми-Линн Сиглер, Питер Фачинелли, Марк Ролстон, Майкл Паре, Шон Кэнан, Ал Сапиенца, Дон Харви-Описание: История Аль Капоне и его правой руки Джека Макмюррея по прозвищу Пулемёт о борьбе с ирландской мафией, возглавляемой Джорджем Мораном по прозвищу Рехнувшийся. Ужасные бандитские бои завершились знаменитой резнёй в День святого Валентина в 1929 году, в результате которой семь человек погибли от вооруженного нападения, которое, как считается, было заказано самим Капоне.-Качество: BDRip
Формат: AVI
Видео кодек: XviD
Аудио кодек: AC3
Видео: 720x304 (2.37:1), 23.976 fps, XviD build 73 ~1969 kbps avg, 0.38 bit/pixel
Аудио: 48 kHz, AC3 Dolby Digital, 3/2 (L,C,R,l,r) + LFE ch, ~384 kbps avg-

Скриншоты

       

kilmister777

Post 25-Jun-2020 19:53

[Quote]

Живи легендой / Living Legends- Год выпуска: 2014
Страна: Болгария
Жанр: драма, мелодрама, комедия
Продолжительность: 01:36:35
Перевод: Профессиональный (многоголосый закадровый) iTunes- -Режиссер: Ники Илиев-В ролях: Орлин Павлов, Ники Илиев, Саня Борисова, Димо Алексиев, Любомир Коватчев, Джорджи Кадурин, Яна Маринова, Юлиан Ковалевски, Микеле Плачидо, Анна Мария Петрова-Жузелева-Описание: Спустя 13 лет после выпускного друзья собираются вновь. Они встретились, чтобы помочь приятелю, не надеясь, что появится шанс сделать то, что все это время откладывали "на потом".-Качество: WEB-DLRip
Формат: AVI
Видео кодек: XviD
Аудио кодек: AC3
Видео: 720x304 (2.37:1), 25 fps, XviD build 73 ~1962 kbps avg, 0.36 bit/pixel
Аудио: 48 kHz, AC3 Dolby Digital, 2/0 (L,R) ch, ~192 kbps-

Скриншоты

       

Theseus

Post 24-Jun-2020 22:16

[Quote]

Гундала / Gundala- Год выхода: 2019
Страна: Индонезия
Жанр: Боевик, фантастика, драма
Продолжительность: 02:00:07
Перевод: Любительский (многоголосый,закадровый) [MUZOBOZ]
Субтитры: Отсутствуют-Режиссер: Джоко Анвар-В ролях: Абимана Арьясатья, Тара Басро, Бронт Паларэ, Арио Баю, Лукман Сарди, Арсвенди Насутион, Pritt Timothy, Aqi Singgih, Донни Аламшя, Tanta Ginting-О фильме: Ещё ребенком Санчака потерял родителей — отец погиб, отстаивая права рабочих, а мать уехала на заработки и не вернулась — с тех пор мальчик выживал самостоятельно. Нелегкая жизнь на улице научила его не только эффективно махать ногами, а и думать в первую очередь о собственной безопасности, но когда волна насилия захлёстывает город, мужчине приходится встать на сторону униженных и оскорбленных. А поскольку в результате удара молнии наш герой получил свехспособности, врагам простого народа придётся несладко.- -Качество: BDRip
Формат: AVI
Видео кодек: XviD
Аудио кодек: AC3
Видео: MPEG4, XviD, 720x304 (2.35:1), 23.976 fps, 1 540 kb/s
Аудио: AC-3, 48.0 kHz, 2 ch, 192 kb/s-Рекламы нет | Сэмпл-

Трейлер

-    - - -Релиз от Theseus

kilmister777

Post 23-Jun-2020 11:46

[Quote]

Высота / Altitude- Год выпуска: 2017
Страна: США
Жанр: боевик, триллер, криминал
Продолжительность: 01:27:57
Перевод: Профессиональный (многоголосый закадровый) iTunes- -Режиссер: Алекс Меркин-В ролях: Дэнис Ричардс, Дольф Лундгрен, Джонатан Липники, Грир Грэммер, Джон Пози, Стивен Грейбилл, Хорди Виласусо, Чак Лиделл, Челси Эдмундсон, Ник Принсип-Описание: После неудачной операции по освобождению заложников, опытная агент ФБР (Дениз Ричардс) была переведена в Вашингтон для бумажной работы. Во время перелёта она знакомится с мужчиной, который предлагает ей хорошее вознаграждение за то, чтобы та помогла ему пережить этот полёт. Но кто этот загадочный пассажир и что она выберет.-Качество: HDRip
Формат: AVI
Видео кодек: XviD
Аудио кодек: AC3
Видео: 720x304 (2.37:1), 24.000 fps, XviD build 73 ~2018 kbps avg, 0.34 bit/pixel
Аудио: 48 kHz, AC3 Dolby Digital, 2/0 (L,R) ch, ~192 kbps-

Скриншоты

       

kilmister777

Post 17-Jun-2020 14:10

[Quote]

Возвращение / The Recall- Год выпуска: 2017
Страна: Канада
Жанр: фантастика, боевик, триллер
Продолжительность: 01:31:07
Перевод: Профессиональный (многоголосый закадровый) iTunes- -Режиссер: Мауро Боррелли-В ролях: АрДжей Митти, Уэсли Снайпс, Джедидайя Гудакр, Нико Пепадж, Грэхэм Шилз, Виселос Реон Шеннон, Элиша Криис, Лаура Билгери-Описание: Пока группа друзей собирается в День Труда отдохнуть на острове - по всему миру происходят странные метеорологические явления, а обитающий в окрестностях того же озера опальный астронавт готовится к возвращению неких Посетителей, с которыми у него личные счеты.-Качество: BDRip
Формат: AVI
Видео кодек: XviD
Аудио кодек: AC3
Видео: 720x304 (2.37:1), 24.000 fps, XviD build 73 ~2092 kbps avg, 0.32 bit/pixel
Аудио: 48 kHz, AC3 Dolby Digital, 2/0 (L,R) ch, ~192 kbps-

Скриншоты

       

kilmister777

Post 15-Jun-2020 12:00

[Quote]

Убийственная команда / The Kill Team- Год выпуска: 2019
Страна: США, Испания
Жанр: боевик, триллер, драма
Продолжительность: 01:27:32
Перевод: Профессиональный(дублированный) iTunes
Субтитры: Русские форсированные (отдельно)- -Режиссер: Дэн Краусс-В ролях: Александр Скарсгард, Нат Вулф, Адам Лонг, Джонатан Уайтселл, Брайан «Сене» Марк, Ози Икхайл, Роб Морроу, Анна Франколини, Оливер Ричи, Йен Кейр Аттард-Описание: Солдат Эндрю Бриггман был отправлен в Афганистан в 2009 году и стал свидетелем жестоких убийств мирных граждан другими новобранцами во главе с сержантом Диксом. Когда Бриггман начинает задумываться о том, чтобы доложить начальству о происходящем, то осознает, что вполне может стать следующей жертвой собственной команды...-Качество: BDRip
Формат: AVI
Видео кодек: XviD
Аудио кодек: AC3
Видео: 720x304 (2.37:1), 23.976 fps, XviD build 73 ~1994 kbps avg, 0.38 bit/pixel
Аудио: 48 kHz, AC3 Dolby Digital, 3/2 (L,C,R,l,r) + LFE ch, ~384 kbps avg-

Скриншоты

       

kilmister777

Post 15-Jun-2020 11:45

[Quote]

7 часов на соблазнение / 7 ore per farti innamorare- Год выпуска: 2020
Страна: Италия
Жанр: комедия
Продолжительность: 01:34:32
Перевод: Профессиональный(дублированный) iTunes- -Режиссер: Джампаоло Морелли-В ролях: Джампаоло Морелли, Серена Росси, Диана Дель Буфало, Массимилиано Галло, Фабио Бальсамо, Синция Мирабелла, Антония Труппо-Описание: Искусство соблазнения - это наука, и, научившись ее приемам, можно добиться расположения любой красотки всего за 7 часов. В этом твердо убеждена Валерия, чей курс по соблазнению пользуется огромной популярностью у одиноких мужчин. Однажды к ней записывается Джулио, который хочет вернуть расположение своей бывшей невесты. Валерия помогает ему разработать план действий. Однако в ходе реализации этого плана Джулио и Валерию ждут неожиданные открытия. Так ли предсказуема любовь или это загадка, которая не подчиняется никаким законам?-Качество: WEB-DLRip
Формат: AVI
Видео кодек: XviD
Аудио кодек: AC3
Видео: 720x304 (2.37:1), 24.000 fps, XviD build 73 ~1819 kbps avg, 0.30 bit/pixel
Аудио: 48 kHz, AC3 Dolby Digital, 3/2 (L,C,R,l,r) + LFE ch, ~384 kbps avg-

Скриншоты

       
 

The time now is: Today 13:15

All times are GMT + 3 Hours