Сегодня идет свободное скачивание без начисления Download

Результатов поиска: 79

Автор Сообщение

UndegraundMen

Пост 15-Дек-2013 11:00

[Цитировать]

Animal Planet: Русалки. Новые доказательства / Mermaids. The New Evidence (2013) HDTVRip - Страна: США
Режиссер: Кристина Баветта
Год выпуска: 2013
Жанр: Документальный, научно-познавательный, исследование, псевдоистория, альтернативная история
Описание:
Это псевдодокументальный фильм создан с целью разбудить фантазию людей и привлечь их к изучению неисследованных зон нашей планеты на примере океана. Кроме того, фильм привлекает внимание учёных к проблеме вредного воздействия на природу (в частности, при проведении испытаний мощных сонаров, которое привело к массовой гибели китов). По изложенной в фильме версии учёные столкнулись с рядом необъяснимых фактов, говорящих о том, что в глубинах океана существует неизвестный науке вид живых существ, походящий на человека. Воссозданный облик этого существа очень напоминал мифологическое существо, которое упоминается в мифологиях древних народов мира. В русской мифологии это русалка. Сами создатели фильма в конце сообщают: "Споры о том, что именно нам удалось найти, продолжаются".
Продолжительность: 00:43:55
Качество видео: HDTVRip
Перевод: Одноголосый закадровый, профессиональный
Видеокодек: Xvid
Битрейт видео: ~2000 Кбит/сек
Размер кадра: 720x400 (16:9)
Аудиокодек: AC3 (6ch), Front: L C R, Side: L R, LFE
Битрейт аудио: 256 Кбит/сек

MediaInfo

Код:
Общее
Полное имя                               : Русалки. Новые доказательства-Mermaids. The New Evidence 2013.avi
Формат                                   : AVI
Формат/Информация                        : Audio Video Interleave
Размер файла                             : 712 Мбайт
Продолжительность                        : 43 м.
Общий поток                              : 2266 Кбит/сек
Программа кодирования                    : VirtualDubMod 1.5.10.3 | [url=http://www.virtualdub-fr.org]www.virtualdub-fr.org[/url] || (build 2550/release)
Библиотека кодирования                   : VirtualDubMod build 2550/release
Видео
Идентификатор                            : 0
Формат                                   : MPEG-4 Visual
Профиль формата                          : Advanced [email protected]
Параметр BVOP формата                    : 2
Параметр QPel формата                    : Нет
Параметр GMC формата                     : Без точки перехода
Параметр матрицы формата                 : Default (H.263)
Режим смешивания                         : Сжатый битовый поток
Идентификатор кодека                     : XVID
Идентификатор кодека/Подсказка           : XviD
Продолжительность                        : 43 м.
Битрейт                                  : 2000 Кбит/сек
Ширина                                   : 720 пикселей
Высота                                   : 400 пикселей
Соотношение сторон                       : 16:9
Частота кадров                           : 25,000 кадров/сек
Цветовое пространство                    : YUV
Субдискретизация насыщенности            : 4:2:0
Битовая глубина                          : 8 бит
Тип развёртки                            : Прогрессивная
Метод сжатия                             : С потерями
Бит/(Пиксели*Кадры)                      : 0.278
Размер потока                            : 628 Мбайт (88%)
Библиотека кодирования                   : XviD 1.2.1 (UTC 2008-12-04)
Аудио
Идентификатор                            : 1
Формат                                   : AC-3
Формат/Информация                        : Audio Coding 3
Расширение режима                        : CM (complete main)
Параметр Endianness формата              : Big
Идентификатор кодека                     : 2000
Продолжительность                        : 43 м.
Вид битрейта                             : Постоянный
Битрейт                                  : 256 Кбит/сек
Каналы                                   : 6 каналов
Расположение каналов                     : Front: L C R, Side: L R, LFE
Частота                                  : 48,0 КГц
Битовая глубина                          : 16 бит
Метод сжатия                             : С потерями
Размер потока                            : 80,4 Мбайт (11%)
Выравнивание                             : Разделение по промежуткам
Продолжительность промежутка             : 40  мс. (1,00 видеокадр)
Время предзагрузки промежутка            : 500  мс.
Скриншоты:              

Дополнительная информация:

Продолжение фильма: [url=/forum/viewtopic.php?t=723738]Русалки: Обнаружено тело[/url]
Время раздачи: 24/7. До первых 5 скачавших.

UndegraundMen

Пост 11-Дек-2013 23:03

[Цитировать]

Animal Planet. Большие и страшные / Biggest and Baddest (2012) HDTVRip [H.264/1080p] [5 серий из 5]- Страна: Канада
Телекомпания: The Canadian or Video Production Tax Credit
Режиссер: Питер фон Путкаймер
Год выпуска: 2012
Жанр: Документальный, фауна, путешествие
Описание:
Отважный биолог Найл МакКенн бесстрашно идет навстречу опасности, чтобы рассказать вам о самых свирепых животных мира. Найл МакКенн хочет выяснить все, что мы должны знать о самых больших и опасных животных. От азиатских джунглей до австралийских болот к самым опасным их обитателям Найл МакКенн подберется максимально близко.
Продолжительность: 5x~00:43:00
Качество видео: HDTVRip
Перевод: Одноголосый закадровый, профессиональный
Видеокодек: MPEG-4 AVC/H.264
Битрейт видео: ~ 8500 Кбит/сек
Размер кадра: 1-3 серия: 1920x1064, 4-5 серия: 1920x1072 (16:9)
Аудиокодек: AC3, 2.0 ch
Битрейт аудио: 384 Кбит/сек
Список серий:

1. Анаконда

MediaInfo

Код:
Общее
Уникальный идентификатор                 : 212397932951780550991961628680915856674 (0x9FCA5A9A7C92BCD7BF57D39D67AD2D22)
Полное имя                               : Bolshie.i.strashnie.(5.serii.iz.6).2012.HDTVRip.MediaClub\1.Bolshie.i.strashni. Анаконда 2012.mkv
Формат                                   : Matroska
Версия формата                           : Version 2
Размер файла                             : 2,62 Гбайт
Продолжительность                        : 42 м.
Общий поток                              : 8885 Кбит/сек
Название фильма                          : Release for MediaClub by AlexAndr92
Дата кодирования                         : UTC 2013-08-18 18:18:13
Программа кодирования                    : mkvmerge v4.0.0 ('The Stars were mine') сборка от Jun  6 2010 16:18:42
Библиотека кодирования                   : libebml v1.0.0 + libmatroska v1.0.0
Видео
Идентификатор                            : 1
Формат                                   : AVC
Формат/Информация                        : Advanced Video Codec
Профиль формата                          : [url=mailto:[email protected]][email protected][/url]
Параметр CABAC формата                   : Да
Параметр ReFrames формата                : 4 кадра
Идентификатор кодека                     : V_MPEG4/ISO/AVC
Продолжительность                        : 42 м.
Битрейт                                  : 8500 Кбит/сек
Ширина                                   : 1920 пикселей
Высота                                   : 1064 пикселя
Соотношение сторон                       : 16:9
Режим частоты кадров                     : Постоянный
Частота кадров                           : 25,000 кадров/сек
Цветовое пространство                    : YUV
Субдискретизация насыщенности            : 4:2:0
Битовая глубина                          : 8 бит
Тип развёртки                            : Прогрессивная
Бит/(Пиксели*Кадры)                      : 0.166
Размер потока                            : 2,46 Гбайт (94%)
Библиотека кодирования                   : x264 core 130 r2273 b3065e6
Настройки программы                      : cabac=1 / ref=4 / deblock=1:-1:-1 / analyse=0x3:0x133 / me=umh / subme=11 / psy=1 / psy_rd=1.00:0.15 / mixed_ref=1 / me_range=32 / chroma_me=1 / trellis=2 / 8x8dct=1 / cqm=0 / deadzone=21,11 / fast_pskip=0 / chroma_qp_offset=-3 / threads=6 / lookahead_threads=1 / sliced_threads=0 / nr=0 / decimate=0 / interlaced=0 / bluray_compat=0 / constrained_intra=0 / bframes=4 / b_pyramid=2 / b_adapt=2 / b_bias=0 / direct=3 / weightb=1 / open_gop=0 / weightp=2 / keyint=250 / keyint_min=25 / scenecut=40 / intra_refresh=0 / rc=2pass / mbtree=0 / bitrate=8500 / ratetol=1.0 / qcomp=0.60 / qpmin=0 / qpmax=69 / qpstep=4 / cplxblur=20.0 / qblur=0.5 / ip_ratio=1.40 / pb_ratio=1.30 / aq=1:1.00
Default                                  : Нет
Forced                                   : Нет
Аудио
Идентификатор                            : 2
Формат                                   : AC-3
Формат/Информация                        : Audio Coding 3
Расширение режима                        : CM (complete main)
Параметр Endianness формата              : Big
Идентификатор кодека                     : A_AC3
Продолжительность                        : 42 м.
Вид битрейта                             : Постоянный
Битрейт                                  : 384 Кбит/сек
Каналы                                   : 2 канала
Расположение каналов                     : Front: L R
Частота                                  : 48,0 КГц
Битовая глубина                          : 16 бит
Метод сжатия                             : С потерями
Размер потока                            : 116 Мбайт (4%)
Default                                  : Нет
Forced                                   : Нет
         

2. Казуар

MediaInfo

Код:
Общее
Уникальный идентификатор                 : 212721004078738613469921816132421649033 (0xA008933D64AA1AD18E1D747F028B8289)
Полное имя                               : Bolshie.i.strashnie.(5.serii.iz.6).2012.HDTVRip.MediaClub\2.Bolshie.i.strashnie. Казуар 2012.mkv
Формат                                   : Matroska
Версия формата                           : Version 2
Размер файла                             : 2,73 Гбайт
Продолжительность                        : 43 м.
Общий поток                              : 8885 Кбит/сек
Название фильма                          : Release for MediaClub by AlexAndr92
Дата кодирования                         : UTC 2013-08-18 18:23:19
Программа кодирования                    : mkvmerge v4.0.0 ('The Stars were mine') сборка от Jun  6 2010 16:18:42
Библиотека кодирования                   : libebml v1.0.0 + libmatroska v1.0.0
Видео
Идентификатор                            : 1
Формат                                   : AVC
Формат/Информация                        : Advanced Video Codec
Профиль формата                          : [url=mailto:[email protected]][email protected][/url]
Параметр CABAC формата                   : Да
Параметр ReFrames формата                : 4 кадра
Идентификатор кодека                     : V_MPEG4/ISO/AVC
Продолжительность                        : 43 м.
Битрейт                                  : 8500 Кбит/сек
Ширина                                   : 1920 пикселей
Высота                                   : 1064 пикселя
Соотношение сторон                       : 16:9
Режим частоты кадров                     : Постоянный
Частота кадров                           : 25,000 кадров/сек
Цветовое пространство                    : YUV
Субдискретизация насыщенности            : 4:2:0
Битовая глубина                          : 8 бит
Тип развёртки                            : Прогрессивная
Бит/(Пиксели*Кадры)                      : 0.166
Размер потока                            : 2,55 Гбайт (94%)
Библиотека кодирования                   : x264 core 130 r2273 b3065e6
Настройки программы                      : cabac=1 / ref=4 / deblock=1:-2:-2 / analyse=0x3:0x133 / me=umh / subme=11 / psy=1 / psy_rd=1.00:0.15 / mixed_ref=1 / me_range=32 / chroma_me=1 / trellis=2 / 8x8dct=1 / cqm=0 / deadzone=21,11 / fast_pskip=0 / chroma_qp_offset=-3 / threads=6 / lookahead_threads=1 / sliced_threads=0 / nr=0 / decimate=0 / interlaced=0 / bluray_compat=0 / constrained_intra=0 / bframes=4 / b_pyramid=2 / b_adapt=2 / b_bias=0 / direct=3 / weightb=1 / open_gop=0 / weightp=2 / keyint=250 / keyint_min=25 / scenecut=40 / intra_refresh=0 / rc=2pass / mbtree=0 / bitrate=8500 / ratetol=1.0 / qcomp=0.60 / qpmin=0 / qpmax=69 / qpstep=4 / cplxblur=20.0 / qblur=0.5 / ip_ratio=1.40 / pb_ratio=1.30 / aq=1:1.00
Default                                  : Нет
Forced                                   : Нет
Аудио
Идентификатор                            : 2
Формат                                   : AC-3
Формат/Информация                        : Audio Coding 3
Расширение режима                        : CM (complete main)
Параметр Endianness формата              : Big
Идентификатор кодека                     : A_AC3
Продолжительность                        : 43 м.
Вид битрейта                             : Постоянный
Битрейт                                  : 384 Кбит/сек
Каналы                                   : 2 канала
Расположение каналов                     : Front: L R
Частота                                  : 48,0 КГц
Битовая глубина                          : 16 бит
Метод сжатия                             : С потерями
Размер потока                            : 121 Мбайт (4%)
Default                                  : Нет
Forced                                   : Нет
         

3. Слоны

MediaInfo

Код:
Общее
Уникальный идентификатор                 : 187051216467627800351987471366955776791 (0x8CB8C0FF202157668952A914B660BB17)
Полное имя                               : Bolshie.i.strashnie.(5.serii.iz.6).2012.HDTVRip.MediaClub\3.Bolshie.i.strashnie. Слоны 2012.mkv
Формат                                   : Matroska
Версия формата                           : Version 2
Размер файла                             : 2,72 Гбайт
Продолжительность                        : 43 м.
Общий поток                              : 8884 Кбит/сек
Название фильма                          : Release for MediaClub by AlexAndr92
Дата кодирования                         : UTC 2013-08-18 18:27:35
Программа кодирования                    : mkvmerge v4.0.0 ('The Stars were mine') сборка от Jun  6 2010 16:18:42
Библиотека кодирования                   : libebml v1.0.0 + libmatroska v1.0.0
Видео
Идентификатор                            : 1
Формат                                   : AVC
Формат/Информация                        : Advanced Video Codec
Профиль формата                          : [url=mailto:[email protected]][email protected][/url]
Параметр CABAC формата                   : Да
Параметр ReFrames формата                : 4 кадра
Идентификатор кодека                     : V_MPEG4/ISO/AVC
Продолжительность                        : 43 м.
Битрейт                                  : 8500 Кбит/сек
Ширина                                   : 1920 пикселей
Высота                                   : 1064 пикселя
Соотношение сторон                       : 16:9
Режим частоты кадров                     : Постоянный
Частота кадров                           : 25,000 кадров/сек
Цветовое пространство                    : YUV
Субдискретизация насыщенности            : 4:2:0
Битовая глубина                          : 8 бит
Тип развёртки                            : Прогрессивная
Бит/(Пиксели*Кадры)                      : 0.166
Размер потока                            : 2,55 Гбайт (94%)
Библиотека кодирования                   : x264 core 130 r2273 b3065e6
Настройки программы                      : cabac=1 / ref=4 / deblock=1:-2:-2 / analyse=0x3:0x133 / me=umh / subme=11 / psy=1 / psy_rd=1.00:0.15 / mixed_ref=1 / me_range=32 / chroma_me=1 / trellis=2 / 8x8dct=1 / cqm=0 / deadzone=21,11 / fast_pskip=0 / chroma_qp_offset=-3 / threads=6 / lookahead_threads=1 / sliced_threads=0 / nr=0 / decimate=0 / interlaced=0 / bluray_compat=0 / constrained_intra=0 / bframes=4 / b_pyramid=2 / b_adapt=2 / b_bias=0 / direct=3 / weightb=1 / open_gop=0 / weightp=2 / keyint=250 / keyint_min=25 / scenecut=40 / intra_refresh=0 / rc=2pass / mbtree=0 / bitrate=8500 / ratetol=1.0 / qcomp=0.60 / qpmin=0 / qpmax=69 / qpstep=4 / cplxblur=20.0 / qblur=0.5 / ip_ratio=1.40 / pb_ratio=1.30 / aq=1:1.00
Default                                  : Нет
Forced                                   : Нет
Аудио
Идентификатор                            : 2
Формат                                   : AC-3
Формат/Информация                        : Audio Coding 3
Расширение режима                        : CM (complete main)
Параметр Endianness формата              : Big
Идентификатор кодека                     : A_AC3
Продолжительность                        : 43 м.
Вид битрейта                             : Постоянный
Битрейт                                  : 384 Кбит/сек
Каналы                                   : 2 канала
Расположение каналов                     : Front: L R
Частота                                  : 48,0 КГц
Битовая глубина                          : 16 бит
Метод сжатия                             : С потерями
Размер потока                            : 121 Мбайт (4%)
Default                                  : Нет
Forced                                   : Нет
         

4. Тигр

MediaInfo

Код:
Общее
Уникальный идентификатор                 : 175845870210656476406205061778848906845 (0x844AAEC5A8FB069BBB7B7C59BF647E5D)
Полное имя                               : Bolshie.i.strashnie.(5.serii.iz.6).2012.HDTVRip.MediaClub\4.Bolshie.i.strashnie. Тигр 2012.mkv
Формат                                   : Matroska
Версия формата                           : Version 2
Размер файла                             : 2,73 Гбайт
Продолжительность                        : 43 м.
Общий поток                              : 8885 Кбит/сек
Название фильма                          : Release for MediaClub by AlexAndr92
Дата кодирования                         : UTC 2013-08-18 18:30:47
Программа кодирования                    : mkvmerge v4.0.0 ('The Stars were mine') сборка от Jun  6 2010 16:18:42
Библиотека кодирования                   : libebml v1.0.0 + libmatroska v1.0.0
Видео
Идентификатор                            : 1
Формат                                   : AVC
Формат/Информация                        : Advanced Video Codec
Профиль формата                          : [url=mailto:[email protected]][email protected][/url]
Параметр CABAC формата                   : Да
Параметр ReFrames формата                : 4 кадра
Идентификатор кодека                     : V_MPEG4/ISO/AVC
Продолжительность                        : 43 м.
Битрейт                                  : 8500 Кбит/сек
Ширина                                   : 1920 пикселей
Высота                                   : 1072 пикселя
Соотношение сторон                       : 16:9
Режим частоты кадров                     : Постоянный
Частота кадров                           : 25,000 кадров/сек
Цветовое пространство                    : YUV
Субдискретизация насыщенности            : 4:2:0
Битовая глубина                          : 8 бит
Тип развёртки                            : Прогрессивная
Бит/(Пиксели*Кадры)                      : 0.165
Размер потока                            : 2,56 Гбайт (94%)
Библиотека кодирования                   : x264 core 130 r2273 b3065e6
Настройки программы                      : cabac=1 / ref=4 / deblock=1:-2:-2 / analyse=0x3:0x133 / me=umh / subme=11 / psy=1 / psy_rd=1.00:0.15 / mixed_ref=1 / me_range=32 / chroma_me=1 / trellis=2 / 8x8dct=1 / cqm=0 / deadzone=21,11 / fast_pskip=0 / chroma_qp_offset=-3 / threads=6 / lookahead_threads=1 / sliced_threads=0 / nr=0 / decimate=0 / interlaced=0 / bluray_compat=0 / constrained_intra=0 / bframes=4 / b_pyramid=2 / b_adapt=2 / b_bias=0 / direct=3 / weightb=1 / open_gop=0 / weightp=2 / keyint=250 / keyint_min=25 / scenecut=40 / intra_refresh=0 / rc=2pass / mbtree=0 / bitrate=8500 / ratetol=1.0 / qcomp=0.60 / qpmin=0 / qpmax=69 / qpstep=4 / cplxblur=20.0 / qblur=0.5 / ip_ratio=1.40 / pb_ratio=1.30 / aq=1:1.00
Default                                  : Нет
Forced                                   : Нет
Аудио
Идентификатор                            : 2
Формат                                   : AC-3
Формат/Информация                        : Audio Coding 3
Расширение режима                        : CM (complete main)
Параметр Endianness формата              : Big
Идентификатор кодека                     : A_AC3
Продолжительность                        : 43 м.
Вид битрейта                             : Постоянный
Битрейт                                  : 384 Кбит/сек
Каналы                                   : 2 канала
Расположение каналов                     : Front: L R
Частота                                  : 48,0 КГц
Битовая глубина                          : 16 бит
Метод сжатия                             : С потерями
Размер потока                            : 121 Мбайт (4%)
Default                                  : Нет
Forced                                   : Нет
         

5. Вепри

MediaInfo

Код:
Общее
Уникальный идентификатор                 : 218429691249666825159238587916388435613 (0xA454073F76341D0EBAA92ED0CEC4869D)
Полное имя                               : Bolshie.i.strashnie.(5.serii.iz.6).2012.HDTVRip.MediaClub\5.Bolshie.i.strashnie. Вепри 2012.mkv
Формат                                   : Matroska
Версия формата                           : Version 2
Размер файла                             : 2,72 Гбайт
Продолжительность                        : 43 м.
Общий поток                              : 8885 Кбит/сек
Название фильма                          : Release for MediaClub by AlexAndr92
Дата кодирования                         : UTC 2013-08-18 18:33:36
Программа кодирования                    : mkvmerge v4.0.0 ('The Stars were mine') сборка от Jun  6 2010 16:18:42
Библиотека кодирования                   : libebml v1.0.0 + libmatroska v1.0.0
Видео
Идентификатор                            : 1
Формат                                   : AVC
Формат/Информация                        : Advanced Video Codec
Профиль формата                          : [url=mailto:[email protected]][email protected][/url]
Параметр CABAC формата                   : Да
Параметр ReFrames формата                : 4 кадра
Идентификатор кодека                     : V_MPEG4/ISO/AVC
Продолжительность                        : 43 м.
Битрейт                                  : 8500 Кбит/сек
Ширина                                   : 1920 пикселей
Высота                                   : 1072 пикселя
Соотношение сторон                       : 16:9
Режим частоты кадров                     : Постоянный
Частота кадров                           : 25,000 кадров/сек
Цветовое пространство                    : YUV
Субдискретизация насыщенности            : 4:2:0
Битовая глубина                          : 8 бит
Тип развёртки                            : Прогрессивная
Бит/(Пиксели*Кадры)                      : 0.165
Размер потока                            : 2,55 Гбайт (94%)
Библиотека кодирования                   : x264 core 130 r2273 b3065e6
Настройки программы                      : cabac=1 / ref=4 / deblock=1:-1:-1 / analyse=0x3:0x133 / me=umh / subme=11 / psy=1 / psy_rd=1.00:0.15 / mixed_ref=1 / me_range=32 / chroma_me=1 / trellis=2 / 8x8dct=1 / cqm=0 / deadzone=21,11 / fast_pskip=0 / chroma_qp_offset=-3 / threads=6 / lookahead_threads=1 / sliced_threads=0 / nr=0 / decimate=0 / interlaced=0 / bluray_compat=0 / constrained_intra=0 / bframes=4 / b_pyramid=2 / b_adapt=2 / b_bias=0 / direct=3 / weightb=1 / open_gop=0 / weightp=2 / keyint=250 / keyint_min=25 / scenecut=40 / intra_refresh=0 / rc=2pass / mbtree=0 / bitrate=8500 / ratetol=1.0 / qcomp=0.60 / qpmin=0 / qpmax=69 / qpstep=4 / cplxblur=20.0 / qblur=0.5 / ip_ratio=1.40 / pb_ratio=1.30 / aq=1:1.00
Default                                  : Нет
Forced                                   : Нет
Аудио
Идентификатор                            : 2
Формат                                   : AC-3
Формат/Информация                        : Audio Coding 3
Расширение режима                        : CM (complete main)
Параметр Endianness формата              : Big
Идентификатор кодека                     : A_AC3
Продолжительность                        : 43 м.
Вид битрейта                             : Постоянный
Битрейт                                  : 384 Кбит/сек
Каналы                                   : 2 канала
Расположение каналов                     : Front: L R
Частота                                  : 48,0 КГц
Битовая глубина                          : 16 бит
Метод сжатия                             : С потерями
Размер потока                            : 121 Мбайт (4%)
Default                                  : Нет
Forced                                   : Нет
         
Скриншоты:                    Время раздачи: 24/7. До первых 5 скачавших.

UndegraundMen

Пост 20-Ноя-2013 21:45

[Цитировать]

Планета Мутантов: Австралия / Mutant Planet: Australia (2010) HDTVRip [H.264/1080i]- Язык: русский, английский
Режиссер / Телекомпания: Animal Planet
Год выпуска: 2010
Жанр: Документальный, Телепередача
Описание:
Приготовьтесь отправиться в удивительные миры, в которых природа решила нарушить все мыслимые и немыслимые правила и законы. "Планета мутантов" приглашает зрителей проникнуть вглубь животного царства и увидеть, как фантастические эволюционные процессы и силы природы повлияли на происхождение и развитие некоторых необыкновенных животных. Каждая из увлекательных серий - это рассказ о том, как в результате мощных тектонических процессов, происходивших на планете, на свет появились особи, вынужденные активно приспосабливаться к условиям окружающей среды. Мы посетим Новую Зеландию, Австралию, Бразилию, Африку, Мадагаскар и Японию; и всюду сможем проследить за оригинальным образом жизни и нестандартными формами поведения животных, мутировавших с течением времени.

Продолжительность: 00:44:14
Качество видео: HDTVRip [1080i]
Перевод: Одноголосый закадровый, профессиональный
Видеокодек: MPEG-4 AVC/H.264
Битрейт видео: ~6 875 Kbps
Размер кадра: 1920 x 1080
Аудио :
1. АС3, 5.1 ch, 384 kbps [русский]
2. АС3, 5.1 ch, 384 kbps [английский]

MediaInfo

Format : MPEG-TS
File size : 2.49 GiB
Duration : 44mn 14s
Overall bit rate mode : Variable
Overall bit rate : 8 048 Kbps
Video
ID : 324 (0x144)
Menu ID : 14104 (0x3718)
Format : AVC
Format/Info : Advanced Video Codec
Format profile : [url=mailto:[email protected]][email protected][/url]
Format settings, CABAC : Yes
Format settings, ReFrames : 3 frames
Codec ID : 27
Duration : 44mn 14s
Bit rate : 6 875 Kbps
Width : 1 920 pixels
Height : 1 080 pixels
Display aspect ratio : 16:9
Frame rate : 25.000 fps
Standard : Component
Color space : YUV
Chroma subsampling : 4:2:0
Bit depth : 8 bits
Scan type : Interlaced
Scan order : Top Field First
Bits/(Pixel*Frame) : 0.133
Stream size : 2.12 GiB (85%)
Color primaries : BT.709
Transfer characteristics : BT.709
Matrix coefficients : BT.709
Audio #1
ID : 404 (0x194)
Menu ID : 14104 (0x3718)
Format : AC-3
Format/Info : Audio Coding 3
Mode extension : CM (complete main)
Format settings, Endianness : Big
Codec ID : 6
Duration : 44mn 14s
Bit rate mode : Constant
Bit rate : 384 Kbps
Channel(s) : 6 channels
Channel positions : Front: L C R, Side: L R, LFE
Sampling rate : 48.0 KHz
Bit depth : 16 bits
Compression mode : Lossy
Delay relative to video : 124ms
Stream size : 122 MiB (5%)
Language : Russian
Language, more info : Clean effects
Audio #2
ID : 414 (0x19E)
Menu ID : 14104 (0x3718)
Format : AC-3
Format/Info : Audio Coding 3
Mode extension : CM (complete main)
Format settings, Endianness : Big
Codec ID : 6
Duration : 44mn 14s
Bit rate mode : Constant
Bit rate : 384 Kbps
Channel(s) : 6 channels
Channel positions : Front: L C R, Side: L R, LFE
Sampling rate : 48.0 KHz
Bit depth : 16 bits
Compression mode : Lossy
Delay relative to video : 70ms
Stream size : 122 MiB (5%)
Language : English
Language, more info : Clean effects
Скриншоты:
         

UndegraundMen

Пост 20-Ноя-2013 11:00

[Цитировать]

Animal Planet: Русалки: Обнаружено тело / Mermaids: The body found (2011) HDTVRip- Режиссер / Телекомпания: Сид Беннетт / США / Darlow Smithson Productions
Год выпуска: 2011
Жанр: Псевдодокументальный
Описание:
Псевдодокументальный фильм, в котором группа ученых рассказывает о том, как в ходе своей работы по исследованию воздействия сонаров на млекопитающих океана с целью запретить сонары, они столкнулись с рядом необъяснимых фактов, говорящих о том, что в глубинах океана существует неизвестный науке вид живых существ, походящий на человека. В какой-то момент времени в брюхе белой акулы ученым даже удалось найти фрагменты тела этого существа. Были исследованы его внутренности и скелет. Восозданный специалистами облик очень напоминал одно мифологическое существо, которое так или иначе упоминается в мифологиях всех древних народов мира. В русской мифологии это русалка. Интересно, что транснациональные спецслужбы с самого начала следили за деятельностью этой группы ученых, и в нужный момент изъяли как фрагменты самого тела, так и все документы и видеоматериалы. Некие надправительственные силы сделали все, чтобы данное существо осталось вычеркнутым из естествознания современного общества.

Продолжительность: 01:22:57
Качество видео: HDTVRip
Перевод: Одноголосый закадровый, профессиональный
Видеокодек: Xvid
Битрейт видео: ~1979 kbps
Размер кадра: 720x400
Аудиокодек: AC3 5.1
Битрейт аудио: 384 kbps
&

MI

Общее
Полное имя : E:\Фильмы М\Mermaids.The.body.found.2011.HDTVRip.avi
Формат : AVI
Формат/Информация : Audio Video Interleave
Размер файла : 1,38 Гбайт
Продолжительность : 1 ч. 22 м.
Общий поток : 2373 Кбит/сек
Название фильма : Mermaids.The.body.found.2011.HDTVRip
Режиссёр : rip by maygli
Программа кодирования : VirtualDubModRus 1.5.10.2 (build 2542/release)
Правообладатель : ... (RG Rulya74)
Видео
Идентификатор : 0
Формат : MPEG-4 Visual
Профиль формата : Advanced [email protected]
Параметр BVOP формата : 1
Параметр QPel формата : Нет
Параметр GMC формата : Без точки перехода
Параметр матрицы формата : Выборочная
Идентификатор кодека : XVID
Идентификатор кодека/Подсказка : XviD
Продолжительность : 1 ч. 22 м.
Битрейт : 1979 Кбит/сек
Ширина : 720 пикселей
Высота : 400 пикселей
Соотношение сторон : 16:9
Частота кадров : 25,000 кадров/сек
Цветовое пространство : YUV
Субдискретизация насыщенности : 4:2:0
Битовая глубина : 8 бит
Тип развёртки : Прогрессивная
Метод сжатия : С потерями
Бит/(Пиксели*Кадры) : 0.275
Размер потока : 1,15 Гбайт (83%)
Библиотека кодирования : XviD 65
Аудио
Идентификатор : 1
Формат : AC-3
Формат/Информация : Audio Coding 3
Расширение режима : CM (complete main)
Параметр Endianness формата : Big
Идентификатор кодека : 2000
Продолжительность : 1 ч. 22 м.
Вид битрейта : Постоянный
Битрейт : 384 Кбит/сек
Каналы : 6 каналов
Расположение каналов : Front: L C R, Side: L R, LFE
Частота : 48,0 КГц
Битовая глубина : 16 бит
Метод сжатия : С потерями
Размер потока : 228 Мбайт (16%)
Выравнивание : Разделение по промежуткам
Продолжительность промежутка : 40 мс. (1,00 видеокадр)
Время предзагрузки промежутка : 500 мс.
Заголовок : Профессиональный (одноголосый закадровый)
Скриншоты:
           
Время раздачи: с 10:00 до 22:30

UndegraundMen

Пост 19-Ноя-2013 23:37

[Цитировать]

Планета Мутантов: Бразилия / Mutant Planet: Brazil's Cerrado (2010) HDTVRip [H.264/1080i]- Язык: русский, английский
Режиссер / Телекомпания: Animal Planet
Год выпуска: 2010
Жанр: Документальный, Телепередача
Описание:
Приготовьтесь отправиться в удивительные миры, в которых природа решила нарушить все мыслимые и немыслимые правила и законы. "Планета мутантов" приглашает зрителей проникнуть вглубь животного царства и увидеть, как фантастические эволюционные процессы и силы природы повлияли на происхождение и развитие некоторых необыкновенных животных. Каждая из увлекательных серий - это рассказ о том, как в результате мощных тектонических процессов, происходивших на планете, на свет появились особи, вынужденные активно приспосабливаться к условиям окружающей среды. Мы посетим Новую Зеландию, Австралию, Бразилию, Африку, Мадагаскар и Японию; и всюду сможем проследить за оригинальным образом жизни и нестандартными формами поведения животных, мутировавших с течением времени.

Продолжительность: 00:44:21
Качество видео: HDTVRip [1080i]
Перевод: Одноголосый закадровый, профессиональный
Видеокодек: MPEG AVC/H.264
Битрейт видео: ~7977 Kbps
Размер кадра: 1920 x 1080
Аудио :
1. АС3, 5.1 ch, 384 kbps [русский]
2. АС3, 5.1 ch, 384 kbps [английский]

MediaInfo

Format : AVC
Format/Info : Advanced Video Codec
Format profile : [url=mailto:[email protected]][email protected][/url]
Format settings, CABAC : Yes
Format settings, ReFrames : 3 frames
Codec ID : 27
Duration : 44mn 21s
Bit rate : 7 977 Kbps
Width : 1 920 pixels
Height : 1 080 pixels
Display aspect ratio : 16:9
Frame rate : 25.000 fps
Standard : Component
Color space : YUV
Chroma subsampling : 4:2:0
Bit depth : 8 bits
Scan type : Interlaced
Scan order : Top Field First
Bits/(Pixel*Frame) : 0.154
Stream size : 2.47 GiB (87%)
Color primaries : BT.709
Transfer characteristics : BT.709
Matrix coefficients : BT.709
Audio #1
ID : 404 (0x194)
Menu ID : 14104 (0x3718)
Format : AC-3
Format/Info : Audio Coding 3
Mode extension : CM (complete main)
Format settings, Endianness : Big
Codec ID : 6
Duration : 44mn 21s
Bit rate mode : Constant
Bit rate : 384 Kbps
Channel(s) : 6 channels
Channel positions : Front: L C R, Side: L R, LFE
Sampling rate : 48.0 KHz
Bit depth : 16 bits
Compression mode : Lossy
Delay relative to video : 89ms
Stream size : 122 MiB (4%)
Language : Russian
Language, more info : Clean effects
Audio #2
ID : 414 (0x19E)
Menu ID : 14104 (0x3718)
Format : AC-3
Format/Info : Audio Coding 3
Mode extension : CM (complete main)
Format settings, Endianness : Big
Codec ID : 6
Duration : 44mn 21s
Bit rate mode : Constant
Bit rate : 384 Kbps
Channel(s) : 6 channels
Channel positions : Front: L C R, Side: L R, LFE
Скриншоты:
         

UndegraundMen

Пост 03-Авг-2013 20:39

[Цитировать]

Animal Planet: Львиный рык. Серия №5 / Roaring with Pride (2013) HDTVRip - Режиссер / Телекомпания: Animal Planet
Русское название: Львиный рык
Оригинальное название: Roaring with Pride
Год выпуска: 2013
Жанр: Документальный
Описание:
Предлагаем присоединиться к сотрудникам фонда ALERT, работающим в Африке, и провести целый год вместе с 12 львами, выпущенными в заповедник и изолированными от человека.
Режиссёр: Дон Персиваль / Don Percival
В выпуске: 05. Strike Force!
Текст читал: Ольга зубкова и Александр Гаврилин
Озвучено: АРК•ТВ
Перевод: Профессиональный (двухголосый закадровый)
Продолжительность: ~ 00:43:20
Видеокодек: XVID
Битрейт видео: ~1857 kb/s
Размер кадра: 720 x 400
Качество видео: HDTVRip
Аудиокодек: AC-3, 6ch.
Битрейт аудио: 384 kb/s

MediaInfo

Формат : AVI
Формат/Информация : Audio Video Interleave
Размер файла : 699 Мбайт
Продолжительность : 43 м.
Общий поток : 2257 Кбит/сек
Программа кодирования : VirtualDubMod 1.5.10.3 | www.virtualdub-fr.org || (build 2550/release)
Библиотека кодирования : VirtualDubMod build 2550/release
Видео
Идентификатор : 0
Формат : MPEG-4 Visual
Профиль формата : Advanced [email protected]
Параметр BVOP формата : 1
Параметр QPel формата : Нет
Параметр GMC формата : Без точки перехода
Параметр матрицы формата : Выборочная
Идентификатор кодека : XVID
Идентификатор кодека/Подсказка : XviD
Продолжительность : 43 м.
Битрейт : 1863 Кбит/сек
Ширина : 720 пикселей
Высота : 400 пикселей
Соотношение сторон : 16:9
Частота кадров : 25,000 кадров/сек
Цветовое пространство : YUV
Субдискретизация насыщенности : 4:2:0
Битовая глубина : 8 бит
Тип развёртки : Прогрессивная
Метод сжатия : С потерями
Бит/(Пиксели*Кадры) : 0.259
Размер потока : 577 Мбайт (83%)
Библиотека кодирования : XviD 73
Аудио
Идентификатор : 1
Формат : AC-3
Формат/Информация : Audio Coding 3
Расширение режима : CM (complete main)
Идентификатор кодека : 2000
Продолжительность : 43 м.
Вид битрейта : Постоянный
Битрейт : 384 Кбит/сек
Каналы : 6 каналов
Расположение каналов : Front: L C R, Side: L R, LFE
Частота : 48,0 КГц
Битовая глубина : 16 бит
Метод сжатия : С потерями
Размер потока : 119 Мбайт (17%)
Выравнивание : Разделение по промежуткам
Продолжительность промежутка : 40 мс. (1,00 видеокадр)
Время предзагрузки промежутка : 500 мс.
Скриншоты:          

UndegraundMen

Пост 28-Июл-2013 23:00

[Цитировать]

Animal Planet: Львиный рык. Серия №3 / Roaring with Pride (2013) HDTVRip - Режиссер / Телекомпания: Animal Planet
Русское название: Львиный рык
Оригинальное название: Roaring with Pride
Год выпуска: 2013
Жанр: Документальный
Описание:
Предлагаем присоединиться к сотрудникам фонда ALERT, работающим в Африке, и провести целый год вместе с 12 львами, выпущенными в заповедник и изолированными от человека.
Режиссёр: Дон Персиваль / Don Percival
В выпуске: 03. Just Lion Here
Текст читал: Ольга зубкова и Александр Гаврилин
Озвучено: АРК•ТВ
Перевод: Профессиональный (двухголосый закадровый)
Продолжительность: ~ 00:42:23
Видеокодек: XVID
Битрейт видео: ~1861 kb/s
Размер кадра: 720 x 400
Качество видео: HDTVRip
Аудиокодек: AC-3, 6ch.
Битрейт аудио: 384 kb/s

MediaInfo

Формат : AVI
Формат/Информация : Audio Video Interleave
Размер файла : 700 Мбайт
Продолжительность : 43 м.
Общий поток : 2255 Кбит/сек
Программа кодирования : VirtualDubMod 1.5.10.3 | www.virtualdub-fr.org || (build 2550/release)
Библиотека кодирования : VirtualDubMod build 2550/release
Видео
Идентификатор : 0
Формат : MPEG-4 Visual
Профиль формата : Advanced [email protected]
Параметр BVOP формата : 1
Параметр QPel формата : Нет
Параметр GMC формата : Без точки перехода
Параметр матрицы формата : Выборочная
Идентификатор кодека : XVID
Идентификатор кодека/Подсказка : XviD
Продолжительность : 43 м.
Битрейт : 1861 Кбит/сек
Ширина : 720 пикселей
Высота : 400 пикселей
Соотношение сторон : 16:9
Частота кадров : 25,000 кадров/сек
Цветовое пространство : YUV
Субдискретизация насыщенности : 4:2:0
Битовая глубина : 8 бит
Тип развёртки : Прогрессивная
Метод сжатия : С потерями
Бит/(Пиксели*Кадры) : 0.258
Размер потока : 578 Мбайт (83%)
Библиотека кодирования : XviD 73
Аудио
Идентификатор : 1
Формат : AC-3
Формат/Информация : Audio Coding 3
Расширение режима : CM (complete main)
Идентификатор кодека : 2000
Продолжительность : 43 м.
Вид битрейта : Постоянный
Битрейт : 384 Кбит/сек
Каналы : 6 каналов
Расположение каналов : Front: L C R, Side: L R, LFE
Частота : 48,0 КГц
Битовая глубина : 16 бит
Метод сжатия : С потерями
Размер потока : 119 Мбайт (17%)
Выравнивание : Разделение по промежуткам
Продолжительность промежутка : 40 мс. (1,00 видеокадр)
Время предзагрузки промежутка : 500 мс.
Скриншоты:          

UndegraundMen

Пост 28-Июл-2013 23:00

[Цитировать]

Animal Planet: Львиный рык. Серия №4 / Roaring with Pride (2013) HDTVRip - Режиссер / Телекомпания: Animal Planet
Русское название: Львиный рык
Оригинальное название: Roaring with Pride
Год выпуска: 2013
Жанр: Документальный
Описание:
Предлагаем присоединиться к сотрудникам фонда ALERT, работающим в Африке, и провести целый год вместе с 12 львами, выпущенными в заповедник и изолированными от человека.
Режиссёр: Дон Персиваль / Don Percival
В выпуске: 04. Predator Progress
Текст читал: Ольга зубкова и Александр Гаврилин
Озвучено: АРК•ТВ
Перевод: Профессиональный (двухголосый закадровый)
Продолжительность: ~ 00:43:27
Видеокодек: XVID
Битрейт видео: ~1857 kb/s
Размер кадра: 720 x 400
Качество видео: HDTVRip
Аудиокодек: AC-3, 6ch.
Битрейт аудио: 384 kb/s

MediaInfo

Формат : AVI
Формат/Информация : Audio Video Interleave
Размер файла : 699 Мбайт
Продолжительность : 43 м.
Общий поток : 2251 Кбит/сек
Программа кодирования : VirtualDubMod 1.5.10.3 | www.virtualdub-fr.org || (build 2550/release)
Библиотека кодирования : VirtualDubMod build 2550/release
Видео
Идентификатор : 0
Формат : MPEG-4 Visual
Профиль формата : Advanced [email protected]
Параметр BVOP формата : 1
Параметр QPel формата : Нет
Параметр GMC формата : Без точки перехода
Параметр матрицы формата : Выборочная
Идентификатор кодека : XVID
Идентификатор кодека/Подсказка : XviD
Продолжительность : 43 м.
Битрейт : 1857 Кбит/сек
Ширина : 720 пикселей
Высота : 400 пикселей
Соотношение сторон : 16:9
Частота кадров : 25,000 кадров/сек
Цветовое пространство : YUV
Субдискретизация насыщенности : 4:2:0
Битовая глубина : 8 бит
Тип развёртки : Прогрессивная
Метод сжатия : С потерями
Бит/(Пиксели*Кадры) : 0.258
Размер потока : 577 Мбайт (83%)
Библиотека кодирования : XviD 73
Аудио
Идентификатор : 1
Формат : AC-3
Формат/Информация : Audio Coding 3
Расширение режима : CM (complete main)
Идентификатор кодека : 2000
Продолжительность : 43 м.
Вид битрейта : Постоянный
Битрейт : 384 Кбит/сек
Каналы : 6 каналов
Расположение каналов : Front: L C R, Side: L R, LFE
Частота : 48,0 КГц
Битовая глубина : 16 бит
Метод сжатия : С потерями
Размер потока : 119 Мбайт (17%)
Выравнивание : Разделение по промежуткам
Продолжительность промежутка : 40 мс. (1,00 видеокадр)
Время предзагрузки промежутка : 500 мс.
Скриншоты:          

UndegraundMen

Пост 26-Июл-2013 11:00

[Цитировать]

Animal Planet: Львиный рык. Серия №1 / Roaring with Pride (2013) HDTVRip - Режиссер / Телекомпания: Animal Planet
Русское название: Львиный рык
Оригинальное название: Roaring with Pride
Год выпуска: 2013
Жанр: Документальный
Описание:
Предлагаем присоединиться к сотрудникам фонда ALERT, работающим в Африке, и провести целый год вместе с 12 львами, выпущенными в заповедник и изолированными от человека.
Режиссёр: Дон Персиваль / Don Percival
В выпуске: 01. Lions for Africa
Текст читал: Ольга зубкова и Александр Гаврилин
Озвучено: АРК•ТВ
Перевод: Профессиональный (двухголосый закадровый)
Продолжительность: ~ 00:43:45
Видеокодек: XVID
Битрейт видео: ~1842 kb/s
Размер кадра: 720 x 400
Качество видео: HDTVRip
Аудиокодек: AC-3, 6ch.
Битрейт аудио: 384 kb/s

MediaInfo

Формат : AVI
Формат/Информация : Audio Video Interleave
Размер файла : 700 Мбайт
Продолжительность : 43 м.
Общий поток : 2236 Кбит/сек
Программа кодирования : VirtualDubMod 1.5.10.3 | www.virtualdub-fr.org || (build 2550/release)
Библиотека кодирования : VirtualDubMod build 2550/release
Видео
Идентификатор : 0
Формат : MPEG-4 Visual
Профиль формата : Advanced [email protected]
Параметр BVOP формата : 1
Параметр QPel формата : Нет
Параметр GMC формата : Без точки перехода
Параметр матрицы формата : Выборочная
Идентификатор кодека : XVID
Идентификатор кодека/Подсказка : XviD
Продолжительность : 43 м.
Битрейт : 1842 Кбит/сек
Ширина : 720 пикселей
Высота : 400 пикселей
Соотношение сторон : 16:9
Частота кадров : 25,000 кадров/сек
Цветовое пространство : YUV
Субдискретизация насыщенности : 4:2:0
Битовая глубина : 8 бит
Тип развёртки : Прогрессивная
Метод сжатия : С потерями
Бит/(Пиксели*Кадры) : 0.256
Размер потока : 576 Мбайт (82%)
Библиотека кодирования : XviD 73
Аудио
Идентификатор : 1
Формат : AC-3
Формат/Информация : Audio Coding 3
Расширение режима : CM (complete main)
Идентификатор кодека : 2000
Продолжительность : 43 м.
Вид битрейта : Постоянный
Битрейт : 384 Кбит/сек
Каналы : 6 каналов
Расположение каналов : Front: L C R, Side: L R, LFE
Частота : 48,0 КГц
Битовая глубина : 16 бит
Метод сжатия : С потерями
Размер потока : 120 Мбайт (17%)
Выравнивание : Разделение по промежуткам
Продолжительность промежутка : 40 мс. (1,00 видеокадр)
Время предзагрузки промежутка : 500 мс.
Скриншоты:                    

UndegraundMen

Пост 26-Июл-2013 11:00

[Цитировать]

Animal Planet: Львиный рык. Серия №2 / Roaring with Pride (2013) HDTVRip - Режиссер / Телекомпания: Animal Planet
Русское название: Львиный рык
Оригинальное название: Roaring with Pride
Год выпуска: 2013
Жанр: Документальный
Описание:
Предлагаем присоединиться к сотрудникам фонда ALERT, работающим в Африке, и провести целый год вместе с 12 львами, выпущенными в заповедник и изолированными от человека.
Режиссёр: Дон Персиваль / Don Percival
В выпуске: 02. ALERT Pride - The Lion's Share
Текст читал: Ольга зубкова и Александр Гаврилин
Озвучено: АРК•ТВ
Перевод: Профессиональный (двухголосый закадровый)
Продолжительность: ~ 00:43:37
Видеокодек: XVID
Битрейт видео: ~1842 kb/s
Размер кадра: 720 x 400
Качество видео: HDTVRip
Аудиокодек: AC-3, 6ch.
Битрейт аудио: 384 kb/s

MediaInfo

Формат : AVI
Формат/Информация : Audio Video Interleave
Размер файла : 700 Мбайт
Продолжительность : 43 м.
Общий поток : 2243 Кбит/сек
Программа кодирования : VirtualDubMod 1.5.10.3 | www.virtualdub-fr.org || (build 2550/release)
Библиотека кодирования : VirtualDubMod build 2550/release
Видео
Идентификатор : 0
Формат : MPEG-4 Visual
Профиль формата : Advanced [email protected]
Параметр BVOP формата : 1
Параметр QPel формата : Нет
Параметр GMC формата : Без точки перехода
Параметр матрицы формата : Выборочная
Идентификатор кодека : XVID
Идентификатор кодека/Подсказка : XviD
Продолжительность : 43 м.
Битрейт : 1849 Кбит/сек
Ширина : 720 пикселей
Высота : 400 пикселей
Соотношение сторон : 16:9
Частота кадров : 25,000 кадров/сек
Цветовое пространство : YUV
Субдискретизация насыщенности : 4:2:0
Битовая глубина : 8 бит
Тип развёртки : Прогрессивная
Метод сжатия : С потерями
Бит/(Пиксели*Кадры) : 0.257
Размер потока : 577 Мбайт (82%)
Библиотека кодирования : XviD 73
Аудио
Идентификатор : 1
Формат : AC-3
Формат/Информация : Audio Coding 3
Расширение режима : CM (complete main)
Идентификатор кодека : 2000
Продолжительность : 43 м.
Вид битрейта : Постоянный
Битрейт : 384 Кбит/сек
Каналы : 6 каналов
Расположение каналов : Front: L C R, Side: L R, LFE
Частота : 48,0 КГц
Битовая глубина : 16 бит
Метод сжатия : С потерями
Размер потока : 120 Мбайт (17%)
Выравнивание : Разделение по промежуткам
Продолжительность промежутка : 40 мс. (1,00 видеокадр)
Время предзагрузки промежутка : 500 мс.
Скриншоты:                    

UndegraundMen

Пост 15-Июл-2013 19:04

[Цитировать]

Animal Planet. Сурикаты / The Meerkats (2008) BDRip [H.264/720p]- Русское название: Animal Planet. Сурикаты
Оригинальное название: The Meerkats
Год выпуска: 2008
Производство: Великобритания , BBC Films, Animal Planet
Жанр: Документальный
Дата мировой премьеры: 15 октября 2008
Дата российской премьеры: 25 декабря 2008, «Каскад»

Режиссер: Джеймс Хонейборн / James Honeyborne
Cценарий: Александр МакКолл Смит, Джеймс Хонейборн
Актеры: Пол Ньюман / Paul Newman
Перевод: Дублированный (одноголосый)
Язык субтитров: Русский
Вид субтитров: Вшитые (отключаемые)
Описание фильма: На земле, обладающей волшебной красотой, где правила диктуют сильнейшие, маленькие создания построили свои дома. Их сила заключена в сплоченности и взаимовыручке. Их энергия покорит вас. Их мужество вдохновит вас. А их любовь напомнит о том, что такое семья.
Большой рассказ о самых маленьких...
Продолжительность: 01:23:11
Качество: BDRip [720p]
Видео кодек: MPEG-4 AVC/H.264
Битрейт видео: 6947 Кбит/сек
Размер кадра: 1280 x 544
Аудио#1: [Русский] АС3, 5.1 ch, 640 Кбит/с, 48,0 КГц
Аудио#2: [Английский] DTS, 5.1 ch, 1510 Кбит/с, 48,0 КГц

MediaInfo

General
Unique ID : 238270257681654459419204507664733704936 (0xB3412EB29786AEFA9DCF8F210DD812E8)
Complete name : A:\Релизы\The.Meerkats.(2008).BDRip.720p.mkv
Format : Matroska
Format version : Version 2
File size : 5.28 GiB
Duration : 1h 23mn
Overall bit rate : 9 086 Kbps
Encoded date : UTC 2010-01-10 23:00:30
Writing application : mkvmerge v3.0.0 ('Hang up your Hang-Ups') built on Dec 12 2009 15:20:35
Writing library : libebml v0.7.9 + libmatroska v0.8.1
Video
ID : 1
Format : AVC
Format/Info : Advanced Video Codec
Format profile : [url=mailto:[email protected]][email protected][/url]
Format settings, CABAC : Yes
Format settings, ReFrames : 8 frames
Codec ID : V_MPEG4/ISO/AVC
Duration : 1h 23mn
Bit rate : 6 947 Kbps
Width : 1 280 pixels
Height : 544 pixels
Display aspect ratio : 2.35:1
Frame rate mode : Constant
Frame rate : 23.976 fps
Color space : YUV
Chroma subsampling : 4:2:0
Bit depth : 8 bits
Scan type : Progressive
Bits/(Pixel*Frame) : 0.416
Stream size : 3.93 GiB (74%)
Title : The Meerkats 2008 720p BluRay x264 - HqF
Writing library : x264 core 68 r1183M f21daff
Encoding settings : cabac=1 / ref=8 / deblock=1:-3:-3 / analyse=0x3:0x113 / me=umh / subme=9 / psy_rd=1.0:0.2 / mixed_ref=1 / me_range=32 / chroma_me=1 / trellis=2 / 8x8dct=1 / cqm=0 / deadzone=21,11 / chroma_qp_offset=-3 / threads=6 / nr=0 / decimate=1 / mbaff=0 / bframes=3 / b_pyramid=1 / b_adapt=2 / b_bias=0 / direct=3 / wpredb=1 / keyint=250 / keyint_min=25 / scenecut=40 / rc=2pass / bitrate=6947 / ratetol=1.0 / qcomp=0.60 / qpmin=10 / qpmax=51 / qpstep=4 / cplxblur=20.0 / qblur=0.5 / ip_ratio=1.40 / pb_ratio=1.30 / aq=1:0.80
Language : English
Default : Yes
Forced : No
Audio #1
ID : 2
Format : AC-3
Format/Info : Audio Coding 3
Mode extension : CM (complete main)
Format settings, Endianness : Big
Codec ID : A_AC3
Duration : 1h 23mn
Bit rate mode : Constant
Bit rate : 640 Kbps
Channel(s) : 6 channels
Channel positions : Front: L C R, Side: L R, LFE
Sampling rate : 48.0 KHz
Bit depth : 16 bits
Compression mode : Lossy
Stream size : 381 MiB (7%)
Title : Одноголосный [ac3 6ch 640 kbps]
Language : Russian
Default : Yes
Forced : No
Audio #2
ID : 3
Format : DTS
Format/Info : Digital Theater Systems
Mode : 16
Format settings, Endianness : Big
Codec ID : A_DTS
Duration : 1h 23mn
Bit rate mode : Constant
Bit rate : 1 509 Kbps
Channel(s) : 6 channels
Channel positions : Front: L C R, Side: L R, LFE
Sampling rate : 48.0 KHz
Bit depth : 24 bits
Compression mode : Lossy
Stream size : 898 MiB (17%)
Title : Original [dts 6ch 1510 kbps]
Language : English
Default : No
Forced : No
Text #1
ID : 4
Format : UTF-8
Codec ID : S_TEXT/UTF8
Codec ID/Info : UTF-8 Plain Text
Title : Надписи
Language : Russian
Default : Yes
Forced : No
Text #2
ID : 5
Format : UTF-8
Codec ID : S_TEXT/UTF8
Codec ID/Info : UTF-8 Plain Text
Title : Полные
Language : Russian
Default : No
Forced : No
Скриншоты:
         
         

UndegraundMen

Пост 14-Июл-2013 19:00

[Цитировать]

Сурикаты / The Meerkats (2008) Blu-ray [1080p]- Русское название: Сурикаты
Оригинальное название: The Meerkats
Год выпуска: 2008
Производство: Великобритания , BBC Films
Жанр: Документальный
Перевод: Дублированный (одноголосый)
Язык субтитров: Русский
Вид субтитров: Вшитые (отключаемые)

Дата мировой премьеры: 15 октября 2008
Дата российской премьеры: 25 декабря 2008, «Каскад»
Релиз на DVD: 10 сентября 2009, «Союз-Видео»
Релиз на Blu-ray: 17 декабря 2009, «Союз-Видео»
Cборы в СШA: $682 729
Cборы в мирe: + $358 658 = $1 041 387
Режиссер: Джеймс Хонейборн/James Honeyborne
Cценарий: Александр МакКолл Смит, Джеймс Хонейборн (...рассказ)
Актер: Пол Ньюман/Paul Newman (...рассказчик,озвучка)
Описание фильма:
На земле, обладающей волшебной красотой, где правила диктуют сильнейшие, маленькие создания построили свои дома. Их сила заключена в сплоченности и взаимовыручке.
Их энергия покорит вас.
Их мужество вдохновит вас.
А их любовь напомнит о том, что такое семья.
Большой рассказ о самых маленьких.
Продолжительность: 01:23:11
Качество: Blu-ray [1080p]
Формат: BD-25
Видео кодек: VC-1
Битрейт видео: 19442 Кбит/сек
Размер кадра: 1920 x 1080p
Аудио#1: Русский АС-3 6.0 640 Кбит/сек 48,0 КГц
Аудио#2: Русский АС-3 2.0 448 Кбит/сек 48,0 КГц
Аудио#3: Английский DTS-HD Master Audio 6.0 2349 Кбит/сек 48,0 КГцСкриншоты:
       
       

BDInfo

Disc Title: Surikaty_BD
Disc Size: 15 559 991 048 bytes
Protection: AACS
BD-Java: No
BDInfo: 0.5.6
Notes:
BDINFO HOME:
Cinema Squid
  • http://www.cinemasquid.com/blu-ray/tools/bdinfo
    INCLUDES FORUMS REPORT FOR:
    AVS Forum Blu-ray Audio and Video Specifications Thread
  • http://www.avsforum.com/avs-vb/showthread.php?t=1155731
    ********************
    PLAYLIST: 00000.MPLS
    ********************
    Код:
    Total   Video
    Title                                                           Codec   Length  Movie Size      Disc Size       Bitrate Bitrate Main Audio Track                          Secondary Audio Track
    -----                                                           ------  ------- --------------  --------------  ------- ------- ------------------                        ---------------------
    00000.MPLS                                                      VC-1    1:23:11 15 141 175 296  15 559 991 048  24,27   19,44   DD AC3 5.1 640Kbps
    Код:
    DISC INFO:
    Disc Title:     Surikaty_BD
    Disc Size:      15 559 991 048 bytes
    Protection:     AACS
    BD-Java:        No
    BDInfo:         0.5.6
    PLAYLIST REPORT:
    Name:                   00000.MPLS
    Length:                 1:23:11 (h:m:s)
    Size:                   15 141 175 296 bytes
    Total Bitrate:          24,27 Mbps
    VIDEO:
    Codec                   Bitrate             Description
    -----                   -------             -----------
    VC-1 Video              19442 kbps          1080p / 23,976 fps / 16:9 / Advanced Profile 3
    AUDIO:
    Codec                           Language        Bitrate         Description
    -----                           --------        -------         -----------
    Dolby Digital Audio             Russian         640 kbps        5.1 / 48 kHz / 640 kbps / DN -4dB
    Dolby Digital Audio             Russian         448 kbps        2.0 / 48 kHz / 448 kbps / DN -4dB
    DTS-HD Master Audio             English         2349 kbps       5.1 / 48 kHz / 2349 kbps / 16-bit (DTS Core: 5.1 / 48 kHz / 1509 kbps / 16-bit)
    SUBTITLES:
    Codec                           Language        Bitrate         Description
    -----                           --------        -------         -----------
    Presentation Graphics           Russian         14,462 kbps
    FILES:
    Name            Time In         Length          Size            Total Bitrate
    ----            -------         ------          ----            -------------
    00000.M2TS      0:00:00.000     1:23:11.361     15 141 175 296  24 268
    CHAPTERS:
    Number          Time In         Length          Avg Video Rate  Max 1-Sec Rate  Max 1-Sec Time  Max 5-Sec Rate  Max 5-Sec Time  Max 10Sec Rate  Max 10Sec Time  Avg Frame Size  Max Frame Size  Max Frame Time
    ------          -------         ------          --------------  --------------  --------------  --------------  --------------  --------------  --------------  --------------  --------------  --------------
    1               0:00:00.000     0:07:07.260     19 254 kbps     39 999 kbps     00:00:21.354    34 349 kbps     00:00:21.187    29 408 kbps     00:02:03.164    101 642 bytes   454 654 bytes   00:05:05.972
    2               0:07:07.260     0:02:52.964     20 183 kbps     35 947 kbps     00:08:46.484    27 195 kbps     00:09:03.960    25 405 kbps     00:08:58.913    105 227 bytes   491 890 bytes   00:08:11.324
    3               0:10:00.224     0:05:47.305     20 190 kbps     29 710 kbps     00:14:18.649    27 577 kbps     00:14:18.315    25 729 kbps     00:15:11.160    105 263 bytes   417 790 bytes   00:14:41.547
    4               0:15:47.529     0:06:38.856     20 164 kbps     37 665 kbps     00:21:21.655    30 539 kbps     00:15:57.039    26 910 kbps     00:17:44.313    105 127 bytes   455 168 bytes   00:15:57.665
    5               0:22:26.386     0:07:30.825     19 131 kbps     42 989 kbps     00:25:49.297    33 412 kbps     00:26:16.408    32 112 kbps     00:25:49.256    99 739 bytes    501 022 bytes   00:26:44.519
    6               0:29:57.212     0:07:18.980     20 299 kbps     36 355 kbps     00:32:56.808    33 243 kbps     00:32:48.341    32 717 kbps     00:32:48.341    105 828 bytes   500 104 bytes   00:32:56.349
    7               0:37:16.192     0:08:19.957     20 506 kbps     40 581 kbps     00:40:18.124    34 130 kbps     00:40:15.788    30 852 kbps     00:40:09.740    106 910 bytes   490 186 bytes   00:42:03.979
    8               0:45:36.150     0:06:01.736     23 135 kbps     39 236 kbps     00:47:23.173    34 056 kbps     00:46:33.999    32 607 kbps     00:45:56.128    120 614 bytes   525 242 bytes   00:46:35.876
    9               0:51:37.886     0:07:22.024     20 169 kbps     41 618 kbps     00:54:57.210    33 825 kbps     00:54:53.206    29 946 kbps     00:54:50.620    105 152 bytes   447 458 bytes   00:58:32.509
    10              0:58:59.911     0:08:05.234     20 169 kbps     40 894 kbps     01:02:08.850    34 347 kbps     01:02:05.930    32 765 kbps     01:02:33.374    105 368 bytes   452 524 bytes   01:04:17.019
    11              1:07:05.146     0:08:28.507     19 429 kbps     35 922 kbps     01:07:31.422    33 360 kbps     01:07:28.669    29 639 kbps     01:07:05.146    101 292 bytes   512 975 bytes   01:07:43.517
    12              1:15:33.654     0:07:37.707     12 082 kbps     37 978 kbps     01:17:15.005    28 862 kbps     01:17:14.588    26 246 kbps     01:17:13.503    63 299 bytes    525 034 bytes   01:18:50.225
    STREAM DIAGNOSTICS:
    File            PID             Type            Codec           Language                Seconds                 Bitrate                 Bytes           Packets
    ----            ---             ----            -----           --------                --------------          --------------          -------------   -----
    00000.M2TS      4113 (0x1011)   0xEA            VC-1                                    4991,236                19 442                  12 129 967 517  65 996 017
    00000.M2TS      4352 (0x1100)   0x81            AC3             rus (Russian)           4991,236                640                     399 329 280     2 339 820
    00000.M2TS      4353 (0x1101)   0x81            AC3             rus (Russian)           4991,236                448                     279 530 496     1 559 880
    00000.M2TS      4354 (0x1102)   0x86            DTS-HD MA       eng (English)           4991,236                2 349                   1 465 551 496   8 745 538
    00000.M2TS      4608 (0x1200)   0x90            PGS             rus (Russian)           4991,236                14                      9 023 323       51 772
    QUICK SUMMARY:
    Disc Title: Surikaty_BD
    Disc Size: 15 559 991 048 bytes
    Protection: AACS
    BD-Java: No
    Playlist: 00000.MPLS
    Size: 15 141 175 296 bytes
    Length: 1:23:11
    Total Bitrate: 24,27 Mbps
    Video: VC-1 Video / 19442 kbps / 1080p / 23,976 fps / 16:9 / Advanced Profile 3
    Audio: Russian / Dolby Digital Audio / 5.1 / 48 kHz / 640 kbps / DN -4dB
    Audio: Russian / Dolby Digital Audio / 2.0 / 48 kHz / 448 kbps / DN -4dB
    Audio: English / DTS-HD Master Audio / 5.1 / 48 kHz / 2349 kbps / 16-bit (DTS Core: 5.1 / 48 kHz / 1509 kbps / 16-bit)
    Subtitle: Russian / 14,462 kbps

MediaInfo

Общее
Идентификатор : 0
Полное имя : M:\Surikaty_BD\BDMV\STREAM\00000.m2ts
Формат : BDAV
Формат/Информация : Blu-ray Video
Размер файла : 14,1 Гибибайт
Продолжительность : 1 ч. 23 м.
Общий поток : 24,3 Мбит/сек
Максимальный общий битрейт : 48,0 Мбит/сек
Видео
Идентификатор : 4113 (0x1011)
Идентификатор меню : 1 (0x1)
Формат : VC-1
Профайл формата : [email protected]
Продолжительность : 1 ч. 23 м.
Ширина : 1920 пикс.
Высота : 1080 пикс.
Соотношение кадра : 16:9
Частота кадров : 23,976 кадр/сек
Разрешение : 8 бит
Колориметрия : 4:2:0
Тип развёртки : Прогрессивная
Аудио #1
Идентификатор : 4352 (0x1100)
Идентификатор меню : 1 (0x1)
Формат : AC-3
Формат/Информация : Audio Coding 3
Продолжительность : 1 ч. 23 м.
Вид битрейта : Постоянный
Битрейт : 640 Кбит/сек
Канал(ы) : 6 канала(ов)
Расположение каналов : Front: L C R, Surround: L R, LFE
Частота : 48,0 КГц
Размер потока : 381 Мегабайт (3%)
Аудио #2
Идентификатор : 4353 (0x1101)
Идентификатор меню : 1 (0x1)
Формат : AC-3
Формат/Информация : Audio Coding 3
Продолжительность : 1 ч. 23 м.
Вид битрейта : Постоянный
Битрейт : 448 Кбит/сек
Канал(ы) : 2 канала(ов)
Расположение каналов : L R
Частота : 48,0 КГц
Размер потока : 267 Мегабайт (2%)
Аудио #3
Идентификатор : 4354 (0x1102)
Идентификатор меню : 1 (0x1)
Формат : DTS
Формат/Информация : Digital Theater Systems
Профайл формата : MA
Режим смешивания : Stream extension
Продолжительность : 1 ч. 23 м.
Вид битрейта : Переменный
Канал(ы) : 6 канала(ов)
Расположение каналов : Front: L C R, Surround: L R, LFE
Частота : 48,0 КГц
Разрешение : 16 бит
Текст
Идентификатор : 4608 (0x1200)
Идентификатор меню : 1 (0x1)
Формат : PGS

Ссылки на другие релизы

[url=/forum/viewtopic.php?t=200876]Animal Planet & BBC: Сурикаты / The Meerkats (2008) BDRip [1080p][/url]
[url=/forum/viewtopic.php?t=155986]Animal Planet & BBC: Сурикаты / The Meerkats (2008) BDRip[/url]
Время раздачи: 24/7 (по возможности)

UndegraundMen

Пост 21-Май-2013 00:02

[Цитировать]

Плохой пёс / Bad Dog (2 серии из 2) (2011) HDTV [H.264/1080i]- Русское название: Плохой пёс
Оригинальное название: Bad Dog
Режиссер / Телекомпания: Discovery Communications, INC.
Год выпуска: 2011
Жанр: Документальный
Описание:
Мы ищем по всему миру самых озорных домашних питомцев — от воришки-лайки до попугая-матерщинника. И самый испорченный из них будет увенчан короной.
Продолжительность: 2 x ~ 00:44:06
Перевод: Одноголосый закадровый, профессиональный
Видеокодек: AVC
Битрейт видео: 7243 Кбит/сек (серия 1), 9730 Кбит/сек (серия 2)
Размер кадра: 1920 x 1080
Качество видео: HDTV [1080i]
Аудиокодек: AC3, 6ch
Битрейт аудио: 384 Кбит/сек

MI:

Общее
Идентификатор : 1 (0x1)
Полное имя : D:\upload\Bad Dog 1-2\1.Bad Dog.ts
Формат : MPEG-TS
Размер файла : 2,45 Гбайт
Продолжительность : 43 м.
Режим общего битрейта : Переменный
Общий поток : 8028 Кбит/сек
Видео
Идентификатор : 324 (0x144)
Идентификатор меню : 1 (0x1)
Формат : AVC
Формат/Информация : Advanced Video Codec
Профиль формата : [url=mailto:[email protected]][email protected][/url]
Параметр CABAC формата : Да
Параметр ReFrames формата : 3 кадра
Идентификатор кодека : 27
Продолжительность : 43 м.
Битрейт : 7243 Кбит/сек
Ширина : 1920 пикселей
Высота : 1080 пикселей
Соотношение сторон : 16:9
Частота кадров : 25,000 кадров/сек
Стандарт вещания : Component
Цветовое пространство : YUV
Субдискретизация насыщенности : 4:2:0
Битовая глубина : 8 бит
Тип развёртки : Чересстрочная
Порядок развёртки : Верхнее поле первое
Бит/(Пиксели*Кадры) : 0.140
Размер потока : 2,21 Гбайт (90%)
Основные цвета : BT.709
Характеристики трансфера : BT.709
Коэффициенты матрицы : BT.709
Аудио
Идентификатор : 404 (0x194)
Идентификатор меню : 1 (0x1)
Формат : AC-3
Формат/Информация : Audio Coding 3
Расширение режима : CM (complete main)
Параметр Endianness формата : Big
Идентификатор кодека : 6
Продолжительность : 43 м.
Вид битрейта : Постоянный
Битрейт : 384 Кбит/сек
Каналы : 6 каналов
Расположение каналов : Front: L C R, Side: L R, LFE
Частота : 48,0 КГц
Битовая глубина : 16 бит
Метод сжатия : С потерями
Размер потока : 120 Мбайт (5%)
Язык : Russian-Общее
Идентификатор : 1 (0x1)
Полное имя : D:\upload\Bad Dog 1-2\2.Bad Dog.ts
Формат : MPEG-TS
Размер файла : 3,28 Гбайт
Продолжительность : 44 м.
Режим общего битрейта : Переменный
Общий поток : 10,6 Мбит/сек
Видео
Идентификатор : 324 (0x144)
Идентификатор меню : 1 (0x1)
Формат : AVC
Формат/Информация : Advanced Video Codec
Профиль формата : [url=mailto:[email protected]][email protected][/url]
Параметр CABAC формата : Да
Параметр ReFrames формата : 3 кадра
Идентификатор кодека : 27
Продолжительность : 44 м.
Битрейт : 9730 Кбит/сек
Ширина : 1920 пикселей
Высота : 1080 пикселей
Соотношение сторон : 16:9
Частота кадров : 25,000 кадров/сек
Стандарт вещания : Component
Цветовое пространство : YUV
Субдискретизация насыщенности : 4:2:0
Битовая глубина : 8 бит
Тип развёртки : Чересстрочная
Порядок развёртки : Верхнее поле первое
Бит/(Пиксели*Кадры) : 0.188
Размер потока : 3,00 Гбайт (91%)
Основные цвета : BT.709
Характеристики трансфера : BT.709
Коэффициенты матрицы : BT.709
Аудио
Идентификатор : 404 (0x194)
Идентификатор меню : 1 (0x1)
Формат : AC-3
Формат/Информация : Audio Coding 3
Расширение режима : CM (complete main)
Параметр Endianness формата : Big
Идентификатор кодека : 6
Продолжительность : 44 м.
Вид битрейта : Постоянный
Битрейт : 384 Кбит/сек
Каналы : 6 каналов
Расположение каналов : Front: L C R, Side: L R, LFE
Частота : 48,0 КГц
Битовая глубина : 16 бит
Метод сжатия : С потерями
Размер потока : 121 Мбайт (4%)
Язык : Russian
Скриншоты:
         
Время раздачи: 02.00х18.00 мск.

UndegraundMen

Пост 19-Май-2013 00:02

[Цитировать]

Медуза-Убийца / Killer Jellyfish (2006) SATRip- Русское название: Медуза-Убийца
Оригинальное название: Killer Jellyfish
Режиссер / Телекомпания: Великобритания, Animal Planet
Год выпуска: 2006
Жанр: Документальный
Описание:
Документальный фильм про поиск почти невидимого, но необычайно ядовитого и опасного существа - медузы ируканджи. Пловец ныряет с лодки на краю Большого Барьерного рифа Австралии. Проходят минуты, но он не показывается на поверхности. Он исчез, предположительно - захлебнулся.... Исследователь доктор Джейми Сеймур идет по следу смертельно опасного, но неуловимого убийцы.
Продолжительность: 00:45:34
Перевод: Одноголосый закадровый, профессиональный
Видеокодек: Xvid
Битрейт видео: ~1399 Кбит/сек
Размер кадра: 640x432
Качество видео: SATRip
Аудиокодек: MP3, 2 ch
Битрейт аудио: 128 Кбит/сек

MI:

Общее
Полное имя : D:\upload\Animal Planet_Медуза-Убийца.avi
Формат : AVI
Формат/Информация : Audio Video Interleave
Размер файла : 500 Мбайт
Продолжительность : 45 м.
Общий поток : 1534 Кбит/сек
Программа кодирования : VirtualDubMod 1.5.4.1 (build 2178/release)
Библиотека кодирования : VirtualDubMod build 2178/release
Видео
Идентификатор : 0
Формат : MPEG-4 Visual
Профиль формата : Advanced [email protected]
Параметр BVOP формата : 1
Параметр QPel формата : Нет
Параметр GMC формата : Без точки перехода
Параметр матрицы формата : Выборочная
Идентификатор кодека : XVID
Идентификатор кодека/Подсказка : XviD
Продолжительность : 45 м.
Битрейт : 1399 Кбит/сек
Ширина : 640 пикселей
Высота : 432 пикселя
Соотношение сторон : 3:2
Частота кадров : 25,000 кадров/сек
Цветовое пространство : YUV
Субдискретизация насыщенности : 4:2:0
Битовая глубина : 8 бит
Тип развёртки : Прогрессивная
Метод сжатия : С потерями
Бит/(Пиксели*Кадры) : 0.202
Размер потока : 456 Мбайт (91%)
Библиотека кодирования : XviD 1.2.1 (UTC 2008-12-04)
Аудио
Идентификатор : 1
Формат : MPEG Audio
Версия формата : Version 1
Профиль формата : Layer 3
Режим : Joint stereo
Расширение режима : MS Stereo
Идентификатор кодека : 55
Идентификатор кодека/Подсказка : MP3
Продолжительность : 45 м.
Вид битрейта : Постоянный
Битрейт : 128 Кбит/сек
Каналы : 2 канала
Частота : 48,0 КГц
Метод сжатия : С потерями
Размер потока : 41,7 Мбайт (8%)
Выравнивание : Соединение по промежуткам
Продолжительность промежутка : 80 мс. (2,00 видеокадра)
Время предзагрузки промежутка : 504 мс.
Библиотека кодирования : LAME3.98r
Настройки программы : -m j -V 4 -q 2 -lowpass 17 -b 128
Скриншоты:
                   
Время раздачи: 02.00х18.00 мск.

UndegraundMen

Пост 05-Май-2013 00:02

[Цитировать]

Animal planet. Неизведанные острова. Острова Амазонки / Wildest Islands. Amazon Islands (2012-2013) HDTVRip [H.264]- Русское название: Animal planet. Неизведанные острова. Острова Амазонки
Оригинальное название: Wildest Islands. Amazon Islands
Страна: США
Режиссер / Телекомпания: Колин Коллис, Ричард Кирби / Off The Fence, Discovery LLC
Год выпуска: 2012-2013
Жанр: документальный, путешествие, туризм, природа, флора, фауна
Описание: У каждого райского острова есть свои хозяева - их исконные обитатели: от гигантов, оставшихся здесь со времён динозавров, до крохотных трудяг, не встречающихся больше нигде. Здесь самая большая в мире концентрация видов, здесь есть, на что посмотреть. Острова часто становятся домом для необычных созданий. Исследуем самые красивые острова планеты, и знакомимся с людьми и животными, для которых это родной дом.
В Амазонии, среди девственных лесов, пойм и изгибов великой реки, находится самое большое в мире скопление речных островов. Они образуют один из самых необычных и неповторимых ареалов на Земле и несколько раз в год, с очередным паводком полностью меняют свой облик...
Продолжительность: 00:43:59
Перевод: Одноголосый закадровый (профессиональный).
Видеокодек: MPEG-4 AVC/H.264
Битрейт видео: ~ 2 490 Кбит/с
Размер кадра: 1024 x 576
Качество видео: HDTVRip
Аудио:
1. [русский] АС3, 5.1 ch, 384 Кбит/с
2. [english] АС3, 5.1 ch, 384 Кбит/с

MediaInfo

Общее
Уникальный идентификатор : 208114310729052315764904762134092153153 (0x9C915BB8D194A254AA3B1DD162198141)
Полное имя : A:\Релизы\Wildest.Islands.6.Amazonia.(2012-2013).HDTVRip.mkv
Формат : Matroska
Версия формата : Version 2
Размер файла : 1,00 Гбайт
Продолжительность : 43 м.
Общий поток : 3260 Кбит/сек
Дата кодирования : UTC 2013-04-24 05:17:10
Программа кодирования : mkvmerge v6.1.0 ('Old Devil') built on Mar 2 2013 14:32:37
Библиотека кодирования : libebml v1.3.0 + libmatroska v1.4.0
Видео
Идентификатор : 1
Формат : AVC
Формат/Информация : Advanced Video Codec
Профиль формата : [url=mailto:[email protected]][email protected][/url]
Параметр CABAC формата : Да
Параметр ReFrames формата : 7 кадров
Идентификатор кодека : V_MPEG4/ISO/AVC
Продолжительность : 43 м.
Битрейт : 2490 Кбит/сек
Ширина : 1024 пикселя
Высота : 576 пикселей
Соотношение сторон : 16:9
Частота кадров : 25,000 кадров/сек
Цветовое пространство : YUV
Субдискретизация насыщенности : 4:2:0
Битовая глубина : 8 бит
Тип развёртки : Прогрессивная
Бит/(Пиксели*Кадры) : 0.169
Размер потока : 763 Мбайт (74%)
Заголовок : Бразилия-Амазонка
Библиотека кодирования : x264 core 130 r2273 b3065e6
Настройки программы : cabac=1 / ref=7 / deblock=1:-2:-2 / analyse=0x3:0x133 / me=umh / subme=10 / psy=1 / psy_rd=1.00:0.10 / mixed_ref=1 / me_range=24 / chroma_me=1 / trellis=2 / 8x8dct=1 / cqm=0 / deadzone=21,11 / fast_pskip=0 / chroma_qp_offset=-3 / threads=6 / lookahead_threads=1 / sliced_threads=0 / nr=0 / decimate=1 / interlaced=0 / bluray_compat=0 / constrained_intra=0 / bframes=7 / b_pyramid=2 / b_adapt=2 / b_bias=0 / direct=3 / weightb=1 / open_gop=0 / weightp=2 / keyint=250 / keyint_min=23 / scenecut=40 / intra_refresh=0 / rc_lookahead=40 / rc=2pass / mbtree=1 / bitrate=2490 / ratetol=1.0 / qcomp=0.60 / qpmin=10 / qpmax=51 / qpstep=4 / cplxblur=20.0 / qblur=0.5 / vbv_maxrate=62500 / vbv_bufsize=78125 / nal_hrd=none / ip_ratio=1.40 / aq=1:1.00
Default : Да
Forced : Да
Аудио #1
Идентификатор : 2
Формат : AC-3
Формат/Информация : Audio Coding 3
Расширение режима : CM (complete main)
Параметр Endianness формата : Big
Идентификатор кодека : A_AC3
Продолжительность : 43 м.
Вид битрейта : Постоянный
Битрейт : 384 Кбит/сек
Каналы : 6 каналов
Расположение каналов : Front: L C R, Side: L R, LFE
Частота : 48,0 КГц
Битовая глубина : 16 бит
Метод сжатия : С потерями
Размер потока : 121 Мбайт (12%)
Заголовок : Dub
Язык : Russian
Default : Да
Forced : Да
Аудио #2
Идентификатор : 3
Формат : AC-3
Формат/Информация : Audio Coding 3
Расширение режима : CM (complete main)
Параметр Endianness формата : Big
Идентификатор кодека : A_AC3
Продолжительность : 43 м.
Вид битрейта : Постоянный
Битрейт : 384 Кбит/сек
Каналы : 6 каналов
Расположение каналов : Front: L C R, Side: L R, LFE
Частота : 48,0 КГц
Битовая глубина : 16 бит
Метод сжатия : С потерями
Размер потока : 121 Мбайт (12%)
Заголовок : Original
Язык : English
Default : Нет
Forced : Нет
Скриншоты:
         
         
Пожалуйста, не уходите с раздачи - помогите докачать другим. Если понравился релиз - жмите кнопку "Спасибо"!
 

Текущее время: Сегодня 17:42

Часовой пояс: GMT + 3