Сегодня идет свободное скачивание без начисления Download

Результатов поиска: 500

Автор Сообщение

[email protected]

Пост 13-Мар-2017 22:24

[Цитировать]

Забытая инженерия / Abandoned Engineering - Телекомпания: США, Discovery Channel
Жанр: Документальный, научно-познавательный, исследования, история
Описание:
Технологии развиваются настолько стремительно, что многие инженерные проекты, которые еще недавно считались воплощением самой смелой мечты, теперь никому не нужны: их забросили, словно огромные игрушки, дорогие, но устаревшие и вышедшие из моды. С заброшенными инженерными объектами знакомит новая программа Discovery Channel. «Герои» этого шоу – невероятные сооружения, которые так и не служили по назначению. Вы узнаете их удивительные истории: как и зачем они строились, сколько было потрачено на их создание, сколько специалистов над ними трудились, а также познакомитесь с людьми, которые их проектировали. Однако не исключено, что этим забытым сооружениям будет дана вторая жизнь: для некоторых придумано новое назначение, которое порой радикально отличается от первоначального. Например, недостроенная железнодорожная линия в Нью-Йорке превратилась в знаменитый парк Хай-Лайн, нацистский лагерь на острове Рюген был переделан в пятизвездочные апартаменты, а «Орискани», американский авианосец времен Вьетнамской войны, стал искусственным рифом.
Продолжительность: 4 х ~00:44:00
Качество видео: HDTV
Перевод: Одноголосый закадровый, профессиональный, студия "Кириллица"
Текст читал: Сергей Пономарёв
Видео: AVC/H.264, 1920x1080, ~7 000 Kbps
Аудио: MP2, 2 ch, 224 Kbps

Mediainfo: (тех. данные всех серий идентичны)

Общее
Идентификатор : 1 (0x1)
Полное имя : F:\КИНО\Забытая инженерия 1080p RG HitWay\01 Забытая инженерия.ts
Формат : MPEG-TS
Размер файла : 2,30 Гбайт
Продолжительность : 44 м. 10 с.
Режим общего битрейта : Переменный
Общий поток : 7467 Кбит/сек
Видео
Идентификатор : 224 (0xE0)
Идентификатор меню : 1 (0x1)
Формат : AVC
Формат/Информация : Advanced Video Codec
Профиль формата : [url=mailto:[email protected]][email protected][/url]
Параметр CABAC формата : Да
Параметр ReFrames формата : 3 кадра
Идентификатор кодека : 27
Продолжительность : 44 м. 10 с.
Вид битрейта : Постоянный
Битрейт : 7000 Кбит/сек
Ширина : 1920 пикселей
Высота : 1080 пикселей
Соотношение сторон : 16:9
Частота кадров : 30,000 кадров/сек
Стандарт вещания : NTSC
Цветовое пространство : YUV
Субдискретизация насыщенности : 4:2:0
Битовая глубина : 8 бит
Тип развёртки : Прогрессивная
Бит/(Пиксели*Кадры) : 0.113
Размер потока : 2,12 Гбайт (92%)
Цветовой диапазон : Limited
Основные цвета : BT.709
Характеристики трансфера : BT.709
Коэффициенты матрицы : BT.709
Аудио
Идентификатор : 4097 (0x1001)
Идентификатор меню : 1 (0x1)
Формат : MPEG Audio
Версия формата : Version 1
Профиль формата : Layer 2
Идентификатор кодека : 3
Продолжительность : 44 м. 10 с.
Вид битрейта : Постоянный
Битрейт : 224 Кбит/сек
Каналы : 2 канала
Частота : 48,0 КГц
Метод сжатия : С потерями
Задержка видео : 8 мс.
Размер потока : 70,8 Мбайт (3%)
Язык : English

Список серий:

01. Безмолвные города.
02. Цель космос
03. Потерянные мосты.
04. Корабли-призраки
05.
06.

Внимание! Раздача ведётся путём добавления новых серий

При каждом добавлении создаётся новый торрент. Чтобы начать докачку новой серии, пользователям необходимо сделать следующее:
- Остановить скачивание.
- Удалить старый торрент у себя из клиента (старые серии удалять не надо).
- Скачать новый торрент и запустить его у себя в клиенте вместо старого, при этом указать клиенту путь в старую папку куда и должно происходить скачивание новых серий.
Скриншоты:
       

Дополнительные скриншоты:

       

[email protected]

Пост 30-Янв-2017 13:40

[Цитировать]

Взрывая историю. Пирамиды майя / Secrets of The Maya Pyramid - Телекомпания: Windfall Films Ltd. (США)
Жанр: Документальный
Режиссёр: Люси Хэйкен

Описание:
Исчезнувший город Чичен-Ица в Мексике хранит древние тайны загадочной цивилизации. Как его построили и как человеческие жертвоприношения повлияли на его облик?
Глядя на дошедшие до нас памятники древних цивилизаций, трудно поверить, что задолго до появления современных технологий и мощной строительной техники удавалось возводить столь величественные сооружения. Программа ищет ответ на вопрос, как архитекторам и строителям давних эпох удавалось опередить свое время. С помощью компьютерных технологий здания будут разобраны буквально по кирпичикам, чтобы проследить их судьбу, а заодно выяснить, что скрывают каменные стены.
Продолжительность: 00:44:04
Качество видео: HDTVRip
Перевод: Одноголосый закадровый, профессиональный
Видео: AVC/H.264, 1280х720, ~6 999 Kbps
Аудио: MP3, 2 ch, 128 Kbps

Mediainfo:

General
Format : AVI
Format/Info : Audio Video Interleave
Format profile : OpenDML
File size : 2.20 GiB
Duration : 44mn 4s
Overall bit rate : 7 157 Kbps
Writing application : Lavf56.40.101
Video
ID : 0
Format : AVC
Format/Info : Advanced Video Codec
Format profile : [url=mailto:[email protected]][email protected][/url]
Format settings, CABAC : Yes
Format settings, ReFrames : 1 frame
Codec ID : H264
Duration : 44mn 4s
Bit rate : 6 999 Kbps
Width : 1 280 pixels
Height : 720 pixels
Display aspect ratio : 16:9
Frame rate mode : Variable
Frame rate : 120.000 (24/30) fps
Minimum frame rate : 24.000 fps
Maximum frame rate : 30.000 fps
Color space : YUV
Chroma subsampling : 4:2:0
Bit depth : 8 bits
Scan type : Progressive
Bits/(Pixel*Frame) : 0.063
Stream size : 2.15 GiB (98%)
Audio
ID : 1
Format : MPEG Audio
Format version : Version 1
Format profile : Layer 3
Mode : Joint stereo
Mode extension : MS Stereo
Codec ID : 55
Codec ID/Hint : MP3
Duration : 44mn 4s
Bit rate mode : Constant
Bit rate : 128 Kbps
Channel(s) : 2 channels
Sampling rate : 44.1 KHz
Compression mode : Lossy
Stream size : 40.4 MiB (2%)
Alignment : Aligned on interleaves
Interleave, duration : 26 ms (3.13 video frames)
Скриншоты:
       

Дополнительные скриншоты:

       

[email protected]

Пост 08-Ноя-2016 21:45

[Цитировать]

Discovery. Как работают машины / Machines: How They Work (2016) HDTVRip (1-10 серий из 10) - Телекомпания: Канада, Discovery Channel
Жанр: документальный, техника
Описание:
Описание сериала, собственно, заложено в его названии. Многие видели подобные программы - "Как это устроено?", "Как это работает?", из этой передачи вы узнаете о работе самых разных по устройству и назначению машин.

Продолжительность: 10 x ~ 00:44:00
Качество видео: HDTVRip
Перевод: Одноголосый закадровый, профессиональный
Видео: Xvid, 720x400, ~1540 kbp
Аудио: AC3, 2 ch, 192 kbps, CBR

Mediainfo: (тех. данные всех серий идентичны)

Общее
Полное имя : F:\КИНО\Как работают машины\01 Как работают машины.avi
Формат : AVI
Формат/Информация : Audio Video Interleave
Размер файла : 545 Мбайт
Продолжительность : 43 м. 42 с.
Общий поток : 1744 Кбит/сек
Программа кодирования : VirtualDubMod 1.5.10.3 | www.virtualdub-fr.org || (build 2550/release)
Библиотека кодирования : VirtualDubMod build 2550/release
Видео
Идентификатор : 0
Формат : MPEG-4 Visual
Профиль формата : Advanced [email protected]
Параметр BVOP формата : 1
Параметр QPel формата : Нет
Параметр GMC формата : Без точки перехода
Параметр матрицы формата : Выборочная
Идентификатор кодека : XVID
Идентификатор кодека/Подсказка : XviD
Продолжительность : 43 м. 42 с.
Битрейт : 1541 Кбит/сек
Ширина : 720 пикселей
Высота : 400 пикселей
Соотношение сторон : 16:9
Частота кадров : 30,000 кадров/сек
Цветовое пространство : YUV
Субдискретизация насыщенности : 4:2:0
Битовая глубина : 8 бит
Тип развёртки : Прогрессивная
Метод сжатия : С потерями
Бит/(Пиксели*Кадры) : 0.178
Размер потока : 482 Мбайт (88%)
Библиотека кодирования : XviD 73
Аудио
Идентификатор : 1
Формат : AC-3
Формат/Информация : Audio Coding 3
Расширение режима : CM (complete main)
Параметр Endianness формата : Big
Идентификатор кодека : 2000
Продолжительность : 43 м. 42 с.
Вид битрейта : Постоянный
Битрейт : 192 Кбит/сек
Каналы : 2 канала
Расположение каналов : Front: L R
Частота : 48,0 КГц
Частота кадров : 31,250 кадров/сек (1536 spf)
Метод сжатия : С потерями
Размер потока : 60,0 Мбайт (11%)
Выравнивание : Разделение по промежуткам
Продолжительность промежутка : 33 мс. (1,00 видеокадр)
Время предзагрузки промежутка : 500 мс.
Скриншоты:
       

Omen

Пост 18-Окт-2015 19:36

[Цитировать]

Discovery: Разрушители легенд. Полёт фантазии
MythBusters. Flights of Fantasy
- Телекомпания: Discovery
Жанр: Познавательное шоу
Ведущий: Adam Savage, Jamie Hyneman, Kari Byron, Grant Imahara, Tory Belleci
Режиссер: Steve Christiansen, Lauren Williams
Описание:
«Разрушители легенд» (англ. MythBusters) — американская научно-популярная телепередача на канале Discovery Channel. Передачу ведут специалисты по спецэффектам Джейми Хайнеман и Адам Севидж, использующие свои навыки и опыт для экспериментальной проверки различных баек, слухов, городских легенд и других порождений популярной культуры. Съёмки передачи обычно проходят в области залива Сан-Франциско.
Каждый из часовых выпусков «Разрушители легенд» посвящён двум или трём городским легендам, распространённым убеждениям или слухам из интернета. Основной миф часто требует всесторонней подготовки и полигона, кроме него в передачу также включают один-два не столь хлопотных в плане подготовки и проведения мифа. На сегодняшний день, однако, три эксперимента (35, 40, и 46) были настолько сложными, что заняли весь час, отведённый на передачу.
Перевод: Профессиональный (многоголосый, закадровый)
Релиз от: vn_tuzhilin
Продолжительность: ~ 00:43:59
Качество видео: SATRip
Видео: MPEG4, XviD, 720x400 (16:9), 25.000 fps, 1 427 Kbps (0.198 bit/pixel)
Аудио: MP3, 44.1 KHz, 2 ch, 128 Kbps, CBR

Mediainfo:

Код:
Формат                                   : AVI
Формат/Информация                        : Audio Video Interleave
Размер файла                             : 492 Мбайт
Продолжительность                        : 43 м.
Общий поток                              : 1565 Кбит/сек
Программа кодирования                    : VirtualDubMod 1.5.10.2 (build 2540/release)
Библиотека кодирования                   : VirtualDubMod build 2540/release
Видео
Идентификатор                            : 0
Формат                                   : MPEG-4 Visual
Профиль формата                          : Advanced [email protected]
Параметр BVOP формата                    : 1
Параметр QPel формата                    : Нет
Параметр GMC формата                     : Без точки перехода
Параметр матрицы формата                 : Default (H.263)
Идентификатор кодека                     : XVID
Идентификатор кодека/Подсказка           : XviD
Продолжительность                        : 43 м.
Битрейт                                  : 1427 Кбит/сек
Ширина                                   : 720 пикселей
Высота                                   : 400 пикселей
Соотношение сторон                       : 16:9
Частота кадров                           : 25,000 кадров/сек
Цветовое пространство                    : YUV
Субдискретизация насыщенности            : 4:2:0
Битовая глубина                          : 8 бит
Тип развёртки                            : Прогрессивная
Метод сжатия                             : С потерями
Бит/(Пиксели*Кадры)                      : 0.198
Размер потока                            : 449 Мбайт (91%)
Библиотека кодирования                   : XviD 1.2.1 (UTC 2008-12-04)
Аудио
Идентификатор                            : 1
Формат                                   : MPEG Audio
Версия формата                           : Version 1
Профиль формата                          : Layer 3
Идентификатор кодека                     : 55
Идентификатор кодека/Подсказка           : MP3
Продолжительность                        : 43 м.
Вид битрейта                             : Постоянный
Битрейт                                  : 128 Кбит/сек
Каналы                                   : 2 канала
Частота                                  : 44,1 КГц
Метод сжатия                             : С потерями
Размер потока                            : 40,3 Мбайт (8%)
Выравнивание                             : Разделение по промежуткам
Продолжительность промежутка             : 40  мс. (1,00 видеокадр)
Время предзагрузки промежутка            : 500  мс.
Библиотека кодирования                   : LAME3.98r
Настройки программы                      : -m s -V 4 -q 2 -lowpass 17 -b 128

В выпуске:

Добро пожаловать на борт к разрушителям легенд, пристегните ремни, откиньте спинку кресла и наслаждайтесь полётом с нашими пилотами Адамом и Джейми.
Скриншоты:
       

Omen

Пост 18-Окт-2015 19:36

[Цитировать]

Discovery: Разрушители легенд. Взрыв на воде
MythBusters. Blow It Out Of The Water
- Телекомпания: Discovery
Жанр: Познавательное шоу
Ведущий: Adam Savage, Jamie Hyneman, Kari Byron, Grant Imahara, Tory Belleci
Режиссер: Steve Christiansen, Lauren Williams
Описание:
«Разрушители легенд» (англ. MythBusters) — американская научно-популярная телепередача на канале Discovery Channel. Передачу ведут специалисты по спецэффектам Джейми Хайнеман и Адам Севидж, использующие свои навыки и опыт для экспериментальной проверки различных баек, слухов, городских легенд и других порождений популярной культуры. Съёмки передачи обычно проходят в области залива Сан-Франциско.
Каждый из часовых выпусков «Разрушители легенд» посвящён двум или трём городским легендам, распространённым убеждениям или слухам из интернета. Основной миф часто требует всесторонней подготовки и полигона, кроме него в передачу также включают один-два не столь хлопотных в плане подготовки и проведения мифа. На сегодняшний день, однако, три эксперимента (35, 40, и 46) были настолько сложными, что заняли весь час, отведённый на передачу.
Перевод: Профессиональный (многоголосый, закадровый)
Релиз от: vn_tuzhilin
Продолжительность: ~ 00:43:46
Качество видео: SATRip
Видео: MPEG4, XviD, 720x400 (16:9), 25.000 fps, 1 554 Kbps (0.216 bit/pixel)
Аудио: MP3, 44.1 KHz, 2 ch, 128 Kbps, CBR

Mediainfo:

Код:
Формат                                   : AVI
Формат/Информация                        : Audio Video Interleave
Размер файла                             : 530 Мбайт
Продолжительность                        : 43 м.
Общий поток                              : 1692 Кбит/сек
Программа кодирования                    : VirtualDubMod 1.5.10.2 (build 2540/release)
Библиотека кодирования                   : VirtualDubMod build 2540/release
Видео
Идентификатор                            : 0
Формат                                   : MPEG-4 Visual
Профиль формата                          : Advanced [email protected]
Параметр BVOP формата                    : 1
Параметр QPel формата                    : Нет
Параметр GMC формата                     : Без точки перехода
Параметр матрицы формата                 : Default (H.263)
Идентификатор кодека                     : XVID
Идентификатор кодека/Подсказка           : XviD
Продолжительность                        : 43 м.
Битрейт                                  : 1554 Кбит/сек
Ширина                                   : 720 пикселей
Высота                                   : 400 пикселей
Соотношение сторон                       : 16:9
Частота кадров                           : 25,000 кадров/сек
Цветовое пространство                    : YUV
Субдискретизация насыщенности            : 4:2:0
Битовая глубина                          : 8 бит
Тип развёртки                            : Прогрессивная
Метод сжатия                             : С потерями
Бит/(Пиксели*Кадры)                      : 0.216
Размер потока                            : 487 Мбайт (92%)
Библиотека кодирования                   : XviD 1.2.1 (UTC 2008-12-04)
Аудио
Идентификатор                            : 1
Формат                                   : MPEG Audio
Версия формата                           : Version 1
Профиль формата                          : Layer 3
Идентификатор кодека                     : 55
Идентификатор кодека/Подсказка           : MP3
Продолжительность                        : 43 м.
Вид битрейта                             : Постоянный
Битрейт                                  : 128 Кбит/сек
Каналы                                   : 2 канала
Частота                                  : 44,1 КГц
Метод сжатия                             : С потерями
Размер потока                            : 40,1 Мбайт (8%)
Выравнивание                             : Разделение по промежуткам
Продолжительность промежутка             : 40  мс. (1,00 видеокадр)
Время предзагрузки промежутка            : 500  мс.
Библиотека кодирования                   : LAME3.98r
Настройки программы                      : -m s -V 4 -q 2 -lowpass 17 -b 128

В выпуске:

Адам и Джейми вновь берутся за проверку! Может ли лодка выдержать взрыв бомбы, которая будет находится под ней в воде?
Возможно ли установить в багажник автомобиля пулемет на дистанционное управление и использовать его для расстрела полной комнаты людей, как в финале сериала "Во все тяжкие"?
Скриншоты:
       

Aikivas

Пост 05-Авг-2015 22:32

[Цитировать]

Discovery. Катастрофа на колесах / Wheels That Fail - Телекомпания: США, Discovery Channel
Жанр: Документальный, Телепередача
Описание:
Герои этой программы съехали с катушек – когда они за рулем, это просто катастрофа! Такой подборки видео о происшествиях на колесах вы еще не видели: Discovery Channel выбрал самые смешные, самые опасные и самые захватывающие ролики, где автомобили и мотоциклы сталкиваются, переворачиваются, взрываются, падают в воду, летят под откос – и этот список можно продолжать бесконечно. Эти кадры были запечатлены на дорожные камеры, видеорегистраторы и смартфоны случайных очевидцев, - какие-то из них невозможно смотреть без страха, а какие-то вызывают смех.Вы увидите неудавшиеся трюки каскадеров, примеры неудачного стечения обстоятельств, а также последствия глупого и неумелого вождения – вам даже в голову не придет, на что порой решаются горе-водители. Расплата не заставляет себя ждать: тачка вдребезги, а над ее владельцем смеются миллионы зрителей.
Продолжительность: Серия по ~00:22:00
Качество видео: HDTVRip
Перевод: Одноголосый закадровый, профессиональный
Видео: Xvid, 720x400, ~1540 Кбит/сек
Аудио: AC3, 2 ch, 192 Кбит/cек

Mediainfo:

Код:
Общее
Формат                                   : AVI
Формат/Информация                        : Audio Video Interleave
Размер файла                             : 274 Мбайт
Продолжительность                        : 21 м.
Общий поток                              : 1743 Кбит/сек
Программа кодирования                    : VirtualDubMod 1.5.10.3 | [url=http://www.virtualdub-fr.org]www.virtualdub-fr.org[/url] || (build 2550/release)
Библиотека кодирования                   : VirtualDubMod build 2550/release
Видео
Идентификатор                            : 0
Формат                                   : MPEG-4 Visual
Профиль формата                          : Advanced [email protected]
Параметр BVOP формата                    : 1
Параметр QPel формата                    : Нет
Параметр GMC формата                     : Без точки перехода
Параметр матрицы формата                 : Default (H.263)
Идентификатор кодека                     : XVID
Идентификатор кодека/Подсказка           : XviD
Продолжительность                        : 21 м.
Битрейт                                  : 1540 Кбит/сек
Ширина                                   : 720 пикселей
Высота                                   : 400 пикселей
Соотношение сторон                       : 16:9
Частота кадров                           : 30,000 кадров/сек
Цветовое пространство                    : YUV
Субдискретизация насыщенности            : 4:2:0
Битовая глубина                          : 8 бит
Тип развёртки                            : Прогрессивная
Метод сжатия                             : С потерями
Бит/(Пиксели*Кадры)                      : 0.178
Размер потока                            : 242 Мбайт (88%)
Библиотека кодирования                   : XviD 1.2.1 (UTC 2008-12-04)
Аудио
Идентификатор                            : 1
Формат                                   : AC-3
Формат/Информация                        : Audio Coding 3
Расширение режима                        : CM (complete main)
Параметр Endianness формата              : Big
Идентификатор кодека                     : 2000
Продолжительность                        : 21 м.
Вид битрейта                             : Постоянный
Битрейт                                  : 192 Кбит/сек
Каналы                                   : 2 канала
Расположение каналов                     : Front: L R
Частота                                  : 48,0 КГц
Метод сжатия                             : С потерями
Размер потока                            : 30,2 Мбайт (11%)
Выравнивание                             : Разделение по промежуткам
Продолжительность промежутка             : 33  мс. (1,00 видеокадр)
Время предзагрузки промежутка            : 500  мс.
Скриншоты:
       

Omen

Пост 23-Июл-2015 18:13

[Цитировать]

Discovery. Византия: Утраченная Империя
Byzantium: The Lost Empire
-Год выпуска: 1997
Год выхода дисков: 2006
Страна: США
Жанр: Документальный
Режиссер: Рон Джонсон
Перевод: Профессиональный (одноголосый)- Название на русском: Византия: Утраченная Империя – Рай на земле
Оригинальное название: Byzantium: The Lost Empire – Heaven on Earth
Продолжительность: 00:52:07
Совершите путешествие вглубь веков в поисках происхождения западной веры. История Византии, первого христианского государства, – это история торжества веры. Византийские императоры стремились превратить Константинополь, «око веры христианской», в Новый Иерусалим, который стал бы раем на Земле. Эта программа расскажет об удивительном духовном наследии Византии: рукописях, мозаиках и иконах.
.
Звук: 1 - русский, 2 - английский
Video: XVID 624x384 25.00fps 2497Kbps [Video 0]
Audio: Dolby AC3 48000Hz stereo 192Kbps [Audio 1]
Audio: MPEG Audio Layer 3 48000Hz stereo 112Kbps [Audio 2]- Название на русском: Византия: Утраченная империя – На пороге вечности
Оригинальное название: Byzantium: The Lost Empire – Forever and Ever
Продолжительность: 00:46:51
За свою тысячелетнюю историю Византия знала и величие славы, и горечь сокрушительных поражений. Центр христианского мира, Византия сыграла огромную роль в становлении культуры многих государств и народов, вовлеченных в орбиту имперской «вселенной». В период расцвета ее влияние распространялось от Древней Руси до Африки. Византийцы умели искусно приобретать союзников даже среди своих врагов, не раз пытавшихся завоевать эту могущественную империю. Но распри византийской знати и борьба за императорский престол разрушали Византию. В 1453 Константинополь был взят штурмом турецкой армией и разграблен. Византия прекратила своё существование, а её территория вошла в состав Османской империи.
Звук: 1 - русский, 2 - английский
Video: XVID 720x464 25.00fps 2812Kbps [Video 0]
Audio: Dolby AC3 48000Hz stereo 192Kbps [Audio 1]
Audio: MPEG Audio Layer 3 48000Hz stereo 114Kbps [Audio 2]
Скриншоты:- Название на русском: Византия: Утраченная Империя – Воплощение мечты
Оригинальное название: Byzantium: The Lost Empire – Building the Dream
Продолжительность: 00:52:21
В 330 г. император Константин основал новую столицу Римской империи на месте торгового греческого города Византия. Впоследствии империя разделилась на две части – Западную и Восточную. Первая пала под натиском германских племен, а вторая – «Империя ромеев и греков», или Византия – просуществовала целое тысячелетие, создав на стыке Востока и Запада уникальную культуру, удивительным образом соединявшую в себе черты греко-римской цивилизации и восточной деспотии. Эта программа, открывающая цикл фильмов о истории и культуре Византии, расскажет о становлении великой древней империи.
Звук: 1 - русский, 2 - английский
Video: XVID 688x432 25.00fps 2482Kbps [Video 0]
Audio: Dolby AC3 48000Hz stereo 192Kbps [Audio 1]
Audio: MPEG Audio Layer 3 48000Hz stereo 114Kbps [Audio 2]- Название на русском: Византия: Утраченная империя – На зависть всем
Оригинальное название: Byzantium: The Lost Empire – Envy of the World
Продолжительность: 00:52:19
На Византию с жадным интересом смотрели многие европейские монархи. Ни один правитель не обладал таким могуществом, как император Византии. Дорогие ткани, сверкающие эмали, убранные золотом и драгоценными камнями одежды, изделия из слоновой кости, бесценные благовония – эти несметные богатства восхищали и притягивали взоры. Огромные сокровища хранили в себе византийские храмы, императорские дворцы, дома знати. Узнайте больше об изумительной культуре средневековой Византии и ее столицы Константинополя - неправдоподобно богатого города, который называли «предметом желаний всего мира»!
Звук: 1 - русский, 2 - английский
Video: XVID 688x432 25.00fps 2486Kbps [Video 0]
Audio: Dolby AC3 48000Hz stereo 192Kbps [Audio 1]
Audio: MPEG Audio Layer 3 48000Hz stereo 113Kbps [Audio 2]

Omen

Пост 23-Июл-2015 18:04

[Цитировать]

Discovery.
Дорожные ковбои
Аsphalt Сowboys
- Телекомпания: Германия, Discovery Channel
Жанр: Документальный, Телепередача
Описание:
Дальнобойщики Германии – уже своего рода водительская элита, а для тех, кто хочет почувствовать себя за рулем фуры, даже придумали компьютерный симулятор. Теперь же на работу дальнобойщиков можно посмотреть со всех ракурсов: программа Discovery Channel «Дорожные ковбои» расскажет о том, каково это – наматывать километры по автобанам, сидя в кабине немецкого грузовика.
В Германии для водителей разработан целый свод правил, упрощающих им жизнь. Например, время поездки строго регулируется – за сутки можно проводить в дороге не более 9 часов, а переработка всего на 1 час допускается только два раза в неделю. Кроме того, в целях повышения безопасности каждый грузовик в Германии оснащается автоматическим самописцем, а во многих из них есть еще и встроенные передатчики, позволяющие отследить местоположение машины в реальном времени. Личный комфорт работника тоже играет не последнюю роль – каждые 4,5 часа водитель должен останавливаться и делать перерыв, а на сон отводится как минимум 11 часов. Немецкие компании ценят своих перевозчиков, ведь стать дальнобойщиком в Германии не так-то просто. Тогда почему люди выбирают эту профессию?
Продолжительность: Серия по ~00:44:00
Качество видео: HDTVRip
Перевод: Одноголосый закадровый, профессиональный
Видео: Xvid, 720x400, 720x392, ~1540 Кбит/сек
Аудио: AC3, 2 ch, 192 Кбит/cек

Mediainfo:

720x392:

Код:
Общее
Формат                                   : AVI
Формат/Информация                        : Audio Video Interleave
Размер файла                             : 545 Мбайт
Продолжительность                        : 43 м.
Общий поток                              : 1743 Кбит/сек
Программа кодирования                    : VirtualDubMod 1.5.10.3 | [url=http://www.virtualdub-fr.org]www.virtualdub-fr.org[/url] || (build 2550/release)
Библиотека кодирования                   : VirtualDubMod build 2550/release
Видео
Идентификатор                            : 0
Формат                                   : MPEG-4 Visual
Профиль формата                          : Advanced [email protected]
Параметр BVOP формата                    : 1
Параметр QPel формата                    : Нет
Параметр GMC формата                     : Без точки перехода
Параметр матрицы формата                 : Default (H.263)
Идентификатор кодека                     : XVID
Идентификатор кодека/Подсказка           : XviD
Продолжительность                        : 43 м.
Битрейт                                  : 1539 Кбит/сек
Ширина                                   : 704 пикселя
Высота                                   : 392 пикселя
Соотношение сторон                       : 16:9
Частота кадров                           : 30,000 кадров/сек
Цветовое пространство                    : YUV
Субдискретизация насыщенности            : 4:2:0
Битовая глубина                          : 8 бит
Тип развёртки                            : Прогрессивная
Метод сжатия                             : С потерями
Бит/(Пиксели*Кадры)                      : 0.186
Размер потока                            : 481 Мбайт (88%)
Библиотека кодирования                   : XviD 1.2.1 (UTC 2008-12-04)
Аудио
Идентификатор                            : 1
Формат                                   : AC-3
Формат/Информация                        : Audio Coding 3
Расширение режима                        : CM (complete main)
Параметр Endianness формата              : Big
Идентификатор кодека                     : 2000
Продолжительность                        : 43 м.
Вид битрейта                             : Постоянный
Битрейт                                  : 192 Кбит/сек
Каналы                                   : 2 канала
Расположение каналов                     : Front: L R
Частота                                  : 48,0 КГц
Метод сжатия                             : С потерями
Размер потока                            : 60,0 Мбайт (11%)
Выравнивание                             : Разделение по промежуткам
Продолжительность промежутка             : 33  мс. (1,00 видеокадр)
Время предзагрузки промежутка            : 500  мс.

720x400:

Код:
Общее
Формат                                   : AVI
Формат/Информация                        : Audio Video Interleave
Размер файла                             : 541 Мбайт
Продолжительность                        : 43 м.
Общий поток                              : 1743 Кбит/сек
Программа кодирования                    : VirtualDubMod 1.5.10.3 | [url=http://www.virtualdub-fr.org]www.virtualdub-fr.org[/url] || (build 2550/release)
Библиотека кодирования                   : VirtualDubMod build 2550/release
Видео
Идентификатор                            : 0
Формат                                   : MPEG-4 Visual
Профиль формата                          : Advanced [email protected]
Параметр BVOP формата                    : 1
Параметр QPel формата                    : Нет
Параметр GMC формата                     : Без точки перехода
Параметр матрицы формата                 : Default (H.263)
Идентификатор кодека                     : XVID
Идентификатор кодека/Подсказка           : XviD
Продолжительность                        : 43 м.
Битрейт                                  : 1539 Кбит/сек
Ширина                                   : 720 пикселей
Высота                                   : 400 пикселей
Соотношение сторон                       : 16:9
Частота кадров                           : 30,000 кадров/сек
Цветовое пространство                    : YUV
Субдискретизация насыщенности            : 4:2:0
Битовая глубина                          : 8 бит
Тип развёртки                            : Прогрессивная
Метод сжатия                             : С потерями
Бит/(Пиксели*Кадры)                      : 0.178
Размер потока                            : 478 Мбайт (88%)
Библиотека кодирования                   : XviD 1.2.1 (UTC 2008-12-04)
Аудио
Идентификатор                            : 1
Формат                                   : AC-3
Формат/Информация                        : Audio Coding 3
Расширение режима                        : CM (complete main)
Параметр Endianness формата              : Big
Идентификатор кодека                     : 2000
Продолжительность                        : 43 м.
Вид битрейта                             : Постоянный
Битрейт                                  : 192 Кбит/сек
Каналы                                   : 2 канала
Расположение каналов                     : Front: L R
Частота                                  : 48,0 КГц
Метод сжатия                             : С потерями
Размер потока                            : 59,6 Мбайт (11%)
Выравнивание                             : Разделение по промежуткам
Продолжительность промежутка             : 33  мс. (1,00 видеокадр)
Время предзагрузки промежутка            : 500  мс.
Скриншоты:
       

720x400:

       

Omen

Пост 19-Май-2015 21:59

[Цитировать]

Discovery. В погоне за кометой: Розетта
Landing on a Comet: The Rosetta Mission
- Режиссер / Телекомпания: Шилли Айрс / Discovery Science
Страна: США
Год выпуска: 2014
Жанр: Документальный, научно-познавательный, космос
Продолжительность: 00:48:07
Перевод: Одноголосый закадровый (профессиональный)
Видеокодек: MPEG-4 AVC/H.264
Битрейт видео: ~4 000 Kбит/с
Размер кадра: 1280 x 720
Качество видео: HDTVRip [720p]
Аудио: MP3, 2 ch, 128 Кбит/с
Описание: 12 января 2003 года ракета-носитель "Ариан-5" была доставлена на космодром "Куру", расположенный в Южной Америке с аппаратом "Розетта", приготовленным для запуска, однако запуск не состоялся: при старте произошел отказ двигателей. Старт был перенесен на 26 февраля 2004 года, однако времени для подготовки не хватило. После двух провальных попыток ESA предприняли третью: 2 марта 2004 года ракета "Ариан 5G+" оторвалась от Земли. В ноябре 2014 года от Розетты отделиться спускаемый модуль "Филы". Спустя несколько часов произойдет контакт с кометой и пружинный механизм выпустит гарпун, призванный надежно закрепить устройство на комете и исключить риск ухода в открытый космос.

MediaInfo

Общее
Уникальный идентификатор : 58854025133541602049218642520999822375 (0x2C46DF78AF163A91C83B0C9578618427)
Полное имя : D:\Temp\DiscoveryScience.Landing.on.a.comet.Rosetta.HDTVRip.720p.mkv
Формат : Matroska
Версия формата : Version 2
Размер файла : 1,39 Гбайт
Продолжительность : 48 м.
Общий поток : 4124 Кбит/сек
Программа кодирования : Lavf52.39.0
Библиотека кодирования : Lavf52.39.0
Видео
Идентификатор : 1
Формат : AVC
Формат/Информация : Advanced Video Codec
Профиль формата : [url=mailto:[email protected]][email protected][/url]
Параметр CABAC формата : Да
Параметр ReFrames формата : 2 кадра
Идентификатор кодека : V_MPEG4/ISO/AVC
Продолжительность : 48 м.
Битрейт : 4000 Кбит/сек
Ширина : 1280 пикселей
Высота : 720 пикселей
Соотношение сторон : 16:9
Режим частоты кадров : Постоянный
Частота кадров : 25,000 кадров/сек
Цветовое пространство : YUV
Субдискретизация насыщенности : 4:2:0
Битовая глубина : 8 бит
Тип развёртки : Прогрессивная
Бит/(Пиксели*Кадры) : 0.174
Размер потока : 1,32 Гбайт (95%)
Библиотека кодирования : x264 core 77
Настройки программы : cabac=1 / ref=1 / deblock=1:0:0 / analyse=0x1:0x11 / me=hex / subme=5 / psy=1 / psy_rd=0.0:0.0 / mixed_ref=0 / me_range=16 / chroma_me=1 / trellis=1 / 8x8dct=0 / cqm=0 / deadzone=21,11 / chroma_qp_offset=0 / threads=2 / nr=0 / decimate=1 / mbaff=0 / constrained_intra=0 / bframes=2 / b_pyramid=0 / b_adapt=1 / b_bias=0 / direct=1 / wpredb=0 / keyint=250 / keyint_min=25 / scenecut=40 / rc_lookahead=40 / rc=abr / mbtree=1 / bitrate=4000 / ratetol=1.0 / qcomp=0.60 / qpmin=10 / qpmax=51 / qpstep=4 / ip_ratio=1.41 / aq=1:1.00
Default : Да
Forced : Нет
Аудио
Идентификатор : 2
Формат : MPEG Audio
Версия формата : Version 1
Профиль формата : Layer 3
Режим : Joint stereo
Расширение режима : MS Stereo
Идентификатор кодека : A_MPEG/L3
Идентификатор кодека/Подсказка : MP3
Продолжительность : 48 м.
Вид битрейта : Постоянный
Битрейт : 128 Кбит/сек
Каналы : 2 канала
Частота : 44,1 КГц
Метод сжатия : С потерями
Задержка видео : -40 мс.
Размер потока : 44,1 Мбайт (3%)
Default : Да
Forced : Нет
Скриншоты:
         
         

Omen

Пост 16-Май-2015 22:39

[Цитировать]

Золотая лихорадка:
Gold Rush:
- Телекомпания: Discovery
Жанр: Документальный, Телепередача
Описание:
Кто из соперников одержит верх на этот раз – бригада Паркера или команда Хоффмана? Кому удастся переманить на свою сторону лучших мастеров и добыть самую современную и производительную технику? И кого ждет награда в виде золотых слитков, золотого песка и многотысячной выручки, а кто останется у разбитого старательского лотка?
Отец и сын Хоффманы, главные герои программы «Золотая лихорадка», стали старателями поневоле, потеряв прибыльную работу в теплом офисе. Они набрали бригаду единомышленников и отправились на Аляску по следам легендарных золотодобытчиков времен «Золотой лихорадки». Добыча шла с переменным успехом, и Хоффманы решили расширить географию, сменив вечную мерзлоту на джунгли.
Но трудности создает не только природа – в дело вмешались конкуренты, и в первую очередь бригада Паркера. В новых сериях Паркер переманивает у Хоффманов лучшего механика и покупает новое оборудование, так что теперь у него все козыри в руках. Для Хоффмана это был удар ниже пояса, но он не привык отступать, а значит, у него обязательно найдется туз в рукаве!
Продолжительность: 1-я серия 01:27:37, остальные ~00:45:00
Качество видео: HDTVRip [1080p]
Перевод: Многоголосый закадровый, профессиональный
Видеокодек: MPEG-4 AVC/H.264 [H.264/1080p-LQ]
Битрейт видео: ~3200 Кбит/сек
Размер кадра: 1920х1080
Аудиокодек: AAC
Битрейт аудио: 48 kHz, 2/0 (L,R) ch, 192.00 kbps avg

Mediainfo:

Код:
General
Unique ID                   : 196681502680716818184372991931325196581 (0x93F77AC3EB454AD98EE2FF2B29D9A925)
Complete name               : I:\recover-1\Torrents1\video\Zolotaya.Lihoradka.5.season\Zolotaya.Lihoradka.1.mkv
Format                      : Matroska
Format version              : Version 4 / Version 2
File size                   : 1.96 GiB
Duration                    : 1h 27mn
Overall bit rate            : 3 199 Kbps
Movie name                  : Золотая Лихорадка - Сезон 5 - Серия 1 - Плохой Кодер
Encoded date                : UTC 2015-02-05 22:30:33
Writing application         : mkvmerge v7.5.0 ('Glass Culture') 64bit built on Jan  4 2015 16:48:44
Writing library             : Lavf53.31.100
_STATISTICS_WRITING_APP     : mkvmerge v7.5.0 ('Glass Culture') 64bit built on Jan  4 2015 16:48:44
_STATISTICS_WRITING_DATE_UT : 2015-02-05 22:30:33
_STATISTICS_TAGS            : BPS DURATION NUMBER_OF_FRAMES NUMBER_OF_BYTES
DURATION                    : 01:27:37.109000000
NUMBER_OF_FRAMES            : 246427
NUMBER_OF_BYTES             : 126183484
Video
ID                          : 1
Format                      : AVC
Format/Info                 : Advanced Video Codec
Format profile              : [url=mailto:[email protected]][email protected][/url]
Format settings, CABAC      : Yes
Format settings, ReFrames   : 4 frames
Codec ID                    : V_MPEG4/ISO/AVC
Duration                    : 1h 27mn
Width                       : 1 920 pixels
Height                      : 1 080 pixels
Display aspect ratio        : 16:9
Frame rate mode             : Constant
Frame rate                  : 25.000 fps
Color space                 : YUV
Chroma subsampling          : 4:2:0
Bit depth                   : 8 bits
Scan type                   : Progressive
Default                     : Yes
Forced                      : No
_STATISTICS_WRITING_APP     : mkvmerge v7.5.0 ('Glass Culture') 64bit built on Jan  4 2015 16:48:44
_STATISTICS_WRITING_DATE_UT : 2015-02-05 22:30:33
_STATISTICS_TAGS            : BPS DURATION NUMBER_OF_FRAMES NUMBER_OF_BYTES
DURATION                    : 01:27:37.120000000
NUMBER_OF_FRAMES            : 131428
NUMBER_OF_BYTES             : 1974605764
Audio
ID                          : 2
Format                      : AAC
Format/Info                 : Advanced Audio Codec
Format profile              : LC
Codec ID                    : A_AAC
Duration                    : 1h 27mn
Channel(s)                  : 2 channels
Channel positions           : Front: L R
Sampling rate               : 48.0 KHz
Compression mode            : Lossy
Delay relative to video     : -191ms
Title                       : Discovery Channel Россия
Language                    : Russian
Default                     : Yes
Forced                      : No

Серии


1. Свежая кровь
Молодой Паркер устанавливает новую сезонную планку – 2000 унций золота. Тони Битс покупает 75-летнюю золотодобывающую установку. Тодд Хоффман оказывается разорен, у него нет команды и планов на будущее.
2. Из праха
Золотоочиститель Тодда застрял в реке, Тони чуть не раздавил своего сына под транспортером, а Паркер вынужден добывать золото в болоте.
3. Золотой мальчик
Паркер спорит со своей командой по поводу работы ночью. Тони повреждает одну из деталей экскаватора. Тодд, Джек и Тербер берутся за свою первую очистку.
4. Корабль Викингов
Тодд вынужден продать свое золото, чтобы приобрести необходимое снаряжение. Паркер тащит золотоочистительную машину через весь свой участок, в Тони забирается на высоту, чтобы добраться до золотой жилы.
5. Сложная сделка
Дейв соглашается работать с командой Хоффмана на новых условиях. Тони почти достиг цели, убрав самую тяжелую часть руды, а Паркер спорит с Риком по поводу работ на неизведанной территории.
6. Проклятый ход
Дейв и Тодд спорят по поводу работы с замерзшей почвой. Моника, дочь Тони, оказывается в плохой ситуации. Надежды Паркера рушатся из-за потопа.
7. Голдзилла
Тодд должен найти сто унций золота, чтобы совершить покупку. Паркер тратит почти четверть миллиона на новое снаряжение. Тони пытается избавиться от рулевой рубки на своей 75-летней золотоочистительной машине.
8. Смерть и золото
Паркер Шнабель рискует всем и бросает разрез Свомп Кат. За очень короткое время его команде придется не легко, им в очередной раз понадобиться перенести грохот. Но результат такой рискованной операции, принесет Паркеру хорошее вознаграждение. Тони Битс вместе со своей командой продолжает разбирать 75 летнюю драгу. Однако все идет совсем не так, как хотелось бы Тони. И только когда Тони приходит на помощь дочь Моника - дело сдвигается с мертвой точки. Хоффманы и Дэйв Тюрин устанавливают новый грохот Монстр Ред на своем прииске, поможет ли это ребятам в добыче золота - покажет время.
9. Колоссальная промывка
Команда Дэйва Тюрина и Тодда Хоффмана возвращается в игру благодаря тромелю монстру Биг Ред. Тони Битс отправляет на прииск последнюю запчасть 75 летней драги. Благодаря риску, Паркер Шнабель бъет собственные рекорды по добыче золота. Насколько удачно - узнаем уже скоро.
10. Дедушка Джон
Специальный выпуск о жизни 94-летнего легендарного золотоискателя - Джона Шнабеля. Из пыльных бурь Канзаса к карьере Джона на золотом руднике Аляски. Дедушку Джона продолжает вдохновлять его внук Паркер, который следует по его стопам.
11. Авария Паркера
Паркер Шнабель попадает в автомобильную аварию. Самосвалам Хоффманов не хватает места на дороге, Дэйв и Тодд исправляют ситуацию. Тони Битс начинает восстановление своей 75-летней драги.
12. Корабль дураков
Паркер и его дедушка начали охоту на новый прииск. У команды Тони возникла проблема из-за нехватки болтов, Тодд несет огромные финансовые потери.
13. Горы золота
Дєйв и Тодд имеют разногласия в выборе породы для промывки, но в итоге их ждет успех. Тони устанавливает грохот в 75 летнюю драгу. Тони устанавливает для Паркера новые правила из-за чего Паркер теряет прибыль.
14. Золотой путь
Логан попадает в аварию на своем самосвале. Команда Хоффманов стремится к большой промывке. Паркер сталкивается с вечной мерзлотой. Тони устанавливает тяжелую часть своей драги.
15. Взбунтовавшийся старатель
Тодд и Дэйв вязнут в грязи, они снова в тупике. У Паркера ломается экскаватор и заканчиваются варианты. Тони Битс восстанавливает свою драгу и в борьбе за время решается на отчаянный шаг.
16. Настоящий монстр
Паркер старается попасть на новый остров. У Тони Битс проблемы с электрикой его строящейся драги. Дэйв и Тодд в поисках нового месторождения.
17. Золотые реки
В конце сезона Хоффманы разрабатывают лучший золотоносный участок, однако из-за Джека работа останавливается. На Юрико крик у Тони все идет на перекосяк. Паркер меняет направление русла реки и находит багатые залежи.
18. Замерзшее золото
У Тони Битса все меньше и меньше времени и черпаковая цепь ставит сезон под угрозу. У команды Хоффмана нет породы, замерз промывочный жолоб. Паркер нашел основную россыпь, но техника подводит, а Юконская зима доставляет неприятные сюрпризы.
Скриншоты:        

Дополнительные скриншоты:

     

Clavik

Пост 20-Янв-2015 16:43

[Цитировать]

Discovery. Самая странная погода на Земле / Strangest Weather On Ear [1-10 серия из 10]- Режиссер: Никки Тилли
Телекомпания: Pioneer Production,
Производство: США
Жанр: Документальный, исследование
Описание: В этой новой увлекательной программе, исследующей самые странные погодные явления, мы встретимся с их очевидцами и узнаем о том, что говорит о них наука. Вас ждут такие поражающие воображение метеорологические чудеса, как взмывающие в небо огненные смерчи, прыгающие, как мяч по тротуару, шаровые молнии, причудливые облака, похожие на НЛО, и стена из пыли, накрывающая целый город. Некоторые из этих явлений настолько необычны, что они кажутся невероятными даже метеорологам.
Продолжительность: 10 x ~ 00:20:00
Перевод: Одноголосый закадровый (профессиональный)
Субтитры: отсутствуют
Качество видео: HDTVRip [720p]
Формат контейнера: MKV
Видеокодек: MPEG-4 AVC/H.264
Битрейт видео: ~5 200 Kбит/с
Размер кадра: 1280 x 720
Аудио: AAC 2 channels 48000Hz 192 kbps

Содержание (1-10 серии из 10)

Серия 1.Скриншоты:
       
-Серия 2.Скриншоты:
       
-Серия 3.Скриншоты:
       
-Серия 4.Скриншоты:
       
-Серия 5.Скриншоты:
       
-Серия 6.Скриншоты:
       
-Серия 7. Скриншоты:
       
-Серия 8.Скриншоты:
       
-Серия 9.Скриншоты:
       
-Серия 10.Скриншоты:
       

MediaInfo (параметры всех серий идентичны)

Общее
Уникальный идентификатор : 187994863863952258429784379242497512085 (0x8D6E7E67C0FF138985CF107056151295)
Полное имя : D:\Релизы\Strangest Weather On Earth\e-01.mkv
Формат : Matroska
Версия формата : Version 4 / Version 2
Размер файла : 780 Мбайт
Продолжительность : 20 м.
Общий поток : 5389 Кбит/сек
Дата кодирования : UTC 2014-04-17 13:52:00
Программа кодирования : mkvmerge v6.8.0 ('Theme for Great Cities') 64bit built on Mar 2 2014 21:34:26
Библиотека кодирования : libebml v1.3.0 + libmatroska v1.4.1
Видео
Идентификатор : 1
Формат : AVC
Формат/Информация : Advanced Video Codec
Профиль формата : [url=mailto:[email protected]][email protected][/url]
Параметр CABAC формата : Да
Параметр ReFrames формата : 6 кадров
Идентификатор кодека : V_MPEG4/ISO/AVC
Продолжительность : 20 м.
Номинальный битрейт : 5200 Кбит/сек
Ширина : 1280 пикселей
Высота : 720 пикселей
Соотношение сторон : 16:9
Режим частоты кадров : Постоянный
Частота кадров : 50,000 кадров/сек
Цветовое пространство : YUV
Субдискретизация насыщенности : 4:2:0
Битовая глубина : 8 бит
Тип развёртки : Прогрессивная
Бит/(Пиксели*Кадры) : 0.113
Библиотека кодирования : x264 core 130 r2273 b3065e6
Настройки программы : cabac=1 / ref=6 / deblock=1:0:0 / analyse=0x3:0x113 / me=umh / subme=9 / psy=1 / psy_rd=1.00:0.00 / mixed_ref=1 / me_range=24 / chroma_me=1 / trellis=1 / 8x8dct=1 / cqm=0 / deadzone=21,11 / fast_pskip=1 / chroma_qp_offset=-2 / threads=6 / lookahead_threads=1 / sliced_threads=0 / nr=0 / decimate=1 / interlaced=0 / bluray_compat=0 / constrained_intra=0 / bframes=6 / b_pyramid=2 / b_adapt=1 / b_bias=0 / direct=1 / weightb=1 / open_gop=0 / weightp=2 / keyint=500 / keyint_min=50 / scenecut=40 / intra_refresh=0 / rc_lookahead=40 / rc=2pass / mbtree=1 / bitrate=5200 / ratetol=1.0 / qcomp=0.60 / qpmin=0 / qpmax=69 / qpstep=4 / cplxblur=20.0 / qblur=0.5 / ip_ratio=1.40 / aq=1:1.00
Язык : English
Default : Да
Forced : Нет
Основные цвета : BT.709
Характеристики трансфера : BT.709
Коэффициенты матрицы : BT.709
Аудио
Идентификатор : 2
Формат : AAC
Формат/Информация : Advanced Audio Codec
Профиль формата : LC
Идентификатор кодека : A_AAC
Продолжительность : 20 м.
Каналы : 2 канала
Расположение каналов : Front: L R
Частота : 48,0 КГц
Метод сжатия : С потерями
Язык : Russian
Default : Да
Forced : Нет
Скриншоты:        

Дополнительные скриншоты

                                 

Omen

Пост 03-Янв-2015 17:46

[Цитировать]

Discovery: Стальные мышцы
American Muscle
(Выпуск 4)
- Режиссер / Телекомпания: Discovery
Русское название: Стальные мышцы
Оригинальное название: American Muscle
Год выпуска: 2014
Жанр: Документальный, спорт
Выпущено: США, Discovery HD
Описание:
Майк Барвис ненавидит выполнять чужие приказы — он открыл свой собственный спортзал, где без малейших колебаний совмещает научный подход с совершенно безумными методами тренировки.
Режиссер: Emi Macuaga
В выпуске: Бэрону Дэвису
Перевод: Профессиональный одноголосый
Продолжительность: 00:43:40
Видеокодек: Xvid
Битрейт видео: ~1520 Кбит/сек
Размер кадра: 720 x 400
Качество видео: HDTVRip
Аудиокодек: AC-3, 2ch.
Битрейт аудио: 192 Кбит/сек

MediaInfo:

Формат : AVI
Формат/Информация : Audio Video Interleave
Размер файла : 539 Мбайт
Продолжительность : 43 м.
Общий поток : 1725 Кбит/сек
Программа кодирования : VirtualDubMod 1.5.10.3 | www.virtualdub-fr.org || (build 2550/release)
Библиотека кодирования : VirtualDubMod build 2550/release
Видео
Идентификатор : 0
Формат : MPEG-4 Visual
Профиль формата : Advanced [email protected]
Параметр BVOP формата : 1
Параметр QPel формата : Нет
Параметр GMC формата : Без точки перехода
Параметр матрицы формата : Default (MPEG)
Идентификатор кодека : XVID
Идентификатор кодека/Подсказка : XviD
Продолжительность : 43 м.
Битрейт : 1522 Кбит/сек
Ширина : 720 пикселей
Высота : 400 пикселей
Соотношение сторон : 16:9
Частота кадров : 30,000 кадров/сек
Цветовое пространство : YUV
Субдискретизация насыщенности : 4:2:0
Битовая глубина : 8 бит
Тип развёртки : Прогрессивная
Метод сжатия : С потерями
Бит/(Пиксели*Кадры) : 0.176
Размер потока : 475 Мбайт (88%)
Библиотека кодирования : XviD 1.2.1 (UTC 2008-12-04)
Аудио
Идентификатор : 1
Формат : AC-3
Формат/Информация : Audio Coding 3
Расширение режима : CM (complete main)
Параметр Endianness формата : Big
Идентификатор кодека : 2000
Продолжительность : 43 м.
Вид битрейта : Постоянный
Битрейт : 192 Кбит/сек
Каналы : 2 канала
Расположение каналов : Front: L R
Частота : 48,0 КГц
Битовая глубина : 16 бит
Метод сжатия : С потерями
Размер потока : 60,0 Мбайт (11%)
Выравнивание : Разделение по промежуткам
Продолжительность промежутка : 33 мс. (1,00 видеокадр)
Время предзагрузки промежутка : 500 мс.
Скриншоты:        

Omen

Пост 03-Янв-2015 17:45

[Цитировать]

Discovery: Стальные мышцы
American Muscle
(Выпуск 3)
- Режиссер / Телекомпания: Discovery
Русское название: Стальные мышцы
Оригинальное название: American Muscle
Год выпуска: 2014
Жанр: Документальный, спорт
Выпущено: США, Discovery HD
Описание:
Майк Барвис ненавидит выполнять чужие приказы — он открыл свой собственный спортзал, где без малейших колебаний совмещает научный подход с совершенно безумными методами тренировки.
Режиссер: Emi Macuaga
В выпуске: Рашад Эванс
Перевод: Профессиональный одноголосый
Продолжительность: 00:43:41
Видеокодек: Xvid
Битрейт видео: ~1520 Кбит/сек
Размер кадра: 720 x 400
Качество видео: HDTVRip
Аудиокодек: AC-3, 2ch.
Битрейт аудио: 192 Кбит/сек

MediaInfo:

Формат : AVI
Формат/Информация : Audio Video Interleave
Размер файла : 539 Мбайт
Продолжительность : 43 м.
Общий поток : 1725 Кбит/сек
Программа кодирования : VirtualDubMod 1.5.10.3 | www.virtualdub-fr.org || (build 2550/release)
Библиотека кодирования : VirtualDubMod build 2550/release
Видео
Идентификатор : 0
Формат : MPEG-4 Visual
Профиль формата : Advanced [email protected]
Параметр BVOP формата : 1
Параметр QPel формата : Нет
Параметр GMC формата : Без точки перехода
Параметр матрицы формата : Default (MPEG)
Идентификатор кодека : XVID
Идентификатор кодека/Подсказка : XviD
Продолжительность : 43 м.
Битрейт : 1521 Кбит/сек
Ширина : 720 пикселей
Высота : 400 пикселей
Соотношение сторон : 16:9
Частота кадров : 30,000 кадров/сек
Цветовое пространство : YUV
Субдискретизация насыщенности : 4:2:0
Битовая глубина : 8 бит
Тип развёртки : Прогрессивная
Метод сжатия : С потерями
Бит/(Пиксели*Кадры) : 0.176
Размер потока : 475 Мбайт (88%)
Библиотека кодирования : XviD 1.2.1 (UTC 2008-12-04)
Аудио
Идентификатор : 1
Формат : AC-3
Формат/Информация : Audio Coding 3
Расширение режима : CM (complete main)
Параметр Endianness формата : Big
Идентификатор кодека : 2000
Продолжительность : 43 м.
Вид битрейта : Постоянный
Битрейт : 192 Кбит/сек
Каналы : 2 канала
Расположение каналов : Front: L R
Частота : 48,0 КГц
Битовая глубина : 16 бит
Метод сжатия : С потерями
Размер потока : 60,0 Мбайт (11%)
Выравнивание : Разделение по промежуткам
Продолжительность промежутка : 33 мс. (1,00 видеокадр)
Время предзагрузки промежутка : 500 мс.
Скриншоты:        

Omen

Пост 03-Янв-2015 17:45

[Цитировать]

Discovery: Стальные мышцы
American Muscle
(Выпуск 2)
- Режиссер / Телекомпания: Discovery
Русское название: Стальные мышцы
Оригинальное название: American Muscle
Год выпуска: 2014
Жанр: Документальный, спорт
Выпущено: США, Discovery HD
Описание:
Майк Барвис ненавидит выполнять чужие приказы — он открыл свой собственный спортзал, где без малейших колебаний совмещает научный подход с совершенно безумными методами тренировки.
Режиссер: Emi Macuaga
В выпуске: Ник Свишер
Перевод: Профессиональный одноголосый
Продолжительность: 00:43:51
Видеокодек: Xvid
Битрейт видео: ~1520 Кбит/сек
Размер кадра: 720 x 400
Качество видео: HDTVRip
Аудиокодек: AC-3, 2ch.
Битрейт аудио: 192 Кбит/сек

MediaInfo:

Формат : AVI
Формат/Информация : Audio Video Interleave
Размер файла : 541 Мбайт
Продолжительность : 43 м.
Общий поток : 1725 Кбит/сек
Программа кодирования : VirtualDubMod 1.5.10.3 | www.virtualdub-fr.org || (build 2550/release)
Библиотека кодирования : VirtualDubMod build 2550/release
Видео
Идентификатор : 0
Формат : MPEG-4 Visual
Профиль формата : Advanced [email protected]
Параметр BVOP формата : 1
Параметр QPel формата : Нет
Параметр GMC формата : Без точки перехода
Параметр матрицы формата : Default (MPEG)
Идентификатор кодека : XVID
Идентификатор кодека/Подсказка : XviD
Продолжительность : 43 м.
Битрейт : 1522 Кбит/сек
Ширина : 720 пикселей
Высота : 400 пикселей
Соотношение сторон : 16:9
Частота кадров : 30,000 кадров/сек
Цветовое пространство : YUV
Субдискретизация насыщенности : 4:2:0
Битовая глубина : 8 бит
Тип развёртки : Прогрессивная
Метод сжатия : С потерями
Бит/(Пиксели*Кадры) : 0.176
Размер потока : 477 Мбайт (88%)
Библиотека кодирования : XviD 1.2.1 (UTC 2008-12-04)
Аудио
Идентификатор : 1
Формат : AC-3
Формат/Информация : Audio Coding 3
Расширение режима : CM (complete main)
Параметр Endianness формата : Big
Идентификатор кодека : 2000
Продолжительность : 43 м.
Вид битрейта : Постоянный
Битрейт : 192 Кбит/сек
Каналы : 2 канала
Расположение каналов : Front: L R
Частота : 48,0 КГц
Битовая глубина : 16 бит
Метод сжатия : С потерями
Размер потока : 60,2 Мбайт (11%)
Выравнивание : Разделение по промежуткам
Продолжительность промежутка : 33 мс. (1,00 видеокадр)
Время предзагрузки промежутка : 500 мс.
Скриншоты:        

Omen

Пост 03-Янв-2015 17:44

[Цитировать]

Discovery: Стальные мышцы
American Muscle
(Выпуск 1)
- Режиссер / Телекомпания: Discovery
Русское название: Стальные мышцы
Оригинальное название: American Muscle
Год выпуска: 2014
Жанр: Документальный, спорт
Выпущено: США, Discovery HD
Описание:
Майк Барвис ненавидит выполнять чужие приказы — он открыл свой собственный спортзал, где без малейших колебаний совмещает научный подход с совершенно безумными методами тренировки.
Режиссер: Emi Macuaga
В выпуске: Пилотный выпуск
Спортивный гуру Майк Барвис ненавидит выполнять чужие приказы — он открыл свой собственный спортзал, где без малейших колебаний совмещает научный подход с совершенно безумными методами тренировки.
Перевод: Профессиональный одноголосый
Продолжительность: 00:43:42
Видеокодек: Xvid
Битрейт видео: ~1520 Кбит/сек
Размер кадра: 720 x 400
Качество видео: HDTVRip
Аудиокодек: AC-3, 2ch.
Битрейт аудио: 192 Кбит/сек

MediaInfo:

Формат : AVI
Формат/Информация : Audio Video Interleave
Размер файла : 539 Мбайт
Продолжительность : 43 м.
Общий поток : 1725 Кбит/сек
Программа кодирования : VirtualDubMod 1.5.10.3 | www.virtualdub-fr.org || (build 2550/release)
Библиотека кодирования : VirtualDubMod build 2550/release
Видео
Идентификатор : 0
Формат : MPEG-4 Visual
Профиль формата : Advanced [email protected]
Параметр BVOP формата : 1
Параметр QPel формата : Нет
Параметр GMC формата : Без точки перехода
Параметр матрицы формата : Default (MPEG)
Идентификатор кодека : XVID
Идентификатор кодека/Подсказка : XviD
Продолжительность : 43 м.
Битрейт : 1521 Кбит/сек
Ширина : 720 пикселей
Высота : 400 пикселей
Соотношение сторон : 16:9
Частота кадров : 30,000 кадров/сек
Цветовое пространство : YUV
Субдискретизация насыщенности : 4:2:0
Битовая глубина : 8 бит
Тип развёртки : Прогрессивная
Метод сжатия : С потерями
Бит/(Пиксели*Кадры) : 0.176
Размер потока : 476 Мбайт (88%)
Библиотека кодирования : XviD 1.2.1 (UTC 2008-12-04)
Аудио
Идентификатор : 1
Формат : AC-3
Формат/Информация : Audio Coding 3
Расширение режима : CM (complete main)
Параметр Endianness формата : Big
Идентификатор кодека : 2000
Продолжительность : 43 м.
Вид битрейта : Постоянный
Битрейт : 192 Кбит/сек
Каналы : 2 канала
Расположение каналов : Front: L R
Частота : 48,0 КГц
Битовая глубина : 16 бит
Метод сжатия : С потерями
Размер потока : 60,0 Мбайт (11%)
Выравнивание : Разделение по промежуткам
Продолжительность промежутка : 33 мс. (1,00 видеокадр)
Время предзагрузки промежутка : 500 мс.
Скриншоты:        
 

Текущее время: Сегодня 18:40

Часовой пояс: GMT + 3