Today is a free download without charge Download

Search found 26 matches

Author Message

papa-67

Post 18-Feb-2020 19:13

[Quote]

К сожалению качество на низком уровне((

mayor

Post 04-Jan-2020 19:42

[Quote]

- Холоп - Производство: Россия, Yellow, Black & White
Жанр: Комедия
Режиссер: Клим Шипенко
Продюсер: Эдуард Илоян, Таймураз Бадзиев, Вячеслав Дусмухаметов
Актеры: Милош Бикович, Александра Бортич, Александр Самойленко, Иван Охлобыстин, Мария Миронова, Олег Комаров, Ольга Дибцева, Кирилл Нагиев, Сергей Соцердотский, Софья Зайка
Описание:
Молодой мажор Гриша заигрался в красивую жизнь и решил, что ему всё дозволено. Он натворил много дел, и теперь ему грозит тюрьма. Чтобы исправить своего сына, отчаявшийся отец-олигарх идёт на крайние меры. Вместе со своим старинным другом-психологом он придумывает уникальный проект: на базе заброшенной деревни воссоздаётся атмосфера России девятнадцатого века. Гриша попадает в подстроенную аварию и якобы переносится в прошлое. На самом деле, над ним проводится изощрённый психологический эксперимент - избалованного мажора превращают в обычного холопа Гришку, живущего в хлеву на территории барской усадьбы. Его окружают актёры, чья цель - изменить его жизнь и личность. За каждым его движением пристально следит команда психолога с помощью множества камер. Грише предстоит заново научиться общаться с людьми, ценить простые удовольствия, работать, а также обрести истинную любовь.

Возраст: 12+ (зрителям, достигшим 12 лет)
Дата российской премьеры: 26 декабря 2019, «Централ Партнершип»
Продолжительность: 01:43:16
Качество видео: CamRip [http://multi-up.com/1250067]
Перевод: Не требуется (русский)
Субтитры: Отсутствуют
Реклама: Присутствует баннер
Видео: AVC/H.264, 1280x536, 3655 Kbps
Аудио: АС3, 2 ch, 48 kHz, 384 Kbps | Русский

Доп.Информация:

Общее
Уникальный идентификатор : 223539858852513796422682532743880461663 (0xA82C35F68497B54F96316A4C7BE94D5F)
Полное имя : D:\Холоп.2019.CamRip.[720p].
Формат : Matroska
Версия формата : Version 4
Размер файла : 2,91 Гбайт
Продолжительность : 1 ч. 43 м.
Режим общего битрейта : Переменный
Общий поток : 4041 Кбит/сек
Дата кодирования : UTC 2020-01-04 13:46:39
Программа кодирования : mkvmerge v8.3.0 ('Over the Horizon') 64bit
Библиотека кодирования : libebml v1.3.1 + libmatroska v1.4.2
Видео
Идентификатор : 1
Формат : AVC
Формат/Информация : Advanced Video Codec
Профиль формата : [url=mailto:[email protected]][email protected][/url]
Настройки формата : CABAC / 4 Ref Frames
Параметр CABAC формата : Да
Параметр RefFrames формата : 4 кадра
Идентификатор кодека : V_MPEG4/ISO/AVC
Продолжительность : 1 ч. 43 м.
Вид битрейта : Переменный
Битрейт : 3655 Кбит/сек
Максимальный битрейт : 4000 Кбит/сек
Ширина : 1280 пикселей
Высота : 536 пикселей
Соотношение сторон : 2,40:1
Режим частоты кадров : Постоянный
Частота кадров : 23,976 (24000/1001) кадра/сек
Стандарт вещания : Component
Цветовое пространство : YUV
Субдискретизация насыщенности : 4:2:0
Битовая глубина : 8 бит
Тип развёртки : Прогрессивная
Бит/(Пиксели*Кадры) : 0.222
Размер потока : 2,64 Гбайт (90%)
Язык : Russian
Default : Да
Forced : Нет
Цветовой диапазон : Limited
Основные цвета : BT.709
Характеристики трансфера : BT.709
Коэффициенты матрицы : BT.709
Аудио
Идентификатор : 2
Формат : AC-3
Формат/Информация : Audio Coding 3
Коммерческое название : Dolby Digital
Идентификатор кодека : A_AC3
Продолжительность : 1 ч. 43 м.
Вид битрейта : Постоянный
Битрейт : 384 Кбит/сек
Каналы : 2 канала
ChannelLayout : L R
Частота : 48,0 КГц
Частота кадров : 31,250 кадров/сек (1536 SPF)
Битовая глубина : 16 бит
Метод сжатия : С потерями
Размер потока : 284 Мбайт (10%)
Язык : Russian
ServiceKind/String : Complete Main
Default : Да
Forced : Нет
Скриншоты:
       

Clavik

Post 22-Jan-2020 21:07

[Quote]

Плохие парни навсегда / Bad Boys for Life (2020) CamRip [H.264/720p-LQ] - Производство: США, Мексика / Columbia Pictures, 2.0 Entertainment, Columbia Pictures Mexico
Жанр: боевик, триллер, комедия, криминал
Режиссер: Адиль Эль Арби, Билал Фалла
Продюсер: Даг Белград, Джерри Брукхаймер, Уилл Смит
Актеры: Уилл Смит, Мартин Лоуренс, Ванесса Энн Хадженс, Александр Людвиг, Паола Нуньес, Майкл Бэй, Кейт дель Кастильо, Джо Пантольяно, Чарльз Мелтон, Джейкоб Скипио
Описание:
Детективы Майк Лоури и Маркус Бёрнетт снова в деле! Правда, их отстраняют от всех операций, но разве отчаянных друзей когда-нибудь что-либо останавливало? Ведь на этот раз на Майка открывает охоту некто из его прошлой жизни. Так что парням придется отжечь по полной!

Возраст: 18+ (зрителям, достигшим 18 лет. запрещено для детей)
Рейтинг MPAA: R (лицам до 17 лет обязательно присутствие взрослого)
Дата мировой премьеры: 7 января 2020
Дата российской премьеры: 23 января 2020, «WDSSPR»
Продолжительность: 01:57:45
Качество видео: CamRip [img]http://nnmclub.ch/forum/image.php?link=https://assets.nnm-club.ws/forum/images/channel/sample_light_nnm.png[/img]
Перевод: Многоголосый любительский (КОЛОБОК)
Субтитры: отсутствуют
Реклама: Присутствуют вставки голосовой и баннерной рекламы
Видео: AVC/H.264, 1280x536, ~3 728 Kbps
Аудио: AAC, 2 ch, 384 Kbps - Русский (MVO)

MediaInfo:

General
Unique ID : 184006751787753010968803025910355779526 (0x8A6E694C835674B09BE3F6FCC190DFC6)
Complete name : Bad.Boys.for.Life.2020.TS.72Op.mkv
Format : Matroska
Format version : Version 2
File size : 3.38 GiB
Duration : 1 h 57 min
Overall bit rate mode : Variable
Overall bit rate : 4 112 kb/s
Encoded date : UTC 2020-01-17 17:25:04
Writing application : mkvmerge v8.3.0 ('Over the Horizon') 64bit
Writing library : libebml v1.3.1 + libmatroska v1.4.2
Video
ID : 1
Format : AVC
Format/Info : Advanced Video Codec
Format profile : [url=mailto:[email protected]][email protected][/url]
Format settings : CABAC / 4 Ref Frames
Format settings, CABAC : Yes
Format settings, Reference : 4 frames
Codec ID : V_MPEG4/ISO/AVC
Duration : 1 h 57 min
Bit rate mode : Variable
Bit rate : 3 728 kb/s
Nominal bit rate : 4 000 kb/s
Maximum bit rate : 4 000 kb/s
Width : 1 280 pixels
Height : 536 pixels
Display aspect ratio : 2.40:1
Frame rate mode : Constant
Frame rate : 23.976 (24000/1001) FPS
Standard : Component
Color space : YUV
Chroma subsampling : 4:2:0
Bit depth : 8 bits
Scan type : Progressive
Bits/(Pixel*Frame) : 0.227
Stream size : 3.07 GiB (91%)
Writing library : x264 core 155
Encoding settings : cabac=1 / ref=4 / deblock=1:0:0 / analyse=0x3:0x3 / me=dia / subme=1 / psy=1 / psy_rd=1.00:0.00 / mixed_ref=0 / me_range=16 / chroma_me=1 / trellis=0 / 8x8dct=1 / cqm=1 / deadzone=21,11 / fast_pskip=1 / chroma_qp_offset=0 / threads=17 / lookahead_threads=2 / sliced_threads=0 / slices=1 / nr=0 / decimate=1 / interlaced=0 / minigop=0 / stitchable=1 / constrained_intra=0 / bframes=2 / b_pyramid=0 / b_adapt=0 / b_bias=0 / direct=1 / weightb=1 / open_gop=1 / weightp=0 / keyint=240 / keyint_min=23 / scenecut=40 / intra_refresh=0 / rc_lookahead=0 / rc=cbr / mbtree=0 / bitrate=4000 / ratetol=1.0 / qcomp=0.60 / qpmin=1 / qpmax=69 / qpstep=4 / vbv_maxrate=4000 / vbv_bufsize=4000 / nal_hrd=vbr / filler=0 / ip_ratio=1.40 / pb_ratio=1.30 / aq=1:1.00
Default : Yes
Forced : No
Color range : Limited
Color primaries : BT.709
Transfer characteristics : BT.709
Matrix coefficients : BT.709
Audio
ID : 2
Format : AAC Main
Format/Info : Advanced Audio Codec
Codec ID : A_AAC-1
Duration : 1 h 57 min
Bit rate : 384 kb/s
Channel(s) : 2 channels
Channel layout : L R
Sampling rate : 48.0 kHz
Frame rate : 46.875 FPS (1024 SPF)
Compression mode : Lossy
Stream size : 321 MiB (9%)
Default : Yes
Forced : No
Скриншоты:
       

mayor

Post 07-Jan-2020 10:17

[Quote]

-1917 / 1917 - Производство: Великобритания, США / Amblin Partners, DreamWorks, Neal Street Productions
Жанр: Военный, история, драма
Режиссер: Сэм Мендес
Актеры: Дин-Чарльз Чепмен, Джордж Маккэй, Дэниэл Мейс, Колин Фёрт, Пип Картер, Энди Аполло, Пол Тинто, Josef Davies, Билли Постлтуэйт, Гэбриел Акувудике
Описание:
1917 год, разгар Первой мировой войны. Двум юным солдатам поручают смертельно опасную миссию. Они должны пересечь вражескую территорию и доставить секретное сообщение, которое предотвратит неминуемую гибель сотен солдат… Смогут ли они выиграть гонку со временем?

Возраст: 16+ (зрителям, достигшим 16 лет)
Рейтинг MPAA: R (лицам до 17 лет обязательно присутствие взрослого)
Дата мировой премьеры: 4 декабря 2019
Дата премьеры в России: 30 января 2020

Продолжительность: 01:49:28
Качество видео: TS [http://sendfile.su/1539538]
Перевод: Многоголосый закадровый, любительский (КОЛОБОК)
Субтитры: Отсутствуют
Реклама: Присутствует баннер.
Видео: AVC/H.264, 1280x536, ~3631 Kbps
Аудио: AC-3, 2 ch, 384 Kbps

Доп.Информация:

Общее
Полное имя : D:\1917\1917.2019..TS.720p-LQ.mkv
Формат : Matroska
Версия формата : Version 2
Размер файла : 3,13 Гбайт
Продолжительность : 1 ч. 49 м.
Режим общего битрейта : Постоянный
Общий поток : 4096 Кбит/сек
Программа кодирования : libmatroska 1.4.1
Библиотека кодирования : SolveigMM Matroska Muxer Version 1.0.1502.31
Видео
Идентификатор : 1
Формат : AVC
Формат/Информация : Advanced Video Codec
Профиль формата : [url=mailto:[email protected]][email protected][/url]
Настройки формата : CABAC / 4 Ref Frames
Параметр CABAC формата : Да
Параметр RefFrames формата : 4 кадра
Идентификатор кодека : V_MPEG4/ISO/AVC
Продолжительность : 1 ч. 49 м.
Вид битрейта : Постоянный
Битрейт : 3631 Кбит/сек
Номинальный битрейт : 4000 Кбит/сек / 4000 Кбит/сек
Ширина : 1280 пикселей
Высота : 536 пикселей
Соотношение сторон : 2,40:1
Режим частоты кадров : Постоянный
Частота кадров : 23,976 (24000/1001) кадра/сек
Стандарт вещания : Component
Цветовое пространство : YUV
Субдискретизация насыщенности : 4:2:0
Битовая глубина : 8 бит
Тип развёртки : Прогрессивная
Бит/(Пиксели*Кадры) : 0.221
Размер потока : 2,78 Гбайт (89%)
Default : Нет
Forced : Нет
Цветовой диапазон : Limited
Основные цвета : BT.709
Характеристики трансфера : BT.709
Коэффициенты матрицы : BT.709
Аудио
Идентификатор : 2
Формат : AC-3
Формат/Информация : Audio Coding 3
Коммерческое название : Dolby Digital
Идентификатор кодека : A_AC3
Продолжительность : 1 ч. 49 м.
Вид битрейта : Постоянный
Битрейт : 384 Кбит/сек
Каналы : 2 канала
ChannelLayout : M M
Частота : 48,0 КГц
Частота кадров : 31,250 кадров/сек (1536 SPF)
Метод сжатия : С потерями
Размер потока : 301 Мбайт (9%)
Язык : Russian
ServiceKind/String : Complete Main
Default : Нет
Forced : Нет
Скриншоты:
       

Clavik

Post 28-Dec-2019 16:57

[Quote]

Ип Ман 4 / Yip Man 4 (2019) TS- Производство: Гонконг, Китай / Bullet Films, Mandarin Motion Pictures, Shanghai Bona Cultural Media
Жанр: Боевик, биография
Режиссер: Уилсон Ип
Актеры: Донни Йен, Дэнни Чан, У Юэ, Скотт Эдкинс, Ванесс У, Крис Коллинз, Никола Стюарт-Хилл, Grace Englert, Кент Чэн, Дэвид Джонсон Вуд
Описание:
Америка, 1960-е годы. Ип Ман прибывает в Сиэтл, где один из его учеников решил открыть школу вин-чун.

Дата мировой премьеры: 20 декабря 2019
Продолжительность: 01:40:22
Качество видео: TS
Перевод: Многоголосый закадровый, любительский (КОЛОБОК)
Субтитры: Отсутствуют
Реклама: Присутствует баннер.
Видео: AVC/H.264, 1280x506, ~3663 Kbps
Аудио: AC-3, 2 ch, 384 Kbps

MediaInfo:

Общее
Полное имя : D:\NNM\Ип Ман 4\Ip.man.4.2019.TS.720p-LQ.mkv
Формат : Matroska
Версия формата : Version 2
Размер файла : 2,89 Гбайт
Продолжительность : 1 ч. 40 м.
Режим общего битрейта : Переменный
Общий поток : 4129 Кбит/сек
Программа кодирования : libmatroska 1.4.1
Библиотека кодирования : SolveigMM Matroska Muxer Version 1.0.1502.31
Видео
Идентификатор : 1
Формат : AVC
Формат/Информация : Advanced Video Codec
Профиль формата : [url=mailto:[email protected]][email protected][/url]
Настройки формата : CABAC / 4 Ref Frames
Параметр CABAC формата : Да
Параметр RefFrames формата : 4 кадра
Идентификатор кодека : V_MPEG4/ISO/AVC
Продолжительность : 1 ч. 40 м.
Вид битрейта : Переменный
Битрейт : 3663 Кбит/сек
Номинальный битрейт : 4000 Кбит/сек
Максимальный битрейт : 4000 Кбит/сек
Ширина : 1280 пикселей
Высота : 506 пикселей
Соотношение сторон : 2,530
Режим частоты кадров : Постоянный
Частота кадров : 23,976 (24000/1001) кадра/сек
Стандарт вещания : Component
Цветовое пространство : YUV
Субдискретизация насыщенности : 4:2:0
Битовая глубина : 8 бит
Тип развёртки : Прогрессивная
Бит/(Пиксели*Кадры) : 0.236
Размер потока : 2,57 Гбайт (89%)
Default : Нет
Forced : Нет
Цветовой диапазон : Limited
Основные цвета : BT.709
Характеристики трансфера : BT.709
Коэффициенты матрицы : BT.709
Аудио
Идентификатор : 2
Формат : AC-3
Формат/Информация : Audio Coding 3
Коммерческое название : Dolby Digital
Идентификатор кодека : A_AC3
Продолжительность : 1 ч. 40 м.
Вид битрейта : Постоянный
Битрейт : 384 Кбит/сек
Каналы : 2 канала
ChannelLayout : L R
Частота : 48,0 КГц
Частота кадров : 31,250 кадров/сек (1536 SPF)
Метод сжатия : С потерями
Размер потока : 276 Мбайт (9%)
Язык : Russian
ServiceKind/String : Complete Main
Default : Нет
Forced : Нет
Скриншоты:        

mayor

Post 21-Dec-2019 19:48

[Quote]

-Звёздные войны: Скайуокер. Восход / Star Wars: Episode IX - The Rise of Skywalker- Производство: США / Lucasfilm, Bad Robot, Digital Makeup Group
Жанр: Фантастика, фэнтези, боевик, приключения
Режиссер: Джей Джей Абрамс
Актеры: Дэйзи Ридли, Адам Драйвер, Кэрри Фишер, Марк Хэмилл, Джон Бойега, Оскар Айзек, Энтони Дэниелс, Наоми Аки, Донал Глисон, Ричард Э. Грант
Описание:
Фильм завершает невероятную историю семьи Скайуокеров, длящуюся уже более сорока лет, и обещает дать ответы на все загадки из предыдущих серий. Зрителя ожидают старые и новые герои, уникальные миры, увлекательные путешествия на край Галактики и грандиозный финал фантастической саги.

Возраст: 16+ (зрителям, достигшим 16 лет)
Рейтинг MPAA: PG-13 (детям до 13 лет просмотр нежелателен)
Дата мировой премьеры: 16 декабря 2019
Дата премьеры в России: 19 декабря 2019

Продолжительность: 02:11:21
Качество видео: CAMRip [http://sendfile.su/1536270]
Перевод: Дублированный
Субтитры: Отсутствуют
Реклама: Присутствует баннер.
Видео: AVC/H.264, 1280x536, ~3981 Kbps
Аудио: AC-3, 2 ch, 384 Kbps

MI

Общее
Полное имя : D:\Звёздные войны\Star.Wars.The.Rise.of.Skywalker.2019.CAMRip.720p-LQ.mkv
Формат : Matroska
Версия формата : Version 2
Размер файла : 4,09 Гбайт
Продолжительность : 2 ч. 11 м.
Режим общего битрейта : Переменный
Общий поток : 4454 Кбит/сек
Программа кодирования : libmatroska 1.4.1
Библиотека кодирования : SolveigMM Matroska Muxer Version 1.0.1502.31
Видео
Идентификатор : 1
Формат : AVC
Формат/Информация : Advanced Video Codec
Профиль формата : [url=mailto:[email protected]][email protected][/url]
Настройки формата : CABAC / 4 Ref Frames
Параметр CABAC формата : Да
Параметр RefFrames формата : 4 кадра
Идентификатор кодека : V_MPEG4/ISO/AVC
Продолжительность : 2 ч. 11 м.
Вид битрейта : Переменный
Битрейт : 3981 Кбит/сек
Максимальный битрейт : 4400 Кбит/сек
Ширина : 1280 пикселей
Высота : 536 пикселей
Соотношение сторон : 2,40:1
Режим частоты кадров : Постоянный
Частота кадров : 23,976 (24000/1001) кадра/сек
Стандарт вещания : Component
Цветовое пространство : YUV
Субдискретизация насыщенности : 4:2:0
Битовая глубина : 8 бит
Тип развёртки : Прогрессивная
Бит/(Пиксели*Кадры) : 0.242
Размер потока : 3,65 Гбайт (89%)
Default : Нет
Forced : Нет
Цветовой диапазон : Limited
Основные цвета : BT.709
Характеристики трансфера : BT.709
Коэффициенты матрицы : BT.709
Аудио
Идентификатор : 2
Формат : AC-3
Формат/Информация : Audio Coding 3
Коммерческое название : Dolby Digital
Идентификатор кодека : A_AC3
Продолжительность : 2 ч. 11 м.
Вид битрейта : Постоянный
Битрейт : 384 Кбит/сек
Каналы : 2 канала
ChannelLayout : L R
Частота : 48,0 КГц
Частота кадров : 31,250 кадров/сек (1536 SPF)
Битовая глубина : 16 бит
Метод сжатия : С потерями
Размер потока : 361 Мбайт (9%)
Язык : Russian
ServiceKind/String : Complete Main
Default : Нет
Forced : Нет
Скриншоты:
       

Орлов Владимир

Post 14-Dec-2019 17:02

[Quote]

--Решала. Нулевые--
Информация о фильме
Год выпуска: 2019
Жанр: боевик, драма, триллер
Страна: Россия
Режиссёр: Жаргал Бадмацыренов, Александр Кузьминов
Перевод: Оригинал
Субтитры: нет
Продолжительность: 01:21:42-- В ролях: Константин Озеров, Моисей Куртанидзе, Чингиз Аздаев, Жаргал Бадмацыренов, Евгений Аёшин, Вячеслав Ширяев, Бэлик Дамбаев, Олег Петелин, Максим Сорочинский, Александра Чубыкина-- Описание:
2008 год. Старинные друзья Костя и Завгар придумывают не совсем легальные схемы заработка. Деньги приходят легко и так же легко уходят. Кажется, что этот успех будет вечен. Но на каждого найдется свой капкан, особенно если хочется еще больше денег. Костя затевает большую игру, которая может стоить и ему, и Завгару свободы, дружбы и даже самой жизни.-- --Файлы
Качество: TS 720p
Формат: MKV
Видео: h.264,3 607 Кбит/с, 1280x536
Аудио: Русский (AC3, 2 ch, 384 Кбит/с)

Скриншоты

     

Орлов Владимир

Post 14-Dec-2019 16:59

[Quote]

-Решала. Нулевые--
Информация о фильме
Год выпуска: 2019
Жанр: боевик, драма, триллер
Страна: Россия
Режиссёр: Жаргал Бадмацыренов, Александр Кузьминов
Перевод: Оригинал
Субтитры: нет
Продолжительность: 01:21:42-- В ролях: Константин Озеров, Моисей Куртанидзе, Чингиз Аздаев, Жаргал Бадмацыренов, Евгений Аёшин, Вячеслав Ширяев, Бэлик Дамбаев, Олег Петелин, Максим Сорочинский, Александра Чубыкина-- Описание:
2008 год. Старинные друзья Костя и Завгар придумывают не совсем легальные схемы заработка. Деньги приходят легко и так же легко уходят. Кажется, что этот успех будет вечен. Но на каждого найдется свой капкан, особенно если хочется еще больше денег. Костя затевает большую игру, которая может стоить и ему, и Завгару свободы, дружбы и даже самой жизни.-- --Файлы
Качество: TS
Формат: AVI
Видео: XviD,1999 Кбит/с, 720x304
Аудио: Русский (AC3, 2 ch, 384 Кбит/с)

Скриншоты

     

Орлов Владимир

Post 14-Dec-2019 16:57

[Quote]

-Ржев--
Информация о фильме
Год выпуска: 2019
Жанр: военный, драма, история
Страна: Россия
Режиссёр: Игорь Копылов
Перевод: Оригинал
Субтитры: нет
Продолжительность: 01:55:13-- В ролях: Сергей Жарков, Иван Батарев, Олег Гаянов, Арсений Семёнов, Александр Горбатов, Александр Бухаров, Григорий Некрасов, Игорь Грабузов, Александр Аравушкин, Дан Розин-- Описание: 1942 год. Ржевская битва. После боев под селом Овсянниково от роты советских солдат осталась только треть. Бойцы пытаются продержаться до прихода подкрепления. Но из штаба поступает приказ удержать деревню любой ценой. Значит, отступать нельзя... Каждый из героев понимает, что живыми из этого переплета выбраться почти невозможно. В этот момент в Овсянниково, едва не погибнув под вражеским обстрелом, прибывает младший лейтенант - начальник особого отдела, который должен найти и разоблачить предателей среди своих. Лейтенант уверен, что только так можно приблизить победу. События приобретают непредсказуемый оборот.-- --Файлы
Качество: TS 720p
Формат: MKV
Видео: h.264,3 768 kb/s, 1280x536
Аудио: Русский (AC3, 2 ch, 384 Кбит/с)

Скриншоты

     

Орлов Владимир

Post 14-Dec-2019 16:54

[Quote]

--Ржев--
Информация о фильме
Год выпуска: 2019
Жанр: военный, драма, история
Страна: Россия
Режиссёр: Игорь Копылов
Перевод: Оригинал
Субтитры: нет
Продолжительность: 01:55:13-- В ролях: Сергей Жарков, Иван Батарев, Олег Гаянов, Арсений Семёнов, Александр Горбатов, Александр Бухаров, Григорий Некрасов, Игорь Грабузов, Александр Аравушкин, Дан Розин-- Описание: 1942 год. Ржевская битва. После боев под селом Овсянниково от роты советских солдат осталась только треть. Бойцы пытаются продержаться до прихода подкрепления. Но из штаба поступает приказ удержать деревню любой ценой. Значит, отступать нельзя... Каждый из героев понимает, что живыми из этого переплета выбраться почти невозможно. В этот момент в Овсянниково, едва не погибнув под вражеским обстрелом, прибывает младший лейтенант - начальник особого отдела, который должен найти и разоблачить предателей среди своих. Лейтенант уверен, что только так можно приблизить победу. События приобретают непредсказуемый оборот.-- --Файлы
Качество: TS
Формат: AVI
Видео: XviD,1498 Кбит/с, 720x304
Аудио: Русский (AC3, 2 ch, 192 Кбит/с)

Скриншоты

 [/thumb]    

Clavik

Post 11-Dec-2019 22:58

[Quote]

Джуманджи: Новый уровень / Jumanji: The Next Level (2019) TS- Производство: США / Hartbeat Productions, Matt Tolmach Productions, Seven Bucks Productions
Жанр: Фэнтези, боевик, комедия, приключения
Режиссер: Джейк Кэздан
Актеры: Карен Гиллан, Дуэйн Джонсон, Марин Хинкль, Мэдисон Айсмен, Джек Блэк, Эшли Скотт, Аквафина, Дэнни ДеВито, Ник Джонас, Кевин Харт
Описание:
Чтобы спасти одного из приятелей, остальным приходится вернуться в игру. К их удивлению, правила Джуманджи изменились, и все идет наперекосяк. Чтобы выжить друзьям предстоит отправиться в путешествие по самым неизведанным и таинственным уголкам игры — от засушливой пустыни до заснеженных гор.

Возраст: 12+ (зрителям, достигшим 12 лет)
Рейтинг MPAA: PG-13 (детям до 13 лет просмотр нежелателен)
Дата мировой премьеры: 4 декабря 2019
Дата премьеры в России: 12 декабря 2019,

Продолжительность: 01:52:59
Качество видео: TS
Перевод: Дублированный
Субтитры: Отсутствуют
Реклама: Присутствует баннер.
[Видео: AVC/H.264, 1280x536, ~3606 Kbps
Аудио: AC-3, 2 ch, 384 Kbps

MediaInfo:

Общее
Полное имя : D:\NNM\Джуманджи\Dgumangi.2019.TS.720p-LQ.mkv
Формат : Matroska
Версия формата : Version 2
Размер файла : 3,21 Гбайт
Продолжительность : 1 ч. 52 м.
Режим общего битрейта : Переменный
Общий поток : 4071 Кбит/сек
Программа кодирования : libmatroska 1.4.1
Библиотека кодирования : SolveigMM Matroska Muxer Version 1.0.1502.31
Видео
Идентификатор : 1
Формат : AVC
Формат/Информация : Advanced Video Codec
Профиль формата : [url=mailto:[email protected]][email protected][/url]
Настройки формата : CABAC / 4 Ref Frames
Параметр CABAC формата : Да
Параметр RefFrames формата : 4 кадра
Идентификатор кодека : V_MPEG4/ISO/AVC
Продолжительность : 1 ч. 52 м.
Вид битрейта : Переменный
Битрейт : 3606 Кбит/сек
Номинальный битрейт : 4000 Кбит/сек
Максимальный битрейт : 4000 Кбит/сек
Ширина : 1280 пикселей
Высота : 536 пикселей
Соотношение сторон : 2,40:1
Режим частоты кадров : Постоянный
Частота кадров : 23,976 (24000/1001) кадра/сек
Стандарт вещания : Component
Цветовое пространство : YUV
Субдискретизация насыщенности : 4:2:0
Битовая глубина : 8 бит
Тип развёртки : Прогрессивная
Бит/(Пиксели*Кадры) : 0.219
Размер потока : 2,85 Гбайт (89%)
Default : Нет
Forced : Нет
Цветовой диапазон : Limited
Основные цвета : BT.709
Характеристики трансфера : BT.709
Коэффициенты матрицы : BT.709
Аудио
Идентификатор : 2
Формат : AC-3
Формат/Информация : Audio Coding 3
Коммерческое название : Dolby Digital
Идентификатор кодека : A_AC3
Продолжительность : 1 ч. 52 м.
Вид битрейта : Постоянный
Битрейт : 384 Кбит/сек
Каналы : 2 канала
ChannelLayout : M M
Частота : 48,0 КГц
Частота кадров : 31,250 кадров/сек (1536 SPF)
Битовая глубина : 16 бит
Метод сжатия : С потерями
Размер потока : 310 Мбайт (9%)
Язык : Russian
ServiceKind/String : Complete Main
Default : Нет
Forced : Нет
Скриншоты:        

Орлов Владимир

Post 09-Dec-2019 17:22

[Quote]

--Джуманджи: Новый уровень / Jumanji: The Next Level--
Информация о фильме
Год выпуска: 2019
Жанр: фэнтези, боевик, комедия, приключения
Страна: США
Режиссёр: Джейк Кэздан
Перевод: Дублированный
Субтитры: нет
Продолжительность: 01:54:19-- В ролях: Карен Гиллан, Дуэйн Джонсон, Дэнни ДеВито, Мэдисон Айсмен, Джек Блэк, Аквафина, Эшли Скотт, Кевин Харт, Ник Джонас, Риз Дэрби-- Описание: Чтобы спасти одного из приятелей, остальным приходится вернуться в игру. К их удивлению, правила Джуманджи изменились, и все идет наперекосяк. Чтобы выжить друзьям предстоит отправиться в путешествие по самым неизведанным и таинственным уголкам игры - от засушливой пустыни до заснеженных гор.-- --Файлы
Качество: TS 720p
Формат: MKV
Видео: h.264 3 680 Кбит/с, 1280x536
Аудио: Русский (AC3, 2 ch, 384 Кбит/с)

Скриншоты

     

Орлов Владимир

Post 09-Dec-2019 17:17

[Quote]

--Джуманджи: Новый уровень / Jumanji: The Next Level--
Информация о фильме
Год выпуска: 2019
Жанр: фэнтези, боевик, комедия, приключения
Страна: США
Режиссёр: Джейк Кэздан
Перевод: Дублированный
Субтитры: нет
Продолжительность: 01:54:19-- В ролях: Карен Гиллан, Дуэйн Джонсон, Дэнни ДеВито, Мэдисон Айсмен, Джек Блэк, Аквафина, Эшли Скотт, Кевин Харт, Ник Джонас, Риз Дэрби-- Описание: Чтобы спасти одного из приятелей, остальным приходится вернуться в игру. К их удивлению, правила Джуманджи изменились, и все идет наперекосяк. Чтобы выжить друзьям предстоит отправиться в путешествие по самым неизведанным и таинственным уголкам игры - от засушливой пустыни до заснеженных гор.-- --Файлы
Качество: TS
Формат: AVI
Видео: XviD,1510 Кбит/с, 720x304
Аудио: Русский (AC3, 2 ch, 192 Кбит/с)

Скриншоты

     

Clavik

Post 08-Dec-2019 20:50

[Quote]

-Холодное сердце 2 / Frozen II-- Информация о фильме
Год выпуска: 2019
Жанр: мультфильм, мюзикл, фэнтези, комедия, приключения, семейный
Страна: США
Режиссёр: Крис Бак, Дженнифер Ли
Перевод: Профессиональный многоголосый [КОЛОБОК]
Субтитры: нет
Продолжительность: 01:31:52-- В ролях: Идина Мензел, Кристен Белл, Джонатан Грофф, Джош Гад, Стерлинг К. Браун, Эван Рэйчел Вуд, Альфред Молина, Марта Плимптон, Джейсон Риттер, Рэйчел Мэттьюз-- Описание: Анна, Эльза, Кристоф, его верный олень Свен и никогда не унывающий снеговик Олаф должны будут покинуть уютное королевство Эренделл и отправиться ещё дальше на север, в путешествие, которое приведет их к истокам древних легенд и поможет раскрыть тайны, касающиеся прошлого их родной страны.-- --Файлы
Качество: TS 720p
Формат: MKV
Видео: h.264,3 657 Кбит/с, 1280x536
Аудио: Русский (AC3, 2 ch, 384 Кбит/с)

Скриншоты

     

mayor

Post 08-Dec-2019 20:13

[Quote]

Аванпост--- Производство: Россия
Жанр: триллер, фантастика, боевик
Режиссер: Егор Баранов
Актеры: Лукерья Ильяшенко, Пётр Фёдоров, Светлана Иванова, Алексей Чадов, Ксения Кутепова, Константин Лавроненко, Филипп Авдеев, Артем Маркарьян, Сергей Годин, Артем Ткаченко
Описание:
В недалеком будущем что-то произошло. Связь с большей частью населенных пунктов Земли оборвалась. Космонавты передали с орбиты, что видят сверху небольшое пятно в Восточной Европе, по своим очертаниям напоминающее круг. То, что военные находят за границей этого круга, шокирует. В магазинах, в автомобилях, на дорогах, в зданиях больниц и вокзалов, повсюду - следы столкновений. Кто или что уничтожает все живое? И как долго продержится последний аванпост человечества?

Возраст: 16+ (зрителям, достигшим 16 лет)
Дата мировой премьеры: 22 ноября 2019
Дата российской премьеры: 21 ноября 2019, «Каропрокат»
Продолжительность: 02:30:27
Качество видео: TS
Перевод: Не требуется (нет диалогов и озвученных комментариев)
Субтитры: нет
Видео: Xvid, 720x304, ~1193 kbps
Аудио: AC3, 2 ch, ~128 kbps

MI

Z:\Torrents\Avanpost.2019.O.14OOMB.avi
General
Complete name : Z:\Torrents\Avanpost.2019.O.14OOMB.avi
Format : AVI
Format/Info : Audio Video Interleave
File size : 1.40 GiB
Duration : 2h 30mn
Overall bit rate : 1 330 Kbps
Writing application : VirtualDubMod 1.5.10.2 (build 2540/release)
Writing library : VirtualDubMod build 2540/release
Video #0
ID : 0
Format : MPEG-4 Visual
Format profile : Advanced [email protected]
Format settings, BVOP : 2
Format settings, QPel : No
Format settings, GMC : No warppoints
Format settings, Matrix : Default (MPEG)
Codec ID : XVID
Codec ID/Hint : XviD
Duration : 2h 30mn
Bit rate : 1 193 Kbps
Width : 720 pixels
Height : 304 pixels
Display aspect ratio : 2.35:1
Frame rate : 23.976 fps
Color space : YUV
Chroma subsampling : 4:2:0
Bit depth : 8 bits
Scan type : Progressive
Compression mode : Lossy
Bits/(Pixel*Frame) : 0.227
Stream size : 1.25 GiB (90%)
Writing library : XviD 1.2.1 (UTC 2008-12-04)
Audio #1
ID : 1
Format : AC-3
Format/Info : Audio Coding 3
Mode extension : CM (complete main)
Format settings, Endianness : Big
Codec ID : 2000
Duration : 2h 30mn
Bit rate mode : Constant
Bit rate : 128 Kbps
Channel(s) : 2 channels
Channel positions : Front: L R
Sampling rate : 48.0 KHz
Bit depth : 16 bits
Compression mode : Lossy
Stream size : 138 MiB (10%)
Alignment : Split accross interleaves
Interleave, duration : 42 ms (1.00 video frame)
Interleave, preload duration : 500 ms
Скриншоты:
     
 

The time now is: Today 21:20

All times are GMT + 3 Hours