Сегодня идет свободное скачивание без начисления Download

Результатов поиска: 45

Автор Сообщение

Theseus

Пост 30-Апр-2017 22:07

[Цитировать]

Стражи Галактики. Часть 2 / Guardians of the Galaxy Vol. 2- Год выпуска: 2017
Производство: США
Жанр: фантастика, боевик, приключения
Продолжительность: 02:07:42
Перевод: Любительский (многоголосый, закадровый) | «КОЛОБОК»
Режиссер: Ф. Гэри Грей
В ролях: Крис Пратт, Зои Салдана, Дэйв Батиста, Вин Дизель, Брэдли Купер, Майкл Рукер, Карен Гиллан, Пом Клементьефф, Элизабет Дебики
Описание: Все в сборе: землянин Питер Квилл (Звездный Лорд), молчаливый громила Дракс, зеленокожая наёмница Гамора, живое дерево Грут и говорящий енот. Герои не изменяют себе и с завидной регулярностью продолжают попадать в немыслимые ситуации, выпутываясь из них почти без ущерба (а иногда даже с пользой) для окружающих. На этот раз им предстоит раскрыть одну из самых главных тайн во всей Галактике: кто же на самом деле отец Питера Квилла..?

Качество: CAMRip
Формат: AVI
Видео кодек: XviD
Аудио кодек: AC3
Видео: 720x304 (2.35:1), 30.000 fps, XviD ~1 909 kbps avg
Аудио: 48 kHz, AC3 Dolby Digital, 2/0 (L,R) ch, ~384 kbps

>> Сэмпл

Трейлер

-     - - -

Theseus

Пост 19-Апр-2017 00:24

[Цитировать]

Форсаж 8 / The Fate of the Furious- Год выпуска: 2017
Производство: США
Жанр: боевик, триллер, криминал
Продолжительность: 02:07:07
Перевод: Профессиональный (полное дублирование)
Режиссер: Ф. Гэри Грей-В ролях: Вин Дизель, Дуэйн Джонсон, Джейсон Стэйтем, Мишель Родригес, Тайриз Гибсон, Лудакрис, Натали Эммануэль, Курт Рассел, Скотт Иствуд, Шарлиз Терон-Описание: Пристегните ремни — гонка продолжается. Гавана, Берлин, Нью-Йорк — для самой крутой команды в мире нет ничего невозможного, пока они вместе. Но когда на их пути окажется одна из самых красивых женщин на планете и по совместительству королева киберпреступности, дороги друзей разойдутся.- -Качество: TS
Формат: AVI
Видео кодек: XviD
Аудио кодек: AC3
Видео: MPEG4, XviD, 720x288 (2.500), 29.970 fps, 1 914 Kbps (0.308 bit/pixel)
Аудио: AC-3, 48.0 KHz, 2 ch, 384 Kbps, CBR- ->> Сэмпл
-

Трейлер

-     - - -

Theseus

Пост 26-Янв-2017 23:18

[Цитировать]

Три икса: Мировое господство / xXx: The Return of Xander Cage- Год выпуска: 2017
Производство: США
Жанр: Боевик, Приключения, Триллер
Продолжительность: 01:37:07
Перевод: Профессиональный (полное дублирование)
Режиссер: Ди Джей Карузо-В ролях: Вин Дизель, Руби Роуз, Сэмюэл Л. Джексон, Нина Добрев, Рори МакКанн, Тони Коллетт, Донни Йен, Дипика Падукон, Тони Джа, Гермиона Корфилд-Описание: Ксандер Кейдж спустя годы возвращается из добровольного изгнания и попадает в безумный водоворот событий. Он собирает команду безбашенных экстремалов, вместе с которыми ему предстоит найти мощнейшее секретное оружие — «Ящик Пандоры». Действовать нужно быстро: за разработкой охотятся опасные головорезы. Ставки в смертельной игре повышаются, когда выясняется, что мировые правительства вовлечены в кровавый заговор, а на кону — судьба мира.- -Качество: TS
Формат: AVI
Видео кодек: XviD
Аудио кодек: AC3
Видео: MPEG4, XviD, 720x320 (2.25:1), 24.000 fps, 1 814 Kbps (0.328 bit/pixel)
Аудио: AC-3, 48.0 KHz, 2 ch, 192 Kbps, CBR-Рекламы нет !
-          - - -

Theseus

Пост 26-Янв-2017 23:14

[Цитировать]

Три икса: Мировое господство / xXx: The Return of Xander Cage- Год выпуска: 2017
Производство: США
Жанр: Боевик, Приключения, Триллер
Продолжительность: 01:37:07
Перевод: Профессиональный (полное дублирование)
Режиссер: Ди Джей Карузо-В ролях: Вин Дизель, Руби Роуз, Сэмюэл Л. Джексон, Нина Добрев, Рори МакКанн, Тони Коллетт, Донни Йен, Дипика Падукон, Тони Джа, Гермиона Корфилд-Описание: Ксандер Кейдж спустя годы возвращается из добровольного изгнания и попадает в безумный водоворот событий. Он собирает команду безбашенных экстремалов, вместе с которыми ему предстоит найти мощнейшее секретное оружие — «Ящик Пандоры». Действовать нужно быстро: за разработкой охотятся опасные головорезы. Ставки в смертельной игре повышаются, когда выясняется, что мировые правительства вовлечены в кровавый заговор, а на кону — судьба мира.- -Качество: TS-AVC
Формат: MKV
Видео кодек: x.264
Аудио кодек: AC3/MP3
Видео: AVC, 720x320 (2.25:1), 24.000 fps, 1 951 Kbps (0.353 bit/pixel)
Аудио #1: AC-3, 48.0 KHz, 2 ch, 192 Kbps, CBR (Russian)
Аудио #2: MP3, 44.1 KHz, 2 ch, 192 Kbps, CBR (English)-Рекламы нет !
-     - - -

Theseus

Пост 17-Дек-2016 19:45

[Цитировать]

Доктор Стрэндж / Doctor Strange- Страна: США
Жанр: Фантастика, Фэнтези, Боевик, Приключения
Год выпуска: 2016
Продолжительность: 01:47:03
Перевод: Профессиональный (полное дублирование)
Режиссер: Скотт Дерриксон-В ролях: Бенедикт Камбербэтч, Тильда Суинтон, Мадс Миккельсен, Чиветель Эджиофор, Рэйчел МакАдамс, Бенедикт Вонг, Майкл Стулбарг, Бенджамин Брэтт, Скотт Эдкинс, Зара Питиан-Описание: Страшная автокатастрофа поставила крест на карьере успешного нейрохирурга Доктора Стрэнджа. Отчаявшись, он отправляется в путешествие в поисках исцеления и открывает в себе невероятные способности к трансформации пространства и времени. Теперь он — связующее звено между параллельными измерениями, а его миссия — защищать жителей Земли и противодействовать Злу, какое бы обличие оно ни принимало.- -Качество: TS (AVC)
Формат: MKV
Видео кодек: x.264
Аудио кодек: AC3
Видео: AVC, 720x352 (2.045:1) , 30,000 fps, 3000 Kbps, (0.395 bit/pixel)
Аудио: AC-3, 48.0 KHz, 2 ch, 320 Kbps, CBR
-          - - -

Theseus

Пост 17-Дек-2016 19:36

[Цитировать]

Фантастические твари и где они обитают / Fantastic Beasts and Where to Find Them - Страна: Великобритания, США
Жанр: Фэнтези, Приключения, Семейный
Год выпуска: 2016
Продолжительность: 02:04:00
Перевод: Профессиональный (полное дублирование)
Режиссер: Дэвид Йейтс-В ролях: Эдди Редмэйн, Кэтрин Уотерстон, Дэн Фоглер, Элисон Судол, Колин Фаррелл, Кармен Эджого, Эзра Миллер, Саманта Мортон, Рон Перлман, Джон Войт-Описание: Поиск и изучение необычайных волшебных существ приводят магозоолога Ньюта Саламандера в Нью-Йорк. Скорее всего, он отбыл бы на поезде дальше, если бы не не маг (так в Америке называют магглов) по имени Якоб, оставленный в неположенном месте магический чемодан и побег из него фантастических животных Ньюта- -Качество: TS (AVC)
Формат: MKV
Видео кодек: x.264
Аудио кодек: AC3/MP3
Видео: AVC, 720x320 (2.25:1), 30.000 fps, 1 957 Kbps (0.283 bit/pixel)
Аудио #1: AC-3, 48.0 KHz, 2 ch, 384 Kbps, CBR (Russian)
Аудио #2: MP3, 44.1 KHz, 2 ch, 192 Kbps, CBR (English)
-          - -

Omen

Пост 27-Окт-2016 01:00

[Цитировать]

Сплит / Split - Производство: США, Blinding Edge Pictures, Blumhouse Productions
Жанр: Ужасы, Триллер
Режиссер: М. Найт Шьямалан
Продюсер: Марк Бьенсток, Джейсон Блум
Актеры: Джеймс МакЭвой, Себастьян Арселус, Ameerah Briggs, Бетти Бакли, Иззи Коффи, Накия Диллард, Дэнн Финк, Jerome Gallman, Кэш Гойнс, Брэд Уильям Хенке
Описание:
Кевин — человек, в котором живет не менее двадцати трех личностей, вынужден похитить трех девушек подросткового возраста. Тем временем, пока они находятся в заточении, самая главная личность Кевина — Чудовище — материализуется.

Возраст: 16+ (зрителям, достигшим 16 лет)
Рейтинг MPAA: PG-13 (детям до 13 лет просмотр нежелателен)
Дата мировой премьеры: 26 сентября 2016
Дата российской премьеры: 16 марта 2017, «UPI»
Продолжительность: 01:51:16
Качество видео: TS Сэмпл
Перевод: Многоголосый закадровый, любительский (КОЛОБОК)
Вид субтитров: Отсутствуют
Реклама: Присутствуют аудио и видео вставки рекламы
Видео: XviD, 720x304, 1728 kbps
Аудио: 48 kHz, AC3 Dolby Digital, 2/0 (L,R) ch, ~128 kbps

MediaInfo:

Общее
Полное имя : D:\Сплит.2016.TS.avi
Формат : AVI
Формат/Информация : Audio Video Interleave
Размер файла : 1,45 Гбайт
Продолжительность : 1 ч. 51 м.
Общий поток : 1868 Кбит/сек
Программа кодирования : VirtualDubMod 1.5.10.2 (build 2540/release)
Библиотека кодирования : VirtualDub build 35491/release
Видео
Идентификатор : 0
Формат : MPEG-4 Visual
Профиль формата : Advanced [email protected]
Параметр BVOP формата : 2
Параметр QPel формата : Нет
Параметр GMC формата : Без точки перехода
Параметр матрицы формата : Default (MPEG)
Идентификатор кодека : XVID
Идентификатор кодека/Подсказка : XviD
Продолжительность : 1 ч. 51 м.
Битрейт : 1728 Кбит/сек
Ширина : 720 пикселей
Высота : 304 пикселя
Соотношение сторон : 2,35:1
Частота кадров : 30,000 кадров/сек
Цветовое пространство : YUV
Субдискретизация насыщенности : 4:2:0
Битовая глубина : 8 бит
Тип развёртки : Прогрессивная
Метод сжатия : С потерями
Бит/(Пиксели*Кадры) : 0.263
Размер потока : 1,34 Гбайт (93%)
Библиотека кодирования : XviD 1.2.1 (UTC 2008-12-04)
Аудио
Идентификатор : 1
Формат : AC-3
Формат/Информация : Audio Coding 3
Расширение режима : CM (complete main)
Параметр Endianness формата : Big
Идентификатор кодека : 2000
Продолжительность : 1 ч. 51 м.
Вид битрейта : Постоянный
Битрейт : 128 Кбит/сек
Каналы : 2 канала
Расположение каналов : Front: L R
Частота : 48,0 КГц
Частота кадров : 31,250 кадров/сек (1536 spf)
Метод сжатия : С потерями
Задержка видео : 28 мс.
Размер потока : 102 Мбайт (7%)
Выравнивание : Разделение по промежуткам
Продолжительность промежутка : 33 мс. (1,00 видеокадр)
Время предзагрузки промежутка : 500 мс.
Скриншоты:
       

Russian Mafia

Пост 18-Сен-2016 18:17

[Цитировать]

Монах и бес (2016) CamRip - Производство: Россия
Жанр: Комедия, Фантастика
Режиссер: Николай Досталь
Актеры: Тимофей Трибунцев, Георгий Фетисов, Борис Каморзин, Роман Мадянов, Никита Тарасов, Сергей Барковский
Описание:
Фантастическая история первой половины XIX века. В мужском монастыре появляется новый насельник Иван Семенович. Но вместе с монахом в монастырь проникают темные силы, которые материализуются в лице Легиона (так он представился Ивану). Легион избрал Ивана объектом своей дьявольской работы, всячески искушая его, чтобы сбить с избранного им пути служения Богу. Но чем сильнее искушение, тем крепче духовные силы Ивана.

Возраст: 12+ (зрителям, достигшим 12 лет)
Дата мировой премьеры: 8 сентября 2016
Дата российской премьеры: 8 сентября 2016, «Наше Кино»
Продолжительность: 01:47:36
Качество видео: CamRip Сэмпл
Перевод: Не требуется (оригинал)
Реклама: присутствуют аудио и видео вставки рекламы.
Видео: Xvid, 720x384, 1617 kb/s
Аудио: AC3, 2 ch, 192 kb/s

Mediainfo:

Код:
MonaX.I.Bes.2O16.O.CAMRip.14OOMB.avi
Format                      : AVI
Format/Info                 : Audio Video Interleave
File size                   : 1.37 GiB
Duration                    : 1 h 47 min
Overall bit rate            : 1 819 kb/s
Writing application         : VirtualDubMod 1.5.10.2 (build 2540/release)
Writing library             : VirtualDubMod build 2540/release
Video
ID                          : 0
Format                      : MPEG-4 Visual
Format profile              : Advanced [email protected]
Format settings, BVOP       : 2
Format settings, QPel       : No
Format settings, GMC        : No warppoints
Format settings, Matrix     : Custom
Codec ID                    : XVID
Codec ID/Hint               : XviD
Duration                    : 1 h 47 min
Bit rate                    : 1 617 kb/s
Width                       : 720 pixels
Height                      : 384 pixels
Display aspect ratio        : 1.85:1
Frame rate                  : 25.000 FPS
Color space                 : YUV
Chroma subsampling          : 4:2:0
Bit depth                   : 8 bits
Scan type                   : Progressive
Compression mode            : Lossy
Bits/(Pixel*Frame)          : 0.234
Stream size                 : 1.22 GiB (89%)
Writing library             : XviD 1.2.1 (UTC 2008-12-04)
Audio
ID                          : 1
Format                      : AC-3
Format/Info                 : Audio Coding 3
Mode extension              : CM (complete main)
Format settings, Endianness : Big
Codec ID                    : 2000
Duration                    : 1 h 47 min
Bit rate mode               : Constant
Bit rate                    : 192 kb/s
Channel(s)                  : 2 channels
Channel positions           : Front: L R
Sampling rate               : 48.0 kHz
Frame rate                  : 31.250 FPS (1536 spf)
Compression mode            : Lossy
Stream size                 : 148 MiB (11%)
Alignment                   : Split accross interleaves
Interleave, duration        : 40  ms (1.00 video frame)
Interleave, preload duratio : 500  ms

Скриншоты

       

Russian Mafia

Пост 26-Авг-2016 23:08

[Цитировать]

Производство: США
Жанр: Триллер, Криминал, Детектив, Приключения
Режиссер: Генри Джуст, Эриель Шульман
Актеры: Эмма Робертс, Дэйв Франко, Эмили Мид, Майлс Хейзер, Кимико Гленн, Марк Джон Джеффрис, Машин Ган Келли, Брайан «Сене» Марк, Эд Сквайр, Райтор Дойл
Описание:
Поддавшись на уговоры одноклассниц, тихоня Ви открывает для себя мир популярной онлайн-игры «Нерв», где участники выполняют задания разной степени сложности, которые придумывают для них другие пользователи. В случае успеха игроки получают очень неплохие деньги. Ви проявляет неожиданную для самой себя смелость и отсутствие комплексов, и в очередном раунде знакомится с парнем по имени Иэн. Красивая пара нравится зрителям игры, и они решают, что следующие задания Ви и Иэн должны выполнять только вместе. Ставки растут, задания становятся все опаснее, и Ви постепенно понимает, что выйти из игры по собственной воле не получится. Те, кто считают себя игроками, на самом деле всего лишь пешки в руках таинственного сообщества Наблюдателей. И никто из участников игры не знает, какое задание станет следующим - или последним.

Возраст: 16+ (зрителям, достигшим 16 лет)
Рейтинг MPAA: PG-13 (детям до 13 лет просмотр нежелателен)
Дата мировой премьеры: 27 июля 2016
Дата российской премьеры: 15 сентября 2016
Продолжительность: 01:35:59
Качество видео: CamRip Сэмпл
Перевод: Многоголосый закадровый, любительский (Parovoz Production)
Язык субтитров: Испанские
Вид субтитров: Вшитые неотключаемые
Реклама: Присутствуют голосовые и текстовые вставки рекламы.
Видео: Xvid, 720x336, ~25.000 fps, 1644 Кбит/с
Аудио: AC3, 2 ch, 384 kb/s, 48.0 KHz

Mediainfo:

Код:
I:\ЭКРАНКИ\Нерв - Nerve (2016).L2.CAMRip.avi
   General
      Complete name : I:\ЭКРАНКИ\Нерв - Nerve (2016).L2.CAMRip.avi
      Format : AVI
      Format/Info : Audio Video Interleave
      File size : 1.37 GiB
      Duration : 1h 35mn
      Overall bit rate : 2 038 Kbps
      Writing application : VirtualDubMod 1.5.10.2 (build 2540/release)
      Writing library : VirtualDubMod build 2540/release
   Video #0
      ID : 0
      Format : MPEG-4 Visual
      Format profile : Advanced [email protected]
      Format settings, BVOP : 2
      Format settings, QPel : No
      Format settings, GMC : No warppoints
      Format settings, Matrix : Custom
      Codec ID : XVID
      Codec ID/Hint : XviD
      Duration : 1h 35mn
      Bit rate : 1 644 Kbps
      Width : 720 pixels
      Height : 336 pixels
      Display aspect ratio : 2.143
      Frame rate : 25.000 fps
      Color space : YUV
      Chroma subsampling : 4:2:0
      Bit depth : 8 bits
      Scan type : Progressive
      Compression mode : Lossy
      Bits/(Pixel*Frame) : 0.272
      Stream size : 1.10 GiB (81%)
      Writing library : XviD 1.2.1 (UTC 2008-12-04)
   Audio #1
      ID : 1
      Format : AC-3
      Format/Info : Audio Coding 3
      Mode extension : CM (complete main)
      Format settings, Endianness : Big
      Codec ID : 2000
      Duration : 1h 35mn
      Bit rate mode : Constant
      Bit rate : 384 Kbps
      Channel(s) : 2 channels
      Channel positions : Front: L R
      Sampling rate : 48.0 KHz
      Frame rate : 31.250 fps (1536 spf)
      Compression mode : Lossy
      Stream size : 264 MiB (19%)
      Alignment : Split accross interleaves
      Interleave, duration : 40 ms (1.00 video frame)
      Interleave, preload duration : 500 ms

Скриншоты

       

Russian Mafia

Пост 26-Авг-2016 21:43

[Цитировать]

Черепашки-ниндзя 2 / Teenage Mutant Ninja Turtles: Out of the Shadows
Страна: США
Производство: Paramount Pictures, Nickelodeon Movies, Platinum Dunes, Gama Entertainment Partners
Год выпуска: 2016
Жанр: фантастика, фэнтези, боевик, комедия, приключения
Продолжительность: 01:44:20
Режиссер: Дэйв Грин
Авторы сценария: Джош Аппелбаум, Андре Немец, Питер Лэрд
В ролях: Меган Фокс, Стивен Амелл, Алан Ричсон, Лора Линни, Уилл Арнетт, Ноэль Фишер, Стефен Фаррелли, Алессандра Амброзио
Описание: Долгое время черепашки-ниндзя скрывались от людей в лабиринтах городской канализации. На протяжении нескольких лет учитель Сплинтер обучал их боевым искусствам и прививал им чувство справедливости. В один прекрасный момент им пришлось подняться наверх, чтобы спасти Нью-Йорк от Шредера, предводителя Клана Футов, захватившего власть в Нью-Йорке. Вместе с отважным репортером Эйприл и ее оператором Верном, бесстрашные воины смогли одержать победу и очистить любимый город от преступности. Леонардо, Микеланджело, Рафаэль и Донателло нашли свое предназначение в этом мире и стали защитниками своего города. Они навели порядок в Нью-Йорке и с чистой совестью могли отправиться на покой, но однажды им вновь пришлось столкнуться с могущественным врагом, угрожающим их городу…

Перевод: Профессиональный (полное дублирование) | чистый звук
Субтитры: нет-Качество: TS
Формат: АVI
Видео кодек: XviD
Аудио кодек: АС3
Видео: 720x336 (2.143), 25.000 fps, XviD ~1 833 kbps avg
Аудио: 48.0 kHz, AC3 Dolby Digital, 2/0 (L,R) ch, ~192 kbps
Дата премьеры (мир): 30 мая 2016
Дата премьеры (РФ): 2 июня 2016, «Централ Партнершип»
ПРИМЕЧАНИЕ: ПРИСУТСТВУЕТ РЕКЛАМА!

Media Info

General
Полное имя : Cherepashki.2O16.D.TS.14OOMB_KOSHARA.avi
Формат : AVI
Формат/Информация : Audio Video Interleave
Размер файла : 1,37 Гбайт
Продолжительность : 1 ч. 44 м.
Общий поток : 1875 Кбит/сек
Программа кодирования : VirtualDubMod 1.5.10.2 (build 2540/release)
Библиотека кодирования : VirtualDubMod build 2540/release
Видео
Идентификатор : 0
Формат : MPEG-4 Visual
Профиль формата : Advanced [email protected]
Параметр BVOP формата : Да
Параметр QPel формата : Нет
Параметр GMC формата : Без точки перехода
Параметр матрицы формата : Выборочная
Идентификатор кодека : XVID
Идентификатор кодека/Подсказка : XviD
Продолжительность : 1 ч. 44 м.
Продолжительность оригинала : 1 ч. 0 м.
Битрейт : 1833 Кбит/сек
Ширина : 720 пикселей
Высота : 336 пикселей
Соотношение сторон : 2,143
Частота кадров : 25,000 кадров/сек
Цветовое пространство : YUV
Субдискретизация насыщенности : 4:2:0
Битовая глубина : 8 бит
Тип развёртки : Прогрессивная
Метод сжатия : С потерями
Бит/(Пиксели*Кадры) : 0.303
Размер потока : 795 Мбайт (57%)
Библиотека кодирования : XviD 1.2.1 (UTC 2008-12-04)
Аудио
Идентификатор : 1
Формат : AC-3
Формат/Информация : Audio Coding 3
Расширение режима : CM (complete main)
Параметр Endianness формата : Big
Идентификатор кодека : 2000
Продолжительность : 1 ч. 44 м.
Продолжительность оригинала : 1 ч. 0 м.
Вид битрейта : Постоянный
Битрейт : 192 Кбит/сек
Каналы : 2 канала
Расположение каналов : Front: L R
Частота : 48,0 КГц
Частота кадров : 31,250 кадров/сек (1536 spf)
Метод сжатия : С потерями
Размер потока : 83,3 Мбайт (6%)
Выравнивание : Разделение по промежуткам
Продолжительность промежутка : 40 мс. (1,00 видеокадр)
Время предзагрузки промежутка : 500 мс.

Скриншоты

     

[email protected]

Пост 14-Авг-2016 12:46

[Цитировать]

Отряд самоубийц / Suicide Squad - Производство: США | Warner Bros. Pictures, Atlas Entertainment, DC Comics
Жанр: Фантастика, Боевик, Криминал, Комедия
Режиссер: Дэвид Эйр
Продюсер: Брюс Франклин, Энди Хорвитц, Джефф Джонс
Актеры: Марго Робби, Уилл Смит, Джаред Лето, Джай Кортни, Кара Делевинь, Джей Эрнандес, Юэль Киннаман, Виола Дэвис
Описание:
Правительство решает дать команде суперзлодеев шанс на искупление. Подвох в том, что их отправляют на миссию, где они, вероятнее всего, погибнут.

Возраст: 16+ (зрителям, достигшим 16 лет)
Рейтинг MPAA: PG-13 (детям до 13 лет просмотр нежелателен)
Дата мировой премьеры: 1 августа 2016
Дата российской премьеры: 4 августа 2016, «Каро-Премьер» 3D
Продолжительность: 01:53:51
Качество видео: TS
Перевод: Дублированный
Вид субтитров: Вшитые неотключаемые
Язык субтитров: Английский
Реклама: Присутствуют голосовые и текстовые вставки рекламы.
Сравнение скриншотов TS&TSNew
Видео: XviD, 720x304, ~1695 Kbps
Аудио: AC3, 2 ch, 128 Kbps

Mediainfo:

Код:
Общее
Полное имя                               : OtrYd.SamoUbiyTs.2O16.D.TSv2.14OOMB.avi
Формат                                   : AVI
Формат/Информация                        : Audio Video Interleave
Размер файла                             : 1,46 Гбайт
Продолжительность                        : 1 ч. 53 м.
Общий поток                              : 1832 Кбит/сек
Программа кодирования                    : VirtualDubMod 1.5.10.2 (build 2540/release)
Библиотека кодирования                   : VirtualDubMod build 2540/release
Видео
Идентификатор                            : 0
Формат                                   : MPEG-4 Visual
Профиль формата                          : Advanced [email protected]
Параметр BVOP формата                    : 2
Параметр QPel формата                    : Нет
Параметр GMC формата                     : Без точки перехода
Параметр матрицы формата                 : Выборочная
Идентификатор кодека                     : XVID
Идентификатор кодека/Подсказка           : XviD
Продолжительность                        : 1 ч. 53 м.
Битрейт                                  : 1695 Кбит/сек
Ширина                                   : 720 пикселей
Высота                                   : 304 пикселя
Соотношение сторон                       : 2,35:1
Частота кадров                           : 23,976 кадра/сек
Цветовое пространство                    : YUV
Субдискретизация насыщенности            : 4:2:0
Битовая глубина                          : 8 бит
Тип развёртки                            : Прогрессивная
Метод сжатия                             : С потерями
Бит/(Пиксели*Кадры)                      : 0.323
Размер потока                            : 1,35 Гбайт (92%)
Библиотека кодирования                   : XviD 1.2.1 (UTC 2008-12-04)
Аудио
Идентификатор                            : 1
Формат                                   : AC-3
Формат/Информация                        : Audio Coding 3
Расширение режима                        : CM (complete main)
Параметр Endianness формата              : Big
Идентификатор кодека                     : 2000
Продолжительность                        : 1 ч. 53 м.
Вид битрейта                             : Постоянный
Битрейт                                  : 128 Кбит/сек
Каналы                                   : 2 канала
Расположение каналов                     : Front: L R
Частота                                  : 48,0 КГц
Битовая глубина                          : 16 бит
Метод сжатия                             : С потерями
Размер потока                            : 104 Мбайт (7%)
Выравнивание                             : Разделение по промежуткам
Продолжительность промежутка             : 42  мс. (1,00 видеокадр)
Время предзагрузки промежутка            : 500  мс.
Скриншоты:
       

ломич

Пост 13-Авг-2016 14:47

[Цитировать]

ПОСМОТРЕЛ ФИЛЬМ,НО ХОЧУ СКАЗАТЬ ОЖИДАЛ ЛУЧШЕГО.НО РАЗОК МОЖНО ПОСМОТРЕТЬ!!! КАЧЕСТВО НЕ АЙС.ЗА ОПЕРАТИВНОСТЬ ОК.

[email protected]

Пост 06-Авг-2016 23:31

[Цитировать]

Отряд самоубийц / Suicide Squad «Justice has a bad side»- Производство: США | Warner Bros. Pictures, Atlas Entertainment, DC Comics
Жанр: Фантастика, Боевик, Криминал, Комедия
Режиссер: Дэвид Эйр / David Ayer
Продюсер: Брюс Франклин, Энди Хорвитц, Джефф Джонс
Актеры: Марго Робби, Уилл Смит, Джаред Лето, Джай Кортни, Кара Делевинь, Джей Эрнандес, Юэль Киннаман, Виола Дэвис
Описание:
Правительство решает дать команде суперзлодеев шанс на искупление.
Подвох в том, что их отправляют на миссию,
где они, вероятнее всего, погибнут.

Возраст: 16+ (зрителям, достигшим 16 лет)
Рейтинг MPAA: PG-13 (детям до 13 лет просмотр нежелателен)
Дата мировой премьеры: 1 августа 2016
Дата российской премьеры: 4 августа 2016, «Каро-Премьер» 3D
Продолжительность: 01:51:43
Качество видео: TS
Перевод: Дублированный
Вид субтитров: Отсутствуют
Реклама: Присутствуют голосовые и текстовые вставки рекламы.
Видео: Xvid, 720x304, ~1663 kbps
Аудио: AC3, 2 ch, 192 kbps

Mediainfo:

Код:
Общее
Полное имя                               : Otryad.2016.D.TS.1400MB.nnmclub.avi
Формат                                   : AVI
Формат/Информация                        : Audio Video Interleave
Размер файла                             : 1,46 Гбайт
Продолжительность                        : 1 ч. 51 м.
Общий поток                              : 1867 Кбит/сек
Программа кодирования                    : VirtualDubMod 1.5.10.2 (build 2540/release)
Библиотека кодирования                   : VirtualDubMod build 2540/release
Видео
Идентификатор                            : 0
Формат                                   : MPEG-4 Visual
Профиль формата                          : Advanced [email protected]
Параметр BVOP формата                    : 2
Параметр QPel формата                    : Нет
Параметр GMC формата                     : Без точки перехода
Параметр матрицы формата                 : Выборочная
Идентификатор кодека                     : XVID
Идентификатор кодека/Подсказка           : XviD
Продолжительность                        : 1 ч. 51 м.
Битрейт                                  : 1663 Кбит/сек
Ширина                                   : 720 пикселей
Высота                                   : 304 пикселя
Соотношение сторон                       : 2,35:1
Частота кадров                           : 29,970 (30000/1001) кадров/сек
Цветовое пространство                    : YUV
Субдискретизация насыщенности            : 4:2:0
Битовая глубина                          : 8 бит
Тип развёртки                            : Прогрессивная
Метод сжатия                             : С потерями
Бит/(Пиксели*Кадры)                      : 0.253
Размер потока                            : 1,30 Гбайт (89%)
Библиотека кодирования                   : XviD 1.2.1 (UTC 2008-12-04)
Аудио
Идентификатор                            : 1
Формат                                   : AC-3
Формат/Информация                        : Audio Coding 3
Расширение режима                        : CM (complete main)
Параметр Endianness формата              : Big
Идентификатор кодека                     : 2000
Продолжительность                        : 1 ч. 51 м.
Вид битрейта                             : Постоянный
Битрейт                                  : 192 Кбит/сек
Каналы                                   : 2 канала
Расположение каналов                     : Front: L R
Частота                                  : 48,0 КГц
Частота кадров                           : 31,250 кадров/сек (1536 spf)
Метод сжатия                             : С потерями
Размер потока                            : 153 Мбайт (10%)
Выравнивание                             : Разделение по промежуткам
Продолжительность промежутка             : 33  мс. (1,00 видеокадр)
Время предзагрузки промежутка            : 500  мс.
Скриншоты:
       
-

[email protected]

Пост 06-Авг-2016 23:07

[Цитировать]

Пришельцы 3: Взятие Бастилии
Les Visiteurs: La Revolution
- Производство: Франция
Жанр: Комедия, Приключения, Фантастика
Режиссер: Жан-Мари Пуаре
Актеры: Кристиан Клавье, Жан Рено, Франк Дюбоск, Карин Вьяр, Сильви Тестю, Мари-Анн Шазель, Эри Абиттан, Алекс Лутс, Стефани де Крэенкур, Вероника Буланжер
Описание:
В третьей части граф с оруженосцем отправляются в самое сложное для Франции время — период Французской революции.

Возраст: 12+ (зрителям, достигшим 12 лет)
Дата мировой премьеры: 6 апреля 2016
Дата российской премьеры: 7 апреля 2016
Продолжительность: 01:49:29
Качество видео: BDRip
Перевод: Дублированный (звук c CamRip)
Видео: AVC/H.264, 1280х536, ~4206 Kbps
Аудио: MP3, 2 ch, 192 Kbps, CBR

Mediainfo:

Код:
Общее
Уникальный идентификатор                 : 237286122289230180135591849983973884773 (0xB283A5139B820DCC8A716F2993518365)
Полное имя                               : Les Visiteurs 3_BDRip.720p.mkv
Формат                                   : Matroska
Версия формата                           : Version 4 / Version 2
Размер файла                             : 3,36 Гбайт
Продолжительность                        : 1 ч. 49 м.
Общий поток                              : 4398 Кбит/сек
Дата кодирования                         : UTC 2016-08-05 02:55:35
Программа кодирования                    : mkvmerge v8.8.0 ('Wind at my back') 32bit
Библиотека кодирования                   : libebml v1.3.3 + libmatroska v1.4.4
Видео
Идентификатор                            : 1
Формат                                   : AVC
Формат/Информация                        : Advanced Video Codec
Профиль формата                          : [url=mailto:[email protected]][email protected][/url]
Параметр CABAC формата                   : Да
Параметр ReFrames формата                : 5 кадров
Идентификатор кодека                     : V_MPEG4/ISO/AVC
Продолжительность                        : 1 ч. 49 м.
Битрейт                                  : 4206 Кбит/сек
Ширина                                   : 1280 пикселей
Высота                                   : 536 пикселей
Соотношение сторон                       : 2,40:1
Режим частоты кадров                     : Постоянный
Частота кадров                           : 24,000 кадра/сек
Цветовое пространство                    : YUV
Субдискретизация насыщенности            : 4:2:0
Битовая глубина                          : 8 бит
Тип развёртки                            : Прогрессивная
Бит/(Пиксели*Кадры)                      : 0.255
Размер потока                            : 3,22 Гбайт (96%)
Библиотека кодирования                   : x264 core 148 r2705 3f5ed56
Язык                                     : English
Default                                  : Да
Forced                                   : Нет
Аудио
Идентификатор                            : 2
Формат                                   : MPEG Audio
Версия формата                           : Version 1
Профиль формата                          : Layer 3
Режим                                    : Joint stereo
Расширение режима                        : MS Stereo
Идентификатор кодека                     : A_MPEG/L3
Идентификатор кодека/Подсказка           : MP3
Продолжительность                        : 1 ч. 49 м.
Вид битрейта                             : Постоянный
Битрейт                                  : 192 Кбит/сек
Каналы                                   : 2 канала
Частота                                  : 48,0 КГц
Частота кадров                           : 41,667 кадра/сек (1152 spf)
Метод сжатия                             : С потерями
Размер потока                            : 150 Мбайт (4%)
Заголовок                                : Russian
Язык                                     : Russian
Default                                  : Нет
Forced                                   : Нет
Скриншоты:
       

Theseus

Пост 23-Июл-2016 14:34

[Цитировать]

Тайная жизнь домашних животных / The Secret Life of Pets-
Год выпуска: 2016
Страна: США
Жанр: мультфильм, комедия, семейный
Продолжительность: 01:27:49
Перевод: Любительское (многоголосое) [Parovoz Production]
Режиссер: Ярроу Чейни, Крис Рено-В ролях: Луис С.К., Эрик Стоунстрит, Кевин Харт, Дженни Слейт, Элли Кемпер, Альберт Брукс, Лэйк Белл, Дэна Карви, Хэннибал Бёресс, Бобби Мойнахан-Описание: Что делают домашние животные пока хозяева пропадают на работе? С тоской смотрят в окно? Смиренно дремлют на коврике у двери? Как бы не так. Они ведут свою тайную жизнь.- -Качество: TS
Формат: AVI
Видео кодек: XviD
Аудио кодек: AC3
Видео: MPEG4, XviD, 720x384 (1.85:1), 25.000 fps, 1 875 Kbps (0.271 bit/pixel)
Аудио: AC-3, 48.0 KHz, 2 ch, 384 Kbps, CBR-

-

Трейлер

-          -
 

Текущее время: Сегодня 22:36

Часовой пояс: GMT + 3