Сегодня идет свободное скачивание без начисления Download

Результатов поиска: 385

Автор Сообщение

Theseus

Пост 07-Фев-2018 18:49

[Цитировать]

Парадокс Кловерфилда / Частица Бога-The Cloverfield Paradox -Год выхода: 2018
Страна: США
Жанр: ужасы, фантастика, триллер, детектив
Продолжительность: 01:42:26
Перевод : Любительский (многоголосый, закадровый) | BaibaKo-Режиссер: Джулиус Она-В ролях: Гугу Эмбата-Ро, Дэвид Ойелоуо, Даниэль Брюль, Крис О`Дауд, Аксель Хенни, Цзыи Чжан, Элизабет Дебики, Роджер Дейвис, Джон Ортис-О фильме:
В то время как земной мир пребывает на грани войны за ресурсы, в космосе группа учёных проводит испытания устройства, которое способно решить проблему энергетического кризиса. Несколько неудачных попыток вводят учёных в отчаяние. Топлива осталось на три запуска, и когда вдруг происходит удачный запуск устройства, радость длится недолго — команде предстоит иметь дело с очень странными явлениями.- -Качество: WEBRip
Формат: AVI
Видео кодек: XviD
Аудио кодек: AC3
Видео: 720x304 (2.37:1), 23.976 fps, XviD build 73 ~1576 kbps avg, 0.30 bit/pixel
Аудио: AC-3, 48.0 KHz, 6 ch, 448 Kbps, CBR-Рекламы нет !-

Трейлер

-    - -

Theseus

Пост 06-Фев-2018 18:39

[Цитировать]

Парадокс Кловерфилда / Частица Бога-The Cloverfield Paradox -Год выхода: 2018
Страна: США
Жанр: ужасы, фантастика, триллер, детектив
Продолжительность: 01:42:26
Перевод: Любительский, одноголосый | Андрей Важенин [BadBajo]
Субтитры: Отсутствуют-Режиссер: Джулиус Она-В ролях: Гугу Эмбата-Ро, Дэвид Ойелоуо, Даниэль Брюль, Крис О`Дауд, Аксель Хенни, Цзыи Чжан, Элизабет Дебики, Роджер Дейвис, Джон Ортис-О фильме:
В то время как земной мир пребывает на грани войны за ресурсы, в космосе группа учёных проводит испытания устройства, которое способно решить проблему энергетического кризиса. Несколько неудачных попыток вводят учёных в отчаяние. Топлива осталось на три запуска, и когда вдруг происходит удачный запуск устройства, радость длится недолго — команде предстоит иметь дело с очень странными явлениями.- -Качество: WEBRip-AVC
Формат: MKV
Видео кодек: x.264
Аудио кодек: AC3
Видео: AVC, 1020x424 (2.40:1), 23.976 fps, 1 588 Kbps (0.153 bit/pixel)
Аудио: AC-3, 48.0 KHz, 6 ch, 448 Kbps, CBR-Сэмпл-Рекламы нет !-

Трейлер

-     - -

Theseus

Пост 06-Фев-2018 17:34

[Цитировать]

Парадокс Кловерфилда / Частица Бога-The Cloverfield Paradox -Год выхода: 2018
Страна: США
Жанр: ужасы, фантастика, триллер, детектив
Продолжительность: 01:42:26
Перевод: Любительский, одноголосый | Андрей Важенин [BadBajo]
Субтитры: Отсутствуют-Режиссер: Джулиус Она-В ролях: Гугу Эмбата-Ро, Дэвид Ойелоуо, Даниэль Брюль, Крис О`Дауд, Аксель Хенни, Цзыи Чжан, Элизабет Дебики, Роджер Дейвис, Джон Ортис-О фильме:
В то время как земной мир пребывает на грани войны за ресурсы, в космосе группа учёных проводит испытания устройства, которое способно решить проблему энергетического кризиса. Несколько неудачных попыток вводят учёных в отчаяние. Топлива осталось на три запуска, и когда вдруг происходит удачный запуск устройства, радость длится недолго — команде предстоит иметь дело с очень странными явлениями.- -Качество: WEBRip
Формат: AVI
Видео кодек: XviD
Аудио кодек: AC3
Видео: MPEG4, XviD, 720x300 (2.40:1), 23.976 fps, 1 560 Kbps (0.301 bit/pixel)
Аудио: AC-3, 48.0 KHz, 6 ch, 448 Kbps, CBR-Сэмпл-Рекламы нет !-

Трейлер

-     - -

XP1971

Пост 01-Фев-2018 00:54

[Цитировать]

--Иностранец / The Foreigner--«Иногда месть — это лучшая справедливость»-- Производство: Великобритания, Китай, США / thefyzz, SR Media, Huayi Brothers, STX Entertainment
Год выпуска: 2017 г.
Жанр: боевик, триллер, драма, криминал, детектив
Продолжительность: 01:53:52--Мировая премьера: 24 сентября 2017
Российская премьера: 30 ноября 2017, «Парадиз»--Перевод: Профессиональный (полное дублирование) [iTunes]
Оригинальный аудиопоток: английский--Режиссер: Мартин Кэмпбелл / Martin Campbell--В ролях: Кэти Льюнг, Джеки Чан, Руфус Джонс, Марк Тэнди, Каолан Бирн, Аарон Монахэн, Пирс Броснан--Описание: Бывший спецагент, ветеран вьетнамской войны Цюань давно сложил оружие и завел мирную жизнь. Но после того, как в теракте прямо на глазах погибает его дочь-подросток, видя, что власти не спешат разыскивать преступников, Цюань сам начинает поиск убийцы. Он пойдет на все, чтобы совершить праведное возмездие…-- --Качество видео: BDRip-AVC
Контейнер: MKV
Видео кодек: AVC/H.264
Аудио кодек: AC3
Видео: AVC, 1152x482 (2.40:1), 23,976 fps, 1848 Kbps, 0.139 bit/pixel
Аудио 1: 48 kHz, AC3 Dolby Digital, 3/2 (L,C,R,l,r) + LFE ch, ~384 kbps RUS
Аудио 2: 48 kHz, AC3 Dolby Digital, 3/2 (L,C,R,l,r) + LFE ch, ~448 kbps ENG
Cубтитры: английские.

Media Info

Код:
Общее
Уникальный идентификатор : 208371187187701797993411713817895195773 (0x9CC2D4B58CC4C3EA96E42D35B0C7547D)
Полное имя : H:\Torrent2\The.Foreigner.2017.BDRip-AVC.RUS.ENG.mkv
Формат : Matroska
Версия формата : Version 4 / Version 2
Размер файла : 2,13 Гбайт
Продолжительность : 1 ч. 53 м.
Общий поток : 2682 Кбит/сек
Дата кодирования : UTC 2018-01-01 13:12:12
Программа кодирования : mkvmerge v8.6.1 ('Flying') 64bit
Библиотека кодирования : libebml v1.3.3 + libmatroska v1.4.4
Видео
Идентификатор : 2
Формат : AVC
Формат/Информация : Advanced Video Codec
Профиль формата : [email protected]
Параметр CABAC формата : Да
Параметр ReFrames формата : 14 кадров
Идентификатор кодека : V_MPEG4/ISO/AVC
Продолжительность : 1 ч. 53 м.
Битрейт : 1848 Кбит/сек
Ширина : 1152 пикселя
Высота : 482 пикселя
Соотношение сторон : 2,40:1
Режим частоты кадров : Постоянный
Частота кадров : 23,976 (24000/1001) кадра/сек
Цветовое пространство : YUV
Субдискретизация насыщенности : 4:2:0
Битовая глубина : 8 бит
Тип развёртки : Прогрессивная
Бит/(Пиксели*Кадры) : 0.139
Размер потока : 1,47 Гбайт (69%)
Библиотека кодирования : x264 core 152 r2851kMod ba24899
Настройки программы : cabac=1 / ref=14 / deblock=1:-3:-2 / analyse=0x3:0x133 / me=umh / subme=11 / psy=1 / fade_compensate=0.00 / psy_rd=1.00:0.00 / mixed_ref=1 / me_range=32 / chroma_me=1 / trellis=2 / 8x8dct=1 / cqm=0 / deadzone=21,11 / fast_pskip=0 / chroma_qp_offset=-2 / threads=12 / lookahead_threads=3 / sliced_threads=0 / nr=0 / decimate=1 / interlaced=0 / bluray_compat=0 / constrained_intra=0 / bframes=14 / b_pyramid=2 / b_adapt=2 / b_bias=0 / direct=3 / weightb=1 / open_gop=0 / weightp=2 / keyint=240 / keyint_min=23 / scenecut=40 / intra_refresh=0 / rc_lookahead=60 / rc=crf / mbtree=0 / crf=17.6000 / qcomp=0.65 / qpmin=0 / qpmax=69 / qpstep=4 / vbv_maxrate=50000 / vbv_bufsize=62500 / crf_max=0.0 / nal_hrd=none / filler=0 / ip_ratio=1.40 / pb_ratio=1.30 / aq=3:0.80 / zones=154148,163806,q=35
Default : Да
Forced : Нет
Аудио #1
Идентификатор : 1
Формат : AC-3
Формат/Информация : Audio Coding 3
Расширение режима : CM (complete main)
Параметр Endianness формата : Big
Идентификатор кодека : A_AC3
Продолжительность : 1 ч. 53 м.
Вид битрейта : Постоянный
Битрейт : 384 Кбит/сек
Каналы : 6 каналов
Расположение каналов : Front: L C R, Side: L R, LFE
Частота : 48,0 КГц
Частота кадров : 31,250 кадров/сек (1536 spf)
Метод сжатия : С потерями
Размер потока : 313 Мбайт (14%)
Язык : Russian
Default : Да
Forced : Нет
Аудио #2
Идентификатор : 3
Формат : AC-3
Формат/Информация : Audio Coding 3
Расширение режима : CM (complete main)
Параметр Endianness формата : Big
Идентификатор кодека : A_AC3
Продолжительность : 1 ч. 53 м.
Вид битрейта : Постоянный
Битрейт : 448 Кбит/сек
Каналы : 6 каналов
Расположение каналов : Front: L C R, Side: L R, LFE
Частота : 48,0 КГц
Частота кадров : 31,250 кадров/сек (1536 spf)
Метод сжатия : С потерями
Размер потока : 365 Мбайт (17%)
Язык : English
Default : Нет
Forced : Нет
Текст #1
Идентификатор : 4
Формат : UTF-8
Идентификатор кодека : S_TEXT/UTF8
Идентификатор кодека/Информация : UTF-8 Plain Text
Продолжительность : 1 ч. 44 м.
Битрейт : 53 бит/сек
Count of elements : 1143
Размер потока : 41,0 Кбайт (0%)
Язык : English
Default : Нет
Forced : Нет
Текст #2
Идентификатор : 5
Формат : UTF-8
Идентификатор кодека : S_TEXT/UTF8
Идентификатор кодека/Информация : UTF-8 Plain Text
Продолжительность : 1 ч. 45 м.
Битрейт : 59 бит/сек
Count of elements : 1352
Размер потока : 46,0 Кбайт (0%)
Заголовок : SDH
Язык : English
Default : Нет
Forced : Нет
Текст #3
Идентификатор : 6
Формат : UTF-8
Идентификатор кодека : S_TEXT/UTF8
Идентификатор кодека/Информация : UTF-8 Plain Text
Продолжительность : 1 ч. 45 м.
Битрейт : 112 бит/сек
Count of elements : 1352
Размер потока : 86,7 Кбайт (0%)
Заголовок : SDH Colored
Язык : English
Default : Нет
Forced : Нет
Меню
00:00:00.000 : en:Chapter 1
00:08:19.540 : en:Chapter 2
00:15:49.572 : en:Chapter 3
00:21:47.763 : en:Chapter 4
00:27:04.163 : en:Chapter 5
00:32:09.509 : en:Chapter 6
00:35:24.163 : en:Chapter 7
00:38:30.931 : en:Chapter 8
00:43:50.168 : en:Chapter 9
00:47:38.188 : en:Chapter 10
00:54:10.496 : en:Chapter 11
01:01:42.322 : en:Chapter 12
01:08:07.333 : en:Chapter 13
01:14:14.032 : en:Chapter 14
01:18:42.926 : en:Chapter 15
01:23:26.876 : en:Chapter 16
01:29:18.810 : en:Chapter 17
01:38:55.011 : en:Chapter 18
01:43:45.927 : en:Chapter 19
01:47:09.296 : en:Chapter 20

Скриншоты

           
-

Трейлер

-

Theseus

Пост 31-Янв-2018 15:15

[Цитировать]

Уотергейт. Крушение Белого дома-Mark Felt: The Man Who Brought Down the White House -Год выхода: 2017
Страна: США
Жанр: триллер, драма, биография, история
Продолжительность: 01:42:57
Перевод: Профессиональный (многоголосый, закадровый)
Субтитры: Отсутствуют-Режиссер: Питер Ландесман-В ролях: Лиам Нисон, Дайан Лэйн, Мартон Чокаш, Тони Голдуин, Айк Баринхолц, Джош Лукас, Венди МакЛендон-Кови, Кейт Уолш, Брайан Д’Арси Джеймс, Майка Монро, Майкл С. Холл, Том Сайзмор-О фильме: Фильм о главном звене самого громкого скандала ХХ века «Уотергейт», который привел к преждевременной отставке президента Ричарда Никсона. Личность человека, передававшего прессе обличительную информацию на главу государства, долгое время была окутана тайной и установлена лишь спустя 30 лет после его собственного признания. Шокирующая невероятная история, основанная на реальных событиях, о жизни блестящего и бескомпромиссного Заместителя Начальника ФБР Марка Фелта, который пожертвовал всем — своей семьей, своей карьерой и своей свободой, чтобы мир узнал правду.- -Качество: BDRip-AVC
Формат: MKV
Видео кодек: x.264
Аудио кодек: AC3
Видео: AVC, 1024x512 (2.000), 1583 kbps, 23,976 fps
Аудио: 48 kHz, AC3 , 6 ch, 448 kbps-

Трейлер

-    - -

Theseus

Пост 31-Янв-2018 15:14

[Цитировать]

Уотергейт. Крушение Белого дома-Mark Felt: The Man Who Brought Down the White House -Год выхода: 2017
Страна: США
Жанр: триллер, драма, биография, история
Продолжительность: 01:42:57
Перевод: Профессиональный (многоголосый, закадровый)
Субтитры: Отсутствуют-Режиссер: Питер Ландесман-В ролях: Лиам Нисон, Дайан Лэйн, Мартон Чокаш, Тони Голдуин, Айк Баринхолц, Джош Лукас, Венди МакЛендон-Кови, Кейт Уолш, Брайан Д’Арси Джеймс, Майка Монро, Майкл С. Холл, Том Сайзмор-О фильме: Фильм о главном звене самого громкого скандала ХХ века «Уотергейт», который привел к преждевременной отставке президента Ричарда Никсона. Личность человека, передававшего прессе обличительную информацию на главу государства, долгое время была окутана тайной и установлена лишь спустя 30 лет после его собственного признания. Шокирующая невероятная история, основанная на реальных событиях, о жизни блестящего и бескомпромиссного Заместителя Начальника ФБР Марка Фелта, который пожертвовал всем — своей семьей, своей карьерой и своей свободой, чтобы мир узнал правду.- -Качество: BDRip
Формат: AVI
Видео кодек: XviD
Аудио кодек: AC3
Видео: 704x352 (2.00:1), 23.976 fps, XviD build 73 ~1576 kbps avg, 0.27 bit/pixel
Аудио: 48 kHz, AC3 Dolby Digital, 3/2 (L,C,R,l,r) + LFE ch, ~448 kbps-

Трейлер

-     - -

XP1971

Пост 31-Янв-2018 13:58

[Цитировать]

--Четверо против банка / Vier gegen die Bank-- Производство: Германия / Hellinger, Doll Filmproduktion, Warner Bros.
Год выпуска: 2016 г.
Жанр: комедия, криминал
Продолжительность: 01:35:58--Мировая премьера: 25 декабря 2016
Российская премьера: 7 декабря 2017, «Ракета Релизинг»--Перевод: Профессиональный (полное дублирование) [iTunes]--Режиссер: Вольфганг Петерсен / Wolfgang Petersen--В ролях: Антье Трауэ, Александра Мария Лара, Тиль Швайгер, Яна Палласке, Маттиас Швайгхефер, Клаудия Михельсен, Михаэль Хербиг, Ян Йозеф Лиферс, Фахри Огюн Ярдим, Ясмин Лорд--Описание: Актер, спортсмен и рекламный агент инвестируют все свои сбережения под хорошие проценты, но неожиданно их счета прогорают. Им остается только топить свое горе в ближайшем баре, где они встречают своего инвестиционного агента. Разгневанная троица пытается выместить зло на нем, но тот сам оказался жертвой начальства и лишился работы. Теперь у этой четверки есть выбор: смириться с ударом судьбы или спланировать и осуществить дерзкое ограбление банка, чтобы вернуть свои кровно заработанные.-- --Качество видео: BDRip-AVC
Контейнер: MKV
Видео кодек: H.264
Аудио кодек: AC3
Видео: AVC at 1731 Кбит/сек, 1056x440 (2.40:1) at 23,976 fps
Аудио: 48 kHz, AC3 Dolby Digital, 3/2 (L,C,R,l,r) + LFE ch, ~384 kbps
Cубтитры: Отсутствуют .

Media Info

Код:
Общее
Уникальный идентификатор : 244501568144106666130556112589317681947 (0xB7F14A05FC61FD71B55633AB746F331B)
Полное имя : H:\Torrent2\Chetvero.Protiv.Banka.2016.RUS.BDRip.x264.mkv
Формат : Matroska
Версия формата : Version 4 / Version 2
Размер файла : 1,42 Гбайт
Продолжительность : 1 ч. 35 м.
Общий поток : 2111 Кбит/сек
Название фильма : Vier gegen die Bank (2016)
Дата кодирования : UTC 2018-01-13 07:33:17
Программа кодирования : mkvmerge v5.9.0 ('On The Loose') built on Dec 15 2012 16:39:58
Библиотека кодирования : libebml v1.3.0 + libmatroska v1.4.0
Видео
Идентификатор : 1
Формат : AVC
Формат/Информация : Advanced Video Codec
Профиль формата : [email protected]
Параметр CABAC формата : Да
Параметр ReFrames формата : 10 кадров
Идентификатор кодека : V_MPEG4/ISO/AVC
Продолжительность : 1 ч. 35 м.
Битрейт : 1731 Кбит/сек
Ширина : 1056 пикселей
Высота : 440 пикселей
Соотношение сторон : 2,40:1
Режим частоты кадров : Постоянный
Частота кадров : 23,976 кадра/сек
Цветовое пространство : YUV
Субдискретизация насыщенности : 4:2:0
Битовая глубина : 8 бит
Тип развёртки : Прогрессивная
Бит/(Пиксели*Кадры) : 0.155
Размер потока : 1,13 Гбайт (80%)
Заголовок : potroks
Библиотека кодирования : x264 core 155 r2893M b00bcaf
Настройки программы : cabac=1 / ref=10 / deblock=1:-1:-1 / analyse=0x3:0x133 / me=umh / subme=11 / psy=1 / psy_rd=1.04:0.10 / mixed_ref=1 / me_range=48 / chroma_me=1 / trellis=2 / 8x8dct=1 / cqm=0 / deadzone=21,11 / fast_pskip=0 / chroma_qp_offset=-3 / threads=9 / lookahead_threads=2 / sliced_threads=0 / nr=0 / decimate=0 / interlaced=0 / bluray_compat=0 / constrained_intra=0 / bframes=12 / b_pyramid=2 / b_adapt=2 / b_bias=0 / direct=3 / weightb=1 / open_gop=0 / weightp=2 / keyint=240 / keyint_min=23 / scenecut=40 / intra_refresh=0 / rc_lookahead=100 / rc=2pass / mbtree=0 / bitrate=1731 / ratetol=1.0 / qcomp=0.70 / qpmin=0 / qpmax=69 / qpstep=4 / cplxblur=20.0 / qblur=0.5 / vbv_maxrate=52000 / vbv_bufsize=50000 / nal_hrd=none / filler=0 / ip_ratio=1.40 / pb_ratio=1.30 / aq=1:0.80
Язык : English
Default : Да
Forced : Нет
Аудио
Идентификатор : 2
Формат : AC-3
Формат/Информация : Audio Coding 3
Расширение режима : CM (complete main)
Параметр Endianness формата : Big
Идентификатор кодека : A_AC3
Продолжительность : 1 ч. 35 м.
Вид битрейта : Постоянный
Битрейт : 384 Кбит/сек
Каналы : 6 каналов
Расположение каналов : Front: L C R, Side: L R, LFE
Частота : 48,0 КГц
Битовая глубина : 16 бит
Метод сжатия : С потерями
Размер потока : 264 Мбайт (18%)
Заголовок : Dub | DD 5.1 @ 448 kbps - iTunes
Язык : Russian
Default : Да
Forced : Нет
Меню
00:00:00.000 : en:(01)00:00:00:000
00:09:38.703 : en:(02)00:09:38:703
00:17:04.232 : en:(03)00:17:04:232
00:25:13.721 : en:(04)00:25:13:721
00:34:46.042 : en:(05)00:34:46:042
00:42:16.284 : en:(06)00:42:16:284
00:48:43.963 : en:(07)00:48:43:963
00:56:12.953 : en:(08)00:56:12:953
01:02:25.659 : en:(09)01:02:25:659
01:10:42.280 : en:(10)01:10:42:280
01:20:28.323 : en:(11)01:20:28:323
01:27:11.184 : en:(12)01:27:11:184

Скриншоты

           
-

Трейлер

-

Theseus

Пост 31-Янв-2018 13:44

[Цитировать]

Легенда о Коловрате-Год выхода: 2017
Страна: Россия
Жанр: история, боевик, фэнтези
Продолжительность: 01:53:03
Субтитры: Отсутствуют-Режиссер: Джаник Файзиев, Иван Шурховецкий-В ролях: Илья Малаков (Евпатий Коловрат), Полина Чернышова (Настя), Алексей Серебряков (Князь Юрий), Александр Ильин мл. (Каркуш), Игорь Савочкин (Ратмир), Тимофей Трибунцев , Александр Цой (Хан Батый), Юлия Хлынина (Лада)-О фильме: XIII век. Русь раздроблена и вот-вот падет на колени перед ханом Золотой Орды Батыем. Испепеляя города и заливая русские земли кровью, захватчики не встречают серьезного сопротивления, и лишь один воин бросает им вызов. Молодой рязанский витязь Евпатий Коловрат возглавляет отряд смельчаков, чтобы отомстить за свою любовь и за свою родину. Его отвага поразит даже Батыя, а его имя навсегда останется в памяти народа. Воин, ставший легендой. Подвиг, сохранившийся в веках.- -Качество: WEB-DLRip-AVC
Формат: MKV
Видео кодек: x.264
Аудио кодек: AC3
Видео: MPEG-4 AVC, 1024x430 (2.40:1), 25.000 fps, ~2826 kbps avg, 0.257 bit/pixel
Аудио: AC-3, 48.0 KHz, 6 ch, 384 Kbps, CBR-

Трейлер

-    - -

XP1971

Пост 31-Янв-2018 10:13

[Цитировать]

--Новогодний переполох--«Битва за наследство началась»-- Производство: Россия / Vice Films
Год выпуска: 2017 г.
Жанр: комедия, семейный
Продолжительность: 01:20:26--Российская премьера: 14 декабря 2017, «Централ Партнершип»--Режиссер: Кирилл Папакуль--В ролях: Владимир Меньшов, Константин Крюков, Анастасия Макеева, Ян Цапник, Инга Оболдина, Иван Пышненко, Екатерина Гордиенко, Эрик Тевосов, Мария Вэй, Ренат Мухамбаев--Описание: Наверняка вы давно не играли в снежки… А в крокодила? Как ни странно, но именно этим вынуждены заниматься обитатели усадьбы Морозовых, потому что на кону отцовское наследство. И в этой нешуточной борьбе в ход идут любые средства. А средний сын Дима, неисправимый авантюрист, даже умудрился привезти с собой фиктивную семью. Только вот глава семейства, своенравный отставной генерал Георгий Иванович Морозов, даже не подозревает, что далеко не любовь к семейным традициям привела в дом всех членов семьи.-- --Качество видео: WEB-DLRip
Контейнер: AVI
Видео кодек: XviD
Аудио кодек: AC3
Видео: 720x304 (2.37:1), 25 fps, XviD build 73 ~2195 kbps avg, 0.40 bit/pixel
Аудио: 48 kHz, AC3 Dolby Digital, 3/2 (L,C,R,l,r) + LFE ch, ~384 kbps
Cубтитры: отсутствуют

Media Info

Код:
Общее
Полное имя : H:\Torrent2\Novogodnij.perepoloh.2017.WEB-DLRip.1.45Gb.avi
Формат : AVI
Формат/Информация : Audio Video Interleave
Размер файла : 1,45 Гбайт
Продолжительность : 1 ч. 20 м.
Общий поток : 2590 Кбит/сек
Программа кодирования : VirtualDubMod 1.5.10.2 (build 2540/release)
Библиотека кодирования : VirtualDubMod build 2540/release
Видео
Идентификатор : 0
Формат : MPEG-4 Visual
Профиль формата : Advanced [email protected]
Настройки формата : BVOP1 / Custom Matrix
Параметр BVOP формата : 1
Параметр QPel формата : Нет
Параметр GMC формата : Без точки перехода
Параметр матрицы формата : Выборочная
Идентификатор кодека : XVID
Идентификатор кодека/Подсказка : XviD
Продолжительность : 1 ч. 20 м.
Битрейт : 2196 Кбит/сек
Ширина : 720 пикселей
Высота : 304 пикселя
Соотношение сторон : 2,35:1
Частота кадров : 25,000 кадров/сек
Цветовое пространство : YUV
Субдискретизация насыщенности : 4:2:0
Битовая глубина : 8 бит
Тип развёртки : Прогрессивная
Метод сжатия : С потерями
Бит/(Пиксели*Кадры) : 0.401
Размер потока : 1,23 Гбайт (85%)
Библиотека кодирования : XviD 73
Аудио
Идентификатор : 1
Формат : AC-3
Формат/Информация : Audio Coding 3
Идентификатор кодека : 2000
Продолжительность : 1 ч. 20 м.
Вид битрейта : Постоянный
Битрейт : 384 Кбит/сек
Каналы : 6 каналов
Расположение каналов : Front: L C R, Side: L R, LFE
Частота : 48,0 КГц
Частота кадров : 31,250 кадров/сек (1536 SPF)
Битовая глубина : 16 бит
Метод сжатия : С потерями
Размер потока : 221 Мбайт (15%)
Выравнивание : Разделение по промежуткам
Продолжительность промежутка : 40 мс. (1,00 видеокадр)
Время предзагрузки промежутка : 500 мс.
ServiceKind/String : Complete Main

Скриншоты

           
-

Трейлер

-

Theseus

Пост 31-Янв-2018 02:32

[Цитировать]

Легенда о Коловрате-Год выхода: 2017
Страна: Россия
Жанр: история, боевик, фэнтези
Продолжительность: 01:53:02
Субтитры: Отсутствуют-Режиссер: Джаник Файзиев, Иван Шурховецкий-В ролях: Илья Малаков (Евпатий Коловрат), Полина Чернышова (Настя), Алексей Серебряков (Князь Юрий), Александр Ильин мл. (Каркуш), Игорь Савочкин (Ратмир), Тимофей Трибунцев , Александр Цой (Хан Батый), Юлия Хлынина (Лада)-О фильме: XIII век. Русь раздроблена и вот-вот падет на колени перед ханом Золотой Орды Батыем. Испепеляя города и заливая русские земли кровью, захватчики не встречают серьезного сопротивления, и лишь один воин бросает им вызов. Молодой рязанский витязь Евпатий Коловрат возглавляет отряд смельчаков, чтобы отомстить за свою любовь и за свою родину. Его отвага поразит даже Батыя, а его имя навсегда останется в памяти народа. Воин, ставший легендой. Подвиг, сохранившийся в веках.- -Качество: WEB-DLRip
Формат: AVI
Видео кодек: XviD
Аудио кодек: AC3
Видео: 720x304 (2.37:1), 25 fps, XviD, ~1456 kbps avg
Аудио: 48 kHz, AC3, 6 ch, 384 kbps-

Трейлер

-     - -

XP1971

Пост 30-Янв-2018 09:48

[Цитировать]

--Три богатыря и принцесса Египта--«Грабим пирамиды!»-- Производство: Россия / Кинокомпания СТВ, Студия Мельница
Год выпуска: 2017 г.
Жанр: мультфильм, приключения, семейный, фэнтези
Продолжительность: 01:08:43--Мировая премьера: 29 декабря 2017
Российская премьера: 28 декабря 2017, «Наше Кино»--Режиссер: Константин Феоктистов--В ролях: Олег Куликович, Валерий Соловьёв, Дмитрий Быковский-Ромашов, Сергей Маковецкий, Дмитрий Высоцкий, Александр Быковский, Елена Шульман, Лия Медведева, Мария Цветкова-Овсянникова, Анатолий Петров--Описание: В новогоднюю ночь, в то время, как Князь готовится произнести торжественную речь, а Юлий распаковывает подарки и следит за приготовлением праздничного стола, богатыри едут в гости к Алёше и встречают там странного товарища по имени Дурило. Оказывается, это тринадцатый месяц, который никому особенно не нужен, и который пытается осуществить своё заветное желание — стать самым главным месяцем в году. Только и надо ему, что притвориться Дедом Морозом, показать доверчивому Алёше пару фокусов, подружиться с богатырями и оказаться в Египте — стране фараонов и древних пирамид. А дальше — пирамиды, заклинание, Древний огонь — и дело в шляпе! Но не так-то просто осуществить своё коварное желание, когда на пути у тебя встают не только три богатыря, но и их жёны, Князь и Юлий, Змей Горыныч и Дед Мороз и даже — сама принцесса Нефертити!-- --Качество видео: WEB-DLRip-AVC
Контейнер: MKV
Видео кодек: H.264
Аудио кодек: AC3
Видео: AVC, 1024x576 (16:9), 25.000 fps, ~2046 kbps avg, 0.139 bit/pixel
Аудио: 48 kHz, AC3 Dolby Digital, 3/2 (L,C,R,l,r) + LFE ch, ~384 kbps
Cубтитры: отсутствуют

Media Info

Код:
Общее
Уникальный идентификатор : 239502404756955598006129896486569689056 (0xB42E7C3D1B5DB36A89A85A2444A6BFE0)
Полное имя : H:\Torrent2\Tri.bogaturya.i.Printzesa.Eghipta.2017.O.WEB-DLRip.AVC.mkv
Формат : Matroska
Версия формата : Version 2
Размер файла : 1,17 Гбайт
Продолжительность : 1 ч. 8 м.
Общий поток : 2429 Кбит/сек
Дата кодирования : UTC 2018-01-30 00:36:41
Программа кодирования : mkvmerge v5.6.0 ('Kenya Kane') built on May 27 2012 16:44:04
Библиотека кодирования : libebml v1.2.3 + libmatroska v1.3.0
Видео
Идентификатор : 1
Формат : AVC
Формат/Информация : Advanced Video Codec
Профиль формата : [email protected]
Настройки формата : CABAC / 12 Ref Frames
Параметр CABAC формата : Да
Параметр RefFrames формата : 12 кадров
Идентификатор кодека : V_MPEG4/ISO/AVC
Продолжительность : 1 ч. 8 м.
Битрейт : 2046 Кбит/сек
Ширина : 1024 пикселя
Высота : 576 пикселей
Соотношение сторон : 16:9
Режим частоты кадров : Постоянный
Частота кадров : 25,000 кадров/сек
Цветовое пространство : YUV
Субдискретизация насыщенности : 4:2:0
Битовая глубина : 8 бит
Тип развёртки : Прогрессивная
Бит/(Пиксели*Кадры) : 0.139
Размер потока : 981 Мбайт (82%)
Заголовок : Enigma
Библиотека кодирования : x264 core 152 r2851 ba24899
Настройки программы : cabac=1 / ref=12 / deblock=1:-2:-2 / analyse=0x3:0x113 / me=umh / subme=10 / psy=1 / psy_rd=1.00:0.05 / mixed_ref=1 / me_range=32 / chroma_me=1 / trellis=2 / 8x8dct=1 / cqm=0 / deadzone=21,11 / fast_pskip=0 / chroma_qp_offset=-3 / threads=12 / lookahead_threads=2 / sliced_threads=0 / nr=0 / decimate=0 / interlaced=0 / bluray_compat=0 / constrained_intra=0 / bframes=9 / b_pyramid=2 / b_adapt=2 / b_bias=0 / direct=3 / weightb=1 / open_gop=0 / weightp=2 / keyint=250 / keyint_min=25 / scenecut=40 / intra_refresh=0 / rc_lookahead=40 / rc=2pass / mbtree=0 / bitrate=2046 / ratetol=1.0 / qcomp=0.60 / qpmin=0 / qpmax=51 / qpstep=4 / cplxblur=20.0 / qblur=0.5 / vbv_maxrate=50000 / vbv_bufsize=62500 / nal_hrd=none / filler=0 / ip_ratio=1.25 / pb_ratio=1.30 / aq=1:1.00
Язык : English
Default : Да
Forced : Нет
Цветовой диапазон : Limited
Основные цвета : BT.709
Характеристики трансфера : BT.709
Коэффициенты матрицы : BT.709
Аудио
Идентификатор : 2
Формат : AC-3
Формат/Информация : Audio Coding 3
Идентификатор кодека : A_AC3
Продолжительность : 1 ч. 8 м.
Вид битрейта : Постоянный
Битрейт : 384 Кбит/сек
Каналы : 6 каналов
Расположение каналов : Front: L C R, Side: L R, LFE
Частота : 48,0 КГц
Частота кадров : 31,250 кадров/сек (1536 SPF)
Битовая глубина : 16 бит
Метод сжатия : С потерями
Размер потока : 189 Мбайт (16%)
Язык : Russian
ServiceKind/String : Complete Main
Default : Да
Forced : Нет
Меню
00:00:00.000 : en:Глава 1
00:07:28.280 : en:Глава 2
00:12:39.720 : en:Глава 3
00:17:31.400 : en:Глава 4
00:23:15.800 : en:Глава 5
00:28:30.840 : en:Глава 6
00:32:41.920 : en:Глава 7
00:37:37.520 : en:Глава 8
00:42:24.320 : en:Глава 9
00:46:54.720 : en:Глава 10
00:51:00.120 : en:Глава 11
00:55:35.760 : en:Глава 12
00:59:06.800 : en:Глава 13

Скриншоты

           

Трейлер

Theseus

Пост 29-Янв-2018 22:04

[Цитировать]

- Тор: Рагнарёк / Thor: Ragnarok-Год выхода: 2017
Страна: США
Жанр: фантастика, боевик, комедия, приключения
Продолжительность: 02:11:19
Перевод: Профессиональный (полное дублирование) | Чистый звук
Субтитры: Отсутствуют-Режиссер: Тайка Вайтити-В ролях: Крис Хемсворт, Том Хиддлстон, Идрис Эльба, Энтони Хопкинс, Кейт Бланшетт, Тесса Томпсон, Джефф Голдблюм, Карл Урбан, Марк Руффало, Бенедикт Камбербэтч-О фильме: Вернувшись в Асгард в поисках таинственного врага, ведущего охоту на Камни Бесконечности, Тор обнаруживает, что действия его брата Локи, захватившего трон Асгарда, привели к приближению наиболее страшного события — Рагнарёка. По легенде, это ознаменует последнюю битву Асгарда, последствием которой станет его полное уничтожение. В попытке предотвратить это событие, Тору предстоит прибегнуть к помощи своего товарища из Мстителей — Халка. Вместе, им предстоит столкнуться лицом к лицу со злейшим врагом всех девяти миров — огненным демоном Суртуром, целью которого является исполнение пророчества о Рагнарёке и уничтожение девяти миров.- -Качество: WEB-DLRip
Формат: AVI
Видео кодек: XviD
Аудио кодек: AC3
Видео: MPEG4, XviD, 1847 Кбит/с, 720x304, 23.976 fps
Аудио: AC-3, 48.0 KHz, 2 ch, 384 Kbps, CBR- -

Трейлер

-   - -

Theseus

Пост 29-Янв-2018 22:02

[Цитировать]

- Тор: Рагнарёк / Thor: Ragnarok-Год выхода: 2017
Страна: США
Жанр: фантастика, боевик, комедия, приключения
Продолжительность: 02:11:19
Перевод: Профессиональный (полное дублирование) | Чистый звук
Субтитры: Отсутствуют-Режиссер: Тайка Вайтити-В ролях: Крис Хемсворт, Том Хиддлстон, Идрис Эльба, Энтони Хопкинс, Кейт Бланшетт, Тесса Томпсон, Джефф Голдблюм, Карл Урбан, Марк Руффало, Бенедикт Камбербэтч-О фильме: Вернувшись в Асгард в поисках таинственного врага, ведущего охоту на Камни Бесконечности, Тор обнаруживает, что действия его брата Локи, захватившего трон Асгарда, привели к приближению наиболее страшного события — Рагнарёка. По легенде, это ознаменует последнюю битву Асгарда, последствием которой станет его полное уничтожение. В попытке предотвратить это событие, Тору предстоит прибегнуть к помощи своего товарища из Мстителей — Халка. Вместе, им предстоит столкнуться лицом к лицу со злейшим врагом всех девяти миров — огненным демоном Суртуром, целью которого является исполнение пророчества о Рагнарёке и уничтожение девяти миров.- -Качество: WEB-DLRip
Формат: AVI
Видео кодек: XviD
Аудио кодек: AC3
Видео: MPEG4, XviD, 1288 Кбит/с, 720x304, 23.976 fps
Аудио: AC-3, 48.0 KHz, 2 ch, 192 Kbps, CBR- -

Трейлер

-   - -

Theseus

Пост 27-Янв-2018 03:33

[Цитировать]

Полуночный человек / The Midnight Man-Год выхода: 2017
Страна: США, Канада
Жанр: ужасы
Продолжительность: 01:32:56
Перевод: Профессиональный (полное дублирование) | Чистый звук
Субтитры: Английские-Режиссер: Трэвис Заривны-В ролях: Лин Шэй, Габриэль Хоф, Грэйсон Сзакакс, Эмили Хейн, Саммер Х. Хауэлл, Луиз Линтон, Майкл Сироу, Роберт Инглунд, Логан Креран, Калли Лэйн, ...-О фильме:
На чердаке своей бабушки Алекс и ее друзья находят игру, с помощью которой можно вызвать Полуночного человека. Это опасное существо умеет воплощать самые худшие кошмары тех, кто к нему обращается.- -Качество: WEB-DLRip-AVC
Формат: MKV
Видео кодек: x.264
Аудио кодек: AC3
Видео: AVC, 1024x422 (2.40:1), 23.976 fps, 1 355 Kbps (0.131 bit/pixel)
Аудио #1: AC-3, 48.0 KHz, 2 ch, 384 Kbps, CBR (Russian)
Аудио #2: AC-3, 48.0 KHz, 6 ch, 384 Kbps, CBR (English)- -

Трейлер

-     - -

Theseus

Пост 27-Янв-2018 03:32

[Цитировать]

Полуночный человек / The Midnight Man-Год выхода: 2017
Страна: США, Канада
Жанр: ужасы
Продолжительность: 01:32:56
Перевод: Профессиональный (полное дублирование) | Чистый звук
Субтитры: Отсутствуют-Режиссер: Трэвис Заривны-В ролях: Лин Шэй, Габриэль Хоф, Грэйсон Сзакакс, Эмили Хейн, Саммер Х. Хауэлл, Луиз Линтон, Майкл Сироу, Роберт Инглунд, Логан Креран, Калли Лэйн, ...-О фильме:
На чердаке своей бабушки Алекс и ее друзья находят игру, с помощью которой можно вызвать Полуночного человека. Это опасное существо умеет воплощать самые худшие кошмары тех, кто к нему обращается.- -Качество: WEB-DLRip
Формат: AVI
Видео кодек: XviD
Аудио кодек: AC3
Видео: 720x304 (2.37:1), 25 fps, XviD build 73 ~1929 kbps avg, 0.35 bit/pixel
Аудио: 48 kHz, AC3 Dolby Digital, 2/0 (L,R) ch, ~384 kbps- -

Трейлер

-     - -
 

Текущее время: Сегодня 08:07

Часовой пояс: GMT + 3