Today is a free download without charge Download

Search found 500 matches

Author Message

kilmister777

Post 20-Sep-2019 09:30

[Quote]

Эшер / Asher- Год выпуска: 2018
Страна: США
Жанр: драма, криминал
Продолжительность: 01:44:01
Перевод: Профессиональный (многоголосый закадровый) iTunes- -В ролях: Фамке Янссен, Рон Перлман, Ричард Дрейфусс, Жаклин Биссет, Питер Фачинелли, Гай Бернет, Блейк Перлман, Марта Миланс, Джей Хайрон, Бобби Дэниэл Родригес-Описание: Стареющий наемный убийца с богатым послужным списком понимает, что его лучшие годы давно позади, и скоро придётся уйти на покой. Однако, по старой дружбе, он соглашается на последнее прибыльное дело, не осознавая, что переходит дорогу силам, имеющим огромное влияние в криминальном мире.-Качество: BDRip
Формат: AVI
Видео кодек: XviD
Аудио кодек: AC3
Видео: 720x304 (2.37:1), 23.976 fps, XviD build 73 ~1552 kbps avg, 0.29 bit/pixel
Аудио: 48 kHz, AC3 Dolby Digital, 3/2 (L,C,R,l,r) + LFE ch, ~384 kbps avg-

Скриншоты

       

kilmister777

Post 20-Sep-2019 09:16

[Quote]

Любовь со взломом / Breaking & Exiting- Год выпуска: 2018
Страна: США
Жанр: комедия
Продолжительность: 01:18:30
Перевод: Профессиональный(дублированный) iTunes- -Режиссер: Питер Фачинелли-В ролях: Майло Гибсон, Джордан Хинсон, Адам Хубер, Жоаки де Алмейда, Жюстин Уачсбергер, Джеймс Кайсон Ли, Лили Энн Харрисон, Сесиль Кубило, Колин Фергюсон, Джон Хинсон-Описание: Гарри, харизматичный вор-домушник, попадает в неловкую ситуацию, когда во время очередного ограбления решает спасти хозяйку дома от самоубийства и попытаться вытащить её из пучины депрессии.-Качество: BDRip
Формат: AVI
Видео кодек: XviD
Аудио кодек: AC3
Видео: 720x304 (2.37:1), 23.976 fps, XviD build 73 ~2104 kbps avg, 0.40 bit/pixel
Аудио: 48 kHz, AC3 Dolby Digital, 3/2 (L,C,R,l,r) + LFE ch, ~384 kbps avg-

Скриншоты

       

kilmister777

Post 20-Sep-2019 08:35

[Quote]

Проклятие Аннабель 3 / Annabelle Comes Home- Год выпуска: 2019
Страна: США
Жанр: ужасы, триллер, детектив
Продолжительность: 01:46:04
Перевод: Профессиональный(дублированный) iTunes
Субтитры: Русские форсированные (отдельно)- -Режиссер: Гари Доберман-В ролях: Маккенна Грейс, Мэдисон Айсмен, Кэти Сариф, Вера Фармига, Патрик Уилсон, Майкл Чимино, Самара Ли, Кензи Каплан, Шаде Катарина, Майкл Патрик МакГилл-Описание: Преисполнившись решимости удержать Аннабель от дальнейших разрушений и хаоса, демонологи Эд и Лоррейн Уоррены приносят одержимую куклу в запертую комнату артефактов в своем доме, поместив ее под «надежное» освященное стекло и заручившись благословением священника. Однако беспросветная ночь ужаса ждет обитателей дома, когда Аннабель пробуждает злых духов комнаты и их новой мишенью становится десятилетняя дочь Уорренов Джуди и ее друзья.-Качество: WEB-DLRip
Формат: AVI
Видео кодек: XviD
Аудио кодек: AC3
Видео: 720x304 (2.37:1), 23.976 fps, XviD build 73 ~1577 kbps avg, 0.30 bit/pixel
Аудио: 48 kHz, AC3 Dolby Digital, 3/2 (L,C,R,l,r) + LFE ch, ~384 kbps avg-

Скриншоты

       

Орлов Владимир

Post 20-Sep-2019 03:28

[Quote]

--Анна / Anna (Люк Бессон) [2019, боевик, триллер, BDRip] [DUB] [iTunes]-- Информация о фильме
Год выпуска: 2019
Жанр: боевик, триллер
Страна: Франция, США
Режиссёр: Люк Бессон
Перевод: Дублированный [iTunes]
Субтитры: Английские форс. на русскую речь (хардсаб)
Продолжительность: 02:00:06-- В ролях: Саша Лусс, Хелен Миррен, Люк Эванс, Киллиан Мёрфи, Лера Абова, Александр Петров, Никита Павленко, Анна Криппа, Алексей Маслодудов, Эрик Годон-- Описание: История Анны, чья несравненная красота скрывает поразительную мощь и смертоносный талант опаснейшего наемного убийцы в мире.-- --Файлы
Качество: BDRip
Формат: AVI
Видео: 720x304 (2.37:1), 23.976 fps, XviD build 73 ~1776 kbps avg, 0.34 bit/pixel
Аудио: 48 kHz, AC3 Dolby Digital, 3/2 (L,C,R,l,r) + LFE ch, ~384 kbps | RUS
Аудио 2: 48 kHz, AC3 Dolby Digital, 3/2 (L,C,R,l,r) + LFE ch, ~448 kbps | ENG
--

Скриншоты

Орлов Владимир

Post 20-Sep-2019 03:25

[Quote]

--Анна / Anna (Люк Бессон) [2019, боевик, триллер, BDRip] [DUB] [iTunes]-- Информация о фильме
Год выпуска: 2019
Жанр: боевик, триллер
Страна: Франция, США
Режиссёр: Люк Бессон
Перевод: Дублированный [iTunes]
Субтитры: Английские форс. на русскую речь (хардсаб)
Продолжительность: 02:00:06-- В ролях: Саша Лусс, Хелен Миррен, Люк Эванс, Киллиан Мёрфи, Лера Абова, Александр Петров, Никита Павленко, Анна Криппа, Алексей Маслодудов, Эрик Годон-- Описание: История Анны, чья несравненная красота скрывает поразительную мощь и смертоносный талант опаснейшего наемного убийцы в мире.-- --Файлы
Качество: BDRip
Формат: AVI
Видео: 720x304 (2.37:1), 23.976 fps, XviD build 73 ~1363 kbps avg, 0.26 bit/pixel
Аудио: 48 kHz, AC3 Dolby Digital, 3/2 (L,C,R,l,r) + LFE ch, ~384 kbps
--

Скриншоты

Орлов Владимир

Post 19-Sep-2019 17:53

[Quote]

--Голый романтик / The Naked Wanderer (Алан Линдсэй) [2019, Мелодрама, комедия, WEB-DLRip] [DUB] [iTunes]-- Информация о фильме
Год выпуска: 2019
Жанр: Мелодрама, комедия
Страна: Австралия
Режиссёр: Алан Линдсэй
Перевод: Дублированный [iTunes]
Субтитры: нет
Продолжительность: 01:41:20-- В ролях: Джон Клиз, Энгус МакЛарен, Наташа Лю Бордиццо, Софи Кеннеди Кларк, Каллэн Дарлик, Меган Смарт, Алан Литтл, Джэйми Тимони, Люси-Роуз Леонард, Исрар Азам-- Описание: Джейк, которого только что бросила любимая девушка, в расстроенных чувствах, сгоряча соглашается принять участие в одиночном пешем марафоне и отправляется в путешествие длиной 4 тысячи километров вдоль западного побережья Австралии, будучи облаченным лишь в набедренную повязку. Официальная цель марафона — сбор денег на благотворительность, однако в тайне Джейк надеется таким образом снова обратить на себя внимание своей бывшей возлюбленной. Этими надеждами он живет ровно до того момента, когда встречает на своем пути обворожительную Валери-- --Файлы
Качество: WEB-DLRip
Формат: AVI
Видео: XviD, 1670 Кбит/с, 720x304
Аудио: АС3, 6 ch, 384 Кбит/с
--

Скриншоты

         

kilmister777

Post 19-Sep-2019 13:18

[Quote]

Та, которой не было / Celle que vous croyez- Год выпуска: 2019
Страна: Франция, Бельгия
Жанр: драма, мелодрама
Продолжительность: 01:37:23
Перевод: Профессиональный (многоголосый закадровый) FocusStudio- -Режиссер: Сэфи Неббу-В ролях: Жюльетт Бинош, Николь Гарсиа, Франсуа Сивиль, Мари-Анж Каста, Гийом Гуи, Шарль Берлинг, Жуль Уплен, Жюль Гозлен, Френсис Леплей, Пьер Жиро-Описание: Несколько лет назад Клэр тяжело пережила измену мужа и развод. Постепенно ее жизнь наладилась: она преподает в университете, воспитывает двух мальчиков и встречается с молодым любовником. Но однажды тот, высмеяв ее чувства, исчезает. Мир Клэр рассыпается на осколки. Желание спастись от отчаяния — это прямая дорога к психоаналитику или… создание фальшивого профиля в фейсбуке. Здесь она предстает 24-летней сексуальной красавицей Кларой. И очень скоро у нее завязываются виртуальные отношения с молодым фотографом Алексом. Кокетливый трёп перерастает во взаимную привязанность, а потом и в настоящую страсть…-Качество: WEB-DLRip
Формат: AVI
Видео кодек: XviD
Аудио кодек: AC3
Видео: 720x304 (2.37:1), 25 fps, XviD build 73 ~1747 kbps avg, 0.32 bit/pixel
Аудио: 48 kHz, AC3 Dolby Digital, 3/2 (L,C,R,l,r) + LFE ch, ~384 kbps avg-

Скриншоты

       

kilmister777

Post 19-Sep-2019 13:04

[Quote]

Спарринг / Sparring- Год выпуска: 2017
Страна: Франция
Жанр: драма
Продолжительность: 01:30:49
Перевод: Профессиональный (многоголосый закадровый) iTunes-Цифровой релиз: 19 сентября 2019- -Режиссер: Самуэль Жуи-В ролях: Матьё Кассовиц, Оливия Мерилахти, Сулейман М'Бай, Билли Блэйн, Томи Леконте, Лье Салем, Али Лабиди, Давид Саракино, Йоланта Де Керсмакер, Малик Бин-Описание: В жизни каждого есть поражения и победы. Стив - обычный семьянин. Он мечтает стать известным боксером. Но пока ему приходится зарабатывать на жизнь, используя свое тело как боксерскую грушу на ринге. Неожиданно ему выпадает уникальный шанс: принять участие в бое за титул чемпиона.-Качество: WEB-DLRip
Формат: AVI
Видео кодек: XviD
Аудио кодек: AC3
Видео: 720x304 (2.37:1), 25 fps, XviD build 73 ~1908 kbps avg, 0.35 bit/pixel
Аудио: 48 kHz, AC3 Dolby Digital, 3/2 (L,C,R,l,r) + LFE ch, ~384 kbps avg-

Скриншоты

       

Clavik

Post 18-Sep-2019 17:18

[Quote]

Старые счеты / A Score to Settle (2019) BDRip [H.264/1080p]- Производство: Канада, США / Goldrush Entertainment, Ingenious Media
Жанр: Боевик, триллер, драма
Режиссер: Шоун Ку
Актеры: Николас Кейдж, Бенджамин Брэтт, Ноа Ле Грос, Мохамед Карим, Каролина Выдра, Иэн Трейси, Николь Муньос, Кармел Амит, Leanne Khol Young, Николь Дж. Лейер
Описание:
Отсидев 19 лет в тюрьме за несовершенное преступление, Фрэнк выходит на свободу. Ему придется сделать выбор - наверстать упущенные годы с сыном или отомстить людям, которых он считал друзьями. Удастся ли Фрэнку начать жизнь сначала?

Дата мировой премьеры: 2 августа 2019
Продолжительность: 01:43:43
Качество видео: BDRip (1080p)
Перевод: Многоголосый закадровый, любительский (Mallorn Studio)
Субтитры: Русские, английские
Присутствует ненормативная лексика в аудио и субтитрах
Видео: AVC/H.264, 1920x808, ~9053 Kbps
Аудио #1: AC3, 2 ch, 256 Kbps - Русский
Аудио #2: DTS, 6 ch, 1509 Kbps - Английский

MediaInfo:

Общее
Уникальный идентификатор : 242740742686262072573855844728056205368 (0xB69E2AA026EF223AB640DB6924825038)
Полное имя : D:\NNM\Старые счеты\A.Score.to.Settle.2019.BDRip.1080p.mkv
Формат : Matroska
Версия формата : Version 4
Размер файла : 7,84 Гбайт
Продолжительность : 1 ч. 43 м.
Общий поток : 10,8 Мбит/сек
Дата кодирования : UTC 2019-09-17 13:47:55
Программа кодирования : mkvmerge v7.1.0 ('Good Love') 64bit built on Jul 27 2014 13:06:55
Библиотека кодирования : libebml v1.3.0 + libmatroska v1.4.1
Видео
Идентификатор : 1
Формат : AVC
Формат/Информация : Advanced Video Codec
Профиль формата : [url=mailto:[email protected]][email protected][/url]
Настройки формата : CABAC / 5 Ref Frames
Параметр CABAC формата : Да
Параметр RefFrames формата : 5 кадров
Идентификатор кодека : V_MPEG4/ISO/AVC
Продолжительность : 1 ч. 43 м.
Битрейт : 9053 Кбит/сек
Ширина : 1920 пикселей
Высота : 808 пикселей
Соотношение сторон : 2,40:1
Режим частоты кадров : Постоянный
Частота кадров : 23,976 (24000/1001) кадра/сек
Цветовое пространство : YUV
Субдискретизация насыщенности : 4:2:0
Битовая глубина : 8 бит
Тип развёртки : Прогрессивная
Бит/(Пиксели*Кадры) : 0.243
Размер потока : 6,56 Гбайт (84%)
Язык : English
Default : Да
Forced : Нет
Цветовой диапазон : Limited
Основные цвета : BT.709
Характеристики трансфера : BT.709
Коэффициенты матрицы : BT.709
Аудио #1
Идентификатор : 2
Формат : AC-3
Формат/Информация : Audio Coding 3
Коммерческое название : Dolby Digital
Идентификатор кодека : A_AC3
Продолжительность : 1 ч. 43 м.
Вид битрейта : Постоянный
Битрейт : 256 Кбит/сек
Каналы : 2 канала
ChannelLayout : L R
Частота : 48,0 КГц
Частота кадров : 31,250 кадров/сек (1536 SPF)
Битовая глубина : 16 бит
Метод сжатия : С потерями
Размер потока : 190 Мбайт (2%)
Заголовок : Mallorn
Язык : Russian
ServiceKind/String : Complete Main
Default : Да
Forced : Нет
Аудио #2
Идентификатор : 3
Формат : DTS
Формат/Информация : Digital Theater Systems
Идентификатор кодека : A_DTS
Продолжительность : 1 ч. 43 м.
Вид битрейта : Постоянный
Битрейт : 1509 Кбит/сек
Каналы : 6 каналов
ChannelLayout : C L R Ls Rs LFE
Частота : 48,0 КГц
Частота кадров : 93,750 кадра/сек (512 SPF)
Битовая глубина : 24 бит
Метод сжатия : С потерями
Размер потока : 1,09 Гбайт (14%)
Язык : English
Default : Нет
Forced : Нет
Текст #1
Идентификатор : 4
Формат : UTF-8
Идентификатор кодека : S_TEXT/UTF8
Идентификатор кодека/Информация : UTF-8 Plain Text
Продолжительность : 1 ч. 36 м.
Битрейт : 80 бит/сек
ElementCount : 1328
Размер потока : 56,7 Кбайт (0%)
Заголовок : Focs
Язык : Russian
Default : Нет
Forced : Нет
Текст #2
Идентификатор : 5
Формат : UTF-8
Идентификатор кодека : S_TEXT/UTF8
Идентификатор кодека/Информация : UTF-8 Plain Text
Продолжительность : 1 ч. 38 м.
Битрейт : 50 бит/сек
ElementCount : 1318
Размер потока : 36,5 Кбайт (0%)
Язык : English
Default : Нет
Forced : Нет
Меню
00:00:00.000 : en:Chapter 01
00:09:00.915 : en:Chapter 02
00:21:13.647 : en:Chapter 03
00:32:18.103 : en:Chapter 04
00:49:04.275 : en:Chapter 05
01:11:11.476 : en:Chapter 06
01:16:16.864 : en:Chapter 07
01:37:38.561 : en:Chapter 08
Скриншоты:        

kilmister777

Post 18-Sep-2019 10:23

[Quote]

Смерть и жизнь Джона Ф. Донована / The Death and Life of John F. Donovan- Год выпуска: 2018
Страна: Канада, Великобритания
Жанр: драма
Продолжительность: 01:58:26
Перевод: Профессиональный(дублированный) iTunes- -Режиссер: Ксавье Долан-В ролях: Кит Харингтон, Джейкоб Трамбле, Натали Портман, Эмили Хэмпшир, Сара Гадон, Сьюзен Сарандон, Джаред Кисо, Тэнди Ньютон, Кэти Бэйтс, Майкл Гэмбон-Описание: Многие люди мечтают о мировой славе и признании, но лишь единицы знают, какую цену за это придется заплатить. Когда подробности частной жизни мегапопулярной телезвезды становятся достоянием общественности, его карьера и дальнейшая судьба претерпевают драматические изменения. Ведь то, что дозволено обычным людям, - непозволительная роскошь для наших кумиров.-Качество: WEB-DLRip
Формат: AVI
Видео кодек: XviD
Аудио кодек: AC3
Видео: 720x304 (2.37:1), 25 fps, XviD build 73 ~1371 kbps avg, 0.25 bit/pixel
Аудио: 48 kHz, AC3 Dolby Digital, 3/2 (L,C,R,l,r) + LFE ch, ~384 kbps avg-

Скриншоты

       

kilmister777

Post 18-Sep-2019 08:18

[Quote]

Приключения Реми / Remi sans famille- Год выпуска: 2018
Страна: Франция
Жанр: драма, приключения
Продолжительность: 01:48:11
Перевод: Профессиональный(дублированный) iTunes- -Режиссер: Антуан Блоссье-В ролях: Даниель Отой, Малом Пакуин, Виржини Ледуайен, Жонатан Заккаи, Жак Перрен, Людивин Санье, Альбан Массон, Саймон Армстронг, Жером Кашон-Описание: Удивительное путешествие по Франции маленького Реми в компании уличного музыканта, обезьянки и цирковой собаки. Вместе им предстоит пережить неожиданные встречи, приключения и испытания, чтобы раскрыть тайну происхождения мальчика.-Качество: BDRip
Формат: AVI
Видео кодек: XviD
Аудио кодек: AC3
Видео: 720x304 (2.37:1), 24 fps, XviD build 73 ~1474 kbps avg, 0.28 bit/pixel
Аудио: 48 kHz, AC3 Dolby Digital, 3/2 (L,C,R,l,r) + LFE ch, ~384 kbps avg-

Скриншоты

       

Орлов Владимир

Post 16-Sep-2019 19:59

[Quote]

-Наследие: Застывшая кровь / Cold Blood Legacy (Фридерик Петижан) [2019, Боевик, триллер, BDRip-AVC] [DUB,MVO] [iTunes]-- Информация о фильме
Название: Наследие: Застывшая кровь
Оригинальное название: Cold Blood Legacy
Год выпуска: 2019
Страна: Франция, Украина
Производство: Ascot Elite Entertainment Group, Eastwest Productions, Eight 35
Жанр: Боевик, триллер--Режиссёр: Фридерик Петижан
В ролях: Жан Рено, Сара Линд, Джо Андерсон, Дэвид Гяси, Игорь Цишкевич, Франсуа Гетари, Саманта Бонд, Катерина Бурсикова, Анна Буткевич, Роберт Фельдман--Перевод:
Дублированный [iTunes]
► Профессиональный (многоголосый, закадровый) [HDRezka Studio]
Субтитры: Английские (полные)--Описание: События разворачиваются в заснеженных лесах Северной Америки вокруг Генри — наемного убийцы, живущего в уединенной хижине на берегу озера, который наслаждается одиночеством и хранит мрачные тайны из беспокойного прошлого. Его тихое и беззаботное существование заканчивается в тот момент, когда он находит разбитый снегоход и окровавленную женщину. Решив спасти незнакомку от неминуемой смерти, стареющий киллер ввязывается в крупные неприятности, заставляющие его вспомнить былые навыки выживания...-- --Качество: BDRip-AVC | BDRemux | Cold.Blood.2019.1080p.BluRay.REMUX.AVC.DTS-HD.MA.5.1-FGT
Продолжительность: 01:31:22--Формат: MKV
Видео кодек: MPEG-4 AVC
Аудио кодек: AC3
Видео: 1024x428 (2.40:1), 23,976 fps, x264 ~1 874 kbps avg, 0.178 bit/pixel
Аудио #1: 48 kHz, AC3 Dolby Digital, 3/2 (L,C,R,l,r) + LFE ch, ~384.00 kbps avg | RUS (iTunes)
Аудио #2: 48 kHz, AC3 Dolby Digital, 2 (L,R) ch, ~192.00 kbps avg | RUS (HDRezka Studio)
Аудио #3: 48 kHz, AC3 Dolby Digital, 3/2 (L,C,R,l,r) + LFE ch, ~448.00 kbps avg | ENG--Дата премьеры (мир): 15 мая 2019
Дата премьеры (РФ): --

Тех.данные видеофайла

Общее
Уникальный идентификатор: 163700066032987491710516584115060494500 (0x7B277C646889AC276296F3FD7A0250A4)
Полное имя: F:OlLanDGroupCold.Blood.Legacy.2019.BDRip(AVC).OllanDGroup.mkv
Формат: Matroska
Версия формата: Version 4 / Version 2
Размер файла: 1,85 Гбайт
Продолжительность: 1 ч. 31 м.
Общий поток: 2896 Кбит/сек
Название фильма: Cold.Blood.2019 #TorpedoUK#
Дата кодирования: UTC 2019-09-16 11:23:19
Программа кодирования: mkvmerge v29.0.0 ('Like It Or Not') 64-bit
Библиотека кодирования: libebml v1.3.6 + libmatroska v1.4.9
Видео
Идентификатор: 1
Формат: AVC
Формат/Информация: Advanced Video Codec
Профиль формата: [email protected]
Параметр CABAC формата: Да
Параметр ReFrames формата: 10 кадров
Идентификатор кодека: V_MPEG4/ISO/AVC
Продолжительность: 1 ч. 31 м.
Битрейт: 1874 Кбит/сек
Ширина: 1024 пикселя
Высота: 428 пикселей
Соотношение сторон: 2,40:1
Режим частоты кадров: Постоянный
Частота кадров: 23,976 (24000/1001) кадра/сек
Цветовое пространство: YUV
Субдискретизация насыщенности: 4:2:0
Битовая глубина: 8 бит
Тип развёртки: Прогрессивная
Бит/(Пиксели*Кадры): 0.178
Размер потока: 1,19 Гбайт (65%)
Библиотека кодирования: x264 core 146 r2538 121396c
Настройки программы: cabac=1 / ref=10 / deblock=1:-3:-3 / analyse=0x3:0x113 / me=umh / subme=11 / psy=1 / psy_rd=0.96:0.06 / mixed_ref=1 / me_range=48 / chroma_me=1 / trellis=2 / 8x8dct=1 / cqm=0 / deadzone=21,11 / fast_pskip=1 / chroma_qp_offset=-6 / threads=6 / lookahead_threads=1 / sliced_threads=0 / nr=0 / decimate=1 / interlaced=0 / bluray_compat=0 / constrained_intra=0 / bframes=11 / b_pyramid=2 / b_adapt=2 / b_bias=0 / direct=3 / weightb=1 / open_gop=0 / weightp=2 / keyint=240 / keyint_min=23 / scenecut=40 / intra_refresh=0 / rc_lookahead=40 / rc=2pass / mbtree=0 / bitrate=1874 / ratetol=1.0 / qcomp=0.60 / qpmin=0 / qpmax=69 / qpstep=4 / cplxblur=20.0 / qblur=0.5 / vbv_maxrate=50000 / vbv_bufsize=62500 / nal_hrd=none / filler=0 / ip_ratio=1.40 / pb_ratio=1.30 / aq=1:1.00
Язык: English
Default: Да
Forced: Нет
Аудио #1
Идентификатор: 2
Формат: AC-3
Формат/Информация: Audio Coding 3
Расширение режима: CM (complete main)
Параметр Endianness формата: Big
Идентификатор кодека: A_AC3
Продолжительность: 1 ч. 31 м.
Вид битрейта: Постоянный
Битрейт: 384 Кбит/сек
Каналы: 6 каналов
Расположение каналов: Front: L C R, Side: L R, LFE
Частота: 48,0 КГц
Частота кадров: 31,250 кадров/сек (1536 spf)
Битовая глубина: 16 бит
Метод сжатия: С потерями
Размер потока: 251 Мбайт (13%)
Заголовок: DUB [iTunes]
Язык: Russian
Default: Да
Forced: Нет
Аудио #2
Идентификатор: 3
Формат: AC-3
Формат/Информация: Audio Coding 3
Расширение режима: CM (complete main)
Параметр Endianness формата: Big
Идентификатор кодека: A_AC3
Продолжительность: 1 ч. 31 м.
Вид битрейта: Постоянный
Битрейт: 192 Кбит/сек
Каналы: 2 канала
Расположение каналов: Front: L R
Частота: 48,0 КГц
Частота кадров: 31,250 кадров/сек (1536 spf)
Битовая глубина: 16 бит
Метод сжатия: С потерями
Размер потока: 125 Мбайт (7%)
Заголовок: MVO [HDRezka Studio]
Язык: Russian
Default: Нет
Forced: Нет
Аудио #3
Идентификатор: 4
Формат: AC-3
Формат/Информация: Audio Coding 3
Расширение режима: CM (complete main)
Параметр Endianness формата: Big
Идентификатор кодека: A_AC3
Продолжительность: 1 ч. 31 м.
Вид битрейта: Постоянный
Битрейт: 448 Кбит/сек
Каналы: 6 каналов
Расположение каналов: Front: L C R, Side: L R, LFE
Частота: 48,0 КГц
Частота кадров: 31,250 кадров/сек (1536 spf)
Битовая глубина: 16 бит
Метод сжатия: С потерями
Размер потока: 293 Мбайт (15%)
Заголовок: [Original]
Язык: English
Default: Нет
Forced: Нет
Текст
Идентификатор: 5
Формат: UTF-8
Идентификатор кодека: S_TEXT/UTF8
Идентификатор кодека/Информация: UTF-8 Plain Text
Продолжительность: 1 ч. 18 м.
Битрейт: 36 бит/сек
Count of elements: 753
Размер потока: 21,0 Кбайт (0%)
Заголовок: Full
Язык: English
Default: Нет
Forced: Нет
Меню
00:00:00.000: en:Chapter 01
00:07:52.096: en:Chapter 02
00:16:37.454: en:Chapter 03
00:24:22.919: en:Chapter 04
00:29:14.836: en:Chapter 05
00:40:00.064: en:Chapter 06
00:47:09.660: en:Chapter 07
00:56:05.362: en:Chapter 08
01:06:56.095: en:Chapter 09
01:11:38.377: en:Chapter 10
01:18:31.748: en:Chapter 11
01:25:20.073: en:Chapter 12

Скриншоты

           

Clavik

Post 16-Sep-2019 19:00

[Quote]

Красивый бандит / Un beau voyou (2018) WEB-DLRip- Производство: Франция / Canal+ [fr], Centre National de la Cinématographie (CNC)
Жанр: Комедия
Режиссер: Лукас Бернард
Актеры: Шарль Берлинг, Сванн Арло, Дженнифер Декер, Жан-Кентен Шатлен, Эрик Деор, Энн Лорье, Кристиан Бенедетти, Пьер Осседат, Марина Монкаде, Виктор Понтекорво
Описание:
Накануне давно ожидаемого выхода на пенсию незадачливый комиссар полиции сталкивается с дерзким похищением картины. Элегантность совершенного преступления вынуждает его начать расследование.

Возраст: 16+ (Зрителям, достигшим 16 лет)
Дата мировой премьеры: 4 октября 2018
Дата российской премьеры: 15 августа 2019
Цифровой релиз: 16 сентября 2019
Продолжительность: 01:44:23
Качество видео: WEB-DLRip
Перевод: Дублированный (iTunes)
Субтитры: Отсутствуют
Видео: XviD, 704x368, ~1611 Kbps
Аудио: AC-3, 6 ch, 384 Kbps

MediaInfo:

Общее
Полное имя : D:\NNM\Красивый бандит\Un beau voyou.2018.WEB-DLRip.avi
Формат : AVI
Формат/Информация : Audio Video Interleave
Размер файла : 1,46 Гбайт
Продолжительность : 1 ч. 44 м.
Общий поток : 2004 Кбит/сек
Программа кодирования : VirtualDubMod 1.5.10.3 | www.virtualdub-fr.org || (build 2550/release)
Библиотека кодирования : VirtualDubMod build 2550/release
Видео
Идентификатор : 0
Формат : MPEG-4 Visual
Профиль формата : Advanced [email protected]
Настройки формата : BVOP1 / Custom Matrix
Параметр BVOP формата : 1
Параметр QPel формата : Нет
Параметр GMC формата : Без точки перехода
Параметр матрицы формата : Выборочная
Идентификатор кодека : XVID
Идентификатор кодека/Подсказка : XviD
Продолжительность : 1 ч. 44 м.
Битрейт : 1611 Кбит/сек
Ширина : 704 пикселя
Высота : 368 пикселей
Соотношение сторон : 1,913
Частота кадров : 24,000 кадра/сек
Цветовое пространство : YUV
Субдискретизация насыщенности : 4:2:0
Битовая глубина : 8 бит
Тип развёртки : Прогрессивная
Метод сжатия : С потерями
Бит/(Пиксели*Кадры) : 0.259
Размер потока : 1,17 Гбайт (80%)
Библиотека кодирования : XviD 73
Аудио
Идентификатор : 1
Формат : AC-3
Формат/Информация : Audio Coding 3
Коммерческое название : Dolby Digital
Идентификатор кодека : 2000
Продолжительность : 1 ч. 44 м.
Вид битрейта : Постоянный
Битрейт : 384 Кбит/сек
Каналы : 6 каналов
ChannelLayout : L R C LFE Ls Rs
Частота : 48,0 КГц
Частота кадров : 31,250 кадров/сек (1536 SPF)
Битовая глубина : 16 бит
Метод сжатия : С потерями
Размер потока : 287 Мбайт (19%)
Выравнивание : Разделение по промежуткам
Продолжительность промежутка : 42 мс. (1,00 видеокадр)
Время предзагрузки промежутка : 500 мс.
ServiceKind/String : Complete Main
Скриншоты:        

kilmister777

Post 16-Sep-2019 15:07

[Quote]

Маленькое красное платье / In Fabric- Год выпуска: 2018
Страна: Великобритания
Жанр: ужасы, комедия
Продолжительность: 01:58:41
Перевод: Профессиональный (многоголосый закадровый) iTunes- -Режиссер: Питер Стриклэнд-В ролях: Гвендолин Кристи, Сидсе Бабетт Кнудсен, Кэролайн Катц, Джулиан Бэррэтт, Марианн Жан-Баптист, Хейли Сквайрс, Ричард Бреммер, Лео Билл, Стив Орам, Сузанна Каппельяро-Описание: Маленькое красное платье стоит в витрине. Оно невероятно красиво и идеально подходит каждой, кто его примеряет. Оно делает тебя желанной, но у платья есть цена. И не каждый сможет ее заплатить.-Качество: BDRip
Формат: AVI
Видео кодек: XviD
Аудио кодек: AC3
Видео: 720x304 (2.37:1), 24 fps, XviD build 73 ~1301 kbps avg, 0.25 bit/pixel
Аудио: 48 kHz, AC3 Dolby Digital, 3/2 (L,C,R,l,r) + LFE ch, ~384 kbps avg-

Скриншоты

       

kilmister777

Post 16-Sep-2019 11:42

[Quote]

Наследие: Застывшая кровь / Cold Blood Legacy- Год выпуска: 2019
Страна: Франция, Украина
Жанр: боевик, триллер
Продолжительность: 01:31:21
Перевод: Профессиональный(дублированный) iTunes- -Режиссер: Фридерик Петижан-В ролях: Жан Рено, Сара Линд, Джо Андерсон, Дэвид Гяси, Игорь Цишкевич, Франсуа Гетари, Саманта Бонд, Катерина Бурсикова, Анна Буткевич, Роберт Фельдман-Описание: Генри, один из наиболее разыскиваемых киллеров в отставке, живёт отшельником на берегу озера в труднодоступной лесной чаще. Однажды недалеко от его дома происходит несчастный случай: на мотосанях разбивается девушка. Перед Генри встаёт дилемма: спасти девушку, подвергнув себя риску быть обнаруженным или поступить так, как подсказывает здравый смысл и многолетний опыт.-Качество: BDRip
Формат: AVI
Видео кодек: XviD
Аудио кодек: AC3
Видео: 720x304 (2.37:1), 23.976 fps, XviD build 73 ~1831 kbps avg, 0.35 bit/pixel
Аудио: 48 kHz, AC3 Dolby Digital, 3/2 (L,C,R,l,r) + LFE ch, ~384 kbps avg-

Скриншоты

       
 

The time now is: Today 06:54

All times are GMT + 3 Hours