Today is a free download without charge Download

Search found 11 matches

Author Message

Theseus

Post 30-Nov-2020 15:17

[Quote]

Довод / Tenet- Год выхода: 2020
Страна: Великобритания, США
Жанр: Фантастика, боевик
Продолжительность: 02:29:44
Перевод: Профессиональный (дублированный) | Чистый звук
Субтитры: Русские, английские-Режиссер: Кристофер Нолан-В ролях: Джон Дэвид Вашингтон, Роберт Паттинсон, Элизабет Дебики, Кеннет Брана, Аарон Тейлор-Джонсон, Клеманс Поэзи, Фиона Дуриф, Майкл Кейн, Химеш Патель, Эндрю Ховард-О фильме: После теракта в киевском оперном театре агент ЦРУ объединяется с британской разведкой, чтобы противостоять русскому олигарху, который сколотил состояние на торговле оружием. Для этого агенты используют инверсию времени, заставляющую уже произошедшие события идти вспять.- -Качество: WEBRip 1080p
Формат: MKV
Видео кодек: x.264
Аудио кодек: AC3
Видео: AVC, 1920x872 (2.2:1), 23.976 fps, 9 805 kb/s
Аудио 1: AC3, 48.0 kHz, 2 ch, 192 kb/s | [DUB - Line] RUS
Аудио 2: AC3, 48.0 kHz, 2 ch, 192 kb/s | [Оригинал] ENG-Рекламы нет | Сэмпл-Релиз - Theseus-

MI

Код:
Общее
Уникальный идентификатор                 : 252514634706743866745079823618635020905 (0xBDF88CB50FA069DCBAC220F253B13A69)
Полное имя                               : Tenet.(2020).WEBRip.1080p.DUB(Line).mkv
Формат                                   : Matroska
Версия формата                           : Version 4
Размер файла                             : 10,7 Гбайт
Продолжительность                        : 2 ч. 29 м.
Общий поток                              : 10,2 Мбит/сек
Дата кодирования                         : UTC 2020-11-30 10:32:45
Программа кодирования                    : mkvmerge v8.3.0 ('Over the Horizon') 64bit
Библиотека кодирования                   : libebml v1.3.1 + libmatroska v1.4.2
Видео
Идентификатор                            : 1
Формат                                   : AVC
Формат/Информация                        : Advanced Video Codec
Профиль формата                          : [email protected]
Настройки формата                        : CABAC / 4 Ref Frames
Параметр CABAC формата                   : Да
Параметр RefFrames формата               : 4 кадра
Идентификатор кодека                     : V_MPEG4/ISO/AVC
Продолжительность                        : 2 ч. 29 м.
Битрейт                                  : 9805 Кбит/сек
Ширина                                   : 1920 пикселей
Высота                                   : 872 пикселя
Соотношение сторон                       : 2,2:1
Режим частоты кадров                     : Постоянный
Частота кадров                           : 23,976 (24000/1001) кадра/сек
Цветовое пространство                    : YUV
Субдискретизация насыщенности            : 4:2:0
Битовая глубина                          : 8 бит
Тип развёртки                            : Прогрессивная
Бит/(Пиксели*Кадры)                      : 0.244
Размер потока                            : 10,3 Гбайт (96%)
Default                                  : Да
Forced                                   : Нет
Цветовой диапазон                        : Limited
Основные цвета                           : BT.709
Характеристики трансфера                 : BT.709
Коэффициенты матрицы                     : BT.709
Аудио #1
Идентификатор                            : 2
Формат                                   : AC-3
Формат/Информация                        : Audio Coding 3
Коммерческое название                    : Dolby Digital
Идентификатор кодека                     : A_AC3
Продолжительность                        : 2 ч. 29 м.
Вид битрейта                             : Постоянный
Битрейт                                  : 192 Кбит/сек
Каналы                                   : 2 канала
Channel layout                           : L R
Частота                                  : 48,0 КГц
Частота кадров                           : 31,250 кадров/сек (1536 SPF)
Битовая глубина                          : 16 бит
Метод сжатия                             : С потерями
Размер потока                            : 206 Мбайт (2%)
Заголовок                                : DUB (Line)
Язык                                     : Russian
ServiceKind/String                       : Complete Main
Default                                  : Да
Forced                                   : Нет
Аудио #2
Идентификатор                            : 3
Формат                                   : AC-3
Формат/Информация                        : Audio Coding 3
Коммерческое название                    : Dolby Digital
Идентификатор кодека                     : A_AC3
Продолжительность                        : 2 ч. 29 м.
Вид битрейта                             : Постоянный
Битрейт                                  : 192 Кбит/сек
Каналы                                   : 2 канала
Channel layout                           : L R
Частота                                  : 48,0 КГц
Частота кадров                           : 31,250 кадров/сек (1536 SPF)
Битовая глубина                          : 16 бит
Метод сжатия                             : С потерями
Размер потока                            : 206 Мбайт (2%)
Язык                                     : English
ServiceKind/String                       : Complete Main
Default                                  : Нет
Forced                                   : Нет
Текст #1
Идентификатор                            : 4
Формат                                   : UTF-8
Идентификатор кодека                     : S_TEXT/UTF8
Идентификатор кодека/Информация          : UTF-8 Plain Text
Продолжительность                        : 2 ч. 24 м.
Битрейт                                  : 93 бит/сек
ElementCount                             : 1835
Размер потока                            : 98,5 Кбайт (0%)
Заголовок                                : Full (FOCS)
Язык                                     : Russian
Default                                  : Нет
Forced                                   : Нет
Текст #2
Идентификатор                            : 5
Формат                                   : UTF-8
Идентификатор кодека                     : S_TEXT/UTF8
Идентификатор кодека/Информация          : UTF-8 Plain Text
Продолжительность                        : 2 ч. 22 м.
Битрейт                                  : 52 бит/сек
ElementCount                             : 1840
Размер потока                            : 55,4 Кбайт (0%)
Заголовок                                : Full
Язык                                     : English
Default                                  : Нет
Forced                                   : Нет

Трейлер

-    - -

БАНДИТ

Post 09-Nov-2020 14:55

[Quote]

Гудбай, Америка
Год выхода: 2020
Жанр: Мелодрама, комедия
Страна: Россия
Продолжительность: 01:41:22
Перевод: Не требуется
Субтитры: русские (форс. вшитые)
Режиссер: Сарик Андреасян
В ролях: Дмитрий Нагиев, Владимир Яглыч, Елизавета Моряк, Юрий Стоянов, Лянка Грыу, Надежда Михалкова, Грант Тохатян, Ирина Темичева, Микаэл Арамян, Добромир Машуков и др.
О фильме: Виктор Сергеевич едет в Америку в гости к дочери и с ужасом обнаруживает, что его внук Пол хоть и говорит по-русски, но не понимает простых вещей, знакомых и понятных каждому мальчишке в России. Неунывающий Армен пытается закрепиться в США, постепенно постигая все прелести фиктивного брака. Для давно обосновавшейся в Штатах Юли неожиданной проблемой становится невозможность найти правильно приготовленную гефилте фиш. Не так давно переехавший в Америку Игорь всячески старается откреститься от своего русского прошлого, называя себя Джейсоном. Казалось бы, совершенно разные люди с совершенно непохожими проблемами, но способный решить любую проблему авантюрист Григорий доказывает, что это не так, все герои страдают от одного недуга – пытаются забыть о своих корнях, упуская нехитрую истину: можно уехать из России, но нельзя перестать быть русским.

Качество: WEBRip 1080p
Формат: MKV
Видео: MPEG-4 AVC, 1920x1080, 5120 kbps, 24,000 fps
Звук: русский, AC3, 5.1 ch, 48 kHz, 384 kbps

MI

Общее
Уникальный идентификатор : 198540717238900305398028792619218343141 (0x955D8D1EC9F7041BB9C1735F7EC194E5)
Полное имя : E:Torrent4GudbajAmerikaWEBRip1080p.mkv
Формат : Matroska
Версия формата : Version 4 / Version 2
Размер файла : 3,89 Гбайт
Продолжительность : 1 ч. 41 м.
Общий поток : 5498 Кбит/сек
Дата кодирования : UTC 2020-11-09 09:33:44
Программа кодирования : mkvmerge v9.5.0 ('Quiet Fire') 64bit
Библиотека кодирования : libebml v1.3.4 + libmatroska v1.4.5
Видео
Идентификатор : 1
Формат : AVC
Формат/Информация : Advanced Video Codec
Профиль формата : [email protected]
Настройки формата : CABAC / 4 Ref Frames
Параметр CABAC формата : Да
Параметр RefFrames формата : 4 кадра
Параметр GOP формата : M=7, N=48
Идентификатор кодека : V_MPEG4/ISO/AVC
Продолжительность : 1 ч. 41 м.
Битрейт : 5120 Кбит/сек
Ширина : 1920 пикселей
Высота : 1080 пикселей
Соотношение сторон : 16:9
Режим частоты кадров : Постоянный
Частота кадров : 24,000 кадра/сек
Цветовое пространство : YUV
Субдискретизация насыщенности : 4:2:0
Битовая глубина : 8 бит
Тип развёртки : Прогрессивная
Бит/(Пиксели*Кадры) : 0.103
Размер потока : 3,62 Гбайт (93%)
Библиотека кодирования : x264 core 148
Настройки программы : cabac=1 / ref=3 / deblock=1:0:0 / analyse=0x3:0x113 / me=hex / subme=7 / psy=1 / psy_rd=1.00:0.00 / mixed_ref=1 / me_range=16 / chroma_me=1 / trellis=1 / 8x8dct=1 / cqm=0 / deadzone=21,11 / fast_pskip=1 / chroma_qp_offset=-2 / threads=34 / lookahead_threads=5 / sliced_threads=0 / nr=0 / decimate=1 / interlaced=0 / bluray_compat=0 / constrained_intra=0 / bframes=6 / b_pyramid=2 / b_adapt=1 / b_bias=0 / direct=1 / weightb=1 / open_gop=0 / weightp=2 / keyint=48 / keyint_min=25 / scenecut=0 / intra_refresh=0 / rc_lookahead=40 / rc=2pass / mbtree=1 / bitrate=5120 / ratetol=1.0 / qcomp=0.60 / qpmin=0 / qpmax=69 / qpstep=4 / cplxblur=20.0 / qblur=0.5 / vbv_maxrate=7680 / vbv_bufsize=20480 / nal_hrd=none / filler=0 / ip_ratio=1.40 / aq=1:1.00
Язык : Russian
Default : Да
Forced : Нет
Аудио
Идентификатор : 2
Формат : AC-3
Формат/Информация : Audio Coding 3
Параметр Endianness формата : Big
Идентификатор кодека : A_AC3
Продолжительность : 1 ч. 41 м.
Вид битрейта : Постоянный
Битрейт : 384 Кбит/сек
Каналы : 6 каналов
Расположение каналов : Front: L C R, Side: L R, LFE
Частота : 48,0 КГц
Частота кадров : 31,250 кадров/сек (1536 SPF)
Битовая глубина : 16 бит
Метод сжатия : С потерями
Размер потока : 278 Мбайт (7%)
Заголовок : rus
Язык : Russian
Default : Да
Forced : Нет

Скриншоты


БАНДИТ

Post 05-Nov-2020 14:25

[Quote]

Губка Боб в бегах / The SpongeBob Movie: Sponge on the Run- Страна: Южная Корея, США
Жанр: мультфильм, комедия, приключения, семейный, мюзикл
Год выпуска: 2020
Продолжительность: 01:35:00
Перевод: Профессиональный (дублированный) | SDI Media
Субтитры: Русские (Forced, Full), английские (SDH), украинские (Forced, Full), немецкие, эстонские, литовские, латышские, румынские
Оригинальная аудиодорожка: английский
Режиссер: Тим Хилл / Tim Hill
Роли озвучивали: Том Кенни, Билл Фагербакки, Роджер Бампасс, Клэнси Браун, Мистер Лоуренс, Киану Ривз, Аквафина, Лори Алан, Снуп Догг, Мэри Джо Кэтлетт, Джим Мескимен, Регги Уоттс, Джилл Тэлли, Кэролин Лоуренс, Антонио Рауль Корбо
Описание: Губка Боб и Патрик вынуждены отправиться в опасное путешествие, чтобы найти пропавшего питомца Гэри. Поиски похищенной улитки приводят друзей в манящий и обманчивый затерянный город Атлантик-Сити — обитель развлечений и порока. Но в конечном итоге любые неприятности помогут преодолеть сила дружбы.

Качество: WEB-DL 1080p
Контейнер: MKV
Видео: AVC, 1920x1080 (16:9), 23.976 fps, ~7500 kbps
Аудио №1: E-AC3, 48 kHz, 6 ch, 640 kbps
Аудио №2: E-AC3 ATMOS, 48 kHz, 6 ch, 768 kbps
Аудио №3: E-AC3, 48 kHz, 6 ch, 640 kbps - Дубляж
Формат субтитров: softsub (SRT)

MediaInfo

General
Unique ID : 193818870272088538342788633073171088577 (0x91D028173A6200B9F2D41CF0DC54C4C1)
Complete name : The.SpongeBob.Movie.Sponge.on.the.Run.2020.1080p.NF.WEB-DL.DDP5.1.x264-EniaHD.mkv
Format : Matroska
Format version : Version 4
File size : 6.17 GiB
Duration : 1 h 35 min
Overall bit rate mode : Variable
Overall bit rate : 9 255 kb/s
Movie name : The SpongeBob Movie: Sponge on the Run (2020) - EniaHD
Encoded date : UTC 2020-11-05 08:17:33
Writing application : mkvmerge v51.0.0 ('I Wish') 64-bit
Writing library : libebml v1.4.0 + libmatroska v1.6.2
Video
ID : 1
Format : AVC
Format/Info : Advanced Video Codec
Format profile : [email protected]
Format settings : CABAC / 3 Ref Frames
Format settings, CABAC : Yes
Format settings, Reference fra : 3 frames
Codec ID : V_MPEG4/ISO/AVC
Duration : 1 h 35 min
Bit rate mode : Variable
Bit rate : 7 500 kb/s
Maximum bit rate : 11.2 Mb/s
Width : 1 920 pixels
Height : 1 080 pixels
Display aspect ratio : 16:9
Frame rate mode : Constant
Frame rate : 23.976 (24000/1001) FPS
Color space : YUV
Chroma subsampling : 4:2:0
Bit depth : 8 bits
Scan type : Progressive
Bits/(Pixel*Frame) : 0.151
Stream size : 4.80 GiB (78%)
Writing library : x264 core 148 r2722 1b0121b
Encoding settings : cabac=1 / ref=3 / deblock=1:0:0 / analyse=0x1:0x111 / me=umh / subme=10 / psy=1 / psy_rd=1.00:0.00 / mixed_ref=1 / me_range=24 / chroma_me=1 / trellis=2 / 8x8dct=0 / cqm=0 / deadzone=21,11 / fast_pskip=1 / chroma_qp_offset=-2 / threads=8 / lookahead_threads=1 / sliced_threads=0 / nr=0 / decimate=1 / interlaced=0 / bluray_compat=0 / stitchable=1 / constrained_intra=0 / bframes=2 / b_pyramid=0 / b_adapt=2 / b_bias=0 / direct=3 / weightb=1 / open_gop=0 / weightp=2 / keyint=250 / keyint_min=23 / scenecut=0 / intra_refresh=0 / rc_lookahead=48 / rc=2pass / mbtree=1 / bitrate=7500 / ratetol=1.0 / qcomp=0.50 / qpmin=6 / qpmax=51 / qpstep=4 / cplxblur=20.0 / qblur=0.5 / vbv_maxrate=11250 / vbv_bufsize=15000 / nal_hrd=vbr / filler=0 / ip_ratio=1.40 / aq=1:1.00
Default : Yes
Forced : No
Audio #1
ID : 2
Format : E-AC-3
Format/Info : Enhanced AC-3
Commercial name : Dolby Digital Plus
Codec ID : A_EAC3
Duration : 1 h 35 min
Bit rate mode : Constant
Bit rate : 640 kb/s
Channel(s) : 6 channels
Channel layout : L R C LFE Ls Rs
Sampling rate : 48.0 kHz
Frame rate : 31.250 FPS (1536 SPF)
Compression mode : Lossy
Stream size : 437 MiB (7%)
Language : Russian
Service kind : Complete Main
Default : Yes
Forced : No
Audio #2
ID : 3
Format : E-AC-3 JOC
Format/Info : Enhanced AC-3 with Joint Object Coding
Commercial name : Dolby Digital Plus with Dolby Atmos
Codec ID : A_EAC3
Duration : 1 h 35 min
Bit rate mode : Constant
Bit rate : 768 kb/s
Channel(s) : 6 channels
Channel layout : L R C LFE Ls Rs
Sampling rate : 48.0 kHz
Frame rate : 31.250 FPS (1536 SPF)
Compression mode : Lossy
Stream size : 524 MiB (8%)
Language : English
Service kind : Complete Main
Default : No
Forced : No
Complexity index : 16
Number of dynamic objects : 15
Bed channel count : 1 channel
Bed channel configuration : LFE
Audio #3
ID : 4
Format : E-AC-3
Format/Info : Enhanced AC-3
Commercial name : Dolby Digital Plus
Codec ID : A_EAC3
Duration : 1 h 35 min
Bit rate mode : Constant
Bit rate : 640 kb/s
Channel(s) : 6 channels
Channel layout : L R C LFE Ls Rs
Sampling rate : 48.0 kHz
Frame rate : 31.250 FPS (1536 SPF)
Compression mode : Lossy
Stream size : 437 MiB (7%)
Language : Ukrainian
Service kind : Complete Main
Default : No
Forced : No
Text #1
ID : 5
Format : UTF-8
Codec ID : S_TEXT/UTF8
Codec ID/Info : UTF-8 Plain Text
Duration : 1 h 30 min
Bit rate : 3 b/s
Count of elements : 51
Stream size : 2.39 KiB (0%)
Title : Forced
Language : Russian
Default : Yes
Forced : No
Text #2
ID : 6
Format : UTF-8
Codec ID : S_TEXT/UTF8
Codec ID/Info : UTF-8 Plain Text
Duration : 1 h 30 min
Bit rate : 97 b/s
Count of elements : 1343
Stream size : 65.2 KiB (0%)
Language : Russian
Default : No
Forced : No
Text #3
ID : 7
Format : UTF-8
Codec ID : S_TEXT/UTF8
Codec ID/Info : UTF-8 Plain Text
Duration : 1 h 29 min
Bit rate : 72 b/s
Count of elements : 1665
Stream size : 47.7 KiB (0%)
Title : SDH
Language : English
Default : No
Forced : No
Text #4
ID : 8
Format : UTF-8
Codec ID : S_TEXT/UTF8
Codec ID/Info : UTF-8 Plain Text
Duration : 1 h 30 min
Bit rate : 3 b/s
Count of elements : 52
Stream size : 2.41 KiB (0%)
Title : Forced
Language : Ukrainian
Default : No
Forced : No
Text #5
ID : 9
Format : UTF-8
Codec ID : S_TEXT/UTF8
Codec ID/Info : UTF-8 Plain Text
Duration : 1 h 30 min
Bit rate : 98 b/s
Count of elements : 1342
Stream size : 65.5 KiB (0%)
Language : Ukrainian
Default : No
Forced : No
Text #6
ID : 10
Format : UTF-8
Codec ID : S_TEXT/UTF8
Codec ID/Info : UTF-8 Plain Text
Duration : 1 h 30 min
Bit rate : 60 b/s
Count of elements : 1310
Stream size : 40.1 KiB (0%)
Language : German
Default : No
Forced : No
Text #7
ID : 11
Format : UTF-8
Codec ID : S_TEXT/UTF8
Codec ID/Info : UTF-8 Plain Text
Duration : 1 h 30 min
Bit rate : 58 b/s
Count of elements : 1336
Stream size : 39.3 KiB (0%)
Language : Estonian
Default : No
Forced : No
Text #8
ID : 12
Format : UTF-8
Codec ID : S_TEXT/UTF8
Codec ID/Info : UTF-8 Plain Text
Duration : 1 h 30 min
Bit rate : 58 b/s
Count of elements : 1289
Stream size : 38.7 KiB (0%)
Language : Lithuanian
Default : No
Forced : No
Text #9
ID : 13
Format : UTF-8
Codec ID : S_TEXT/UTF8
Codec ID/Info : UTF-8 Plain Text
Duration : 1 h 30 min
Bit rate : 58 b/s
Count of elements : 1342
Stream size : 39.2 KiB (0%)
Language : Latvian
Default : No
Forced : No
Text #10
ID : 14
Format : UTF-8
Codec ID : S_TEXT/UTF8
Codec ID/Info : UTF-8 Plain Text
Duration : 1 h 30 min
Bit rate : 58 b/s
Count of elements : 1321
Stream size : 39.0 KiB (0%)
Language : Romanian
Default : No
Forced : No

Скриншоты

БАНДИТ

Post 28-Oct-2020 15:17

[Quote]

Пара на праздники / HolidateГод выхода: 2020
Жанр: комедия, мелодрама
Страна: США
Продолжительность: 01:30:00
Перевод: профессиональный (дублированный) Пифагор
Субтитры: Русские (Forced, Full), английские, испанские, французские, немецкие, итальянские, португальские | Нетфликс
Режиссер: Джон Уайтселл
В ролях: Эмма Робертс, Кристин Ченоуэт, Люк Брейси, Фрэнсис Фишер, Джессика Кэпшоу, Микаела Хувер, Джейк Мэнли, Эндрю Бэчелор, Маниш Дайал, Алекс Моффат
О фильме:
Они не знакомы, но устали проводить отпуск одиночестве. Тогда эти двое решают поддерживать платонические отношения целый год. Только сердцу не прикажешь.
Кинопоиск
Качество: WEB-DL 720p | Netflix
Формат: MKV
Видео: MPEG-4 AVC, 3010 Kбит/с, 1280x720, 24.000 кадр/с
Аудио #1: Русский (АС3, 6 ch, 640 Кбит/с, 48.0 KHz) Профессиональный (дублированный) Пифагор
Аудио #2: Английский (АС3, 6 ch, 640 Кбит/с, 48.0 KHz)
Трейлер

MediaInfo

Источник: Holidate.2020.720p.NF.WEB-DL.DDP5.1.Atmos.x264-MZABI
General
Unique ID : 203368526225755716502223892269224396290 (0x98FF5A7B12131641AA25A44347AB8602)
Complete name : Holidate.2020.720p.NF.WEB-DL.DDP5.1.mkv
Format : Matroska
Format version : Version 4
File size : 3.11 GiB
Duration : 1 h 44 min
Overall bit rate mode : Variable
Overall bit rate : 4 252 kb/s
Encoded date : UTC 2020-10-28 11:12:33
Writing application : mkvmerge v7.1.0 ('Good Love') 64bit built on Jul 27 2014 13:06:55
Writing library : libebml v1.3.0 + libmatroska v1.4.1
Video
ID : 1
Format : AVC
Format/Info : Advanced Video Codec
Format profile : [email protected]
Format settings : CABAC / 3 Ref Frames
Format settings, CABAC : Yes
Format settings, Reference fra : 3 frames
Codec ID : V_MPEG4/ISO/AVC
Duration : 1 h 44 min
Bit rate mode : Variable
Bit rate : 3 010 kb/s
Maximum bit rate : 4 515 kb/s
Width : 1 280 pixels
Height : 720 pixels
Display aspect ratio : 16:9
Frame rate mode : Constant
Frame rate : 24.000 FPS
Color space : YUV
Chroma subsampling : 4:2:0
Bit depth : 8 bits
Scan type : Progressive
Bits/(Pixel*Frame) : 0.136
Stream size : 2.17 GiB (70%)
Writing library : x264 core 148 r2722 1b0121b
Encoding settings : cabac=1 / ref=3 / deblock=1:0:0 / analyse=0x1:0x111 / me=umh / subme=10 / psy=1 / psy_rd=1.00:0.00 / mixed_ref=1 / me_range=24 / chroma_me=1 / trellis=2 / 8x8dct=0 / cqm=0 / deadzone=21,11 / fast_pskip=1 / chroma_qp_offset=-2 / threads=8 / lookahead_threads=1 / sliced_threads=0 / nr=0 / decimate=1 / interlaced=0 / bluray_compat=0 / stitchable=1 / constrained_intra=0 / bframes=2 / b_pyramid=0 / b_adapt=2 / b_bias=0 / direct=3 / weightb=1 / open_gop=0 / weightp=2 / keyint=250 / keyint_min=24 / scenecut=0 / intra_refresh=0 / rc_lookahead=48 / rc=2pass / mbtree=1 / bitrate=3010 / ratetol=1.0 / qcomp=0.50 / qpmin=6 / qpmax=51 / qpstep=4 / cplxblur=20.0 / qblur=0.5 / vbv_maxrate=4515 / vbv_bufsize=6020 / nal_hrd=vbr / filler=0 / ip_ratio=1.40 / aq=1:1.00
Language : English
Default : Yes
Forced : No
Audio #1
ID : 2
Format : AC-3
Format/Info : Audio Coding 3
Commercial name : Dolby Digital
Codec ID : A_AC3
Duration : 1 h 44 min
Bit rate mode : Constant
Bit rate : 640 kb/s
Channel(s) : 6 channels
Channel layout : L R C LFE Ls Rs
Sampling rate : 48.0 kHz
Frame rate : 31.250 FPS (1536 SPF)
Compression mode : Lossy
Stream size : 480 MiB (15%)
Title : Пифагор
Language : Russian
Service kind : Complete Main
Default : Yes
Forced : No
Audio #2
ID : 3
Format : AC-3
Format/Info : Audio Coding 3
Commercial name : Dolby Digital
Codec ID : A_AC3
Duration : 1 h 44 min
Bit rate mode : Constant
Bit rate : 640 kb/s
Channel(s) : 6 channels
Channel layout : L R C LFE Ls Rs
Sampling rate : 48.0 kHz
Frame rate : 31.250 FPS (1536 SPF)
Compression mode : Lossy
Stream size : 479 MiB (15%)
Language : English
Service kind : Complete Main
Default : No
Forced : No
Text #1
ID : 4
Format : UTF-8
Codec ID : S_TEXT/UTF8
Codec ID/Info : UTF-8 Plain Text
Duration : 1 h 42 min
Bit rate : 0 b/s
Count of elements : 17
Stream size : 614 Bytes (0%)
Title : Forced
Language : Russian
Default : Yes
Forced : No
Text #2
ID : 5
Format : UTF-8
Codec ID : S_TEXT/UTF8
Codec ID/Info : UTF-8 Plain Text
Duration : 1 h 42 min
Bit rate : 112 b/s
Count of elements : 1800
Stream size : 84.8 KiB (0%)
Title : Russian
Language : Russian
Default : No
Forced : No
Text #3
ID : 6
Format : UTF-8
Codec ID : S_TEXT/UTF8
Codec ID/Info : UTF-8 Plain Text
Duration : 1 h 41 min
Bit rate : 88 b/s
Count of elements : 2307
Stream size : 65.9 KiB (0%)
Title : English [CC]
Language : English
Default : No
Forced : No
Text #4
ID : 7
Format : UTF-8
Codec ID : S_TEXT/UTF8
Codec ID/Info : UTF-8 Plain Text
Duration : 1 h 42 min
Bit rate : 61 b/s
Count of elements : 1843
Stream size : 46.4 KiB (0%)
Title : German
Language : German
Default : No
Forced : No
Text #5
ID : 8
Format : UTF-8
Codec ID : S_TEXT/UTF8
Codec ID/Info : UTF-8 Plain Text
Duration : 1 h 42 min
Bit rate : 62 b/s
Count of elements : 1730
Stream size : 46.7 KiB (0%)
Title : French
Language : French
Default : No
Forced : No
Text #6
ID : 9
Format : UTF-8
Codec ID : S_TEXT/UTF8
Codec ID/Info : UTF-8 Plain Text
Duration : 1 h 42 min
Bit rate : 66 b/s
Count of elements : 1731
Stream size : 50.2 KiB (0%)
Title : Spanish
Language : Spanish
Default : No
Forced : No
Text #7
ID : 10
Format : UTF-8
Codec ID : S_TEXT/UTF8
Codec ID/Info : UTF-8 Plain Text
Duration : 1 h 42 min
Bit rate : 65 b/s
Count of elements : 1839
Stream size : 49.5 KiB (0%)
Title : Italian
Language : Italian
Default : No
Forced : No
Text #8
ID : 11
Format : UTF-8
Codec ID : S_TEXT/UTF8
Codec ID/Info : UTF-8 Plain Text
Duration : 1 h 42 min
Bit rate : 64 b/s
Count of elements : 1668
Stream size : 48.5 KiB (0%)
Title : Portuguese
Language : Portuguese
Default : No
Forced : No

Скриншоты

БАНДИТ

Post 28-Oct-2020 11:12

[Quote]

Пара на праздники / HolidateГод выхода: 2020
Жанр: комедия, мелодрама
Страна: США
Продолжительность: 01:30:00
Перевод: профессиональный (дублированный) Пифагор
Субтитры: русские (Forced, Full), английские, немецкие, испанские, финские, французские, итальянские, польские, португальские
Режиссер: Джон Уайтселл
В ролях: Эмма Робертс, Кристин Ченоуэт, Люк Брейси, Фрэнсис Фишер, Джессика Кэпшоу, Микаела Хувер, Джейк Мэнли, Эндрю Бэчелор, Маниш Дайал, Алекс Моффат
Описание: Они не знакомы, но устали проводить отпуск в одиночестве. Тогда эти двое решают поддерживать платонические отношения круглый год. Только сердцу не прикажешь.
Кинопоиск
Качество: WEB-DL 1080p
Формат: MKV
Видео: 1920x1080 at 24 fps, MPEG-4 AVC, ~6317 kbps avg
Аудио 1: 48 kHz, E-AC3, 3/2 (L,C,R,l,r) + LFE ch, ~640 kbps avg
Аудио 2: 48 kHz, E-AC3 Atmos, 3/2 (L,C,R,l,r) + LFE ch, ~768 kbps avg | English

Скриншоты

MediaInfo

General
Complete name : Holidate.2020.1080p.NF.WEB-DL.DDP5.1.Atmos.x264-CMRG_Kyle.mkv
Format : Matroska
Format version : Version 4
File size : 5.09 GiB
Duration : 1 h 44 min
Overall bit rate mode : Variable
Overall bit rate : 6 952 kb/s
Encoded date : UTC 2020-10-28 07:40:02
Writing application : mkvmerge v51.0.0 ('I Wish') 64-bit
Writing library : libebml v1.4.0 + libmatroska v1.6.2
Video
ID : 1
Format : AVC
Format/Info : Advanced Video Codec
Format profile : [email protected]
Format settings : CABAC / 3 Ref Frames
Format settings, CABAC : Yes
Format settings, Reference frames : 3 frames
Codec ID : V_MPEG4/ISO/AVC
Duration : 1 h 44 min
Bit rate mode : Variable
Bit rate : 5 620 kb/s
Maximum bit rate : 8 430 kb/s
Width : 1 920 pixels
Height : 1 080 pixels
Display aspect ratio : 16:9
Frame rate mode : Constant
Frame rate : 24.000 FPS
Color space : YUV
Chroma subsampling : 4:2:0
Bit depth : 8 bits
Scan type : Progressive
Bits/(Pixel*Frame) : 0.113
Stream size : 4.05 GiB (80%)
Writing library : x264 core 148 r2722 1b0121b
Encoding settings : cabac=1 / ref=3 / deblock=1:0:0 / analyse=0x1:0x111 / me=umh / subme=10 / psy=1 / psy_rd=1.00:0.00 / mixed_ref=1 / me_range=24 / chroma_me=1 / trellis=2 / 8x8dct=0 / cqm=0 / deadzone=21,11 / fast_pskip=1 / chroma_qp_offset=-2 / threads=8 / lookahead_threads=1 / sliced_threads=0 / nr=0 / decimate=1 / interlaced=0 / bluray_compat=0 / stitchable=1 / constrained_intra=0 / bframes=2 / b_pyramid=0 / b_adapt=2 / b_bias=0 / direct=3 / weightb=1 / open_gop=0 / weightp=2 / keyint=250 / keyint_min=24 / scenecut=0 / intra_refresh=0 / rc_lookahead=48 / rc=2pass / mbtree=1 / bitrate=5620 / ratetol=1.0 / qcomp=0.50 / qpmin=6 / qpmax=51 / qpstep=4 / cplxblur=20.0 / qblur=0.5 / vbv_maxrate=8430 / vbv_bufsize=11240 / nal_hrd=vbr / filler=0 / ip_ratio=1.40 / aq=1:1.00
Default : Yes
Forced : No
Audio #1
ID : 2
Format : E-AC-3
Format/Info : Enhanced AC-3
Commercial name : Dolby Digital Plus
Codec ID : A_EAC3
Duration : 1 h 44 min
Bit rate mode : Constant
Bit rate : 640 kb/s
Channel(s) : 6 channels
Channel layout : L R C LFE Ls Rs
Sampling rate : 48.0 kHz
Frame rate : 31.250 FPS (1536 SPF)
Compression mode : Lossy
Stream size : 480 MiB (9%)
Title : Russian
Language : Russian
Service kind : Complete Main
Default : Yes
Forced : No
Audio #2
ID : 3
Format : E-AC-3 JOC
Format/Info : Enhanced AC-3 with Joint Object Coding
Commercial name : Dolby Digital Plus with Dolby Atmos
Codec ID : A_EAC3
Duration : 1 h 44 min
Bit rate mode : Constant
Bit rate : 768 kb/s
Channel(s) : 6 channels
Channel layout : L R C LFE Ls Rs
Sampling rate : 48.0 kHz
Frame rate : 31.250 FPS (1536 SPF)
Compression mode : Lossy
Stream size : 575 MiB (11%)
Title : English
Language : English
Service kind : Complete Main
Default : No
Forced : No
Complexity index : 16
Number of dynamic objects : 15
Bed channel count : 1 channel
Bed channel configuration : LFE
Text #1
ID : 4
Format : UTF-8
Codec ID : S_TEXT/UTF8
Codec ID/Info : UTF-8 Plain Text
Duration : 1 h 42 min
Bit rate : 0 b/s
Count of elements : 17
Stream size : 614 Bytes (0%)
Title : Forced
Language : Russian
Default : Yes
Forced : No
Text #2
ID : 5
Format : UTF-8
Codec ID : S_TEXT/UTF8
Codec ID/Info : UTF-8 Plain Text
Duration : 1 h 42 min
Bit rate : 112 b/s
Count of elements : 1800
Stream size : 84.8 KiB (0%)
Title : Russian
Language : Russian
Default : No
Forced : No
Text #3
ID : 6
Format : UTF-8
Codec ID : S_TEXT/UTF8
Codec ID/Info : UTF-8 Plain Text
Duration : 1 h 41 min
Bit rate : 88 b/s
Count of elements : 2307
Stream size : 65.9 KiB (0%)
Language : English
Default : No
Forced : No
Text #4
ID : 7
Format : UTF-8
Codec ID : S_TEXT/UTF8
Codec ID/Info : UTF-8 Plain Text
Duration : 1 h 42 min
Bit rate : 61 b/s
Count of elements : 1843
Stream size : 46.4 KiB (0%)
Language : German
Default : No
Forced : No
Text #5
ID : 8
Format : UTF-8
Codec ID : S_TEXT/UTF8
Codec ID/Info : UTF-8 Plain Text
Duration : 1 h 42 min
Bit rate : 57 b/s
Count of elements : 1796
Stream size : 43.6 KiB (0%)
Language : Finnish
Default : No
Forced : No
Text #6
ID : 9
Format : UTF-8
Codec ID : S_TEXT/UTF8
Codec ID/Info : UTF-8 Plain Text
Duration : 1 h 42 min
Bit rate : 62 b/s
Count of elements : 1730
Stream size : 46.7 KiB (0%)
Language : French
Default : No
Forced : No
Text #7
ID : 10
Format : UTF-8
Codec ID : S_TEXT/UTF8
Codec ID/Info : UTF-8 Plain Text
Duration : 1 h 42 min
Bit rate : 60 b/s
Count of elements : 1864
Stream size : 45.6 KiB (0%)
Language : Polish
Default : No
Forced : No
Text #8
ID : 11
Format : UTF-8
Codec ID : S_TEXT/UTF8
Codec ID/Info : UTF-8 Plain Text
Duration : 1 h 42 min
Bit rate : 64 b/s
Count of elements : 1668
Stream size : 48.5 KiB (0%)
Language : Portuguese
Default : No
Forced : No

БАНДИТ

Post 22-Oct-2020 19:33

[Quote]

Суд над чикагской семеркой / The Trial of the Chicago 7Год выхода: 2020
Жанр: Триллер, биография, драма, история, реальные события
Страна: США, Великобритания, Индия
Студия: Dreamworks Pictures, Amblin Partners, CAA Media Finance
Продолжительность: 02:10:10
Перевод: Профессиональный (многоголосый, закадровый) | HDRezka Studio
Субтитры: Русские (forced, full), английские, французские, немецкие, китайские
Режиссер: Аарон Соркин
В ролях: Эдди Редмэйн, Алекс Шарп, Саша Барон Коэн, Джереми Стронг, Джон Кэрролл Линч, Яхья Абдул-Матин II, Марк Райлэнс, Джозеф Гордон-Левитт, Бен Шенкман, Дж.С. МакКензи
О фильме:
Новый фильм по сценарию обладателя премии "Оскар" Аарона Соркина, который он же и срежиссировал, имеет все шансы стать лучшим в году... 60-е для всего мира стали временем перемен: две пережитых войны за спиной, разразившиеся Берлинский и Карибский кризисы, "культурная революция" в КНР, воцарение режима "черных полковников" в Греции - все эти события намекали на то, что старый мир нуждается в реформации. В США, которые колошматило от утопической страны мечты до вотчины Большого брата времен Уотергейтского скандала, часто забывают о "деле чикагской семерки" - громком судебном процессе, который оказал огромное влияние на американское общество... Второй режиссерский проект Аарона Соркина (после "Большой игры"), мастера диалогового кино, рассказывает именно об этом. Сценарий был написан еще в 2007 году, и тогда в кресле постановщика видели Стивена Спилберга, но "Суд над чикагской семеркой" ушел на полку и вернулся именно тогда, когда должен был. Кажется, более актуального сюжета к 2020 году просто не придумать...

Формат: MKV
Качество: WEB-DL 1080p
Видео: AVC/H.264, 1920х1080, ~3650 Kbps
Аудио 1: AC3, 6 ch, 448 Kbps - Русский (MVO, HDRezka Studio)
Аудио 2: Е-AC3, 6 ch, 640 Kbps - Английский

M/I

General
Complete name : S:The.Trial.of.the.Chicago.7.2020.NF.WEB-DL.1080p.mkv
Format : Matroska
Format version : Version 4
File size : 4.25 GiB
Duration : 2 h 10 min
Overall bit rate mode : Variable
Overall bit rate : 4 675 kb/s
Encoded date : UTC 2020-10-21 22:46:45
Writing application : mkvmerge v20.0.0 ('I Am The Sun') 64-bit
Writing library : libebml v1.3.5 + libmatroska v1.4.8
Video
ID : 1
Format : AVC
Format/Info : Advanced Video Codec
Format profile : [email protected]
Format settings : CABAC / 3 Ref Frames
Format settings, CABAC : Yes
Format settings, Reference frames : 3 frames
Codec ID : V_MPEG4/ISO/AVC
Duration : 2 h 10 min
Bit rate mode : Variable
Bit rate : 3 650 kb/s
Maximum bit rate : 5 475 kb/s
Width : 1 920 pixels
Height : 1 080 pixels
Display aspect ratio : 16:9
Frame rate mode : Constant
Frame rate : 24.000 FPS
Color space : YUV
Chroma subsampling : 4:2:0
Bit depth : 8 bits
Scan type : Progressive
Bits/(Pixel*Frame) : 0.073
Stream size : 3.26 GiB (77%)
Writing library : x264 core 148 r2722 1b0121b
Encoding settings : cabac=1 / ref=3 / deblock=1:0:0 / analyse=0x1:0x111 / me=umh / subme=10 / psy=1 / psy_rd=1.00:0.00 / mixed_ref=1 / me_range=24 / chroma_me=1 / trellis=2 / 8x8dct=0 / cqm=0 / deadzone=21,11 / fast_pskip=1 / chroma_qp_offset=-2 / threads=8 / lookahead_threads=1 / sliced_threads=0 / nr=0 / decimate=1 / interlaced=0 / bluray_compat=0 / stitchable=1 / constrained_intra=0 / bframes=2 / b_pyramid=0 / b_adapt=2 / b_bias=0 / direct=3 / weightb=1 / open_gop=0 / weightp=2 / keyint=250 / keyint_min=24 / scenecut=0 / intra_refresh=0 / rc_lookahead=48 / rc=2pass / mbtree=1 / bitrate=3650 / ratetol=1.0 / qcomp=0.50 / qpmin=6 / qpmax=51 / qpstep=4 / cplxblur=20.0 / qblur=0.5 / vbv_maxrate=5475 / vbv_bufsize=7300 / nal_hrd=vbr / filler=0 / ip_ratio=1.40 / aq=1:1.00
Language : English
Default : Yes
Forced : No
Audio #1
ID : 2
Format : AC-3
Format/Info : Audio Coding 3
Commercial name : Dolby Digital
Codec ID : A_AC3
Duration : 2 h 10 min
Bit rate mode : Constant
Bit rate : 448 kb/s
Channel(s) : 6 channels
Channel layout : L R C LFE Ls Rs
Sampling rate : 48.0 kHz
Frame rate : 31.250 FPS (1536 SPF)
Compression mode : Lossy
Stream size : 417 MiB (10%)
Title : MVO HDRezka Studio
Language : Russian
Service kind : Complete Main
Default : Yes
Forced : No
Audio #2
ID : 3
Format : E-AC-3
Format/Info : Enhanced AC-3
Commercial name : Dolby Digital Plus
Codec ID : A_EAC3
Duration : 2 h 10 min
Bit rate mode : Constant
Bit rate : 640 kb/s
Channel(s) : 6 channels
Channel layout : L R C LFE Ls Rs
Sampling rate : 48.0 kHz
Frame rate : 31.250 FPS (1536 SPF)
Compression mode : Lossy
Stream size : 596 MiB (14%)
Language : English
Service kind : Complete Main
Default : No
Forced : No
Text #1
ID : 4
Format : UTF-8
Codec ID : S_TEXT/UTF8
Codec ID/Info : UTF-8 Plain Text
Duration : 1 h 57 min
Bit rate : 4 b/s
Count of elements : 62
Stream size : 4.07 KiB (0%)
Title : forced
Language : Russian
Default : Yes
Forced : No
Text #2
ID : 5
Format : UTF-8
Codec ID : S_TEXT/UTF8
Codec ID/Info : UTF-8 Plain Text
Duration : 2 h 8 min
Bit rate : 138 b/s
Count of elements : 2092
Stream size : 130 KiB (0%)
Language : Russian
Default : No
Forced : No
Text #3
ID : 6
Format : UTF-8
Codec ID : S_TEXT/UTF8
Codec ID/Info : UTF-8 Plain Text
Duration : 2 h 7 min
Bit rate : 91 b/s
Count of elements : 2090
Stream size : 85.6 KiB (0%)
Language : English
Default : No
Forced : No
Text #4
ID : 7
Format : UTF-8
Codec ID : S_TEXT/UTF8
Codec ID/Info : UTF-8 Plain Text
Duration : 2 h 7 min
Bit rate : 80 b/s
Count of elements : 2054
Stream size : 75.8 KiB (0%)
Title : French
Language : French
Default : No
Forced : No
Text #5
ID : 8
Format : UTF-8
Codec ID : S_TEXT/UTF8
Codec ID/Info : UTF-8 Plain Text
Duration : 2 h 8 min
Bit rate : 79 b/s
Count of elements : 2059
Stream size : 74.6 KiB (0%)
Title : German
Language : German
Default : No
Forced : No
Text #6
ID : 9
Format : UTF-8
Codec ID : S_TEXT/UTF8
Codec ID/Info : UTF-8 Plain Text
Duration : 2 h 8 min
Bit rate : 92 b/s
Count of elements : 2083
Stream size : 86.3 KiB (0%)
Title : Simplified Chinese
Language : Chinese
Default : No
Forced : No

Скриншоты

       

БАНДИТ

Post 21-Oct-2020 19:41

[Quote]

Любовь и монстры / Love and MonstersГод выхода: 2020
Жанр: Комедия, фантастика, боевик, приключения
Страна: Канада, США
Студия: Paramount Pictures, 21 Laps Entertainment, Entertainment One
Продолжительность: 01:48:52
Перевод: Профессиональный многоголосый закадровый (HDRezka Studio)
Субтитры: Русские (Forced), украинские (Forced), английские (Full, SDH)
Режиссер: Майкл Мэтьюз
В ролях: Дилан О`Брайэн, Джессика Хенвик, Майкл Рукер, Дэниэл Юинг, Ариана Гринблатт, Эллен Холлман, Пачаро Мзембе, Сени Прити, Амали Голден
О фильме:
Семь лет назад человечество взорвало подлетавший к Земле астероид, но после этого столкнулось с последствиями - некоторые земные обитатели мутировали в гигантских монстров. Через год население Земли сократилось на 95%. У Джоэла погибли родители, и с тех пор он в компании таких же выживших обитает в подземном бункере. Недавно он поймал радиосигнал другой колонии, где живет его подростковая любовь Эйми, и теперь решил до неё добраться. И это будет непросто, ведь у Джоэла нет никаких навыков выживания, и более того - при виде монстров он впадает в оцепенение.

Качество: WEB-DL-HEVC 2160p | 4K | HDR | P
Формат: mkv
Видео: HEVC/H.265, 3840x2160, ~15 Мbps, 23.976 fps
Аудио 1: AC3, 6 ch, 448 Kbps - Русский
Аудио 2: AC3, 6 ch, 384 Kbps - Украинский
Аудио 3: E-AC3, 6 ch, 640 Kbps - Английский

Mediainfo

Общее
Уникальный идентификатор : 171016145948907430231279568700694505869 (0x80A882FB35EB3AFD70069A2B4E32A98D)
Полное имя : Love and Monsters.2020.HDR.WEB-DL.2160p.W.mkv
Формат : Matroska
Версия формата : Version 4
Размер файла : 12,5 Гбайт
Продолжительность : 1 ч. 48 м.
Общий поток : 16,5 Мбит/сек
Название фильма : Love and Monsters.2020.HDR.WEB-DL.2160p.W
Дата кодирования : UTC 2020-10-21 15:47:54
Программа кодирования : mkvmerge v23.0.0 ('The Bride Said No') 64-bit
Библиотека кодирования : libebml v1.3.6 + libmatroska v1.4.9
Видео
Идентификатор : 1
Формат : HEVC
Формат/Информация : High Efficiency Video Coding
Профиль формата : Main [email protected]@Main
Идентификатор кодека : V_MPEGH/ISO/HEVC
Продолжительность : 1 ч. 48 м.
Битрейт : 15,0 Мбит/сек
Ширина : 3 840 пикселей
Высота : 2 160 пикселей
Соотношение сторон : 16:9
Режим частоты кадров : Постоянный
Частота кадров : 23,976 (24000/1001) кадра/сек
Цветовое пространство : YUV
Субдискретизация насыщенности : 4:2:0 (Type 2)
Битовая глубина : 10 бит
Бит/(Пиксели*Кадры) : 0.075
Размер потока : 11,4 Гбайт (91%)
Язык : English
Default : Да
Forced : Нет
Цветовой диапазон : Limited
Основные цвета : BT.2020
Характеристики трансфера : PQ
Коэффициенты матрицы : BT.2020 non-constant
Maximum Content Light Level : 1000 cd/m2
Maximum Frame-Average Light Level : 387 cd/m2
Аудио #1
Идентификатор : 2
Формат : AC-3
Формат/Информация : Audio Coding 3
Коммерческое название : Dolby Digital
Идентификатор кодека : A_AC3
Продолжительность : 1 ч. 48 м.
Вид битрейта : Постоянный
Битрейт : 448 Кбит/сек
Каналы : 6 каналов
Channel layout : L R C LFE Ls Rs
Частота : 48,0 КГц
Частота кадров : 31,250 кадров/сек (1536 SPF)
Метод сжатия : С потерями
Размер потока : 349 Мбайт (3%)
Заголовок : MVO (HDrezka Studio)
Язык : Russian
Service kind : Complete Main
Default : Да
Forced : Нет
Аудио #2
Идентификатор : 3
Формат : AC-3
Формат/Информация : Audio Coding 3
Коммерческое название : Dolby Digital
Идентификатор кодека : A_AC3
Продолжительность : 1 ч. 48 м.
Вид битрейта : Постоянный
Битрейт : 384 Кбит/сек
Каналы : 6 каналов
Channel layout : L R C LFE Ls Rs
Частота : 48,0 КГц
Частота кадров : 31,250 кадров/сек (1536 SPF)
Метод сжатия : С потерями
Размер потока : 299 Мбайт (2%)
Заголовок : MVO (HDrezka Studio)
Язык : Ukrainian
Service kind : Complete Main
Default : Нет
Forced : Нет
Аудио #3
Идентификатор : 4
Формат : E-AC-3
Формат/Информация : Enhanced AC-3
Коммерческое название : Dolby Digital Plus
Идентификатор кодека : A_EAC3
Продолжительность : 1 ч. 48 м.
Вид битрейта : Постоянный
Битрейт : 640 Кбит/сек
Каналы : 6 каналов
Channel layout : L R C LFE Ls Rs
Частота : 48,0 КГц
Частота кадров : 31,250 кадров/сек (1536 SPF)
Метод сжатия : С потерями
Размер потока : 498 Мбайт (4%)
Язык : English
Service kind : Complete Main
Default : Нет
Forced : Нет
Текст #1
Идентификатор : 5
Формат : UTF-8
Идентификатор кодека : S_TEXT/UTF8
Идентификатор кодека/Информация : UTF-8 Plain Text
Продолжительность : 1 ч. 40 м.
Битрейт : 3 бит/сек
Count of elements : 51
Размер потока : 2,88 Кбайт (0%)
Заголовок : Forced
Язык : Russian
Default : Да
Forced : Нет
Текст #2
Идентификатор : 6
Формат : UTF-8
Идентификатор кодека : S_TEXT/UTF8
Идентификатор кодека/Информация : UTF-8 Plain Text
Продолжительность : 1 ч. 42 м.
Битрейт : 2 бит/сек
Count of elements : 42
Размер потока : 2,03 Кбайт (0%)
Заголовок : Forced
Язык : Ukrainian
Default : Нет
Forced : Нет
Текст #3
Идентификатор : 7
Формат : UTF-8
Идентификатор кодека : S_TEXT/UTF8
Идентификатор кодека/Информация : UTF-8 Plain Text
Продолжительность : 1 ч. 41 м.
Битрейт : 64 бит/сек
Count of elements : 1477
Размер потока : 48,4 Кбайт (0%)
Заголовок : Full
Язык : English
Default : Нет
Forced : Нет
Текст #4
Идентификатор : 8
Формат : UTF-8
Идентификатор кодека : S_TEXT/UTF8
Идентификатор кодека/Информация : UTF-8 Plain Text
Продолжительность : 1 ч. 42 м.
Битрейт : 73 бит/сек
Count of elements : 1711
Размер потока : 55,3 Кбайт (0%)
Заголовок : SDH
Язык : English
Default : Нет
Forced : Нет

Скриншоты

     

БАНДИТ

Post 21-Oct-2020 10:52

[Quote]

Любовь и монстры / Love and MonstersГод выхода: 2020
Жанр: Комедия, фантастика, боевик, приключения
Страна: Канада, США
Студия: 21 Laps Entertainment, Entertainment One, MTV Films
Продолжительность: 01:48:52
Перевод: Профессиональный многоголосый | HDRezka Studio
Субтитры: Русские (forced), украинские (forced), английские
Режиссер: Майкл Мэтьюз
В ролях: Дилан О Брайен, Джессика Хенвик, Майкл Рукер, Эллен Холлман, Мелани Занетти, Ариана Гринблатт, Амали Голден, Тэнди Райт, Тэсним Рок, Ларри Седар
О фильме:
Спустя семь лет после нападения на человеческую расу ужасных монстров, Джоэль Доусон вместе с остальными выжившими прячется под землей от огромных существ, которые теперь чувствуют себя хозяевами на планете. Однажды парень ловит сигнал по радио и слышит голос девушки Эйми, в которую был влюблён ещё в старшей школе. Она укрылась в прибрежной колонии, расположенной в 80 милях от убежища Джоэля. Вопреки всякой логике, парень решает, что ему больше нечего делать под землей, и отправляется на поиски Эйми. На пути к заветной цели Джоэлю предстоит преодолеть множество опасностей и найти новых друзей, а также узнать много нового о чудовищах, захвативших планету...

Фрмат: MKV
Качество: WEB-DL 1080p | AMZN
Видео: MPEG-4 AVC, 7443 Kбит/с, 1920x800, 23.976 кадр/с
Аудио #1: Русский (АС3, 6 ch, 448 Кбит/с, 48.0 KHz) Профессиональный (многоголосый, закадровый) HDRezka Studio
Аудио #2: Украинский (АС3, 6 ch, 384 Кбит/с, 48.0 KHz) Профессиональный (многоголосый, закадровый) HDRezka Studio
Аудио #3: Английский (E-АС3, 6 ch, 640 Кбит/с, 48.0 KHz)
► Без Рекламы!

MediaInfo

Источник: Love.and.Monsters.2020.1080p.AMZN.WEB-DL.DDP5.1.x264-NTG
General
Unique ID : 95885454328958532075375748478910143616 (0x4822DDE4CAA1471A610E704E1F211C80)
Complete name : Love.and.Monsters.2020.AMZN.WEB-DL.1080p.mkv
Format : Matroska
Format version : Version 4
File size : 6.78 GiB
Duration : 1 h 48 min
Overall bit rate : 8 918 kb/s
Encoded date : UTC 2020-10-21 01:34:14
Writing application : mkvmerge v20.0.0 ('I Am The Sun') 64-bit
Writing library : libebml v1.3.5 + libmatroska v1.4.8
Video
ID : 1
Format : AVC
Format/Info : Advanced Video Codec
Format profile : [email protected]
Format settings : CABAC / 4 Ref Frames
Format settings, CABAC : Yes
Format settings, Reference fra : 4 frames
Codec ID : V_MPEG4/ISO/AVC
Duration : 1 h 48 min
Bit rate mode : Constant
Bit rate : 7 443 kb/s
Nominal bit rate : 10 000 kb/s
Width : 1 920 pixels
Height : 800 pixels
Display aspect ratio : 2.40:1
Frame rate mode : Constant
Frame rate : 23.976 (24000/1001) FPS
Color space : YUV
Chroma subsampling : 4:2:0
Bit depth : 8 bits
Scan type : Progressive
Bits/(Pixel*Frame) : 0.202
Stream size : 5.66 GiB (83%)
Language : English
Default : Yes
Forced : No
Color range : Limited
Color primaries : BT.709
Transfer characteristics : BT.709
Matrix coefficients : BT.709
Audio #1
ID : 2
Format : AC-3
Format/Info : Audio Coding 3
Commercial name : Dolby Digital
Codec ID : A_AC3
Duration : 1 h 48 min
Bit rate mode : Constant
Bit rate : 448 kb/s
Channel(s) : 6 channels
Channel layout : L R C LFE Ls Rs
Sampling rate : 48.0 kHz
Frame rate : 31.250 FPS (1536 SPF)
Compression mode : Lossy
Stream size : 349 MiB (5%)
Title : MVO HDRezka Studio
Language : Russian
Service kind : Complete Main
Default : Yes
Forced : No
Audio #2
ID : 3
Format : AC-3
Format/Info : Audio Coding 3
Commercial name : Dolby Digital
Codec ID : A_AC3
Duration : 1 h 48 min
Bit rate mode : Constant
Bit rate : 384 kb/s
Channel(s) : 6 channels
Channel layout : L R C LFE Ls Rs
Sampling rate : 48.0 kHz
Frame rate : 31.250 FPS (1536 SPF)
Compression mode : Lossy
Stream size : 299 MiB (4%)
Title : MVO HDRezka Studio
Language : Ukrainian
Service kind : Complete Main
Default : No
Forced : No
Audio #3
ID : 4
Format : E-AC-3
Format/Info : Enhanced AC-3
Commercial name : Dolby Digital Plus
Codec ID : A_EAC3
Duration : 1 h 48 min
Bit rate mode : Constant
Bit rate : 640 kb/s
Channel(s) : 6 channels
Channel layout : L R C LFE Ls Rs
Sampling rate : 48.0 kHz
Frame rate : 31.250 FPS (1536 SPF)
Compression mode : Lossy
Stream size : 498 MiB (7%)
Language : English
Service kind : Complete Main
Default : No
Forced : No
Text #1
ID : 5
Format : UTF-8
Codec ID : S_TEXT/UTF8
Codec ID/Info : UTF-8 Plain Text
Duration : 1 h 40 min
Bit rate : 3 b/s
Count of elements : 51
Stream size : 2.78 KiB (0%)
Title : forced
Language : Russian
Default : Yes
Forced : No
Text #2
ID : 6
Format : UTF-8
Codec ID : S_TEXT/UTF8
Codec ID/Info : UTF-8 Plain Text
Duration : 1 h 42 min
Bit rate : 2 b/s
Count of elements : 42
Stream size : 2.11 KiB (0%)
Title : forced
Language : Ukrainian
Default : No
Forced : No
Text #3
ID : 7
Format : UTF-8
Codec ID : S_TEXT/UTF8
Codec ID/Info : UTF-8 Plain Text
Duration : 1 h 42 min
Bit rate : 64 b/s
Count of elements : 1479
Stream size : 48.5 KiB (0%)
Language : English
Default : No
Forced : No

Скриншоты

         

БАНДИТ

Post 20-Oct-2020 20:38

[Quote]

Печать ведьмы / LuzГод выхода: 2019
Жанр: фэнтези, ужасы, вестерн
Выпущено: Колумбия / Afasia Films, Amniótica, Egerton Crescent Productions
Продолжительность: 01:44:05
Озвучивание: Дублированное | iTunes
Режиссер: Хуан Диего Эскобар Альсате
В ролях: Юри Варгас, Джим Муньос, Конрадо Осорио, Шэрон Гузман, Даниэль Паэс, Йохан Камачо, Андреа Эскивель, Марсела Робледо
О фильме: В затерявшейся далеко в горах общине, возглавляемой проповедником по имени Эль Сеньор, появляется ребенок, который должен стать новым мессией, который принесёт разрушение всего и искупление грехов. И тогда три дочери проповедника начинают задумываться об истинном происхождении самого Бога, о природе любви, удовольствии и внутренней свободе.

Формат: MKV
Качество: WEB-DL 1080p
Видео: MPEG-4 AVC, 4607 Kb/s, 1920x804
Аудио: Russian: 48 kHz, AC3 Dolby Digital, 3/2 (L, C, R, l, r) + LFE ch, ~384 Kbps
Субтитры: Нет
Дополнительно: Сохранены оригинальные чаптеры.

MediaInfo:

Video
ID : 1
Format : AVC
Format/Info : Advanced Video Codec
Format profile : [email protected]
Format settings : CABAC / 5 Ref Frames
Format settings, CABAC : Yes
Format settings, Reference : 5 frames
Codec ID : V_MPEG4/ISO/AVC
Duration : 1 h 44 min
Bit rate : 4 607 kb/s
Width : 1 920 pixels
Height : 804 pixels
Display aspect ratio : 2.40:1
Frame rate mode : Constant
Frame rate : 24.000 FPS
Color space : YUV
Chroma subsampling : 4:2:0
Bit depth : 8 bits
Scan type : Progressive
Bits/(Pixel*Frame) : 0.124
Stream size : 3.35 GiB (92%)
Title : LUZ_2019_WEB-DL_1080p-BLUEBIRD
Language : English
Default : Yes
Forced : No
Color range : Limited
Color primaries : BT.709
Transfer characteristics : BT.709
Matrix coefficients : BT.709
Audio
ID : 2
Format : AC-3
Format/Info : Audio Coding 3
Commercial name : Dolby Digital
Codec ID : A_AC3
Duration : 1 h 44 min
Bit rate mode : Constant
Bit rate : 384 kb/s
Channel(s) : 6 channels
Channel layout : L R C LFE Ls Rs
Sampling rate : 48.0 kHz
Frame rate : 31.250 FPS (1536 SPF)
Compression mode : Lossy
Delay relative to video : -42 ms
Stream size : 286 MiB (8%)
Title : [DUB] DD 5.1 @ 384 kbps (iTunes)
Language : Russian
Service kind : Complete Main
Default : Yes
Forced : No
Menu
00:00:00.000 : en:Глава 1
00:07:10.541 : en:Глава 2
00:13:48.707 : en:Глава 3
00:22:34.582 : en:Глава 4
00:31:37.832 : en:Глава 5
00:40:05.873 : en:Глава 6
00:49:38.998 : en:Глава 7
00:57:50.831 : en:Глава 8
01:06:07.039 : en:Глава 9
01:14:19.039 : en:Глава 10
01:22:23.247 : en:Глава 11
01:30:31.705 : en:Глава 12
01:38:47.205 : en:Глава 13

Скриншоты

     

Theseus

Post 06-Oct-2020 13:52

[Quote]

06.10.2020 перезалито на релиз без рекламы.

Theseus

Post 03-Oct-2020 11:38

[Quote]

2067: Петля времени / 2067- Год выхода: 2020
Страна: Австралия
Жанр: фантастика
Продолжительность: 01:54:27
Перевод: Любительский многоголосый | @[email protected]
Субтитры: Русские, английские-Режиссер: Сет Ларни-В ролях: Коди Смит-Макфи, Райан Квантен, Лианна Уолсмен, Дебора Мэйлман, Сана’а Шейк, Финн Литтл, Дэмиэн Уолш-Хоулинг, Энди МакФи, Аарон Гленнэйн, Мэтт Тестро-О фильме: 2067 год. Добро пожаловать в мир, где царит хаос: исчезли леса и растения, вымерли дикие животные, а люди оказались на грани вымирания из-за отсутствия кислорода.
Неожиданное послание из будущего «Отправьте Итана Уайта» — последняя надежда человечества. Кто такой Итан Уайт? Сможет ли он спасти мир?- -Качество: WEB-DL 1080p
Формат: MKV
Видео кодек: x.264
Аудио кодек: AC3
Видео: AVC, 1920x816 (2,35:1), 23.976 fps, 8083 kb/s
Аудио 1: AC-3, 48.0 kHz, 2 ch, 192 kb/s | RUS
Аудио 2: AC-3, 48.0 kHz, 6 ch, 640 kb/s | ENG-Рекламы нет-Сэмпл-

MediaInfo

Код:
Общее
Уникальный идентификатор                 : 104608505027704764095942831895137540607 (0x4EB2DD7F85014D51ABA7410BFC30D9FF)
Полное имя                               : 2067.2020.AMZN.RU.ENG.WEB-DL-1080p-MediaBit.mkv
Формат                                   : Matroska
Версия формата                           : Version 4
Размер файла                             : 7,13 Гбайт
Продолжительность                        : 1 ч. 54 м.
Общий поток                              : 8 918 Кбит/сек
Название фильма                          : 2067: Петля времени / 2067 (2020)
Дата кодирования                         : UTC 2020-10-05 23:42:05
Программа кодирования                    : mkvmerge v25.0.0 ('Prog Noir') 64-bit
Библиотека кодирования                   : libebml v1.3.6 + libmatroska v1.4.9
Видео
Идентификатор                            : 1
Формат                                   : AVC
Формат/Информация                        : Advanced Video Codec
Профиль формата                          : [email protected]
Настройки формата                        : CABAC / 4 Ref Frames
Параметр CABAC формата                   : Да
Параметр RefFrames формата               : 4 кадра
Идентификатор кодека                     : V_MPEG4/ISO/AVC
Продолжительность                        : 1 ч. 54 м.
Вид битрейта                             : Постоянный
Битрейт                                  : 8 083 Кбит/сек
Номинальный битрейт                      : 10 000 Кбит/сек
Ширина                                   : 1 920 пикселей
Высота                                   : 816 пикселей
Соотношение сторон                       : 2,35:1
Режим частоты кадров                     : Постоянный
Частота кадров                           : 23,976 (24000/1001) кадра/сек
Цветовое пространство                    : YUV
Субдискретизация насыщенности            : 4:2:0
Битовая глубина                          : 8 бит
Тип развёртки                            : Прогрессивная
Бит/(Пиксели*Кадры)                      : 0.215
Размер потока                            : 6,46 Гбайт (91%)
Заголовок                                : Tapochek
Язык                                     : English
Default                                  : Да
Forced                                   : Нет
Цветовой диапазон                        : Limited
Основные цвета                           : BT.709
Характеристики трансфера                 : BT.709
Коэффициенты матрицы                     : BT.709
Аудио #1
Идентификатор                            : 2
Формат                                   : AC-3
Формат/Информация                        : Audio Coding 3
Коммерческое название                    : Dolby Digital
Идентификатор кодека                     : A_AC3
Продолжительность                        : 1 ч. 54 м.
Вид битрейта                             : Постоянный
Битрейт                                  : 192 Кбит/сек
Каналы                                   : 2 канала
Channel layout                           : L R
Частота                                  : 48,0 КГц
Частота кадров                           : 31,250 кадров/сек (1536 SPF)
Метод сжатия                             : С потерями
Размер потока                            : 157 Мбайт (2%)
Заголовок                                : MVO [@[email protected]] MediaBit
Язык                                     : Russian
Service kind                             : Complete Main
Default                                  : Да
Forced                                   : Нет
Аудио #2
Идентификатор                            : 3
Формат                                   : AC-3
Формат/Информация                        : Audio Coding 3
Коммерческое название                    : Dolby Digital
Идентификатор кодека                     : A_AC3
Продолжительность                        : 1 ч. 54 м.
Вид битрейта                             : Постоянный
Битрейт                                  : 640 Кбит/сек
Каналы                                   : 6 каналов
Channel layout                           : L R C LFE Ls Rs
Частота                                  : 48,0 КГц
Частота кадров                           : 31,250 кадров/сек (1536 SPF)
Метод сжатия                             : С потерями
Размер потока                            : 524 Мбайт (7%)
Язык                                     : English
Service kind                             : Complete Main
Default                                  : Нет
Forced                                   : Нет
Текст #1
Идентификатор                            : 4
Формат                                   : UTF-8
Идентификатор кодека                     : S_TEXT/UTF8
Идентификатор кодека/Информация          : UTF-8 Plain Text
Продолжительность                        : 1 ч. 47 м.
Битрейт                                  : 77 бит/сек
Count of elements                        : 1248
Размер потока                            : 61,5 Кбайт (0%)
Заголовок                                : RUS (Tapochek)
Язык                                     : Russian
Default                                  : Нет
Forced                                   : Нет
Текст #2
Идентификатор                            : 5
Формат                                   : UTF-8
Идентификатор кодека                     : S_TEXT/UTF8
Идентификатор кодека/Информация          : UTF-8 Plain Text
Продолжительность                        : 1 ч. 50 м.
Битрейт                                  : 45 бит/сек
Count of elements                        : 1352
Размер потока                            : 36,8 Кбайт (0%)
Заголовок                                : SDH
Язык                                     : English
Default                                  : Нет
Forced                                   : Нет

Трейлер

-    - -
 

The time now is: Today 09:37

All times are GMT + 3 Hours