Today is a free download without charge Download

Search found 500 matches

Author Message

Theseus

Post Yesterday 23:13

[Quote]

Мидуэй / Midway- Год выхода: 2019
Страна: США, Гонконг, Канада, Китай
Жанр: Боевик, драма, военный, история
Продолжительность: 02:16:00
Перевод Дублированный [Чистый звук]
Субтитры: Корейские (хардсаб), русские (форсированные), английские-Режиссер: Роланд Эммерих-В ролях: Эд Скрейн, Патрик Уилсон, Вуди Харрельсон, Люк Эванс, Мэнди Мур, Люк Клеинтенк, Деннис Куэйд, Аарон Экхарт, Киан Джонсон, Ник Джонас-О фильме: История одного из самых масштабных и стратегически важных морских сражений на Тихом океане Второй мировой войны. В июне 1942 года американский флот под командованием адмирала Честера Нимица одержал победу над японцами в сражении у атолла Мидуэй, что стало ключевым моментом в Тихоокеанской войне.- -Качество: WEBRip 1080p
Формат: MKV
Видео кодек: x.264
Аудио кодек: AC-3
Видео: AVC, 1920x856 (2.25:1), 24.000 fps, 3 885 kb/s
Аудио 1: AC-3, 48.0 kHz, 2 ch, 192 kb/s (Russian)
Аудио 2: AC-3, 48.0 kHz, 2 ch, 192 kb/s (English)-Рекламы нет-

MediaInfo

Код:
General
Unique ID                                : 180874132946104215005844666884490235739 (0x88131743F36C3FAF8391D48658E78F5B)
Complete name                            : Мидуэй (Midway) 2019 WEB-DLRip (1080p).zxc117.mkv
Format                                   : Matroska
Format version                           : Version 4
File size                                : 4.06 GiB
Duration                                 : 2 h 16 min
Overall bit rate                         : 4 272 kb/s
Movie name                               : Мидуэй (Midway) 2019 WEB-DLRip (1080p).zxc117
Encoded date                             : UTC 2020-01-22 20:07:30
Writing application                      : mkvmerge v7.8.0 ('River Man') 32bit built on Mar 27 2015 16:18:02
Writing library                          : libebml v1.3.1 + libmatroska v1.4.2
Cover                                    : Yes
Attachments                              : Cover.jpg
Video
ID                                       : 1
Format                                   : AVC
Format/Info                              : Advanced Video Codec
Format profile                           : [email protected]
Format settings                          : CABAC / 4 Ref Frames
Format settings, CABAC                   : Yes
Format settings, ReFrames                : 4 frames
Codec ID                                 : V_MPEG4/ISO/AVC
Duration                                 : 2 h 16 min
Bit rate                                 : 3 885 kb/s
Width                                    : 1 920 pixels
Height                                   : 856 pixels
Display aspect ratio                     : 2.25:1
Frame rate mode                          : Constant
Frame rate                               : 24.000 FPS
Color space                              : YUV
Chroma subsampling                       : 4:2:0
Bit depth                                : 8 bits
Scan type                                : Progressive
Bits/(Pixel*Frame)                       : 0.098
Stream size                              : 3.69 GiB (91%)
Title                                    : Мидуэй (Midway) 2019 WEB-DLRip (1080p).zxc117
Language                                 : Russian
Default                                  : Yes
Forced                                   : No
Color range                              : Limited
Color primaries                          : BT.709
Transfer characteristics                 : BT.709
Matrix coefficients                      : BT.709
Audio #1
ID                                       : 2
Format                                   : AC-3
Format/Info                              : Audio Coding 3
Commercial name                          : Dolby Digital
Codec ID                                 : A_AC3
Duration                                 : 2 h 16 min
Bit rate mode                            : Constant
Bit rate                                 : 192 kb/s
Channel(s)                               : 2 channels
Channel layout                           : L R
Sampling rate                            : 48.0 kHz
Frame rate                               : 31.250 FPS (1536 SPF)
Bit depth                                : 16 bits
Compression mode                         : Lossy
Stream size                              : 187 MiB (4%)
Language                                 : Russian
Service kind                             : Complete Main
Default                                  : Yes
Forced                                   : Yes
Audio #2
ID                                       : 3
Format                                   : AC-3
Format/Info                              : Audio Coding 3
Commercial name                          : Dolby Digital
Codec ID                                 : A_AC3
Duration                                 : 2 h 16 min
Bit rate mode                            : Constant
Bit rate                                 : 192 kb/s
Channel(s)                               : 2 channels
Channel layout                           : L R
Sampling rate                            : 48.0 kHz
Frame rate                               : 31.250 FPS (1536 SPF)
Bit depth                                : 16 bits
Compression mode                         : Lossy
Stream size                              : 187 MiB (4%)
Language                                 : English
Service kind                             : Complete Main
Default                                  : No
Forced                                   : No
Text #1
ID                                       : 4
Format                                   : UTF-8
Codec ID                                 : S_TEXT/UTF8
Codec ID/Info                            : UTF-8 Plain Text
Duration                                 : 2 h 5 min
Bit rate                                 : 6 b/s
Count of elements                        : 84
Stream size                              : 5.61 KiB (0%)
Title                                    : forsed
Language                                 : Russian
Default                                  : Yes
Forced                                   : Yes
Text #2
ID                                       : 5
Format                                   : UTF-8
Codec ID                                 : S_TEXT/UTF8
Codec ID/Info                            : UTF-8 Plain Text
Duration                                 : 2 h 6 min
Bit rate                                 : 41 b/s
Count of elements                        : 1397
Stream size                              : 38.8 KiB (0%)
Language                                 : English
Default                                  : No
Forced                                   : No

Трейлер

-     -

Theseus

Post 17-Jan-2020 16:12

[Quote]

Терминатор: Темные судьбы | Terminator: Dark Fate- Год выхода: 2019
Страна: США, Китай
Жанр: Фантастика, боевик, приключения
Продолжительность: 02:08:06
Перевод Любительский (двухголосый, закадровый) | LakeFilms
Субтитры: Английские-Режиссер: Тим Миллер-В ролях: Линда Хэмилтон, Арнольд Шварценеггер, Маккензи Дэвис, Наталия Рейес, Гэбриел Луна, Диего Бонета, Алисия Боррачеро, Энрике Арсе, Стивен Кри, Ферран Фернандес-О фильме: Сара Коннор превратилась в настоящую охотницу за терминаторами и теперь занимается уничтожением роботов-убийц из будущего. Она считала, что главное - это не дать им добраться до Джона, но теперь появилась Дани Рамос, от выживания которой также зависит судьба человечества. Вместе с ней в бой вступает и загадочная девушка Грейс, смесь человека и машины.- -Качество: WEBRip 2160p (Amazon 4K)
Формат: MKV
Видео кодек: x.264
Аудио кодек: AC3
Видео: AVC, 3840x1600 (2.40:1), 23.976 fps, 32,7 Mbps
Аудио 1: 48 kHz, AC3, 2 ch, 256 kbps | RUS
Аудио 2: 48 kHz, E-AC3, 6 ch, 640 kbps | ENG-Рекламы нет | Сэмпл-

MediaInfo

Код:
General
Complete name                            : \Терминатор-Тёмные судьбы_Terminator-Dark Fate (2019) WEBRip.H.264.2160p.NNMClub.mkv
Format                                   : Matroska
Format version                           : Version 4
File size                                : 30.1 GiB
Duration                                 : 2 h 8 min
Overall bit rate                         : 33.6 Mb/s
Movie name                               : Терминатор: Тёмные судьбы_Terminator: Dark Fate (2019) WEBRip.H.264.2160p.NNMClub
Encoded date                             : UTC 2020-01-17 07:54:15
Writing application                      : mkvmerge v40.0.0 ('Old Town Road + Pony') 64-bit
Writing library                          : libebml v1.3.9 + libmatroska v1.5.2
Video
ID                                       : 1
Format                                   : AVC
Format/Info                              : Advanced Video Codec
Format profile                           : [email protected]
Format settings                          : CABAC / 7 Ref Frames
Format settings, CABAC                   : Yes
Format settings, Reference frames        : 7 frames
Codec ID                                 : V_MPEG4/ISO/AVC
Duration                                 : 2 h 8 min
Bit rate                                 : 32.7 Mb/s
Width                                    : 3 840 pixels
Height                                   : 1 600 pixels
Display aspect ratio                     : 2.40:1
Frame rate mode                          : Constant
Frame rate                               : 23.976 (24000/1001) FPS
Color space                              : YUV
Chroma subsampling                       : 4:2:0
Bit depth                                : 8 bits
Scan type                                : Progressive
Bits/(Pixel*Frame)                       : 0.222
Stream size                              : 29.3 GiB (97%)
Title                                    : Terminator: Dark Fate 2019 2160p WEBRip DD+5.1 x264-AJP69
Writing library                          : x264 core 158 r2984 3759fcb
Encoding settings                        : cabac=1 / ref=7 / deblock=1:-3:-3 / analyse=0x3:0x133 / me=umh / subme=10 / psy=1 / psy_rd=1.00:0.00 / mixed_ref=1 / me_range=48 / chroma_me=1 / trellis=2 / 8x8dct=1 / cqm=0 / deadzone=21,11 / fast_pskip=0 / chroma_qp_offset=-2 / threads=24 / lookahead_threads=4 / sliced_threads=0 / nr=0 / decimate=0 / interlaced=0 / bluray_compat=0 / constrained_intra=0 / bframes=8 / b_pyramid=2 / b_adapt=2 / b_bias=0 / direct=3 / weightb=1 / open_gop=0 / weightp=2 / keyint=250 / keyint_min=23 / scenecut=40 / intra_refresh=0 / rc=crf / mbtree=0 / crf=20.0 / qcomp=0.60 / qpmin=0 / qpmax=69 / qpstep=4 / ip_ratio=1.30 / pb_ratio=1.20 / aq=3:0.80
Language                                 : English
Default                                  : Yes
Forced                                   : No
Audio #1
ID                                       : 2
Format                                   : AC-3
Format/Info                              : Audio Coding 3
Commercial name                          : Dolby Digital
Codec ID                                 : A_AC3
Duration                                 : 2 h 8 min
Bit rate mode                            : Constant
Bit rate                                 : 256 kb/s
Channel(s)                               : 2 channels
Channel layout                           : L R
Sampling rate                            : 44.1 kHz
Frame rate                               : 28.711 FPS (1536 SPF)
Compression mode                         : Lossy
Stream size                              : 235 MiB (1%)
Title                                    : Любительский двухголосый (LakeFilms)
Language                                 : Russian
Service kind                             : Complete Main
Default                                  : Yes
Forced                                   : No
Audio #2
ID                                       : 3
Format                                   : E-AC-3
Format/Info                              : Enhanced AC-3
Commercial name                          : Dolby Digital Plus
Codec ID                                 : A_EAC3
Duration                                 : 2 h 8 min
Bit rate mode                            : Constant
Bit rate                                 : 640 kb/s
Channel(s)                               : 6 channels
Channel layout                           : L R C LFE Ls Rs
Sampling rate                            : 48.0 kHz
Frame rate                               : 31.250 FPS (1536 SPF)
Compression mode                         : Lossy
Stream size                              : 586 MiB (2%)
Title                                    : Оригинал
Language                                 : English
Service kind                             : Complete Main
Default                                  : No
Forced                                   : No
Text #1
ID                                       : 4
Format                                   : UTF-8
Codec ID                                 : S_TEXT/UTF8
Codec ID/Info                            : UTF-8 Plain Text
Duration                                 : 1 h 57 min
Bit rate                                 : 32 b/s
Count of elements                        : 1121
Stream size                              : 27.9 KiB (0%)
Title                                    : Full
Language                                 : English
Default                                  : No
Forced                                   : No
Text #2
ID                                       : 5
Format                                   : UTF-8
Codec ID                                 : S_TEXT/UTF8
Codec ID/Info                            : UTF-8 Plain Text
Duration                                 : 1 h 57 min
Bit rate                                 : 39 b/s
Count of elements                        : 1430
Stream size                              : 33.6 KiB (0%)
Title                                    : SDH
Language                                 : English
Default                                  : No
Forced                                   : No

Трейлер

-    -

Theseus

Post 17-Jan-2020 16:09

[Quote]

Терминатор: Темные судьбы | Terminator: Dark Fate- Год выхода: 2019
Страна: США, Китай
Жанр: Фантастика, боевик, приключения
Продолжительность: 02:08:06
Перевод Любительский (двухголосый, закадровый) | LakeFilms
Субтитры: Английские-Режиссер: Тим Миллер-В ролях: Линда Хэмилтон, Арнольд Шварценеггер, Маккензи Дэвис, Наталия Рейес, Гэбриел Луна, Диего Бонета, Алисия Боррачеро, Энрике Арсе, Стивен Кри, Ферран Фернандес-О фильме: Сара Коннор превратилась в настоящую охотницу за терминаторами и теперь занимается уничтожением роботов-убийц из будущего. Она считала, что главное - это не дать им добраться до Джона, но теперь появилась Дани Рамос, от выживания которой также зависит судьба человечества. Вместе с ней в бой вступает и загадочная девушка Грейс, смесь человека и машины.- -Качество: WEBRip 2160p
Формат: MKV
Видео кодек: H.265
Аудио кодек: AC3
Видео: HEVC, 3840x1600 (2.40:1), 23.976 fps, 9995 Kbps
Аудио 1: 48 kHz, AC3, 2 ch, 256 kbps | RUS
Аудио 2: 48 kHz, E-AC3, 6 ch, 640 kbps | ENG-Рекламы нет-

MediaInfo

Код:
Format                      : Matroska
Format version              : Version 4
File size                   : 9.75 GiB
Duration                    : 2 h 8 min
Overall bit rate            : 10.9 Mb/s
Encoded date                : UTC 2020-01-16 22:51:22
Writing application         : mkvmerge v7.8.0 ('River Man') 32bit built on Mar 27 2015 16:18:02
Writing library             : libebml v1.3.1 + libmatroska v1.4.2
Cover                       : Yes
Attachments                 : Cover.jpg
Video
ID                          : 1
Format                      : HEVC
Format/Info                 : High Efficiency Video Coding
Format profile              : Main [email protected]@High
Codec ID                    : V_MPEGH/ISO/HEVC
Duration                    : 2 h 8 min
Bit rate                    : 9 995 kb/s
Width                       : 3 840 pixels
Height                      : 1 600 pixels
Display aspect ratio        : 2.40:1
Frame rate mode             : Constant
Frame rate                  : 23.976 (24000/1001) FPS
Color space                 : YUV
Chroma subsampling          : 4:2:0
Bit depth                   : 10 bits
Bits/(Pixel*Frame)          : 0.068
Stream size                 : 8.94 GiB (92%)
Language                    : Russian
Default                     : Yes
Forced                      : No
Color range                 : Limited
Color primaries             : BT.709
Transfer characteristics    : BT.709
Matrix coefficients         : BT.709
Audio #1
ID                          : 2
Format                      : AC-3
Format/Info                 : Audio Coding 3
Commercial name             : Dolby Digital
Codec ID                    : A_AC3
Duration                    : 2 h 8 min
Bit rate mode               : Constant
Bit rate                    : 256 kb/s
Channel(s)                  : 2 channels
Channel layout              : L R
Sampling rate               : 44.1 kHz
Frame rate                  : 28.711 FPS (1536 SPF)
Compression mode            : Lossy
Stream size                 : 235 MiB (2%)
Language                    : Russian
Service kind                : Complete Main
Default                     : Yes
Forced                      : Yes
Audio #2
ID                          : 3
Format                      : E-AC-3
Format/Info                 : Enhanced AC-3
Commercial name             : Dolby Digital Plus
Codec ID                    : A_EAC3
Duration                    : 2 h 8 min
Bit rate mode               : Constant
Bit rate                    : 640 kb/s
Channel(s)                  : 6 channels
Channel layout              : L R C LFE Ls Rs
Sampling rate               : 48.0 kHz
Frame rate                  : 31.250 FPS (1536 SPF)
Compression mode            : Lossy
Stream size                 : 586 MiB (6%)
Language                    : English
Service kind                : Complete Main
Default                     : No
Forced                      : No
Text #1
ID                          : 4
Format                      : UTF-8
Codec ID                    : S_TEXT/UTF8
Codec ID/Info               : UTF-8 Plain Text
Duration                    : 1 h 57 min
Bit rate                    : 32 b/s
Count of elements           : 1121
Stream size                 : 27.9 KiB (0%)
Language                    : English
Default                     : No
Forced                      : No
Text #2
ID                          : 5
Format                      : UTF-8
Codec ID                    : S_TEXT/UTF8
Codec ID/Info               : UTF-8 Plain Text
Duration                    : 1 h 57 min
Bit rate                    : 39 b/s
Count of elements           : 1430
Stream size                 : 33.6 KiB (0%)
Title                       : SDH
Language                    : English
Default                     : No
Forced                      : No
Menu
00:00:00.000                : en:00:00:00.000
00:04:19.843                : en:00:04:19.843
00:07:48.927                : en:00:07:48.927
00:11:47.916                : en:00:11:47.916
00:16:56.349                : en:00:16:56.349
00:22:10.663                : en:00:22:10.663
00:29:00.614                : en:00:29:00.614
00:33:25.754                : en:00:33:25.754
00:41:35.493                : en:00:41:35.493
00:47:02.695                : en:00:47:02.695
00:53:08.936                : en:00:53:08.936
00:57:56.807                : en:00:57:56.807
01:05:02.690                : en:01:05:02.690
01:13:07.967                : en:01:13:07.967
01:20:45.591                : en:01:20:45.591
01:27:29.744                : en:01:27:29.744
01:32:48.688                : en:01:32:48.688
01:41:45.850                : en:01:41:45.850
01:49:35.319                : en:01:49:35.319
01:57:58.613                : en:01:57:58.613

Трейлер

-    -

Theseus

Post 17-Jan-2020 16:08

[Quote]

Терминатор: Темные судьбы | Terminator: Dark Fate- Год выхода: 2019
Страна: США, Китай
Жанр: Фантастика, боевик, приключения
Продолжительность: 02:08:06
Перевод Любительский (двухголосый, закадровый) | LakeFilms
Субтитры: Английские-Режиссер: Тим Миллер-В ролях: Линда Хэмилтон, Арнольд Шварценеггер, Маккензи Дэвис, Наталия Рейес, Гэбриел Луна, Диего Бонета, Алисия Боррачеро, Энрике Арсе, Стивен Кри, Ферран Фернандес-О фильме: Сара Коннор превратилась в настоящую охотницу за терминаторами и теперь занимается уничтожением роботов-убийц из будущего. Она считала, что главное - это не дать им добраться до Джона, но теперь появилась Дани Рамос, от выживания которой также зависит судьба человечества. Вместе с ней в бой вступает и загадочная девушка Грейс, смесь человека и машины.- -Качество: BDRip 1080p
Формат: MKV
Видео кодек: x.264
Аудио кодек: AC3
Видео: AVC, 1920x808 (2.40:1), 23.976 fps, 9134 Kbps
Аудио 1: 48 kHz, AC3, 2 ch, 256 kbps | RUS
Аудио 2: 48 kHz, AC3, 6 ch, 640 kbps | ENG-Рекламы нет-

MediaInfo

Источник: Terminator.Dark.Fate.2019.1080p.BluRay.x264-SPARKS
Код:
General
Unique ID : 229776322507808953276651277827039197312 (0xACDD4F5C598F733B8D8FF3EE04327880)
Complete name : Terminator.Dark.Fate.2019.BDRip.1080p.mkv
Format : Matroska
Format version : Version 4
File size : 8.97 GiB
Duration : 2 h 8 min
Overall bit rate : 10.0 Mb/s
Encoded date : UTC 2020-01-16 20:17:10
Writing application : mkvmerge v7.1.0 ('Good Love') 64bit built on Jul 27 2014 13:06:55
Writing library : libebml v1.3.0 + libmatroska v1.4.1
Video
ID : 1
Format : AVC
Format/Info : Advanced Video Codec
Format profile : [email protected]
Format settings : CABAC / 5 Ref Frames
Format settings, CABAC : Yes
Format settings, Reference fra : 5 frames
Codec ID : V_MPEG4/ISO/AVC
Duration : 2 h 8 min
Bit rate : 9 134 kb/s
Width : 1 920 pixels
Height : 808 pixels
Display aspect ratio : 2.40:1
Frame rate mode : Constant
Frame rate : 23.976 (24000/1001) FPS
Color space : YUV
Chroma subsampling : 4:2:0
Bit depth : 8 bits
Scan type : Progressive
Bits/(Pixel*Frame) : 0.246
Stream size : 8.17 GiB (91%)
Writing library : x264 core 159 r2991 1771b55
Encoding settings : cabac=1 / ref=5 / deblock=1:-3:-3 / analyse=0x3:0x113 / me=umh / subme=8 / psy=1 / psy_rd=1.00:0.00 / mixed_ref=1 / me_range=16 / chroma_me=1 / trellis=1 / 8x8dct=1 / cqm=0 / deadzone=21,11 / fast_pskip=1 / chroma_qp_offset=-2 / threads=25 / lookahead_threads=4 / sliced_threads=0 / nr=0 / decimate=1 / interlaced=0 / bluray_compat=0 / constrained_intra=0 / bframes=3 / b_pyramid=2 / b_adapt=1 / b_bias=0 / direct=3 / weightb=1 / open_gop=0 / weightp=2 / keyint=250 / keyint_min=23 / scenecut=40 / intra_refresh=0 / rc_lookahead=50 / rc=2pass / mbtree=1 / bitrate=9134 / ratetol=1.0 / qcomp=0.60 / qpmin=0 / qpmax=69 / qpstep=4 / cplxblur=20.0 / qblur=0.5 / ip_ratio=1.40 / aq=1:1.00
Language : English
Default : Yes
Forced : No
Audio #1
ID : 2
Format : AC-3
Format/Info : Audio Coding 3
Commercial name : Dolby Digital
Codec ID : A_AC3
Duration : 2 h 8 min
Bit rate mode : Constant
Bit rate : 256 kb/s
Channel(s) : 2 channels
Channel layout : L R
Sampling rate : 48.0 kHz
Frame rate : 31.250 FPS (1536 SPF)
Compression mode : Lossy
Stream size : 235 MiB (3%)
Title : LakeFilms
Language : Russian
Service kind : Complete Main
Default : Yes
Forced : No
Audio #2
ID : 3
Format : AC-3
Format/Info : Audio Coding 3
Commercial name : Dolby Digital
Codec ID : A_AC3
Duration : 2 h 8 min
Bit rate mode : Constant
Bit rate : 640 kb/s
Channel(s) : 6 channels
Channel layout : L R C LFE Ls Rs
Sampling rate : 48.0 kHz
Frame rate : 31.250 FPS (1536 SPF)
Compression mode : Lossy
Stream size : 586 MiB (6%)
Language : English
Service kind : Complete Main
Default : No
Forced : No
Text #1
ID : 4
Format : UTF-8
Codec ID : S_TEXT/UTF8
Codec ID/Info : UTF-8 Plain Text
Duration : 1 h 57 min
Bit rate : 32 b/s
Count of elements : 1121
Stream size : 27.9 KiB (0%)
Language : English
Default : No
Forced : No
Text #2
ID : 5
Format : UTF-8
Codec ID : S_TEXT/UTF8
Codec ID/Info : UTF-8 Plain Text
Duration : 1 h 57 min
Bit rate : 39 b/s
Count of elements : 1430
Stream size : 33.6 KiB (0%)
Title : SDH
Language : English
Default : No
Forced : No
Menu
00:00:00.000 : en:00:00:00.000
00:04:19.843 : en:00:04:19.843
00:07:48.927 : en:00:07:48.927
00:11:47.916 : en:00:11:47.916
00:16:56.349 : en:00:16:56.349
00:22:10.663 : en:00:22:10.663
00:29:00.614 : en:00:29:00.614
00:33:25.754 : en:00:33:25.754
00:41:35.493 : en:00:41:35.493
00:47:02.695 : en:00:47:02.695
00:53:08.936 : en:00:53:08.936
00:57:56.807 : en:00:57:56.807
01:05:02.690 : en:01:05:02.690
01:13:07.967 : en:01:13:07.967
01:20:45.591 : en:01:20:45.591
01:27:29.744 : en:01:27:29.744
01:32:48.688 : en:01:32:48.688
01:41:45.850 : en:01:41:45.850
01:49:35.319 : en:01:49:35.319
01:57:58.613 : en:01:57:58.613

Трейлер

-     -

Орлов Владимир

Post 31-Dec-2019 02:23

[Quote]

--Малефисента: Владычица тьмы / Maleficent: Mistress of Evil --
Информация о фильме
Название: Малефисента: Владычица тьмы
Оригинальное название: Maleficent: Mistress of Evil
Год выпуска: 2019
Жанр: Фэнтези, приключения, семейный
Режиссер: Хоаким Роннинг--В ролях: Анджелина Джоли, Элль Фэннинг, Харрис Дикинсон, Мишель Пфайффер, Сэм Райли, Чиветел Эджиофор, Эд Скрейн, Роберт Линдсей, Дэвид Гяси, Дженн Мюррэй--О фильме:
Действие происходит через несколько лет после того, как Малефисента наложила злые чары на принцессу Аврору. Фильм рассказывает про сложную взаимосвязь между тёмной феей и будущей королевой, о новых союзниках и противниках в деле защиты волшебного леса и магических существах, которые в нем обитают.-- --Страна: США, Великобритания
Студия: Roth Films, Walt Disney Pictures
Продолжительность: 01:58:49
Перевод: Дублированный iTunes--Файл
Качество: WEB-DL 1080p
Видео: MPEG-4 AVC, 1916x802, 4483 Kbit/s, 23.976 fps
Аудио #01: 48 kHz, AC3, 5.1, 384 Kbps | iTunes | RUS |
Аудио #02: 48 kHz, AC3, 5.1, 384 Kbps | Оригинал | ENG |
Субтитры: Русские (Full, SDH), английские--

Скриншоты

         

Тех.данные видеофайла

General
Unique ID : 155439555880066977275514118626805361812 (0x74F091CC23A46085601CD59DFE312C94)
Complete name : E:Video111Maleficent.Mistress.of.Evil.2019.WEB-DL.1080p.seleZen.mkv
Format : Matroska
Format version : Version 4
File size : 4.36 GiB
Duration : 1 h 58 min
Overall bit rate : 5 254 kb/s
Movie name : Maleficent Mistress of Evil 2019 from селезень
Encoded date : UTC 2019-12-30 20:00:53
Writing application : mkvmerge v40.0.0 ('Old Town Road + Pony') 64-bit
Writing library : libebml v1.3.9 + libmatroska v1.5.2
Video
ID : 1
Format : AVC
Format/Info : Advanced Video Codec
Format profile : [email protected]
Format settings : CABAC / 5 Ref Frames
Format settings, CABAC : Yes
Format settings, Reference : 5 frames
Codec ID : V_MPEG4/ISO/AVC
Duration : 1 h 58 min
Bit rate : 4 483 kb/s
Width : 1 916 pixels
Height : 802 pixels
Display aspect ratio : 2.40:1
Frame rate mode : Constant
Frame rate : 23.976 (24000/1001) FPS
Color space : YUV
Chroma subsampling : 4:2:0
Bit depth : 8 bits
Scan type : Progressive
Bits/(Pixel*Frame) : 0.122
Stream size : 3.72 GiB (85%)
Language : English
Default : Yes
Forced : No
Color range : Limited
Color primaries : BT.709
Transfer characteristics : BT.709
Matrix coefficients : BT.709
Audio #1
ID : 2
Format : AC-3
Format/Info : Audio Coding 3
Commercial name : Dolby Digital
Codec ID : A_AC3
Duration : 1 h 58 min
Bit rate mode : Constant
Bit rate : 384 kb/s
Channel(s) : 6 channels
Channel layout : L R C LFE Ls Rs
Sampling rate : 48.0 kHz
Frame rate : 31.250 FPS (1536 SPF)
Compression mode : Lossy
Stream size : 326 MiB (7%)
Title : iTunes
Language : Russian
Service kind : Complete Main
Default : Yes
Forced : Yes
Audio #2
ID : 3
Format : AC-3
Format/Info : Audio Coding 3
Commercial name : Dolby Digital
Codec ID : A_AC3
Duration : 1 h 58 min
Bit rate mode : Constant
Bit rate : 384 kb/s
Channel(s) : 6 channels
Channel layout : L R C LFE Ls Rs
Sampling rate : 48.0 kHz
Frame rate : 31.250 FPS (1536 SPF)
Compression mode : Lossy
Stream size : 326 MiB (7%)
Title : Original
Language : English
Service kind : Complete Main
Default : No
Forced : No
Text #1
ID : 4
Format : UTF-8
Codec ID : S_TEXT/UTF8
Codec ID/Info : UTF-8 Plain Text
Duration : 1 h 57 min
Bit rate : 47 b/s
Count of elements : 1011
Stream size : 40.5 KiB (0%)
Title : Full
Language : Russian
Default : No
Forced : No
Text #2
ID : 5
Format : UTF-8
Codec ID : S_TEXT/UTF8
Codec ID/Info : UTF-8 Plain Text
Duration : 1 h 50 min
Bit rate : 69 b/s
Count of elements : 1560
Stream size : 56.3 KiB (0%)
Title : SDH
Language : Russian
Default : No
Forced : No
Text #3
ID : 6
Format : UTF-8
Codec ID : S_TEXT/UTF8
Codec ID/Info : UTF-8 Plain Text
Duration : 1 h 49 min
Bit rate : 31 b/s
Count of elements : 1021
Stream size : 25.5 KiB (0%)
Title : Full
Language : English
Default : No
Forced : No
Menu
00:00:00.000 : en:1
00:06:47.240 : en:2
00:09:11.008 : en:3
00:14:44.883 : en:4
00:19:27.164 : en:5
00:23:09.885 : en:6
00:33:51.233 : en:7
00:39:09.593 : en:8
00:42:18.906 : en:9
00:48:31.319 : en:10
00:52:44.070 : en:11
00:57:14.465 : en:12
00:59:25.470 : en:13
01:05:46.893 : en:14
01:09:31.074 : en:15
01:19:06.566 : en:16
01:22:47.870 : en:17
01:29:08.541 : en:18
01:34:59.975 : en:19
01:44:25.832 : en:20
01:51:06.315 : en:21

Орлов Владимир

Post 31-Dec-2019 02:18

[Quote]

-- Малефисента: Владычица тьмы / Maleficent: Mistress of Evil--
Информация о фильме
Название: Малефисента: Владычица тьмы
Оригинальное название: Maleficent: Mistress of Evil
Год выпуска: 2019
Жанр: Фэнтези, приключения, семейный
Режиссер: Хоаким Роннинг--В ролях: Анджелина Джоли, Элль Фэннинг, Харрис Дикинсон, Мишель Пфайффер, Сэм Райли, Чиветел Эджиофор, Эд Скрейн, Роберт Линдсей, Дэвид Гяси, Дженн Мюррэй--О фильме:
Действие происходит через несколько лет после того, как Малефисента наложила злые чары на принцессу Аврору. Фильм рассказывает про сложную взаимосвязь между тёмной феей и будущей королевой, о новых союзниках и противниках в деле защиты волшебного леса и магических существах, которые в нем обитают.-- --Страна: США, Великобритания
Студия: Roth Films, Walt Disney Pictures
Продолжительность: 01:58:49
Перевод: Дублированный iTunes--Файл
Качество: WEB-DL 720p
Видео: MPEG-4 AVC, 1280x536, 4000 Kbit/s, 23.976 fps
Аудио #01: 48 kHz, AC3, 5.1, 384 Kbps | iTunes | RUS |
Аудио #02: 48 kHz, AC3, 5.1, 384 Kbps | Оригинал | ENG |
Субтитры: Русские (Full, SDH), английские--

Скриншоты

         

Тех.данные видеофайла

General
Unique ID : 56082598417527386014987136257814172805 (0x2A311D95AD3FC381770B7BA8F3A41485)
Complete name : E:Video111Maleficent.Mistress.of.Evil.2019.WEB-DL.720p.seleZen.mkv
Format : Matroska
Format version : Version 4
File size : 3.96 GiB
Duration : 1 h 58 min
Overall bit rate : 4 770 kb/s
Movie name : Maleficent Mistress of Evil 2019 from селезень
Encoded date : UTC 2019-12-30 20:09:42
Writing application : mkvmerge v40.0.0 ('Old Town Road + Pony') 64-bit
Writing library : libebml v1.3.9 + libmatroska v1.5.2
Video
ID : 1
Format : AVC
Format/Info : Advanced Video Codec
Format profile : [email protected]
Format settings : 2 Ref Frames
Format settings, CABAC : No
Format settings, Reference : 2 frames
Codec ID : V_MPEG4/ISO/AVC
Duration : 1 h 58 min
Bit rate : 4 000 kb/s
Width : 1 280 pixels
Height : 536 pixels
Display aspect ratio : 2.40:1
Frame rate mode : Constant
Frame rate : 23.976 (24000/1001) FPS
Color space : YUV
Chroma subsampling : 4:2:0
Bit depth : 8 bits
Scan type : Progressive
Bits/(Pixel*Frame) : 0.243
Stream size : 3.32 GiB (84%)
Language : English
Default : Yes
Forced : No
Color range : Limited
Color primaries : BT.709
Transfer characteristics : BT.709
Matrix coefficients : BT.709
Audio #1
ID : 2
Format : AC-3
Format/Info : Audio Coding 3
Commercial name : Dolby Digital
Codec ID : A_AC3
Duration : 1 h 58 min
Bit rate mode : Constant
Bit rate : 384 kb/s
Channel(s) : 6 channels
Channel layout : L R C LFE Ls Rs
Sampling rate : 48.0 kHz
Frame rate : 31.250 FPS (1536 SPF)
Compression mode : Lossy
Stream size : 326 MiB (8%)
Title : iTunes
Language : Russian
Service kind : Complete Main
Default : Yes
Forced : Yes
Audio #2
ID : 3
Format : AC-3
Format/Info : Audio Coding 3
Commercial name : Dolby Digital
Codec ID : A_AC3
Duration : 1 h 58 min
Bit rate mode : Constant
Bit rate : 384 kb/s
Channel(s) : 6 channels
Channel layout : L R C LFE Ls Rs
Sampling rate : 48.0 kHz
Frame rate : 31.250 FPS (1536 SPF)
Compression mode : Lossy
Stream size : 326 MiB (8%)
Title : Original
Language : English
Service kind : Complete Main
Default : No
Forced : No
Text #1
ID : 4
Format : UTF-8
Codec ID : S_TEXT/UTF8
Codec ID/Info : UTF-8 Plain Text
Duration : 1 h 57 min
Bit rate : 47 b/s
Count of elements : 1011
Stream size : 40.5 KiB (0%)
Title : Full
Language : Russian
Default : No
Forced : No
Text #2
ID : 5
Format : UTF-8
Codec ID : S_TEXT/UTF8
Codec ID/Info : UTF-8 Plain Text
Duration : 1 h 50 min
Bit rate : 69 b/s
Count of elements : 1560
Stream size : 56.3 KiB (0%)
Title : SDH
Language : Russian
Default : No
Forced : No
Text #3
ID : 6
Format : UTF-8
Codec ID : S_TEXT/UTF8
Codec ID/Info : UTF-8 Plain Text
Duration : 1 h 49 min
Bit rate : 31 b/s
Count of elements : 1021
Stream size : 25.5 KiB (0%)
Title : Full
Language : English
Default : No
Forced : No
Menu
00:00:00.000 : en:1
00:06:47.240 : en:2
00:09:11.008 : en:3
00:14:44.883 : en:4
00:19:27.164 : en:5
00:23:09.885 : en:6
00:33:51.233 : en:7
00:39:09.593 : en:8
00:42:18.906 : en:9
00:48:31.319 : en:10
00:52:44.070 : en:11
00:57:14.465 : en:12
00:59:25.470 : en:13
01:05:46.893 : en:14
01:09:31.074 : en:15
01:19:06.566 : en:16
01:22:47.870 : en:17
01:29:08.541 : en:18
01:34:59.975 : en:19
01:44:25.832 : en:20
01:51:06.315 : en:21

Орлов Владимир

Post 31-Dec-2019 00:05

[Quote]

--Чёрный и синий / Black and Blue--
Информация о фильме
Название: Чёрный и синий
Оригинальное название: Black and Blue
Год выхода: 2019
Жанр: Боевик, риллер, драма, криминал
Режиссер: Деон Тейлор--В ролях: Майк Колтер, Фрэнк Грилло, Рейд Скотт, Наоми Харрис, Бо Напп, Тайриз Гибсон, Кеннет Кинт Брайан, Нафиса Уильямс, Майкл Пападжон, Нельсон Бонилья--О фильме: Камера закрепленная на теле полицейской-новобранца из Детройта фиксирует факты коррупционных связей местной полиции и криминальных банд. И теперь, чтобы уничтожить отснятый материал, на главную героиню устраивают масштабную облаву.-- --Страна: США
Студия: Hidden Empire Film Group, Royal Viking Entertainment, Screen Gems
Продолжительность: 01:47:55
Перевод: Профессиональный многоголосый iTunes--Качество: WEB-DL 1080p
Видео: MPEG-4 AVC, 1920x796, 4694 Кbit/s, 23.976 fps
Аудио #01: 48 kHz, AC3, 2.0, 160 Kbps | iTunes | RUS |
Аудио #02: 48 kHz, AAC, 2.0, 127 Kbps | iTunes | RUS |
Аудио #03: 48 kHz, AC3, 5.1, 384 Kbps | Оригинал | ENG |
Субтитры: Русские (Full), украинские (Full), английские--

Скриншоты

           

MI

General
Unique ID : 110042827821701097010417697955660354585 (0x52C97A4C4BCE11CB94E437586812D419)
Complete name : E:Video111Black.and.Blue.2019.WEB-DL.1080p.seleZen.mkv
Format : Matroska
Format version : Version 4
File size : 4.05 GiB
Duration : 1 h 47 min
Overall bit rate : 5 367 kb/s
Movie name : Black and Blue 2019 from селезень
Encoded date : UTC 2019-12-30 17:54:19
Writing application : mkvmerge v40.0.0 ('Old Town Road + Pony') 64-bit
Writing library : libebml v1.3.9 + libmatroska v1.5.2
Video
ID : 1
Format : AVC
Format/Info : Advanced Video Codec
Format profile : [email protected]
Format settings : CABAC / 5 Ref Frames
Format settings, CABAC : Yes
Format settings, Reference : 5 frames
Codec ID : V_MPEG4/ISO/AVC
Duration : 1 h 47 min
Bit rate : 4 694 kb/s
Width : 1 920 pixels
Height : 796 pixels
Display aspect ratio : 2.40:1
Frame rate mode : Constant
Frame rate : 23.976 (24000/1001) FPS
Color space : YUV
Chroma subsampling : 4:2:0
Bit depth : 8 bits
Scan type : Progressive
Bits/(Pixel*Frame) : 0.128
Stream size : 3.54 GiB (87%)
Language : English
Default : Yes
Forced : No
Color range : Limited
Color primaries : BT.709
Transfer characteristics : BT.709
Matrix coefficients : BT.709
Audio #1
ID : 2
Format : AC-3
Format/Info : Audio Coding 3
Commercial name : Dolby Digital
Codec ID : A_AC3
Duration : 1 h 47 min
Bit rate mode : Constant
Bit rate : 160 kb/s
Channel(s) : 2 channels
Channel layout : L R
Sampling rate : 48.0 kHz
Frame rate : 31.250 FPS (1536 SPF)
Compression mode : Lossy
Stream size : 124 MiB (3%)
Title : iTunes
Language : Russian
Service kind : Complete Main
Default : Yes
Forced : Yes
Audio #2
ID : 3
Format : AAC LC
Format/Info : Advanced Audio Codec Low Complexity
Codec ID : A_AAC-2
Duration : 1 h 47 min
Bit rate : 127 kb/s
Channel(s) : 2 channels
Channel layout : L R
Sampling rate : 48.0 kHz
Frame rate : 46.875 FPS (1024 SPF)
Compression mode : Lossy
Stream size : 97.7 MiB (2%)
Title : iTunes
Language : Russian
Default : No
Forced : No
Audio #3
ID : 4
Format : AC-3
Format/Info : Audio Coding 3
Commercial name : Dolby Digital
Codec ID : A_AC3
Duration : 1 h 47 min
Bit rate mode : Constant
Bit rate : 384 kb/s
Channel(s) : 6 channels
Channel layout : L R C LFE Ls Rs
Sampling rate : 48.0 kHz
Frame rate : 31.250 FPS (1536 SPF)
Compression mode : Lossy
Stream size : 296 MiB (7%)
Title : Original
Language : English
Service kind : Complete Main
Default : No
Forced : No
Text #1
ID : 5
Format : UTF-8
Codec ID : S_TEXT/UTF8
Codec ID/Info : UTF-8 Plain Text
Duration : 1 h 47 min
Bit rate : 64 b/s
Count of elements : 1251
Stream size : 51.2 KiB (0%)
Title : Full
Language : Russian
Default : No
Forced : No
Text #2
ID : 6
Format : UTF-8
Codec ID : S_TEXT/UTF8
Codec ID/Info : UTF-8 Plain Text
Duration : 1 h 47 min
Bit rate : 67 b/s
Count of elements : 1263
Stream size : 53.3 KiB (0%)
Title : Full
Language : Ukrainian
Default : No
Forced : No
Text #3
ID : 7
Format : UTF-8
Codec ID : S_TEXT/UTF8
Codec ID/Info : UTF-8 Plain Text
Duration : 1 h 43 min
Bit rate : 51 b/s
Count of elements : 1245
Stream size : 38.6 KiB (0%)
Title : Full
Language : English
Default : No
Forced : No
Menu
00:00:00.000 : en:1
00:05:25.283 : en:2
00:10:35.885 : en:3
00:16:37.579 : en:4
00:23:31.993 : en:5
00:30:24.530 : en:6
00:39:07.885 : en:7
00:47:22.671 : en:8
00:55:03.172 : en:9
01:01:53.539 : en:10
01:09:41.590 : en:11
01:17:40.776 : en:12
01:21:46.145 : en:13
01:24:40.360 : en:14
01:30:22.701 : en:15
01:40:19.963 : en:16

Орлов Владимир

Post 29-Dec-2019 21:47

[Quote]

--Кто твоя бабушка, чувак? / C'est quoi cette mamie?!--
Информация о фильме
Название: Кто твоя бабушка, чувак?
Оригинальное название: C'est quoi cette mamie?!
Год выхода: 2019
Жанр: комедия
Режиссер: Габриэль Жюльен-Лаферье--В ролях: Шанталь Ладезу, Жюли Гайе, Тьерри Нёвик, Жюли Депардье, Люсьен Жан-Батист, Клаудия Тагбо, Филипп Катрин, Арие Эльмалех, Нино Киртадзе, Садио Диалло--О фильме: Аврора наслаждается богатой жизнью в своих апартаментах на Лазурном Берегу во Франции. Вечеринки, друзья, путешествия, и самое важное - свое расписание дня. В один день дочери отправляют погостить к ней семь внуков от 6-ти до 18 лет.-- --Выпущено: Франция, Бельгия / Bonne Pioche, M6 Films, uMedia Family
Продолжительность: 01:39:17
Озвучивание: Дублированный iTunes--Файл
Качество: BDRemux 1080p
Видео: MPEG-4 AVC, 1920x1080, 37.0 Mbit/s, 23.976 fps
Аудио #01: 48 kHz, AC3, 5.1, 384 Kbps | iTunes | RUS |
Аудио #02: 48 kHz, DTS-HD MA, 5.1, 3806 Kbps | Оригинал | FRE |
Субтитры: Нет--

Скриншоты

         

Орлов Владимир

Post 28-Dec-2019 17:41

[Quote]

-Zомбилэнд: Контрольный выстрел / Zombieland: Double Tap--
Информация о фильме
Год выпуска: 2019
Жанр: ужасы, боевик, комедия
Страна: США, Columbia Pictures, Pariah
Режиссёр: Рубен Фляйшер
Перевод: Дублированное [iTunes]
Субтитры: Русские (полные, форсированные), украинские (полные), английские
Продолжительность: 01:39:24-- В ролях:Джесси Айзенберг, Вуди Харрельсон, Эмма Стоун, Эбигейл Бреслин, Зои Дойч, Розарио Доусон, Эван Джогиа, Билл Мюррей, Дэн Эйкройд, Люк Уилсон-- Описание: Беспощадная и бесстрашная четверка охотников на зомби продолжает свое путешествие в глубь страны. На этот раз им предстоит сразиться не только с новыми видами живых мертвецов, но и вступить в схватку с другими выжившими, которые настроены совсем не дружелюбно. Кроме того, в собственных рядах охотников намечается серьезный разлад.-- --Файлы
Качество: Blu-Ray Remux (1080p)
Формат: MKV
Видео: MPEG-4 AVC, 29.8 Мбит/с, 1920x1080
Аудио: Русский (AC3, 6 ch, 384 Кбит/с), украинский (AC3, 2 ch, 160 Кбит/с), английский (DTS-HD MA, 6 ch, 2252 Кбит/с)
--Релиз без рекламы--

Скриншоты

           

Орлов Владимир

Post 28-Dec-2019 17:26

[Quote]

-Zомбилэнд: Контрольный выстрел / Zombieland: Double Tap--
Информация о фильме
Год выпуска: 2019
Жанр: ужасы, боевик, комедия
Страна: США, Columbia Pictures, Pariah
Режиссёр: Рубен Фляйшер
Перевод: Дублированное [iTunes]
Субтитры: Русские (полные, форсированные), украинские (полные), английские
Продолжительность: 01:39:24-- В ролях:Джесси Айзенберг, Вуди Харрельсон, Эмма Стоун, Эбигейл Бреслин, Зои Дойч, Розарио Доусон, Эван Джогиа, Билл Мюррей, Дэн Эйкройд, Люк Уилсон-- Описание: Беспощадная и бесстрашная четверка охотников на зомби продолжает свое путешествие в глубь страны. На этот раз им предстоит сразиться не только с новыми видами живых мертвецов, но и вступить в схватку с другими выжившими, которые настроены совсем не дружелюбно. Кроме того, в собственных рядах охотников намечается серьезный разлад.-- --Файлы
Качество: BDRip 1080p
Формат: MKV
Видео: MPEG-4 AVC, 12.7 Мбит/с, 1920x804
Аудио: Русский (AC3, 6 ch, 384 Кбит/с), украинский (AC3, 2 ch, 160 Кбит/с), английский (AC3, 6 ch, 640 Кбит/с)
--Релиз без рекламы--

Скриншоты

           

Орлов Владимир

Post 28-Dec-2019 17:12

[Quote]

-Zомбилэнд: Контрольный выстрел / Zombieland: Double Tap--
Информация о фильме
Год выпуска: 2019
Жанр: ужасы, боевик, комедия
Страна: США, Columbia Pictures, Pariah
Режиссёр: Рубен Фляйшер
Перевод: Дублированное [iTunes]
Субтитры: Русские (полные, форсированные), украинские (полные), английские
Продолжительность: 01:39:24-- В ролях:Джесси Айзенберг, Вуди Харрельсон, Эмма Стоун, Эбигейл Бреслин, Зои Дойч, Розарио Доусон, Эван Джогиа, Билл Мюррей, Дэн Эйкройд, Люк Уилсон-- Описание: Беспощадная и бесстрашная четверка охотников на зомби продолжает свое путешествие в глубь страны. На этот раз им предстоит сразиться не только с новыми видами живых мертвецов, но и вступить в схватку с другими выжившими, которые настроены совсем не дружелюбно. Кроме того, в собственных рядах охотников намечается серьезный разлад.-- --Файлы
Качество: BDRip 720p
Формат: MKV
Видео: MPEG-4 AVC, 5652 Кбит/с, 1280x536
Аудио: Русский (AC3, 6 ch, 384 Кбит/с), украинский (AC3, 2 ch, 160 Кбит/с), английский (AC3, 6 ch, 640 Кбит/с)
--Релиз без рекламы--

Скриншоты

           

Орлов Владимир

Post 28-Dec-2019 13:34

[Quote]

-- Окей, Лекси! / Jexi-- Информация о фильме
Название: Окей, Лекси!
Оригинальное название: Jexi
Год выхода: 2019
Жанр: комедия
Режиссер: Джон Лукас, Скотт Мур--В ролях: Адам Дивайн, Александра Шипп, Роуз Бирн, Рон Фанчес, Шарлин Йи, Майкл Пенья, Ванда Сайкс, Скотт Мескади, Джастин Хартли, Гэвин Рут--О фильме: Лекси знает о вас все. Она видела все ваши неприличные фотки, знает, о чем вы шепчетесь во время секса, что едите по ночам и как называете своего начальника в секретных чатах. Она - виртуальный помощник из вашего мобильника, и сегодня у нее очень плохое настроение.-- --Выпущено: США / CBS Films, Entertainment One
Продолжительность: 01:24:23
Озвучивание: Дублированное iTunes--Файл
Формат: MKV
Качество: WEB-DL 1080p | AMAZON
Видео: AVC, 8787 Кb/s, 1920x800
Аудио: Russian: AC3, 6 ch, 384 Kb/s | English: E-AC3, 6 ch, 640 Kb/s
Субтитры: English
Дополнительно: Нет--

Тех.данные видеофайла

General
Unique ID : 112713460869099552026569798529656417064 (0x54CBD2AC59417B86C90DCB0F3DDDEB28)
Complete name : F:\Video111\Jexi.2019.AMZN.D.WEB-DL.1080p.seleZen.mkv
Format : Matroska
Format version : Version 4
File size : 5.78 GiB
Duration : 1 h 24 min
Overall bit rate : 9 814 kb/s
Movie name : Jexi 2019 from селезень
Encoded date : UTC 2019-12-26 20:38:07
Writing application : mkvmerge v40.0.0 ('Old Town Road + Pony') 64-bit
Writing library : libebml v1.3.9 + libmatroska v1.5.2
Video
ID : 1
Format : AVC
Format/Info : Advanced Video Codec
Format profile : [email protected]
Format settings : CABAC / 4 Ref Frames
Format settings, CABAC : Yes
Format settings, Reference : 4 frames
Codec ID : V_MPEG4/ISO/AVC
Duration : 1 h 24 min
Bit rate mode : Constant
Bit rate : 8 787 kb/s
Nominal bit rate : 10 000 kb/s
Width : 1 920 pixels
Height : 800 pixels
Display aspect ratio : 2.40:1
Frame rate mode : Constant
Frame rate : 23.976 (24000/1001) FPS
Color space : YUV
Chroma subsampling : 4:2:0
Bit depth : 8 bits
Scan type : Progressive
Bits/(Pixel*Frame) : 0.239
Stream size : 5.18 GiB (90%)
Language : English
Default : Yes
Forced : No
Color range : Limited
Color primaries : BT.709
Transfer characteristics : BT.709
Matrix coefficients : BT.709
Audio #1
ID : 2
Format : AC-3
Format/Info : Audio Coding 3
Commercial name : Dolby Digital
Codec ID : A_AC3
Duration : 1 h 24 min
Bit rate mode : Constant
Bit rate : 384 kb/s
Channel(s) : 6 channels
Channel layout : L R C LFE Ls Rs
Sampling rate : 48.0 kHz
Frame rate : 31.250 FPS (1536 SPF)
Bit depth : 16 bits
Compression mode : Lossy
Stream size : 232 MiB (4%)
Title : iTunes
Language : Russian
Service kind : Complete Main
Default : Yes
Forced : Yes
Audio #2
ID : 3
Format : E-AC-3
Format/Info : Enhanced AC-3
Commercial name : Dolby Digital Plus
Codec ID : A_EAC3
Duration : 1 h 24 min
Bit rate mode : Constant
Bit rate : 640 kb/s
Channel(s) : 6 channels
Channel layout : L R C LFE Ls Rs
Sampling rate : 48.0 kHz
Frame rate : 31.250 FPS (1536 SPF)
Compression mode : Lossy
Stream size : 386 MiB (7%)
Title : Original
Language : English
Service kind : Complete Main
Default : No
Forced : No
Text #1
ID : 4
Format : UTF-8
Codec ID : S_TEXT/UTF8
Codec ID/Info : UTF-8 Plain Text
Duration : 1 h 19 min
Bit rate : 89 b/s
Count of elements : 1800
Stream size : 51.9 KiB (0%)
Title : Full
Language : English
Default : No
Forced : No
Text #2
ID : 5
Format : UTF-8
Codec ID : S_TEXT/UTF8
Codec ID/Info : UTF-8 Plain Text
Duration : 1 h 19 min
Bit rate : 95 b/s
Count of elements : 1940
Stream size : 55.7 KiB (0%)
Title : SDH
Language : English
Default : No
Forced : No

Скриншоты

           

Орлов Владимир

Post 16-Dec-2019 18:07

[Quote]

--Верность--
Информация о фильме
Оригинальное название: Верность
Год выпуска: 2019
Жанр: Драма
Режиссер: Нигина Сайфуллаева--В ролях: Александр Паль, Евгения Громова, Алексей Агранович, Марина Васильева (II), Анна Котова-Дерябина, Павел Ворожцов, Елизавета Лотова, Анастасия Денисова, Кирилл Каганович--О фильме:
Лена — талантливый акушер-гинеколог, её муж Сережа — артист провинциального драмтеатра. Близость и нежность у них есть, секса — нет. Лена подозревает, что Сережа завёл роман на стороне, но она мучается молча и не выдаёт свою ревность. Вместо того чтобы выяснить отношения с мужем, Лена сама начинает изменять ему со случайными мужчинами. Она, конечно, не думала, что её параллельная жизнь окажется не менее подлинной, чем основная. И не менее реальной. И настолько опасной.-- --Выпущено: Россия, PREMIER Studios, Droog Drooga Films при поддержке Министерства культуры РФ
Продолжительность: 01:18:24
Язык: Русский
Субтитры: Нет--Файл
Качество: WEB-DL 1080p
Видео: AVC/H.264, 1920x1080, ~5000 Kbps
Аудио: AC3, 2 ch, 192 Kbps--Версия 18+ [сцены сексуального характера].--

M/I

General
Format : Matroska
Format version : Version 4
File size : 2.80 GiB
Duration : 1 h 18 min
Overall bit rate mode : Constant
Overall bit rate : 5 119 kb/s
Movie name : Vernost.2019.WEB-DL.(1080p).Getty
Encoded date : UTC 2019-12-15 23:08:53
Writing application : mkvmerge v7.8.0 ('River Man') 32bit built on Mar 27 2015 16:18:02
Writing library : libebml v1.3.1 + libmatroska v1.4.2
Video
ID : 1
Format : AVC
Format/Info : Advanced Video Codec
Format profile : [email protected]
Format settings : 4 Ref Frames
Format settings, CABAC : No
Format settings, Reference : 4 frames
Codec ID : V_MPEG4/ISO/AVC
Duration : 1 h 18 min
Bit rate mode : Constant
Bit rate : 5 000 kb/s
Width : 1 920 pixels
Height : 1 080 pixels
Display aspect ratio : 16:9
Frame rate mode : Constant
Frame rate : 25.000 FPS
Standard : PAL
Color space : YUV
Chroma subsampling : 4:2:0
Bit depth : 8 bits
Scan type : Progressive
Bits/(Pixel*Frame) : 0.096
Stream size : 2.70 GiB (96%)
Default : Yes
Forced : No
Color range : Limited
Color primaries : BT.709
Transfer characteristics : BT.709
Matrix coefficients : BT.709
Audio
ID : 2
Format : AC-3
Format/Info : Audio Coding 3
Commercial name : Dolby Digital
Codec ID : A_AC3
Duration : 1 h 18 min
Bit rate mode : Constant
Bit rate : 192 kb/s
Channel(s) : 2 channels
Channel layout : L R
Sampling rate : 48.0 kHz
Frame rate : 31.250 FPS (1536 SPF)
Compression mode : Lossy
Stream size : 108 MiB (4%)
Service kind : Complete Main
Default : Yes
Forced : No

Скриншоты

       

Орлов Владимир

Post 16-Dec-2019 16:03

[Quote]

--Киллер по вызову / Lucky Day--
Информация о фильме
Название: Киллер по вызову
Оригинальное название: Lucky Day
Год выхода: 2019
Жанр: боевик, триллер, криминал
Режиссер: Роджер Эвери--В ролях: Люк Брейси, Нина Добрев, Криспин Гловер, Элла Райан Куинн, Кле Беннетт, Клифтон Коллинз мл., Дэвид Хьюлетт, Надя Фарес, Томер Сисле, Марк Дакаскос--О фильме:
В первый же день после освобождения из тюрьмы взломщик сейфов Ред и его подруга становятся мишенью киллера. Прошлое настигает его в виде Люка, наемного убийцы-психопата, который считает Реда виновным в смерти своего брата и желающим жестоко отомстить.-- --Страна: Франция, Канада
Студия: Avary, Davis-Films, Don Carmody Productions
Продолжительность: 01:39:14
Перевод: Любительский одноголосый, закадровый [Сэм Голд]--Файл
Качество: BDRip (1080p)
Видео: MPEG4 AVC, 10700 Kбит/с, 1920x800
Аудио: Русский (AC3, 2 ch, 192 Кбит/с), английский (AC3, 6 ch, 640 Кбит/с)
Субтитры: Английские--Без рекламы!--

Скриншоты

           

Орлов Владимир

Post 15-Dec-2019 14:33

[Quote]

--Злодеи / Villains--
Информация о фильме
Название: Злодеи
Оригинальное название: Villains
Год выхода: 2019
Жанр: Ужасы, триллер, драма, комедия
Режиссер: Дэн Берк, Роберт Ольсен--В ролях: Билл Скарсгард, Майка Монро, Джеффри Донован, Кира Седжвик, Блейк Баумгартнер, Ной Роббинс, Дэнни Джонсо--О фильме: Молодая пара грабителей Микки и Джули проникает в уединенный загородный дом. Его владельцы оказываются тайными садистами, которые держат в подвале маленькую пленницу, и они пойдут на всё, лишь бы их секрет оставался сокрытым за стенами дома. Грабителям не повезло.-- --Страна: США
Студия: BRON Studios, Star Thrower Entertainment, Creative Wealth Media Finance
Продолжительность: 01:29:46
Перевод: Авторский - А.Важенин [BadBajo]--БЕЗ КАКОЙ-ЛИБО РЕКЛАМЫ!--Файл
Кодек: h. 264
Качество: WEB-DL 1080p
Видео: 1920х800, ~8812 Kbps, 23.976 (24000/1001) FPS
Русский: AC3, 6 ch, 640 Kbps (BadBajo)
Английский: Е-AC3, 6 ch, 640 Kbps
Субтитры: Английские--Семпл--

Скриншоты

           
 

The time now is: Today 17:32

All times are GMT + 3 Hours