Today is a free download without charge Download

Search found 485 matches

Author Message

Орлов Владимир

Post Yesterday 03:36

[Quote]

--Падение ангела / Angel Has Fallen--
Информация о фильме
Название: Падение ангела
Оригинальное название: Angel Has Fallen
Год выхода: 2019
Жанр: Боевик
Режиссер: Рик Роман Во--В ролях: Джерард Батлер, Морган Фримен, Фредерик Шмидт, Дэнни Хьюстон, Рокки Уильямс, Пайпер Перабо, Джада Пинкетт Смит, Гарри Дитсон, Ник Нолти, Лэнс Реддик, Тим Блэйк Нельсон, Крис Браунинг, Екатерина Гусарова, Ори Феффер, Жасмин Хайд, Майкл Лэндис, Марк Арнольд, Керри Шейл, Эндрю Брук, Мартин Берман, Райан Олива, Дерек Сиоу--О фильме: Третья часть антитеррористической экшен-франшизы про высококлассного агента секретной службы США Майка Бэннинга (Джерард Батлер), который спасает от смертельного заговора первых лиц мировой политики. На этот раз целью террористов становится сам Бэннинг. Его подставляют и обвиняют в покушении на президента страны (Морган Фриман) — и теперь его разыскивают все спецслужбы. Чтобы очистить свое доброе имя, Бэннингу нужно самостоятельно раскрыть заговор.-- --Страна: США
Студия: Campbell Grobman Films, Eclectic Pictures, G-BASE
Продолжительность: 02:01:03
Перевод: Дублированный iTunes--Качество: BDRemux 2160p
Видео: 3840x2160 at 23.976 fps, MPEG-H HEVC HDR, Dolby Vision Video, 66800 kbps avg
Аудио: 48 kHz, AC3, 5.1, 384 Kbps | iTunes | RUS | --

Тех.данные видеофайла

General
Complete name : D:\Video111\Angel.Has.Fallen.2019.BDREMUX.2160p.DV.HDR.seleZen\Angel.Has.Fallen.2019.BDREMUX.2160p.DV.HDR.seleZen.mp4
Format : MPEG-4
Format profile : Base Media / Version 2
Codec ID : mp42 (mp42/dby1/isom)
File size : 63.5 GiB
Duration : 2 h 1 min
Overall bit rate : 75.0 Mb/s
Encoded date : UTC 2019-11-17 20:17:14
Tagged date : UTC 2019-11-17 20:17:14
Video #1
ID : 1
Format : HEVC
Format/Info : High Efficiency Video Coding
Format profile : Main [email protected]@High
HDR format : SMPTE ST 2086, HDR10 compatible
Codec ID : hev1
Codec ID/Info : High Efficiency Video Coding
Duration : 2 h 1 min
Bit rate : 66.8 Mb/s
Width : 3 840 pixels
Height : 2 160 pixels
Display aspect ratio : 16:9
Frame rate mode : Constant
Frame rate : 23.976 (24000/1001) FPS
Color space : YUV
Chroma subsampling : 4:2:0 (Type 2)
Bit depth : 10 bits
Bits/(Pixel*Frame) : 0.336
Stream size : 56.5 GiB (89%)
Default : No
Encoded date : UTC 2019-11-17 20:17:14
Tagged date : UTC 2019-11-17 20:17:14
Color range : Limited
Color primaries : BT.2020
Transfer characteristics : PQ
Matrix coefficients : BT.2020 non-constant
Mastering display color pri: Display P3
Mastering display luminance: min: 0.0010 cd/m2, max: 1000 cd/m2
Maximum Content Light Level: 1000 cd/m2
Maximum Frame-Average Light: 634 cd/m2
Codec configuration box : hvcC
Video #2
ID : 2
Format : HEVC
Format/Info : High Efficiency Video Coding
Format profile : Main [email protected]@High
HDR format : Dolby Vision, Version 1.0, dvhe.07.06, EL+RPU / SMPTE ST 2086, HDR10 compatible
Codec ID : dvhe
Codec ID/Info : High Efficiency Video Coding with Dolby Vision
Duration : 2 h 1 min
Bit rate : 7 854 kb/s
Width : 1 920 pixels
Height : 1 080 pixels
Display aspect ratio : 16:9
Frame rate mode : Constant
Frame rate : 23.976 (24000/1001) FPS
Color space : YUV
Chroma subsampling : 4:2:0 (Type 2)
Bit depth : 10 bits
Bits/(Pixel*Frame) : 0.158
Stream size : 6.64 GiB (10%)
Default : No
Encoded date : UTC 2019-11-17 20:17:14
Tagged date : UTC 2019-11-17 20:17:14
Color range : Limited
Color primaries : BT.2020
Transfer characteristics : PQ
Matrix coefficients : BT.2020 non-constant
Mastering display color pri: Display P3
Mastering display luminance: min: 0.0010 cd/m2, max: 1000 cd/m2
Codec configuration box : hvcC+dvcC
Audio
ID : 3
Format : AC-3
Format/Info : Audio Coding 3
Commercial name : Dolby Digital
Codec ID : ac-3
Duration : 2 h 1 min
Bit rate mode : Constant
Bit rate : 384 kb/s
Channel(s) : 6 channels
Channel layout : L R C LFE Ls Rs
Sampling rate : 48.0 kHz
Frame rate : 31.250 FPS (1536 SPF)
Bit depth : 16 bits
Compression mode : Lossy
Stream size : 332 MiB (1%)
Language : Russian
Service kind : Complete Main
Default : No
Encoded date : UTC 2019-11-17 20:17:14
Tagged date : UTC 2019-11-17 20:17:14

Скриншоты

       

Орлов Владимир

Post 02-Nov-2019 12:09

[Quote]

--Арахисовый сокол / The Peanut Butter Falcon--
Информация о фильме
Название: Арахисовый сокол
Оригинальное название: The Peanut Butter Falcon
Год выхода: 2019
Жанр: Драма, комедия, приключения
Режиссер: Тайлер Нилсон, Майк Шварц--В ролях: Шайа ЛаБаф, Дакота Джонсон, Зак Готтзаген, Джон Хоукс, Томас Хейден Чёрч, Брюс Дерн, Джон Бернтал, Джейк Робертс, Мик Фоли--О фильме: Большое путешествие начинается с шага, а легендарное — с полета. Вылетев в окно, герой очутился в мире, где чего-то не хватало. Его новому другу — крупной суммы денег. Паре головорезов — головы друга. Молодой медсестре — любви. А ему — путешествий на плоту, погонь, пылающих костров и немного арахисового масла.-- --Страна: США
Студия: Armory Films, 1993, Lucky Treehouse
Продолжительность: 01:36:56
Перевод: Авторский - А.Важенин [BadBajo]--Файл
Кодек: h. 264
Качество: BDRip 1080
Видео: 1920х808, ~9789 Kbps, 23.976 (24000/1001) FPS
Русский: DTS, 6 ch, 1 509 Kbps (BadBajo)
Английский: DTS, 6 ch, 1 509 Kbps
Русский: AC3, 6 ch, 448 Kbps (BadBajo)
Субтитры: Английские--Семпл--

Скриншоты

           

Орлов Владимир

Post 01-Nov-2019 14:32

[Quote]

--Король / The King--Информация о фильме
Название: Король
Оригинальное название: The King
Год выпуска: 2019
Жанр: Драма, мелодрама, военный, биография, история
Режиссер: Джон Фавро--В ролях: Джеймс Эрл Джонс, Дональд Гловер, Чиветел Эджиофор, Джон Оливер, Джон Кани, Элфри Вудард, Джейдон Маккрэри, Шахади Райт Джозеф, Пенни Джонсон, Кигэн-Майкл Ки--О фильме:
История молодого английского короля Генриха V. Взойдя на престол в мрачные времена Столетней войны, он становится одним из величайших полководцев своей эпохи.-- --Страна: Великобритания, Венгрия, Австралия
Студия: Blue-Tongue Films, NetFlix, Pioneer Stilking Films, Plan B Entertainment, Porchlight Films Pty. Ltd., Yoki
Продолжительность: 02:20:30
Перевод: Дублированный Пифагор--Файл
Качество: WEB-DL (1080p)
Видео: MPEG-4 AVC, 5500 ККбит/с, 1920x1080
Аудио: Русский (E-AC3, 6 ch, 640 Кбит/с), английский (E-AC3 + Atmos, 6 ch, 768 Кбит/с)
Субтитры: русские (Forced, Full), английские (Forced, Full, SDH)--

Тех.данные видеофайла

Общее
Уникальный идентификатор : 256992935156003755835595243256758308182 (0xC15709F766AFB526326D7A572A128D56)
Полное имя : The.King.2019.1080p.WEB-DL.DUB.EniaHD.mkv
Формат : Matroska
Версия формата : Version 4
Размер файла : 6,80 Гбайт
Продолжительность : 2 ч. 20 м.
Режим общего битрейта : Переменный
Общий поток : 6929 Кбит/сек
Название фильма : Король (2019)
Дата кодирования : UTC 2019-11-01 08:17:19
Программа кодирования : mkvmerge v37.0.0 ('Leave It') 64-bit
Библиотека кодирования : libebml v1.3.9 + libmatroska v1.5.2
Обложка : Yes
Attachments : cover.jpg
Видео
Идентификатор : 1
Формат : AVC
Формат/Информация : Advanced Video Codec
Профиль формата : [email protected]
Настройки формата : CABAC / 3 Ref Frames
Параметр CABAC формата : Да
Параметр RefFrames формата : 3 кадра
Идентификатор кодека : V_MPEG4/ISO/AVC
Продолжительность : 2 ч. 20 м.
Вид битрейта : Переменный
Битрейт : 5519 Кбит/сек
Номинальный битрейт : 5800 Кбит/сек
Максимальный битрейт : 8700 Кбит/сек
Ширина : 1920 пикселей
Высота : 1080 пикселей
Соотношение сторон : 16:9
Режим частоты кадров : Постоянный
Частота кадров : 24,000 кадра/сек
Цветовое пространство : YUV
Субдискретизация насыщенности : 4:2:0
Битовая глубина : 8 бит
Тип развёртки : Прогрессивная
Бит/(Пиксели*Кадры) : 0.111
Размер потока : 5,42 Гбайт (80%)
Заголовок : The.King.2019.1080p.WEB-DL.DUB.EniaHD
Библиотека кодирования : x264 core 148 r2715 7e75228
Настройки программы : cabac=1 / ref=3 / deblock=1:0:0 / analyse=0x1:0x111 / me=umh / subme=10 / psy=1 / psy_rd=1.00:0.00 / mixed_ref=1 / me_range=24 / chroma_me=1 / trellis=2 / 8x8dct=0 / cqm=0 / deadzone=21,11 / fast_pskip=1 / chroma_qp_offset=-2 / threads=8 / lookahead_threads=1 / sliced_threads=0 / nr=0 / decimate=1 / interlaced=0 / bluray_compat=0 / stitchable=1 / constrained_intra=0 / bframes=2 / b_pyramid=0 / b_adapt=2 / b_bias=0 / direct=3 / weightb=1 / open_gop=0 / weightp=2 / keyint=250 / keyint_min=24 / scenecut=0 / intra_refresh=0 / rc_lookahead=48 / rc=2pass / mbtree=1 / bitrate=5800 / ratetol=1.0 / qcomp=0.50 / qpmin=6 / qpmax=51 / qpstep=4 / cplxblur=20.0 / qblur=0.5 / vbv_maxrate=8700 / vbv_bufsize=11600 / nal_hrd=vbr / filler=0 / ip_ratio=1.40 / aq=1:1.00
Язык : English
Default : Да
Forced : Нет
Аудио #1
Идентификатор : 2
Формат : E-AC-3
Формат/Информация : Enhanced AC-3
Коммерческое название : Dolby Digital Plus
Идентификатор кодека : A_EAC3
Продолжительность : 2 ч. 20 м.
Вид битрейта : Постоянный
Битрейт : 640 Кбит/сек
Каналы : 6 каналов
ChannelLayout : L R C LFE Ls Rs
Частота : 48,0 КГц
Частота кадров : 31,250 кадров/сек (1536 SPF)
Метод сжатия : С потерями
Размер потока : 643 Мбайт (9%)
Заголовок : E-AC3 5.1 @ 640 kbps - DUB, Пифагор
Язык : Russian
ServiceKind : Complete Main
Default : Да
Forced : Нет
Аудио #2
Идентификатор : 3
Формат : E-AC-3 JOC
Формат/Информация : Enhanced AC-3 with Joint Object Coding
Коммерческое название : Dolby Digital Plus with Dolby Atmos
Идентификатор кодека : A_EAC3
Продолжительность : 2 ч. 20 м.
Вид битрейта : Постоянный
Битрейт : 768 Кбит/сек
Каналы : 6 каналов
ChannelLayout : L R C LFE Ls Rs
Частота : 48,0 КГц
Частота кадров : 31,250 кадров/сек (1536 SPF)
Метод сжатия : С потерями
Размер потока : 772 Мбайт (11%)
Заголовок : E-AC3 + Atmos 5.1 @ 768 kbps - Original
Язык : English
ServiceKind : Complete Main
Default : Нет
Forced : Нет
ComplexityIndex : 16
NumberOfDynamicObjects : 15
BedChannelCount : 1 канал
BedChannelConfiguration : LFE
Текст #1
Идентификатор : 4
Формат : UTF-8
Идентификатор кодека : S_TEXT/UTF8
Идентификатор кодека/Информация : UTF-8 Plain Text
Продолжительность : 2 ч. 19 м.
Битрейт : 1 бит/сек
ElementCount : 33
Размер потока : 1,62 Кбайт (0%)
Заголовок : Forced
Язык : Russian
Default : Да
Forced : Да
Текст #2
Идентификатор : 5
Формат : UTF-8
Идентификатор кодека : S_TEXT/UTF8
Идентификатор кодека/Информация : UTF-8 Plain Text
Продолжительность : 2 ч. 19 м.
Битрейт : 59 бит/сек
ElementCount : 1193
Размер потока : 60,9 Кбайт (0%)
Заголовок : Full
Язык : Russian
Default : Нет
Forced : Нет
Текст #3
Идентификатор : 6
Формат : UTF-8
Идентификатор кодека : S_TEXT/UTF8
Идентификатор кодека/Информация : UTF-8 Plain Text
Продолжительность : 1 ч. 11 м.
Битрейт : 1 бит/сек
ElementCount : 35
Размер потока : 959 байт (0%)
Заголовок : Forced
Язык : English
Default : Нет
Forced : Нет
Текст #4
Идентификатор : 7
Формат : UTF-8
Идентификатор кодека : S_TEXT/UTF8
Идентификатор кодека/Информация : UTF-8 Plain Text
Продолжительность : 2 ч. 9 м.
Битрейт : 41 бит/сек
ElementCount : 1361
Размер потока : 39,7 Кбайт (0%)
Заголовок : Full
Язык : English
Default : Нет
Forced : Нет
Текст #5
Идентификатор : 8
Формат : UTF-8
Идентификатор кодека : S_TEXT/UTF8
Идентификатор кодека/Информация : UTF-8 Plain Text
Продолжительность : 2 ч. 10 м.
Битрейт : 50 бит/сек
ElementCount : 1814
Размер потока : 48,2 Кбайт (0%)
Заголовок : Full, SDH
Язык : English
Default : Нет
Forced : Нет

Скриншоты

         

Орлов Владимир

Post 01-Nov-2019 01:29

[Quote]

--Невероятный мир глазами Энцо / The Art of Racing in the Rain--
Информация о фильме
Название: Невероятный мир глазами Энцо
Оригинальное название: The Art of Racing in the Rain
Год выпуска: 2019
Жанр: Драма, комедия, мелодрама, спорт
Режиссер: Саймон Кёртис--В ролях: Кевин Костнер, Майло Вентимилья, Аманда Сайфред, Мартин Донован, Гэри Коул, Кэти Бэйкер, Ал Сапиенца, Лили Додсворт-Эванс, Райан Кира Армстронг, Андрес Джозеф, Карен Холнесс--О фильме:
Для собаки по кличке Энцо жизнь - это гонка. Не важно, как ты ее проходишь - за рулем автомобиля или на четырех лапах, все равно тебя ждут крутые виражи, ямы-западни, опасные взлеты и падения. Они выбивают с трека даже самых сильных - это начинающий гонщик Дэнни и его пес Энцо знают наверняка. Каждому из них предстоит своя гонка, но оба понимают: победить не значит обогнать соперников. Победить - значит вернуться после поражения на трассу и пройти ее до самого финиша, какой бы скользкой ни была дорога.-- --Страна: США
Студия: Fox 2000 Pictures, Original Film, Shifting Gears Productions
Продолжительность: 01:48:49
Перевод: Дублированный iTunes--Файл
Качество: BDRemux 1080p
Видео: MPEG-4 AVC, 1920x1080, 29.8 Мbit/s, 23.976 fps
Аудио #01: 48 kHz, AC3, 5.1, 384 Kbps | iTunes | RUS |
Аудио #02: 48 kHz, AC3, 2.0, 160 Kbps | iTunes | UKR |
Аудио #03: 48 kHz, DTS-HD MA, 7.1, 4906 Kbps | Оригинал | ENG |
Субтитры: Русские (Forced, full), украинские (Forced, full), английские--

Скриншоты

         

Тех.данные видеофайла

General
Unique ID : 163374658758275872500261837054528587661 (0x7AE8D0932BF08102942D9FCA9386078D)
Complete name : D:Video111The.Art.of.Racing.in.the.Rain.2019.BDREMUX.1080p.seleZen.mkv
Format : Matroska
Format version : Version 4
File size : 26.8 GiB
Duration : 1 h 48 min
Overall bit rate mode : Variable
Overall bit rate : 35.2 Mb/s
Movie name : The Art of Racing in the Rain 2019 from селезень
Encoded date : UTC 2019-10-31 21:19:18
Writing application : mkvmerge v22.0.0 ('At The End Of The World') 64-bit
Writing library : libebml v1.3.5 + libmatroska v1.4.8
Video
ID : 1
Format : AVC
Format/Info : Advanced Video Codec
Format profile : [email protected]
Format settings : CABAC / 4 Ref Frames
Format settings, CABAC : Yes
Format settings, Reference : 4 frames
Codec ID : V_MPEG4/ISO/AVC
Duration : 1 h 48 min
Bit rate mode : Variable
Bit rate : 29.8 Mb/s
Maximum bit rate : 31.0 Mb/s
Width : 1 920 pixels
Height : 1 080 pixels
Display aspect ratio : 16:9
Frame rate mode : Constant
Frame rate : 23.976 (24000/1001) FPS
Color space : YUV
Chroma subsampling : 4:2:0
Bit depth : 8 bits
Scan type : Progressive
Bits/(Pixel*Frame) : 0.599
Stream size : 22.6 GiB (85%)
Language : English
Default : Yes
Forced : No
Audio #1
ID : 2
Format : AC-3
Format/Info : Audio Coding 3
Commercial name : Dolby Digital
Codec ID : A_AC3
Duration : 1 h 48 min
Bit rate mode : Constant
Bit rate : 384 kb/s
Channel(s) : 6 channels
Channel layout : L R C LFE Ls Rs
Sampling rate : 48.0 kHz
Frame rate : 31.250 FPS (1536 SPF)
Bit depth : 16 bits
Compression mode : Lossy
Stream size : 299 MiB (1%)
Title : iTunes
Language : Russian
Service kind : Complete Main
Default : Yes
Forced : Yes
Audio #2
ID : 3
Format : AC-3
Format/Info : Audio Coding 3
Commercial name : Dolby Digital
Codec ID : A_AC3
Duration : 1 h 48 min
Bit rate mode : Constant
Bit rate : 160 kb/s
Channel(s) : 2 channels
Channel layout : L R
Sampling rate : 48.0 kHz
Frame rate : 31.250 FPS (1536 SPF)
Bit depth : 16 bits
Compression mode : Lossy
Stream size : 125 MiB (0%)
Title : iTunes
Language : Ukrainian
Service kind : Complete Main
Default : No
Forced : No
Audio #3
ID : 4
Format : DTS XLL
Format/Info : Digital Theater Systems
Commercial name : DTS-HD Master Audio
Codec ID : A_DTS
Duration : 1 h 48 min
Bit rate mode : Variable
Bit rate : 4 906 kb/s
Channel(s) : 8 channels
Channel layout : C L R LFE Lb Rb Lss Rss
Sampling rate : 48.0 kHz
Frame rate : 93.750 FPS (512 SPF)
Bit depth : 24 bits
Compression mode : Lossless
Stream size : 3.73 GiB (14%)
Title : Original
Language : English
Default : No
Forced : No
Text #1
ID : 5
Format : UTF-8
Codec ID : S_TEXT/UTF8
Codec ID/Info : UTF-8 Plain Text
Duration : 1 h 44 min
Bit rate : 0 b/s
Count of elements : 6
Stream size : 289 Bytes (0%)
Title : Forced
Language : Russian
Default : Yes
Forced : Yes
Text #2
ID : 6
Format : UTF-8
Codec ID : S_TEXT/UTF8
Codec ID/Info : UTF-8 Plain Text
Duration : 1 h 48 min
Bit rate : 96 b/s
Count of elements : 1402
Stream size : 76.5 KiB (0%)
Title : Full
Language : Russian
Default : No
Forced : No
Text #3
ID : 7
Format : UTF-8
Codec ID : S_TEXT/UTF8
Codec ID/Info : UTF-8 Plain Text
Duration : 1 h 28 min
Bit rate : 0 b/s
Count of elements : 4
Stream size : 177 Bytes (0%)
Title : Forced
Language : Ukrainian
Default : No
Forced : No
Text #4
ID : 8
Format : UTF-8
Codec ID : S_TEXT/UTF8
Codec ID/Info : UTF-8 Plain Text
Duration : 1 h 48 min
Bit rate : 98 b/s
Count of elements : 1402
Stream size : 78.3 KiB (0%)
Title : Full
Language : Ukrainian
Default : No
Forced : No
Text #5
ID : 9
Format : UTF-8
Codec ID : S_TEXT/UTF8
Codec ID/Info : UTF-8 Plain Text
Duration : 1 h 48 min
Bit rate : 64 b/s
Count of elements : 1682
Stream size : 51.3 KiB (0%)
Title : Full
Language : English
Default : No
Forced : No
Text #6
ID : 10
Format : UTF-8
Codec ID : S_TEXT/UTF8
Codec ID/Info : UTF-8 Plain Text
Duration : 1 h 48 min
Bit rate : 71 b/s
Count of elements : 1921
Stream size : 56.8 KiB (0%)
Title : SDH
Language : English
Default : No
Forced : No
Menu
00:00:00.000 : en:Chapter 01
00:04:51.583 : en:Chapter 02
00:10:34.884 : en:Chapter 03
00:13:59.589 : en:Chapter 04
00:17:26.712 : en:Chapter 05
00:20:54.920 : en:Chapter 06
00:26:08.734 : en:Chapter 07
00:31:05.530 : en:Chapter 08
00:36:22.680 : en:Chapter 09
00:39:37.417 : en:Chapter 10
00:43:47.291 : en:Chapter 11
00:48:57.143 : en:Chapter 12
00:54:02.739 : en:Chapter 13
00:59:17.429 : en:Chapter 14
01:03:59.127 : en:Chapter 15
01:07:27.502 : en:Chapter 16
01:10:49.078 : en:Chapter 17
01:14:47.858 : en:Chapter 18
01:18:46.513 : en:Chapter 19
01:25:06.852 : en:Chapter 20
01:28:34.601 : en:Chapter 21
01:32:43.767 : en:Chapter 22
01:36:29.951 : en:Chapter 23
01:41:27.540 : en:Chapter 24

Орлов Владимир

Post 01-Nov-2019 01:22

[Quote]

--Невероятный мир глазами Энцо / The Art of Racing in the Rain--
Информация о фильме
Название: Невероятный мир глазами Энцо
Оригинальное название: The Art of Racing in the Rain
Год выпуска: 2019
Жанр: Драма, комедия, мелодрама, спорт
Режиссер: Саймон Кёртис--В ролях: Кевин Костнер, Майло Вентимилья, Аманда Сайфред, Мартин Донован, Гэри Коул, Кэти Бэйкер, Ал Сапиенца, Лили Додсворт-Эванс, Райан Кира Армстронг, Андрес Джозеф, Карен Холнесс--О фильме:
Для собаки по кличке Энцо жизнь - это гонка. Не важно, как ты ее проходишь - за рулем автомобиля или на четырех лапах, все равно тебя ждут крутые виражи, ямы-западни, опасные взлеты и падения. Они выбивают с трека даже самых сильных - это начинающий гонщик Дэнни и его пес Энцо знают наверняка. Каждому из них предстоит своя гонка, но оба понимают: победить не значит обогнать соперников. Победить - значит вернуться после поражения на трассу и пройти ее до самого финиша, какой бы скользкой ни была дорога.-- --Страна: США
Студия: Fox 2000 Pictures, Original Film, Shifting Gears Productions
Продолжительность: 01:48:49
Перевод: Дублированный iTunes--Файл
Качество: BDRip 1080p
Видео: MPEG-4 AVC, 1920x1038, 16.2 Mbit/s, 23.976 fps
Аудио #01: 48 kHz, AC3, 5.1, 384 Kbps | iTunes | RUS |
Аудио #02: 48 kHz, AC3, 2.0, 160 Kbps | iTunes | UKR |
Аудио #03: 48 kHz, AC3, 5.1, 640 Kbps | Оригинал | ENG |
Субтитры: Русские (Forced, full), украинские (Forced, full), английские--

Скриншоты

           

Тех.данные видеофайла

General
Unique ID : 196440230472236646211390365411177878578 (0x93C9032083B2A4559AE74FEA5D075432)
Complete name : D:Video111The.Art.of.Racing.in.the.Rain.2019.BDRip.1080p.seleZen.mkv
Format : Matroska
Format version : Version 4
File size : 13.2 GiB
Duration : 1 h 48 min
Overall bit rate : 17.4 Mb/s
Movie name : The Art of Racing in the Rain 2019 from селезень
Encoded date : UTC 2019-10-31 20:41:58
Writing application : mkvmerge v22.0.0 ('At The End Of The World') 64-bit
Writing library : libebml v1.3.5 + libmatroska v1.4.8
Video
ID : 1
Format : AVC
Format/Info : Advanced Video Codec
Format profile : [email protected]
Format settings : CABAC / 4 Ref Frames
Format settings, CABAC : Yes
Format settings, Reference : 4 frames
Codec ID : V_MPEG4/ISO/AVC
Duration : 1 h 48 min
Bit rate : 16.2 Mb/s
Width : 1 920 pixels
Height : 1 038 pixels
Display aspect ratio : 1.85:1
Frame rate mode : Constant
Frame rate : 23.976 (24000/1001) FPS
Color space : YUV
Chroma subsampling : 4:2:0
Bit depth : 8 bits
Scan type : Progressive
Bits/(Pixel*Frame) : 0.339
Stream size : 12.3 GiB (93%)
Title : iFT
Writing library : x264 core 155 r2867+74 66b5600 t_mod_Custom_2 [[email protected] X86_64]
Encoding settings : cabac=1 / ref=4 / deblock=1:-3:-3 / analyse=0x3:0x113 / me=umh / subme=11 / psy=1 / fade_compensate=0.00 / psy_rd=1.00:0.00 / mixed_ref=1 / me_range=32 / chroma_me=1 / trellis=2 / 8x8dct=1 / cqm=0 / deadzone=21,11 / fast_pskip=0 / chroma_qp_offset=-2 / threads=32 / lookahead_threads=5 / sliced_threads=0 / nr=0 / decimate=0 / interlaced=0 / bluray_compat=0 / constrained_intra=0 / fgo=0 / bframes=9 / b_pyramid=2 / b_adapt=2 / b_bias=0 / direct=3 / weightb=1 / open_gop=0 / weightp=2 / keyint=250 / keyint_min=23 / scenecut=40 / intra_refresh=0 / rc_lookahead=60 / rc=crf / mbtree=0 / crf=17.0000 / qcomp=0.60 / qpmin=0:0:0 / qpmax=69:69:69 / qpstep=4 / vbv_maxrate=62500 / vbv_bufsize=78125 / crf_max=0.0 / nal_hrd=none / filler=0 / ip_ratio=1.30 / pb_ratio=1.20 / aq=3:0.80 / aq-sensitivity=10.00 / aq-factor=1.00:1.00:1.00 / aq2=0 / aq3=0
Language : English
Default : Yes
Forced : No
Color range : Limited
Color primaries : BT.709
Transfer characteristics : BT.709
Matrix coefficients : BT.709
Audio #1
ID : 2
Format : AC-3
Format/Info : Audio Coding 3
Commercial name : Dolby Digital
Codec ID : A_AC3
Duration : 1 h 48 min
Bit rate mode : Constant
Bit rate : 384 kb/s
Channel(s) : 6 channels
Channel layout : L R C LFE Ls Rs
Sampling rate : 48.0 kHz
Frame rate : 31.250 FPS (1536 SPF)
Bit depth : 16 bits
Compression mode : Lossy
Stream size : 299 MiB (2%)
Title : iTunes
Language : Russian
Service kind : Complete Main
Default : Yes
Forced : Yes
Audio #2
ID : 3
Format : AC-3
Format/Info : Audio Coding 3
Commercial name : Dolby Digital
Codec ID : A_AC3
Duration : 1 h 48 min
Bit rate mode : Constant
Bit rate : 160 kb/s
Channel(s) : 2 channels
Channel layout : L R
Sampling rate : 48.0 kHz
Frame rate : 31.250 FPS (1536 SPF)
Bit depth : 16 bits
Compression mode : Lossy
Stream size : 125 MiB (1%)
Title : iTunes
Language : Ukrainian
Service kind : Complete Main
Default : No
Forced : No
Audio #3
ID : 4
Format : AC-3
Format/Info : Audio Coding 3
Commercial name : Dolby Digital
Codec ID : A_AC3
Duration : 1 h 48 min
Bit rate mode : Constant
Bit rate : 640 kb/s
Channel(s) : 6 channels
Channel layout : L R C LFE Ls Rs
Sampling rate : 48.0 kHz
Frame rate : 31.250 FPS (1536 SPF)
Bit depth : 16 bits
Compression mode : Lossy
Stream size : 498 MiB (4%)
Title : Original
Language : English
Service kind : Complete Main
Default : No
Forced : No
Text #1
ID : 5
Format : UTF-8
Codec ID : S_TEXT/UTF8
Codec ID/Info : UTF-8 Plain Text
Duration : 1 h 44 min
Bit rate : 0 b/s
Count of elements : 6
Stream size : 289 Bytes (0%)
Title : Forced
Language : Russian
Default : Yes
Forced : Yes
Text #2
ID : 6
Format : UTF-8
Codec ID : S_TEXT/UTF8
Codec ID/Info : UTF-8 Plain Text
Duration : 1 h 48 min
Bit rate : 96 b/s
Count of elements : 1402
Stream size : 76.5 KiB (0%)
Title : Full
Language : Russian
Default : No
Forced : No
Text #3
ID : 7
Format : UTF-8
Codec ID : S_TEXT/UTF8
Codec ID/Info : UTF-8 Plain Text
Duration : 1 h 28 min
Bit rate : 0 b/s
Count of elements : 4
Stream size : 177 Bytes (0%)
Title : Forced
Language : Ukrainian
Default : No
Forced : No
Text #4
ID : 8
Format : UTF-8
Codec ID : S_TEXT/UTF8
Codec ID/Info : UTF-8 Plain Text
Duration : 1 h 48 min
Bit rate : 98 b/s
Count of elements : 1402
Stream size : 78.3 KiB (0%)
Title : Full
Language : Ukrainian
Default : No
Forced : No
Text #5
ID : 9
Format : UTF-8
Codec ID : S_TEXT/UTF8
Codec ID/Info : UTF-8 Plain Text
Duration : 1 h 48 min
Bit rate : 64 b/s
Count of elements : 1682
Stream size : 51.3 KiB (0%)
Title : Full
Language : English
Default : No
Forced : No
Text #6
ID : 10
Format : UTF-8
Codec ID : S_TEXT/UTF8
Codec ID/Info : UTF-8 Plain Text
Duration : 1 h 48 min
Bit rate : 71 b/s
Count of elements : 1921
Stream size : 56.8 KiB (0%)
Title : SDH
Language : English
Default : No
Forced : No
Menu
00:00:00.000 : en:Chapter 01
00:04:51.583 : en:Chapter 02
00:10:34.884 : en:Chapter 03
00:13:59.589 : en:Chapter 04
00:17:26.712 : en:Chapter 05
00:20:54.920 : en:Chapter 06
00:26:08.734 : en:Chapter 07
00:31:05.530 : en:Chapter 08
00:36:22.680 : en:Chapter 09
00:39:37.417 : en:Chapter 10
00:43:47.291 : en:Chapter 11
00:48:57.143 : en:Chapter 12
00:54:02.739 : en:Chapter 13
00:59:17.429 : en:Chapter 14
01:03:59.127 : en:Chapter 15
01:07:27.502 : en:Chapter 16
01:10:49.078 : en:Chapter 17
01:14:47.858 : en:Chapter 18
01:18:46.513 : en:Chapter 19
01:25:06.852 : en:Chapter 20
01:28:34.601 : en:Chapter 21
01:32:43.767 : en:Chapter 22
01:36:29.951 : en:Chapter 23
01:41:27.540 : en:Chapter 24

Орлов Владимир

Post 01-Nov-2019 01:17

[Quote]

--Невероятный мир глазами Энцо / The Art of Racing in the Rain--
Информация о фильме
Название: Невероятный мир глазами Энцо
Оригинальное название: The Art of Racing in the Rain
Год выпуска: 2019
Жанр: Драма, комедия, мелодрама, спорт
Режиссер: Саймон Кёртис--В ролях: Кевин Костнер, Майло Вентимилья, Аманда Сайфред, Мартин Донован, Гэри Коул, Кэти Бэйкер, Ал Сапиенца, Лили Додсворт-Эванс, Райан Кира Армстронг, Андрес Джозеф, Карен Холнесс--О фильме:
Для собаки по кличке Энцо жизнь - это гонка. Не важно, как ты ее проходишь - за рулем автомобиля или на четырех лапах, все равно тебя ждут крутые виражи, ямы-западни, опасные взлеты и падения. Они выбивают с трека даже самых сильных - это начинающий гонщик Дэнни и его пес Энцо знают наверняка. Каждому из них предстоит своя гонка, но оба понимают: победить не значит обогнать соперников. Победить - значит вернуться после поражения на трассу и пройти ее до самого финиша, какой бы скользкой ни была дорога.-- --Страна: США
Студия: Fox 2000 Pictures, Original Film, Shifting Gears Productions
Продолжительность: 01:48:49
Перевод: Дублированный iTunes--Файл
Формат: AVI
Качество: BDRip
Видео: 704x384 (1.83:1), 23.976 fps, XviD build 73 ~1462 kbps avg, 0.23 bit/pixel
Звук: 48 kHz, AC3 Dolby Digital, 3/2 (L,C,R,l,r) + LFE ch, ~384 kbps
Субтитры: Русские форсированные (отдельно)--Качество: BDRip 720p
Видео: MPEG-4 AVC, 1280x692, 6853 Кbit/s, 23.976 fps
Аудио #01: 48 kHz, AC3, 5.1, 384 Kbps | iTunes | RUS |
Аудио #02: 48 kHz, AC3, 2.0, 160 Kbps | iTunes | UKR |
Аудио #03: 48 kHz, AC3, 5.1, 640 Kbps | Оригинал | ENG |
Субтитры: Русские (Forced, full), украинские (Forced, full), английские

Скриншоты

         

Тех.данные видеофайла

General
Unique ID : 248646052905275826260688200312550714108 (0xBB0F7CE5FDE695A1BEAADA5528B5EAFC)
Complete name : D:Video111The.Art.of.Racing.in.the.Rain.2019.BDRip.720p.seleZen.mkv
Format : Matroska
Format version : Version 4
File size : 6.11 GiB
Duration : 1 h 48 min
Overall bit rate : 8 040 kb/s
Movie name : The Art of Racing in the Rain 2019 from селезень
Encoded date : UTC 2019-10-31 20:37:51
Writing application : mkvmerge v22.0.0 ('At The End Of The World') 64-bit
Writing library : libebml v1.3.5 + libmatroska v1.4.8
Video
ID : 1
Format : AVC
Format/Info : Advanced Video Codec
Format profile : [email protected]
Format settings : CABAC / 9 Ref Frames
Format settings, CABAC : Yes
Format settings, Reference : 9 frames
Codec ID : V_MPEG4/ISO/AVC
Duration : 1 h 48 min
Bit rate : 6 853 kb/s
Width : 1 280 pixels
Height : 692 pixels
Display aspect ratio : 1.85:1
Frame rate mode : Constant
Frame rate : 23.976 (24000/1001) FPS
Color space : YUV
Chroma subsampling : 4:2:0
Bit depth : 8 bits
Scan type : Progressive
Bits/(Pixel*Frame) : 0.323
Stream size : 5.21 GiB (85%)
Title : iFT
Writing library : x264 core 155 r2867+74 66b5600 t_mod_Custom_2 [[email protected] X86_64]
Encoding settings : cabac=1 / ref=9 / deblock=1:-3:-3 / analyse=0x3:0x113 / me=umh / subme=11 / psy=1 / fade_compensate=0.00 / psy_rd=1.00:0.00 / mixed_ref=1 / me_range=32 / chroma_me=1 / trellis=2 / 8x8dct=1 / cqm=0 / deadzone=21,11 / fast_pskip=0 / chroma_qp_offset=-2 / threads=22 / lookahead_threads=3 / sliced_threads=0 / nr=0 / decimate=0 / interlaced=0 / bluray_compat=0 / constrained_intra=0 / fgo=0 / bframes=9 / b_pyramid=2 / b_adapt=2 / b_bias=0 / direct=3 / weightb=1 / open_gop=0 / weightp=2 / keyint=250 / keyint_min=23 / scenecut=40 / intra_refresh=0 / rc_lookahead=60 / rc=crf / mbtree=0 / crf=16.0000 / qcomp=0.60 / qpmin=0:0:0 / qpmax=69:69:69 / qpstep=4 / vbv_maxrate=30000 / vbv_bufsize=38000 / crf_max=0.0 / nal_hrd=none / filler=0 / ip_ratio=1.30 / pb_ratio=1.20 / aq=3:0.80 / aq-sensitivity=10.00 / aq-factor=1.00:1.00:1.00 / aq2=0 / aq3=0
Language : English
Default : Yes
Forced : No
Color range : Limited
Color primaries : BT.709
Transfer characteristics : BT.709
Matrix coefficients : BT.709
Audio #1
ID : 2
Format : AC-3
Format/Info : Audio Coding 3
Commercial name : Dolby Digital
Codec ID : A_AC3
Duration : 1 h 48 min
Bit rate mode : Constant
Bit rate : 384 kb/s
Channel(s) : 6 channels
Channel layout : L R C LFE Ls Rs
Sampling rate : 48.0 kHz
Frame rate : 31.250 FPS (1536 SPF)
Bit depth : 16 bits
Compression mode : Lossy
Stream size : 299 MiB (5%)
Title : iTunes
Language : Russian
Service kind : Complete Main
Default : Yes
Forced : Yes
Audio #2
ID : 3
Format : AC-3
Format/Info : Audio Coding 3
Commercial name : Dolby Digital
Codec ID : A_AC3
Duration : 1 h 48 min
Bit rate mode : Constant
Bit rate : 160 kb/s
Channel(s) : 2 channels
Channel layout : L R
Sampling rate : 48.0 kHz
Frame rate : 31.250 FPS (1536 SPF)
Bit depth : 16 bits
Compression mode : Lossy
Stream size : 125 MiB (2%)
Title : iTunes
Language : Ukrainian
Service kind : Complete Main
Default : No
Forced : No
Audio #3
ID : 4
Format : AC-3
Format/Info : Audio Coding 3
Commercial name : Dolby Digital
Codec ID : A_AC3
Duration : 1 h 48 min
Bit rate mode : Constant
Bit rate : 640 kb/s
Channel(s) : 6 channels
Channel layout : L R C LFE Ls Rs
Sampling rate : 48.0 kHz
Frame rate : 31.250 FPS (1536 SPF)
Bit depth : 16 bits
Compression mode : Lossy
Stream size : 498 MiB (8%)
Title : Original
Language : English
Service kind : Complete Main
Default : No
Forced : No
Text #1
ID : 5
Format : UTF-8
Codec ID : S_TEXT/UTF8
Codec ID/Info : UTF-8 Plain Text
Duration : 1 h 44 min
Bit rate : 0 b/s
Count of elements : 6
Stream size : 289 Bytes (0%)
Title : Forced
Language : Russian
Default : Yes
Forced : Yes
Text #2
ID : 6
Format : UTF-8
Codec ID : S_TEXT/UTF8
Codec ID/Info : UTF-8 Plain Text
Duration : 1 h 48 min
Bit rate : 96 b/s
Count of elements : 1402
Stream size : 76.5 KiB (0%)
Title : Full
Language : Russian
Default : No
Forced : No
Text #3
ID : 7
Format : UTF-8
Codec ID : S_TEXT/UTF8
Codec ID/Info : UTF-8 Plain Text
Duration : 1 h 28 min
Bit rate : 0 b/s
Count of elements : 4
Stream size : 177 Bytes (0%)
Title : Forced
Language : Ukrainian
Default : No
Forced : No
Text #4
ID : 8
Format : UTF-8
Codec ID : S_TEXT/UTF8
Codec ID/Info : UTF-8 Plain Text
Duration : 1 h 48 min
Bit rate : 98 b/s
Count of elements : 1402
Stream size : 78.3 KiB (0%)
Title : Full
Language : Ukrainian
Default : No
Forced : No
Text #5
ID : 9
Format : UTF-8
Codec ID : S_TEXT/UTF8
Codec ID/Info : UTF-8 Plain Text
Duration : 1 h 48 min
Bit rate : 64 b/s
Count of elements : 1682
Stream size : 51.3 KiB (0%)
Title : Full
Language : English
Default : No
Forced : No
Text #6
ID : 10
Format : UTF-8
Codec ID : S_TEXT/UTF8
Codec ID/Info : UTF-8 Plain Text
Duration : 1 h 48 min
Bit rate : 71 b/s
Count of elements : 1921
Stream size : 56.8 KiB (0%)
Title : SDH
Language : English
Default : No
Forced : No
Menu
00:00:00.000 : en:Chapter 01
00:04:51.583 : en:Chapter 02
00:10:34.884 : en:Chapter 03
00:13:59.589 : en:Chapter 04
00:17:26.712 : en:Chapter 05
00:20:54.920 : en:Chapter 06
00:26:08.734 : en:Chapter 07
00:31:05.530 : en:Chapter 08
00:36:22.680 : en:Chapter 09
00:39:37.417 : en:Chapter 10
00:43:47.291 : en:Chapter 11
00:48:57.143 : en:Chapter 12
00:54:02.739 : en:Chapter 13
00:59:17.429 : en:Chapter 14
01:03:59.127 : en:Chapter 15
01:07:27.502 : en:Chapter 16
01:10:49.078 : en:Chapter 17
01:14:47.858 : en:Chapter 18
01:18:46.513 : en:Chapter 19
01:25:06.852 : en:Chapter 20
01:28:34.601 : en:Chapter 21
01:32:43.767 : en:Chapter 22
01:36:29.951 : en:Chapter 23
01:41:27.540 : en:Chapter 24

Орлов Владимир

Post 29-Oct-2019 15:20

[Quote]

--Сверх(НЕ)естественное / Extra Ordinary (Майк Ахерн, Энда Логман) [2019, Ужасы, фэнтези, комедия , BDRip 1080p] [DUB] [iTunes]--
Информация о фильме
Название: Сверх(НЕ)естественное
Оригинальное название: Extra Ordinary
Год выхода: 2019
Жанр: Ужасы, фэнтези, комедия
Режиссёр: Майк Ахерн, Энда Логман--В ролях: Маив Хиггинс, Бэрри Уорд, Уилл Форте, Клаудия О’Доэрти, Джэми Бимиш, Терри Чандлер, Ристерд Купер, Эмма Коулман, Кэрри Краули, Мэри МакЭвой, Сара О'Фаррелл, Агата Эллис, Валери О’Коннор--О фильме: Скромная Роуз обладает экстрасенсорными способностями, но соседи достают ее лишь просьбами изгнать духов надоедливых родственников. Однажды в ее родном городке объявляется рок-звезда Кристиан Уинтер. Наделенный дьявольской силой, он околдовывает местную девушку, и ее отец в отчаянии просит Роуз о помощи. У героини появляется шанс раскрыть свой дар, а заодно устроить личную жизнь.-- --Страна: Ирландия, Бельгия
Студия: Blinder Films, Epic Pictures Group, Inevitable Pictures
Продолжительность: 01:34:09
Перевод: Дублированный | iTunes--Файл
Качество: BDRip 1080p
Видео: MPEG-4 AVC, 1920x800, 10.5 Mbit/s, 24 fps
Аудио #01: 48 kHz, AC3, 5.1, 384 Kbps | iTunes | RUS |
Аудио #02: 48 kHz, AC3, 5.1, 640 Kbps | Оригинал | ENG |
Субтитры: Русские (Full)--

Скриншоты

       

Тех.данные видеофайла

General
Unique ID: 248023149297439299244161080454962822853 (0xBA97856120F2E009F42E500E11813EC5)
Complete name: D:\Video111\Extra.Ordinary.2019.BDRip.1080p.seleZen.mkv
Format: Matroska
Format version: Version 4
File size: 7.59 GiB
Duration: 1 h 34 min
Overall bit rate: 11.5 Mb/s
Movie name: Extra Ordinary 2019 from селезень
Encoded date: UTC 2019-10-26 13:57:55
Writing application: mkvmerge v22.0.0 ('At The End Of The World') 64-bit
Writing library: libebml v1.3.5 + libmatroska v1.4.8
Video
ID: 1
Format: AVC
Format/Info: Advanced Video Codec
Format profile: [email protected]
Format settings: CABAC / 5 Ref Frames
Format settings, CABAC: Yes
Format settings, Reference: 5 frames
Codec ID: V_MPEG4/ISO/AVC
Duration: 1 h 34 min
Bit rate: 10.5 Mb/s
Width: 1 920 pixels
Height: 800 pixels
Display aspect ratio: 2.40:1
Frame rate mode: Constant
Frame rate: 24.000 FPS
Color space: YUV
Chroma subsampling: 4:2:0
Bit depth: 8 bits
Scan type: Progressive
Bits/(Pixel*Frame): 0.285
Stream size: 6.92 GiB (91%)
Title: Encoded by seleZen
Writing library: x264 core 148 r2705kMod 3f5ed56
Encoding settings: cabac=1 / ref=5 / deblock=1:-2:-2 / analyse=0x3:0x113 / me=umh / subme=11 / psy=1 / fade_compensate=0.00 / psy_rd=1.00:0.00 / mixed_ref=1 / me_range=32 / chroma_me=1 / trellis=2 / 8x8dct=1 / cqm=0 / deadzone=21,11 / fast_pskip=0 / chroma_qp_offset=-2 / threads=24 / lookahead_threads=6 / sliced_threads=0 / nr=0 / decimate=0 / interlaced=0 / bluray_compat=0 / constrained_intra=0 / fgo=0 / bframes=10 / b_pyramid=2 / b_adapt=2 / b_bias=0 / direct=3 / weightb=1 / open_gop=0 / weightp=2 / keyint=240 / keyint_min=24 / scenecut=40 / intra_refresh=0 / rc_lookahead=50 / rc=2pass / mbtree=0 / bitrate=10500 / ratetol=1.0 / qcomp=0.60 / qpmin=0 / qpmax=51 / qpstep=4 / cplxblur=20.0 / qblur=0.5 / vbv_maxrate=50000 / vbv_bufsize=62500 / nal_hrd=none / filler=0 / ip_ratio=1.40 / pb_ratio=1.30 / aq=3:0.80
Language: English
Default: Yes
Forced: No
Audio #1
ID: 2
Format: AC-3
Format/Info: Audio Coding 3
Commercial name: Dolby Digital
Codec ID: A_AC3
Duration: 1 h 34 min
Bit rate mode: Constant
Bit rate: 384 kb/s
Channel(s): 6 channels
Channel layout: L R C LFE Ls Rs
Sampling rate: 48.0 kHz
Frame rate: 31.250 FPS (1536 SPF)
Bit depth: 16 bits
Compression mode: Lossy
Stream size: 259 MiB (3%)
Title: iTunes
Language: Russian
Service kind: Complete Main
Default: Yes
Forced: Yes
Audio #2
ID: 3
Format: AC-3
Format/Info: Audio Coding 3
Commercial name: Dolby Digital
Codec ID: A_AC3
Duration: 1 h 34 min
Bit rate mode: Constant
Bit rate: 640 kb/s
Channel(s): 6 channels
Channel layout: L R C LFE Ls Rs
Sampling rate: 48.0 kHz
Frame rate: 31.250 FPS (1536 SPF)
Bit depth: 16 bits
Compression mode: Lossy
Stream size: 432 MiB (6%)
Title: Original
Language: English
Service kind: Complete Main
Default: No
Forced: No
Text
ID: 4
Format: UTF-8
Codec ID: S_TEXT/UTF8
Codec ID/Info: UTF-8 Plain Text
Duration: 1 h 29 min
Bit rate: 118 b/s
Count of elements: 1207
Stream size: 77.3 KiB (0%)
Title: Full
Language: Russian
Default: No
Forced: No
Menu
00:00:00.000: de:00:00:00.000
00:10:08.542: de:00:10:08.542
00:20:12.667: de:00:20:12.667
00:28:46.500: de:00:28:46.500
00:36:38.958: de:00:36:38.958
00:46:45.250: de:00:46:45.250
00:57:59.292: de:00:57:59.292
01:06:36.542: de:01:06:36.542
01:17:14.750: de:01:17:14.750
01:28:53.458: de:01:28:53.458

Орлов Владимир

Post 28-Oct-2019 23:57

[Quote]

--Герой (Карен Оганесян) [2019, триллер, криминал, боевик, WEB-DL 1080p] [iTunes]--
Информация о фильме
Название: Герой
Год выхода: 2019
Жанр: Карен Оганесян
Режиссер: Триллер, комедия, боевик, криминал--В ролях: Александр Петров, Владимир Машков, Светлана Ходченкова, Ян Алабушев, Константин Лавроненко, Марина Петренко, Анастасия Тодореску, Тобиас Аспелин--О фильме: 15 лет назад Андрей под руководством своего отца, полковника Родина, прошел обучение в секретной спецшколе, где из подростков готовили агентов Службы внешней разведки. Когда экспериментальный проект закрыли, Андрей «сжёг мосты», остался в Европе и старался не вспоминать о прошлом. Но однажды ему звонит отец, которого все считали погибшим. Тот сообщает, что на Андрея открыта охота, но кто решил его уничтожить — неизвестно. Спасаясь бегством, он находит Машу, с которой учился в спецшколе. Андрею предстоит пройти через любовь и предательство и узнать об истинных масштабах беспощадной шпионской игры, в которую он оказался втянут поневоле.-- --Страна: Россия
Студия: Телеканал «РОССИЯ 1», Карго Фильм
Продолжительность: 01:55:42
Перевод: Не требуется--Файл
Качество: WEB-DL 1080p
Формат: MKV
Кодек: MPEG-4 AVC
Видео: 1920x806 (2,40:1), 25 fps, MPEG-4 AVC ~ 4516 Кbps avg, 0.117 bit/pixel
Аудио: AC3, 48 kHz, 6 ch, ~384.00 kbps avg | русский | iTunes--

Тех.данные видеофайла

Общее
Уникальный идентификатор: 170235280519613153821655473350215410029 (0x80121F57DC2E1BA27FCA9A74C5A7216D)
Полное имя: D:GEROY (2019) WEB-DL 1080p.mkv
Формат: Matroska
Версия формата: Version 4 / Version 2
Размер файла: 3,96 Гбайт
Продолжительность: 1 ч. 55 м.
Общий поток: 4902 Кбит/сек
Название фильма: GEROY (2019) WEB-DL 1080p
Дата кодирования: UTC 2019-10-28 19:56:30
Программа кодирования: mkvmerge v38.0.0 ('The Silent Type') 64-bit
Библиотека кодирования: libebml v1.3.9 + libmatroska v1.5.2
Обложка: Yes
Attachments: cover.jpg
Видео
Идентификатор: 1
Формат: AVC
Формат/Информация: Advanced Video Codec
Профиль формата: [email protected]
Настройки формата: CABAC / 5 Ref Frames
Параметр CABAC формата: Да
Параметр RefFrames формата: 5 кадров
Идентификатор кодека: V_MPEG4/ISO/AVC
Продолжительность: 1 ч. 55 м.
Битрейт: 4516 Кбит/сек
Ширина: 1920 пикселей
Высота: 804 пикселя
Соотношение сторон: 2,40:1
Режим частоты кадров: Постоянный
Частота кадров: 25,000 кадров/сек
Цветовое пространство: YUV
Субдискретизация насыщенности: 4:2:0
Битовая глубина: 8 бит
Тип развёртки: Прогрессивная
Бит/(Пиксели*Кадры): 0.117
Размер потока: 3,65 Гбайт (92%)
Заголовок: GEROY (2019) WEB-DL 1080p
Язык: English
Default: Да
Forced: Нет
Цветовой диапазон: Limited
Основные цвета: BT.709
Характеристики трансфера: BT.709
Коэффициенты матрицы: BT.709
Аудио
Идентификатор: 2
Формат: AC-3
Формат/Информация: Audio Coding 3
Идентификатор кодека: A_AC3
Продолжительность: 1 ч. 55 м.
Вид битрейта: Постоянный
Битрейт: 384 Кбит/сек
Каналы: 6 каналов
Расположение каналов: Front: L C R, Side: L R, LFE
Частота: 48,0 КГц
Частота кадров: 31,250 кадров/сек (1536 SPF)
Битовая глубина: 16 бит
Метод сжатия: С потерями
Задержка видео: -40 мс.
Размер потока: 318 Мбайт (8%)
Заголовок: iTunes | GEROY (2019) WEB-DL 1080p
Язык: Russian
Default: Да
Forced: Нет
Меню
00:00:00.000: en:Глава 1
00:08:07.120: en:Глава 2
00:16:04.799: en:Глава 3
00:23:50.719: en:Глава 4
00:31:17.319: en:Глава 5
00:38:27.799: en:Глава 6
00:46:04.679: en:Глава 7
00:54:12.238: en:Глава 8
01:01:21.437: en:Глава 9
01:09:38.196: en:Глава 10
01:17:53.196: en:Глава 11
01:24:54.756: en:Глава 12
01:32:16.356: en:Глава 13
01:39:37.435: en:Глава 14
01:46:51.674: en:Глава 15

Скриншоты

       

Орлов Владимир

Post 20-Sep-2019 03:42

[Quote]

--Анна / Anna (Люк Бессон) [2019, боевик, триллер, | 4K | HDR | UHD BDRemux 2160p] [DUB,MVO] [iTunes]-- Информация о фильме
Название: Анна
Оригинальное название: Anna
Год выхода: 2019
Жанр: Боевик, триллер
Режиссер: Люк Бессон--В ролях: Саша Лусс, Хелен Миррен, Люк Эванс, Киллиан Мёрфи, Лера Абова, Александр Петров (II), Никита Павленко, Анна Криппа, Алексей Маслодудов, Эрик Годон, Иван Франек, Жан-Батист Пюэк, Хакан Кан, Элисон Вилер, Эндрю Ховард, Ян Оливер Шрёдер, Луиз Паркер, Лорен Ферраро, Мабу Куяте, Полин Хорау, Жан-Марк Монтальто--О фильме: Действие фильма разворачивается в конце 1980-х годов. Анна (Саша Лусс) – молодая симпатичная девушка – оказывается на пороге самых значительных событий в своей жизни. Из-за своей поразительной красоты она кажется слабой и беззащитной, но под этой маской скрывается неуемная мощь одного из самых опасных наемных убийц в мире. Анна оказывается втянутой в цепочку криминальных событий, и все происходящее с ней грозит смертельной опасностью.----Страна: Франция, США
Студия: Summit Entertainment, EuropaCorp, Canal+
Продолжительность: 01:58:59
Перевод(ы):
#1: Дублированный iTunes
#2: Профессиональный многоголосый HDRezka Studio--Качество: BDRemux 2160p
Видео: 3840x2160 at 23.976 fps, MPEG-H HEVC HDR Video, 66300 kbps avg
Аудио #01: 48 kHz, AC3, 5.1, 384 Kbps | iTunes | RUS |
Аудио #02: 48 kHz, AC3, 2.0, 192 Kbps | HDRezka Studio | RUS |
Аудио #03: 48 kHz, TrueHD, 7.1, 3616 Kbps | Оригинал | ENG |
Аудио #04: 48 kHz, AC3, 5.1, 640 Kbps | Оригинал | ENG |
Субтитры: Английские
--

Скриншоты

Тех.данные видеофайла

General
Unique ID: 228435844044119645847425272969070546235 (0xABDB24AB7B2AC98F43E538EA92028D3B)
Complete name: D:\Video111\Blu Ray\Anna.2019.BDREMUX.2160p.HDR.seleZen.mkv
Format: Matroska
Format version: Version 4
File size: 59.2 GiB
Duration: 1 h 59 min
Overall bit rate mode: Variable
Overall bit rate: 71.2 Mb/s
Movie name: Anna 2019 4K from селезень
Encoded date: UTC 2019-09-19 23:55:01
Writing application: mkvmerge v22.0.0 ('At The End Of The World') 64-bit
Writing library: libebml v1.3.5 + libmatroska v1.4.8
Video
ID: 1
Format: HEVC
Format/Info: High Efficiency Video Coding
Format profile: Main [email protected]@High
HDR format: SMPTE ST 2086, HDR10 compatible
Codec ID: V_MPEGH/ISO/HEVC
Duration: 1 h 58 min
Bit rate: 66.3 Mb/s
Width: 3 840 pixels
Height: 2 160 pixels
Display aspect ratio: 16:9
Frame rate mode: Constant
Frame rate: 23.976 (24000/1001) FPS
Color space: YUV
Chroma subsampling: 4:2:0 (Type 2)
Bit depth: 10 bits
Bits/(Pixel*Frame): 0.334
Stream size: 55.1 GiB (93%)
Language: English
Default: Yes
Forced: No
Color range: Limited
Color primaries: BT.2020
Transfer characteristics: PQ
Matrix coefficients: BT.2020 non-constant
Mastering display color pri: Display P3
Mastering display luminance: min: 0.0010 cd/m2, max: 1000 cd/m2
Maximum Content Light Level: 632 cd/m2
Maximum Frame-Average Light: 250 cd/m2
Audio #1
ID: 2
Format: AC-3
Format/Info: Audio Coding 3
Commercial name: Dolby Digital
Codec ID: A_AC3
Duration: 1 h 59 min
Bit rate mode: Constant
Bit rate: 384 kb/s
Channel(s): 6 channels
Channel layout: L R C LFE Ls Rs
Sampling rate: 48.0 kHz
Frame rate: 31.250 FPS (1536 SPF)
Bit depth: 16 bits
Compression mode: Lossy
Stream size: 327 MiB (1%)
Title: Dub [iTunes]
Language: Russian
Service kind: Complete Main
Default: Yes
Forced: Yes
Audio #2
ID: 3
Format: AC-3
Format/Info: Audio Coding 3
Commercial name: Dolby Digital
Codec ID: A_AC3
Duration: 1 h 58 min
Bit rate mode: Constant
Bit rate: 192 kb/s
Channel(s): 2 channels
Channel layout: L R
Sampling rate: 48.0 kHz
Frame rate: 31.250 FPS (1536 SPF)
Bit depth: 16 bits
Compression mode: Lossy
Stream size: 163 MiB (0%)
Title: MVO [HDRezka Studio]
Language: Russian
Service kind: Complete Main
Default: No
Forced: Yes
Audio #3
ID: 4
Format: MLP FBA 16-ch
Format/Info: Meridian Lossless Packing FBA with 16-channel presentation
Commercial name: Dolby TrueHD with Dolby Atmos
Codec ID: A_TRUEHD
Duration: 1 h 58 min
Bit rate mode: Variable
Bit rate: 3 616 kb/s
Maximum bit rate: 6 441 kb/s
Channel(s): 8 channels
Channel layout: L R C LFE Ls Rs Lb Rb
Sampling rate: 48.0 kHz
Frame rate: 1 200.000 FPS (40 SPF)
Compression mode: Lossless
Stream size: 3.01 GiB (5%)
Title: Original
Language: English
Default: No
Forced: No
Number of dynamic objects: 15
Bed channel count: 1 channel
Bed channel configuration: LFE
Audio #4
ID: 5
Format: AC-3
Format/Info: Audio Coding 3
Commercial name: Dolby Digital
Codec ID: A_AC3
Duration: 1 h 58 min
Bit rate mode: Constant
Bit rate: 640 kb/s
Channel(s): 6 channels
Channel layout: L R C LFE Ls Rs
Sampling rate: 48.0 kHz
Frame rate: 31.250 FPS (1536 SPF)
Bit depth: 16 bits
Compression mode: Lossy
Stream size: 545 MiB (1%)
Language: English
Service kind: Complete Main
Default: No
Forced: No
Text
ID: 6
Format: UTF-8
Codec ID: S_TEXT/UTF8
Codec ID/Info: UTF-8 Plain Text
Duration: 1 h 52 min
Bit rate: 47 b/s
Count of elements: 1308
Stream size: 39.3 KiB (0%)
Title: Full
Language: English
Default: No
Forced: No
Menu
00:00:00.000: en:Chapter 01
00:06:14.291: en:Chapter 02
00:16:42.210: en:Chapter 03
00:21:09.185: en:Chapter 04
00:31:16.708: en:Chapter 05
00:35:25.832: en:Chapter 06
00:45:57.338: en:Chapter 07
00:53:43.262: en:Chapter 08
01:00:52.732: en:Chapter 09
01:08:39.907: en:Chapter 10
01:14:24.085: en:Chapter 11
01:24:15.133: en:Chapter 12
01:28:36.520: en:Chapter 13
01:36:36.582: en:Chapter 14
01:46:36.390: en:Chapter 15
01:51:04.783: en:Chapter 16

Clavik

Post 10-Sep-2019 20:59

[Quote]

Стекло / Glass (2019) HDTV [H.264/1080p-LQ]- Производство: США / Walt Disney Pictures, Universal Pictures, Blinding Edge Pictures
Жанр: Фантастика, триллер, драма, детектив
Режиссер: М. Найт Шьямалан
Актеры: Джеймс МакЭвой, Брюс Уиллис, Сэмюэл Л. Джексон, Сара Полсон, Аня Тейлор-Джой, Спенсер Трит Кларк, Чарлэйн Вудард, Люк Кирби, Адам Дэвид Томпсон, М. Найт Шьямалан
Описание:
В поисках встречи с обладающим фантастическими способностями и снова убивающем девушек Зверем Дэвид Данн выходит на след Кевина Крамба. Но решающая схватка не успевает состояться, наших героев ловят и отправляют в психиатрическую больницу. Там уже содержится хрупкий человек Элайджа Прайс, несколько лет назад устроивший крушение поезда, единственным выжившим в котором оказался Дэвид. Психиатр Элли Стэйпл пытается убедить этих трёх пациентов, что они не обладают сверхспособностями, и всему можно найти рациональное объяснение.

Возраст: 16+ (зрителям, достигшим 16 лет)
Рейтинг MPAA: PG-13 (детям до 13 лет просмотр нежелателен)
Дата мировой премьеры: 7 января 2019
Дата премьеры в России: 17 января 2019
Цифровой релиз: 16 апреля 2019

Продолжительность: 02:04:26
Качество видео: HDTV (1080p)
Перевод: Дублированный, профессиональный многоголосый
Субтитры: Русские (forced (hardsub), full), английские (full)
Видео: AVC/H.264, 1920x1080, ~5749 Kbps
Аудио #1: AC3, 6 ch, 384 Kbps - Русский (iTunes)
Аудио #2: AC3, 2 ch, 192 Kbps - Русский (HDRezka Studio)
Аудио #3: AC3, 6 ch, 384 Kbps - Английский

MediaInfo:

Общее
Уникальный идентификатор : 197276603019507460406469689921364048302 (0x946A177A30B8A66DBD6800F6089439AE)
Полное имя : D:\NNM\Стекло\Glass.2019.HDTV.1080p-LQ.Open.Matte.mkv
Формат : Matroska
Версия формата : Version 4
Размер файла : 5,83 Гбайт
Продолжительность : 2 ч. 4 м.
Общий поток : 6708 Кбит/сек
Дата кодирования : UTC 2019-09-09 15:55:23
Программа кодирования : mkvmerge v8.3.0 ('Over the Horizon') 32bit
Библиотека кодирования : libebml v1.3.1 + libmatroska v1.4.2
Видео
Идентификатор : 1
Формат : AVC
Формат/Информация : Advanced Video Codec
Профиль формата : [email protected]
Настройки формата : CABAC / 4 Ref Frames
Параметр CABAC формата : Да
Параметр RefFrames формата : 4 кадра
Идентификатор кодека : V_MPEG4/ISO/AVC
Продолжительность : 2 ч. 4 м.
Битрейт : 5749 Кбит/сек
Ширина : 1920 пикселей
Высота : 1080 пикселей
Соотношение сторон : 16:9
Режим частоты кадров : Переменный
Частота кадров : 50,000 кадров/сек
Частота кадров в оригинале : 25,000 кадров/сек
Стандарт вещания : Component
Цветовое пространство : YUV
Субдискретизация насыщенности : 4:2:0
Битовая глубина : 8 бит
Тип развёртки : Чересстрочная
Метод сохранения типа развёртки : Раздельные поля
Порядок развёртки : Верхнее поле первое
Бит/(Пиксели*Кадры) : 0.055
Размер потока : 5,00 Гбайт (86%)
Default : Да
Forced : Нет
Цветовой диапазон : Limited
Основные цвета : BT.709
Характеристики трансфера : BT.709
Коэффициенты матрицы : BT.709
Аудио #1
Идентификатор : 2
Формат : AC-3
Формат/Информация : Audio Coding 3
Коммерческое название : Dolby Digital
Идентификатор кодека : A_AC3
Продолжительность : 2 ч. 3 м.
Вид битрейта : Постоянный
Битрейт : 384 Кбит/сек
Каналы : 6 каналов
Channel layout : L R C LFE Ls Rs
Частота : 48,0 КГц
Частота кадров : 31,250 кадров/сек (1536 SPF)
Битовая глубина : 16 бит
Метод сжатия : С потерями
Размер потока : 340 Мбайт (6%)
Заголовок : DUB
Язык : Russian
ServiceKind/String : Complete Main
Default : Да
Forced : Нет
Аудио #2
Идентификатор : 3
Формат : AC-3
Формат/Информация : Audio Coding 3
Коммерческое название : Dolby Digital
Идентификатор кодека : A_AC3
Продолжительность : 2 ч. 3 м.
Вид битрейта : Постоянный
Битрейт : 192 Кбит/сек
Каналы : 2 канала
Channel layout : L R
Частота : 48,0 КГц
Частота кадров : 31,250 кадров/сек (1536 SPF)
Битовая глубина : 16 бит
Метод сжатия : С потерями
Размер потока : 170 Мбайт (3%)
Заголовок : MVO
Язык : Russian
ServiceKind/String : Complete Main
Default : Нет
Forced : Нет
Аудио #3
Идентификатор : 4
Формат : AC-3
Формат/Информация : Audio Coding 3
Коммерческое название : Dolby Digital
Идентификатор кодека : A_AC3
Продолжительность : 2 ч. 3 м.
Вид битрейта : Постоянный
Битрейт : 384 Кбит/сек
Каналы : 6 каналов
Channel layout : L R C LFE Ls Rs
Частота : 48,0 КГц
Частота кадров : 31,250 кадров/сек (1536 SPF)
Битовая глубина : 16 бит
Метод сжатия : С потерями
Размер потока : 340 Мбайт (6%)
Язык : English
ServiceKind/String : Complete Main
Default : Нет
Forced : Нет
Текст #1
Идентификатор : 5
Формат : UTF-8
Идентификатор кодека : S_TEXT/UTF8
Идентификатор кодека/Информация : UTF-8 Plain Text
Продолжительность : 1 ч. 56 м.
Битрейт : 75 бит/сек
ElementCount : 1294
Размер потока : 64,8 Кбайт (0%)
Язык : Russian
Default : Нет
Forced : Нет
Текст #2
Идентификатор : 6
Формат : UTF-8
Идентификатор кодека : S_TEXT/UTF8
Идентификатор кодека/Информация : UTF-8 Plain Text
Продолжительность : 1 ч. 56 м.
Битрейт : 45 бит/сек
ElementCount : 1201
Размер потока : 38,8 Кбайт (0%)
Язык : English
Default : Нет
Forced : Нет
Скриншоты:        

}{@R0N

Post 01-Sep-2019 22:19

[Quote]

Люди Икс: Тёмный Феникс / Dark Phoenix - Производство: США, 20th Century Fox Film Corporation, Bad Hat Harry Productions, Donners' Company, Kinberg Genre, Marvel Entertainment, TSG Entertainment
Жанр: фантастика, боевик, приключения
Режиссер: Саймон Кинберг
Продюсер: Саймон Кинберг, Хатч Паркер, Лорен Шулер Доннер
Актеры: Джеймс МакЭвой, Майкл Фассбендер, Дженнифер Лоуренс, Николас Холт, Софи Тёрнер, Тай Шеридан, Александра Шипп, Эван Питерс, Коди Смит-Макфи, Джессика Честейн
Описание:
История Джин Грей, которая разворачивается в тот момент, когда героиня превращается в культового Тёмного Феникса. Во время опасной для жизни спасательной миссии в космосе девушка оказывается поражена таинственной космической силой, которая превращает её в одного из самых могущественных мутантов. В борьбе с этой всё более изменчивой мощью и со своими собственными демонами Джин выходит из-под контроля: раскалывает семью Людей Икс и угрожает уничтожить всю нашу планету.

Возраст: 16+ (зрителям, достигшим 16 лет)
Рейтинг MPAA: PG-13 (детям до 13 лет просмотр нежелателен)
Дата мировой премьеры: 5 июня 2019
Дата российской премьеры: 6 июня 2019, «Двадцатый Век Фокс СНГ»
Продолжительность: 01:53:56
Качество видео: BDRip (CHD) Сэмпл
Перевод: Дублированный (Лицензия)
Субтитры: Русские (Forced, Full), Украинские (Forced, Full), Английские (SDH)
Видео: AVC/H.264, 1920x804 (2.40:1), 13.5 Mbps, 23.976 fps
Аудио »1: DTS, 6 ch, 48 kHz, 768 Kbps | Русский
Аудио »2: АС3, 6 ch, 48 kHz, 448 Kbps | Украинский
Аудио »3: DTS, 6 ch, 48 kHz, 1509 Kbps | Английский

MediaInfo:

Общее
Уникальный идентификатор : 171124711942969251122407172966007475119 (0x80BD6BB2B449B73EA264B1FAA68C8BAF)
Полное имя : D:\X-MEN_DP_2019_BDRip_1080p-BLUEBIRD.mkv
Формат : Matroska
Версия формата : Version 4
Размер файла : 13,2 Гбайт
Продолжительность : 1 ч. 53 м.
Общий поток : 16,5 Мбит/сек
Название фильма : X-MEN_DP_2019_BDRip_1080p-BLUEBIRD
Дата кодирования : UTC 2019-08-31 17:35:26
Программа кодирования : mkvmerge v6.9.1 ('Blue Panther') 32bit built on Apr 18 2014 18:15:44
Библиотека кодирования : libebml v1.3.0 + libmatroska v1.4.1
Обложка : Yes
Attachments : cover.png
Видео
Идентификатор : 1
Формат : AVC
Формат/Информация : Advanced Video Codec
Профиль формата : [url=mailto:[email protected]][email protected][/url]
Настройки формата : CABAC / 4 Ref Frames
Параметр CABAC формата : Да
Параметр RefFrames формата : 4 кадра
Идентификатор кодека : V_MPEG4/ISO/AVC
Продолжительность : 1 ч. 53 м.
Битрейт : 13,5 Мбит/сек
Ширина : 1920 пикселей
Высота : 804 пикселя
Соотношение сторон : 2,40:1
Режим частоты кадров : Постоянный
Частота кадров : 23,976 (24000/1001) кадра/сек
Цветовое пространство : YUV
Субдискретизация насыщенности : 4:2:0
Битовая глубина : 8 бит
Тип развёртки : Прогрессивная
Бит/(Пиксели*Кадры) : 0.364
Размер потока : 10,7 Гбайт (82%)
Заголовок : X-MEN_DP_2019_BDRip_1080p-CHD
Библиотека кодирования : x264 core 157 r2867+150 7e91e0e t_mod_Custom_2 [[email protected] X86_64]
Настройки программы : cabac=1 / ref=4 / deblock=1:-3:-3 / analyse=0x3:0x133 / me=umh / subme=11 / psy=1 / fade_compensate=0.00 / psy_rd=1.00:0.00 / mixed_ref=1 / me_range=64 / chroma_me=1 / trellis=2 / 8x8dct=1 / cqm=0 / deadzone=21,11 / fast_pskip=0 / chroma_qp_offset=-3 / threads=24 / lookahead_threads=4 / sliced_threads=0 / nr=0 / decimate=1 / interlaced=0 / bluray_compat=0 / constrained_intra=0 / fgo=0 / bframes=8 / b_pyramid=2 / b_adapt=2 / b_bias=0 / direct=3 / weightb=1 / open_gop=0 / weightp=2 / keyint=250 / keyint_min=23 / scenecut=40 / intra_refresh=0 / rc=crf / mbtree=0 / crf=17.0000 / qcomp=0.70 / qpmin=0:0:0 / qpmax=69:69:69 / qpstep=4 / ip_ratio=1.40 / pb_ratio=1.30 / aq=3:1.00 / aq-sensitivity=10.00 / aq-factor=1.00:1.00:1.00 / aq2=0 / aq3=0
Язык : English
Default : Да
Forced : Нет
Аудио #1
Идентификатор : 2
Формат : DTS
Формат/Информация : Digital Theater Systems
Идентификатор кодека : A_DTS
Продолжительность : 1 ч. 53 м.
Вид битрейта : Постоянный
Битрейт : 768 Кбит/сек
Каналы : 6 каналов
ChannelLayout : C L R Ls Rs LFE
Частота : 48,0 КГц
Частота кадров : 93,750 кадра/сек (512 SPF)
Битовая глубина : 24 бит
Метод сжатия : С потерями
Размер потока : 626 Мбайт (5%)
Заголовок : [DUB] DTS 5.1 @ 755 kbps
Язык : Russian
Default : Да
Forced : Нет
Аудио #2
Идентификатор : 3
Формат : AC-3
Формат/Информация : Audio Coding 3
Коммерческое название : Dolby Digital
Идентификатор кодека : A_AC3
Продолжительность : 1 ч. 53 м.
Вид битрейта : Постоянный
Битрейт : 448 Кбит/сек
Каналы : 6 каналов
ChannelLayout : L R C LFE Ls Rs
Частота : 48,0 КГц
Частота кадров : 31,250 кадров/сек (1536 SPF)
Битовая глубина : 16 бит
Метод сжатия : С потерями
Размер потока : 365 Мбайт (3%)
Заголовок : [DUB] DD 5.1 @ 448 kbps
Язык : Ukrainian
ServiceKind/String : Complete Main
Default : Нет
Forced : Нет
Аудио #3
Идентификатор : 4
Формат : DTS
Формат/Информация : Digital Theater Systems
Идентификатор кодека : A_DTS
Продолжительность : 1 ч. 53 м.
Вид битрейта : Постоянный
Битрейт : 1509 Кбит/сек
Каналы : 6 каналов
ChannelLayout : C L R Ls Rs LFE
Частота : 48,0 КГц
Частота кадров : 93,750 кадра/сек (512 SPF)
Битовая глубина : 24 бит
Метод сжатия : С потерями
Размер потока : 1,20 Гбайт (9%)
Заголовок : [ORIGINAL] DTS 5.1 @ 1509 kbps (Core)
Язык : English
Default : Нет
Forced : Нет
Текст #1
Идентификатор : 5
Формат : PGS
Режим смешивания : zlib
Идентификатор кодека : S_HDMV/PGS
Идентификатор кодека/Информация : Picture based subtitle format used on BDs/HD-DVDs
Заголовок : Full-length
Язык : Russian
Default : Нет
Forced : Нет
Текст #2
Идентификатор : 6
Формат : PGS
Режим смешивания : zlib
Идентификатор кодека : S_HDMV/PGS
Идентификатор кодека/Информация : Picture based subtitle format used on BDs/HD-DVDs
Заголовок : Full-length
Язык : Ukrainian
Default : Нет
Forced : Нет
Текст #3
Идентификатор : 7
Формат : PGS
Режим смешивания : zlib
Идентификатор кодека : S_HDMV/PGS
Идентификатор кодека/Информация : Picture based subtitle format used on BDs/HD-DVDs
Заголовок : SDH
Язык : English
Default : Нет
Forced : Нет
Текст #4
Идентификатор : 8
Формат : PGS
Режим смешивания : zlib
Идентификатор кодека : S_HDMV/PGS
Идентификатор кодека/Информация : Picture based subtitle format used on BDs/HD-DVDs
Заголовок : Forced
Язык : Russian
Default : Да
Forced : Нет
Текст #5
Идентификатор : 9
Формат : PGS
Режим смешивания : zlib
Идентификатор кодека : S_HDMV/PGS
Идентификатор кодека/Информация : Picture based subtitle format used on BDs/HD-DVDs
Заголовок : Forced
Язык : Ukrainian
Default : Нет
Forced : Нет
Меню
00:00:00.000 : en:00:00:00.000
00:03:28.875 : en:00:03:28.875
00:07:34.621 : en:00:07:34.621
00:11:42.201 : en:00:11:42.201
00:15:44.110 : en:00:15:44.110
00:18:37.408 : en:00:18:37.408
00:25:24.481 : en:00:25:24.481
00:31:40.357 : en:00:31:40.357
00:34:19.307 : en:00:34:19.307
00:40:07.447 : en:00:40:07.447
00:44:36.090 : en:00:44:36.090
00:49:07.778 : en:00:49:07.778
00:55:38.168 : en:00:55:38.168
00:58:57.409 : en:00:58:57.409
01:02:57.190 : en:01:02:57.190
01:10:40.111 : en:01:10:40.111
01:13:42.418 : en:01:13:42.418
01:19:33.477 : en:01:19:33.477
01:22:35.701 : en:01:22:35.701
01:25:49.061 : en:01:25:49.061
01:30:38.350 : en:01:30:38.350
01:32:48.188 : en:01:32:48.188
01:37:59.624 : en:01:37:59.624
01:45:01.045 : en:01:45:01.045

[email protected]:

x264 [info]: frame I:1247 Avg QP:12.12 size:218455
x264 [info]: frame P:39541 Avg QP:13.77 size:114550
x264 [info]: frame B:123122 Avg QP:15.24 size: 56645
Скриншоты:
       

Theseus

Post 12-Aug-2019 14:22

[Quote]

Аладдин / Aladdin- Год выхода: 2019
Страна: США
Жанр: Мюзикл, фэнтези, мелодрама, комедия, приключения, семейный
Продолжительность: 02:07:58
Перевод: Профессиональный (многоголосый, закадровый) [HDRezka Studio]
Субтитры: английские (full, SDH)-Режиссер: Гай Ричи-В ролях: Мена Массуд, Наоми Скотт, Уилл Смит, Билли Магнуссен, Алан Тьюдик, Назим Педрад, Марван Кензари, Нуман Аджар, Фрэнк Уэлкер, Навид Негабан-О фильме: Молодой воришка по имени Аладдин хочет стать принцем, чтобы жениться на принцессе Жасмин. Тем временем визирь Аграбы Джафар намеревается захватить власть над Аграбой, а для этого он стремится заполучить волшебную лампу, хранящуюся в пещере чудес, доступ к которой разрешен лишь тому, кого называют «алмаз неограненный», и этим человеком является не кто иной, как сам Аладдин.- -Качество: WEB-DL 1080p
Формат: MKV
Видео кодек: x.264
Аудио кодек: AC3
Видео: AVC, 1920x1080 (16:9), 23.976 fps, 5 912 kb/s
Аудио 1: AC-3, 48.0 kHz, 2 ch, 192 kb/s | RUS (MVO / HDRezka Studio)
Аудио 2: AC-3, 48.0 kHz, 2 ch, 192 kb/s | UKR (DUB / Line)
Аудио 3: AC-3, 48.0 kHz, 6 ch, 384 kb/s | ENG (Оригинал)-Сэмпл-

MediaInfo

Код:
General
Unique ID                                : 248998893058522385129649344910123740236 (0xBB537142D5B660918D652BD0A2A62C4C)
Complete name                            : Aladdin.2019.1080p.WEB-DL.mkv
Format                                   : Matroska
Format version                           : Version 4
File size                                : 5.97 GiB
Duration                                 : 2 h 7 min
Overall bit rate                         : 6 683 kb/s
Encoded date                             : UTC 2019-08-12 09:43:36
Writing application                      : mkvmerge v8.3.0 ('Over the Horizon') 64bit
Writing library                          : libebml v1.3.1 + libmatroska v1.4.2
Video
ID                                       : 1
Format                                   : AVC
Format/Info                              : Advanced Video Codec
Format profile                           : [email protected]
Format settings                          : CABAC / 2 Ref Frames
Format settings, CABAC                   : Yes
Format settings, ReFrames                : 2 frames
Codec ID                                 : V_MPEG4/ISO/AVC
Duration                                 : 2 h 7 min
Bit rate                                 : 5 912 kb/s
Width                                    : 1 920 pixels
Height                                   : 1 080 pixels
Display aspect ratio                     : 16:9
Frame rate mode                          : Constant
Frame rate                               : 23.976 (24000/1001) FPS
Color space                              : YUV
Chroma subsampling                       : 4:2:0
Bit depth                                : 8 bits
Scan type                                : Progressive
Bits/(Pixel*Frame)                       : 0.119
Stream size                              : 5.28 GiB (88%)
Writing library                          : x264 core 155 r2901 7d0ff22
Default                                  : Yes
Forced                                   : No
Color range                              : Limited
Color primaries                          : BT.709
Transfer characteristics                 : BT.709
Matrix coefficients                      : BT.709
Audio #1
ID                                       : 2
Format                                   : AC-3
Format/Info                              : Audio Coding 3
Commercial name                          : Dolby Digital
Codec ID                                 : A_AC3
Duration                                 : 2 h 7 min
Bit rate mode                            : Constant
Bit rate                                 : 192 kb/s
Channel(s)                               : 2 channels
Channel layout                           : L R
Sampling rate                            : 48.0 kHz
Frame rate                               : 31.250 FPS (1536 SPF)
Bit depth                                : 16 bits
Compression mode                         : Lossy
Stream size                              : 176 MiB (3%)
Title                                    : MVO (HDRezka Studio)
Language                                 : Russian
Default                                  : Yes
Forced                                   : No
Audio #2
ID                                       : 3
Format                                   : AC-3
Format/Info                              : Audio Coding 3
Commercial name                          : Dolby Digital
Codec ID                                 : A_AC3
Duration                                 : 2 h 7 min
Bit rate mode                            : Constant
Bit rate                                 : 192 kb/s
Channel(s)                               : 2 channels
Channel layout                           : L R
Sampling rate                            : 48.0 kHz
Frame rate                               : 31.250 FPS (1536 SPF)
Bit depth                                : 16 bits
Compression mode                         : Lossy
Stream size                              : 176 MiB (3%)
Title                                    : DUB (Ledoyen, Line)
Language                                 : Ukrainian
Default                                  : No
Forced                                   : No
Audio #3
ID                                       : 4
Format                                   : AC-3
Format/Info                              : Audio Coding 3
Commercial name                          : Dolby Digital
Codec ID                                 : A_AC3
Duration                                 : 2 h 7 min
Bit rate mode                            : Constant
Bit rate                                 : 384 kb/s
Channel(s)                               : 6 channels
Channel layout                           : L R C LFE Ls Rs
Sampling rate                            : 48.0 kHz
Frame rate                               : 31.250 FPS (1536 SPF)
Bit depth                                : 16 bits
Compression mode                         : Lossy
Stream size                              : 351 MiB (6%)
Language                                 : English
Default                                  : No
Forced                                   : No
Text #1
ID                                       : 5
Format                                   : UTF-8
Codec ID                                 : S_TEXT/UTF8
Codec ID/Info                            : UTF-8 Plain Text
Duration                                 : 1 h 58 min
Bit rate                                 : 50 b/s
Count of elements                        : 1682
Stream size                              : 43.4 KiB (0%)
Title                                    : Full
Language                                 : English
Default                                  : No
Forced                                   : No
Text #2
ID                                       : 6
Format                                   : UTF-8
Codec ID                                 : S_TEXT/UTF8
Codec ID/Info                            : UTF-8 Plain Text
Duration                                 : 2 h 7 min
Bit rate                                 : 69 b/s
Count of elements                        : 2433
Stream size                              : 65.1 KiB (0%)
Title                                    : SDH
Language                                 : English
Default                                  : No
Forced                                   : No

Трейлер

-     - - -Автор релиза - Theseus

Theseus

Post 21-Jul-2019 21:50

[Quote]

Люди в черном: Интернэшнл / Men in Black International- Производство: США, Amblin Entertainment, Columbia Pictures, MacDonald/Parkes Productions, Original Film, Sony Pictures Entertainment (SPE), Amblin Entertainment, Tencent Pictures, The Hideaway Entertainment
Жанр: Фантастика, боевик, комедия, приключения
Продолжительность: 01:54:31
Режиссер: Ф. Гэри Грей
Продюсер: Лори МакДональд, Уолтер Ф. Паркс, Давид Бобэр
Актеры: Крис Хемсворт, Тесса Томпсон, Кумэйл Нанджиани, Ребекка Фергюсон, Рейф Сполл, Эмма Томпсон, Лиам Нисон, Лоран Буржуа, Ларри Буржуа, Кайван Новак
Описание:
Люди в черном, тайная организация на страже покоя и безопасности Земли, уже не раз защищали нас от нападения отбросов Вселенной. На этот раз самая большая опасность для мирового сообщества, которой агентам предстоит противостоять — шпион в их рядах.

Качество видео: WEBRip 1080p
Перевод: Дублированный (Чистый звук)
Субтитры: Корейские (вшитые, неотключаемые)
Видео: AVC/H.264, 1920x1080, 6100 kbps, 23.976 fps
Аудио: АС3, 2 ch, 48 kHz, 384 Kbps | Русский
Присутствует реклама
Сэмпл

MediaInfo:

Общее
Уникальный идентификатор : 174408086897664195546615312772845128380 (0x8335C694ED638CA6B13B0FDC8A59CABC)
Полное имя : Люди.в.черном.Интернэшнл.2019.WEBRip.[1080p].NNMClub.mkv
Формат : Matroska
Версия формата : Version 4
Размер файла : 5,19 Гбайт
Продолжительность : 1 ч. 54 м.
Режим общего битрейта : Переменный
Общий поток : 6486 Кбит/сек
Дата кодирования : UTC 2019-07-20 20:35:40
Программа кодирования : mkvmerge v8.3.0 ('Over the Horizon') 64bit
Библиотека кодирования : libebml v1.3.1 + libmatroska v1.4.2
Видео
Идентификатор : 1
Формат : AVC
Формат/Информация : Advanced Video Codec
Профиль формата : [url=mailto:[email protected]][email protected][/url]
Настройки формата : CABAC / 4 Ref Frames
Параметр CABAC формата : Да
Параметр RefFrames формата : 4 кадра
Идентификатор кодека : V_MPEG4/ISO/AVC
Продолжительность : 1 ч. 54 м.
Вид битрейта : Переменный
Битрейт : 6100 Кбит/сек
Максимальный битрейт : 7000 Кбит/сек
Ширина : 1920 пикселей
Высота : 1080 пикселей
Соотношение сторон : 16:9
Режим частоты кадров : Постоянный
Частота кадров : 23,976 (24000/1001) кадра/сек
Стандарт вещания : Component
Цветовое пространство : YUV
Субдискретизация насыщенности : 4:2:0
Битовая глубина : 8 бит
Тип развёртки : Прогрессивная
Бит/(Пиксели*Кадры) : 0.123
Размер потока : 4,88 Гбайт (94%)
Язык : English
Default : Да
Forced : Нет
Цветовой диапазон : Limited
Основные цвета : BT.709
Характеристики трансфера : BT.709
Коэффициенты матрицы : BT.709
Аудио
Идентификатор : 2
Формат : AC-3
Формат/Информация : Audio Coding 3
Коммерческое название : Dolby Digital
Идентификатор кодека : A_AC3
Продолжительность : 1 ч. 54 м.
Вид битрейта : Постоянный
Битрейт : 384 Кбит/сек
Каналы : 2 канала
ChannelLayout : L R
Частота : 48,0 КГц
Частота кадров : 31,250 кадров/сек (1536 SPF)
Битовая глубина : 16 бит
Метод сжатия : С потерями
Размер потока : 315 Мбайт (6%)
Язык : Russian
ServiceKind/String : Complete Main
Default : Да
Forced : Нет
Скриншоты:
       

Theseus

Post 18-Jul-2019 14:30

[Quote]

Хеллбой / Hellboy- Год выхода: 2019
Страна: США
Жанр: Фэнтези, боевик, приключения
Продолжительность: 02:01:02
Перевод 1: Профессиональный дублированный | iTunes
Перевод 2: Профессиональный многоголосый | СВ Студия
Субтитры: Русские (полные, полные [ненорматив], форсированные) , английские-Режиссер: Нил Маршалл-В ролях: Дэвид Харбор, Милла Йовович, Иэн Макшейн, Саша Лейн, Дэниел Дэ Ким, Томас Хейден Чёрч, Пенелопа Митчелл, Софи Оконедо, Брин Глисон, Алистер Петри, Лайла Морс, Стивен Грэм-О фильме: Близится час битвы Хеллбоя с Кровавой королевой, жаждущей отомстить всему человечеству за века в заточении. Оказавшись в эпицентре столкновения миров людей и монстров, Хеллбою придется пройти через ад, чтобы предотвратить надвигающийся апокалипсис..- -Качество: UHD BDRemux 2160p
Контейнер: MKV
Видео кодек: H.265
Аудио кодек: AC3, Dolby TrueHD
Видео: MPEG-H HEVC HDR Video, 3840x2160 (16:9), 23.976 fps, 66 Mb/s
Аудио 1: AC-3, 48.0 kHz, 6 ch, 384 kb/s | RUS (iTunes)
Аудио 2: AC-3, 48.0 kHz, 2 ch, 192 kb/s | RUS (СВ Студия)
Аудио 3: Dolby TrueHD, 48.0 kHz, 8 ch, 5255 kb/s | ENG
Аудио 4: AC-3, 48.0 kHz, 6 ch, 448 kb/s | ENG-

MI

Код:
General
Unique ID : 182381356667656472335949750971777619885 (0x89355F21DC4C4C8BF26358049CBF17AD)
Complete name : Hellboy.2019.BDREMUX..2160p.HDR.seleZen.mkv
Format : Matroska
Format version : Version 4
File size : 61.3 GiB
Duration : 2 h 1 min
Overall bit rate mode : Variable
Overall bit rate : 72.5 Mb/s
Movie name : Hellboy 2019 4K from селезень
Encoded date : UTC 2019-07-15 13:48:30
Writing application : mkvmerge v22.0.0 ('At The End Of The World') 64-bit
Writing library : libebml v1.3.5 + libmatroska v1.4.8
Video
ID : 1
Format : HEVC
Format/Info : High Efficiency Video Coding
Format profile : Main [email protected]@High
HDR format : SMPTE ST 2086, HDR10 compatible
Codec ID : V_MPEGH/ISO/HEVC
Duration : 2 h 1 min
Bit rate : 66.1 Mb/s
Width : 3 840 pixels
Height : 2 160 pixels
Display aspect ratio : 16:9
Frame rate mode : Constant
Frame rate : 23.976 (24000/1001) FPS
Color space : YUV
Chroma subsampling : 4:2:0 (Type 2)
Bit depth : 10 bits
Bits/(Pixel*Frame) : 0.332
Stream size : 55.9 GiB (91%)
Language : English
Default : Yes
Forced : No
Color range : Limited
Color primaries : BT.2020
Transfer characteristics : PQ
Matrix coefficients : BT.2020 non-constant
Mastering display color pri : Display P3
Mastering display luminance : min: 0.0001 cd/m2, max: 4000 cd/m2
Maximum Content Light Level : 3947 cd/m2
Maximum Frame-Average Light : 542 cd/m2
Audio #1
ID : 2
Format : AC-3
Format/Info : Audio Coding 3
Commercial name : Dolby Digital
Codec ID : A_AC3
Duration : 2 h 1 min
Bit rate mode : Constant
Bit rate : 384 kb/s
Channel(s) : 6 channels
Channel layout : L R C LFE Ls Rs
Sampling rate : 48.0 kHz
Frame rate : 31.250 FPS (1536 SPF)
Bit depth : 16 bits
Compression mode : Lossy
Stream size : 332 MiB (1%)
Title : Dub [iTunes]
Language : Russian
Service kind : Complete Main
Default : Yes
Forced : Yes
Audio #2
ID : 3
Format : AC-3
Format/Info : Audio Coding 3
Commercial name : Dolby Digital
Codec ID : A_AC3
Duration : 2 h 0 min
Bit rate mode : Constant
Bit rate : 192 kb/s
Channel(s) : 2 channels
Channel layout : L R
Sampling rate : 48.0 kHz
Frame rate : 31.250 FPS (1536 SPF)
Bit depth : 16 bits
Compression mode : Lossy
Stream size : 166 MiB (0%)
Title : MVO [СВ Студия]
Language : Russian
Service kind : Complete Main
Default : No
Forced : No
Audio #3
ID : 4
Format : MLP FBA 16-ch
Format/Info : Meridian Lossless Packing FBA with 16-channel presentation
Commercial name : Dolby TrueHD with Dolby Atmos
Codec ID : A_TRUEHD
Duration : 2 h 1 min
Bit rate mode : Variable
Bit rate : 5 255 kb/s
Maximum bit rate : 9 408 kb/s
Channel(s) : 8 channels
Channel layout : L R C LFE Ls Rs Lb Rb
Sampling rate : 48.0 kHz
Frame rate : 1 200.000 FPS (40 SPF)
Compression mode : Lossless
Stream size : 4.44 GiB (7%)
Title : Original
Language : English
Default : No
Forced : No
Number of dynamic objects : 15
Bed channel count : 1 channel
Bed channel configuration : LFE
Audio #4
ID : 5
Format : AC-3
Format/Info : Audio Coding 3
Commercial name : Dolby Digital
Codec ID : A_AC3
Duration : 2 h 1 min
Bit rate mode : Constant
Bit rate : 448 kb/s
Channel(s) : 6 channels
Channel layout : L R C LFE Ls Rs
Sampling rate : 48.0 kHz
Frame rate : 31.250 FPS (1536 SPF)
Bit depth : 16 bits
Compression mode : Lossy
Stream size : 388 MiB (1%)
Language : English
Service kind : Complete Main
Default : No
Forced : No
Text #1
ID : 6
Format : UTF-8
Codec ID : S_TEXT/UTF8
Codec ID/Info : UTF-8 Plain Text
Duration : 1 h 48 min
Bit rate : 1 b/s
Count of elements : 21
Stream size : 1.01 KiB (0%)
Title : Forced
Language : Russian
Default : Yes
Forced : Yes
Text #2
ID : 7
Format : UTF-8
Codec ID : S_TEXT/UTF8
Codec ID/Info : UTF-8 Plain Text
Duration : 2 h 0 min
Bit rate : 85 b/s
Count of elements : 1543
Stream size : 75.7 KiB (0%)
Title : Full [Enigma] (cens.)
Language : Russian
Default : No
Forced : No
Text #3
ID : 8
Format : UTF-8
Codec ID : S_TEXT/UTF8
Codec ID/Info : UTF-8 Plain Text
Duration : 2 h 0 min
Bit rate : 84 b/s
Count of elements : 1547
Stream size : 74.4 KiB (0%)
Title : Full [FOCS] (no cens.)
Language : Russian
Default : No
Forced : No
Text #4
ID : 9
Format : UTF-8
Codec ID : S_TEXT/UTF8
Codec ID/Info : UTF-8 Plain Text
Duration : 2 h 0 min
Bit rate : 53 b/s
Count of elements : 1528
Stream size : 46.7 KiB (0%)
Title : Full
Language : English
Default : No
Forced : No
Text #5
ID : 10
Format : UTF-8
Codec ID : S_TEXT/UTF8
Codec ID/Info : UTF-8 Plain Text
Duration : 2 h 0 min
Bit rate : 59 b/s
Count of elements : 1899
Stream size : 52.9 KiB (0%)
Title : SDH
Language : English
Default : No
Forced : No
Menu
00:00:00.000 : en:Chapter 01
00:08:54.284 : en:Chapter 02
00:14:41.714 : en:Chapter 03
00:22:34.853 : en:Chapter 04
00:30:12.602 : en:Chapter 05
00:35:48.730 : en:Chapter 06
00:43:50.461 : en:Chapter 07
00:53:17.611 : en:Chapter 08
01:01:09.791 : en:Chapter 09
01:09:24.786 : en:Chapter 10
01:17:32.606 : en:Chapter 11
01:26:07.579 : en:Chapter 12
01:28:37.896 : en:Chapter 13
01:37:58.456 : en:Chapter 14
01:45:49.969 : en:Chapter 15
01:51:06.660 : en:Chapter 16

Трейлер

-     - -

Theseus

Post 18-Jul-2019 14:29

[Quote]

Хеллбой / Hellboy- Год выхода: 2019
Страна: США
Жанр: Фэнтези, боевик, приключения
Продолжительность: 02:01:02
Перевод 1: Профессиональный дублированный | iTunes
Перевод 2: Профессиональный многоголосый | СВ Студия
Субтитры: Русские (полные, полные [ненорматив], форсированные) , английские-Режиссер: Нил Маршалл-В ролях: Дэвид Харбор, Милла Йовович, Иэн Макшейн, Саша Лейн, Дэниел Дэ Ким, Томас Хейден Чёрч, Пенелопа Митчелл, Софи Оконедо, Брин Глисон, Алистер Петри, Лайла Морс, Стивен Грэм-О фильме: Близится час битвы Хеллбоя с Кровавой королевой, жаждущей отомстить всему человечеству за века в заточении. Оказавшись в эпицентре столкновения миров людей и монстров, Хеллбою придется пройти через ад, чтобы предотвратить надвигающийся апокалипсис..- -Качество: BDRip 1080p
Формат: MKV
Видео кодек: x.264
Аудио кодек: AC3
Видео: AVC, 1920x800 (2.40:1), 23.976 fps, 9702 kb/s
Аудио 1: AC-3, 48.0 kHz, 6 ch, 384 kb/s | RUS (iTunes)
Аудио 2: AC-3, 48.0 kHz, 2 ch, 192 kb/s | RUS (СВ Студия)
Аудио 3: AC-3, 48.0 kHz, 6 ch, 640 kb/s | ENG-

Трейлер

-    - -
 

The time now is: Today 13:47

All times are GMT + 3 Hours