Сегодня идет свободное скачивание без начисления Download

Результатов поиска: 225

Автор Сообщение

Theseus

Пост 07-Фев-2018 16:09

[Цитировать]

Парадокс Кловерфилда / Частица Бога-The Cloverfield Paradox -Год выхода: 2018
Страна: США
Жанр: ужасы, фантастика, триллер, детектив
Продолжительность: 01:41:47
Перевод 1: Любительский (многоголосый, закадровый) | BaibaKo
Перевод 2:.Любительский, одноголосый | Андрей Важенин [BadBajo]
Субтитры: Английские-Режиссер: Джулиус Она-В ролях: Гугу Эмбата-Ро, Дэвид Ойелоуо, Даниэль Брюль, Крис О`Дауд, Аксель Хенни, Цзыи Чжан, Элизабет Дебики, Роджер Дейвис, Джон Ортис-О фильме:
В то время как земной мир пребывает на грани войны за ресурсы, в космосе группа учёных проводит испытания устройства, которое способно решить проблему энергетического кризиса. Несколько неудачных попыток вводят учёных в отчаяние. Топлива осталось на три запуска, и когда вдруг происходит удачный запуск устройства, радость длится недолго — команде предстоит иметь дело с очень странными явлениями.- -Качество: WEBRip 1080p
Формат: MKV
Видео кодек: x.264
Аудио кодек: AC3
Видео: AVC, 1920x800 (2.40:1), 23.976 fps, 10.5 Mbps (0.285 bit/pixel)
Аудио #1: AC-3, 48.0 KHz, 6 ch, 448 Kbps, CBR (Russian / BaibaKo)
Аудио #2: AC-3, 48.0 KHz, 6 ch, 448 Kbps, CBR (Russian / BadBajo)
Аудио #3: E-AC-3, 48.0 KHz, 6 ch, 448 Kbps, CBR (English)-Сэмпл-Рекламы нет !-

MediaInfo

Общее
Уникальный идентификатор : 253715188251681955313032307903770241773 (0xBEDFC491292102ADBDBE7A48F0CDAAED)
Полное имя : The.Cloverfield.Paradox.2018.1080p.WEBRip.mkv
Формат : Matroska
Версия формата : Version 4 / Version 2
Размер файла : 8,43 Гбайт
Продолжительность : 1 ч. 41 м.
Общий поток : 11,9 Мбит/сек
Дата кодирования : UTC 2018-02-07 12:00:28
Программа кодирования : mkvmerge v8.3.0 ('Over the Horizon') 64bit
Библиотека кодирования : libebml v1.3.1 + libmatroska v1.4.2
Видео
Идентификатор : 1
Формат : AVC
Формат/Информация : Advanced Video Codec
Профиль формата : [email protected]
Параметр CABAC формата : Да
Параметр ReFrames формата : 5 кадров
Идентификатор кодека : V_MPEG4/ISO/AVC
Продолжительность : 1 ч. 41 м.
Битрейт : 10,5 Мбит/сек
Ширина : 1920 пикселей
Высота : 800 пикселей
Соотношение сторон : 2,40:1
Режим частоты кадров : Постоянный
Частота кадров : 23,976 (24000/1001) кадра/сек
Цветовое пространство : YUV
Субдискретизация насыщенности : 4:2:0
Битовая глубина : 8 бит
Тип развёртки : Прогрессивная
Бит/(Пиксели*Кадры) : 0.285
Размер потока : 7,47 Гбайт (89%)
Библиотека кодирования : x264 core 148 r2744 b97ae06
Настройки программы : cabac=1 / ref=5 / deblock=1:-3:-3 / analyse=0x3:0x133 / me=umh / subme=10 / psy=1 / psy_rd=1.00:0.00 / mixed_ref=1 / me_range=48 / chroma_me=1 / trellis=2 / 8x8dct=1 / cqm=0 / deadzone=21,11 / fast_pskip=0 / chroma_qp_offset=-2 / threads=24 / lookahead_threads=4 / sliced_threads=0 / nr=0 / decimate=0 / interlaced=0 / bluray_compat=0 / constrained_intra=0 / bframes=9 / b_pyramid=0 / b_adapt=2 / b_bias=0 / direct=3 / weightb=1 / open_gop=0 / weightp=2 / keyint=240 / keyint_min=23 / scenecut=40 / intra_refresh=0 / rc_lookahead=60 / rc=crf / mbtree=0 / crf=17.7 / qcomp=0.60 / qpmin=10 / qpmax=51 / qpstep=4 / vbv_maxrate=62500 / vbv_bufsize=78125 / crf_max=0.0 / nal_hrd=none / filler=0 / ip_ratio=1.40 / pb_ratio=1.30 / aq=3:0.65
Default : Да
Forced : Нет
Аудио #1
Идентификатор : 2
Формат : AC-3
Формат/Информация : Audio Coding 3
Расширение режима : CM (complete main)
Параметр Endianness формата : Big
Идентификатор кодека : A_AC3
Продолжительность : 1 ч. 41 м.
Вид битрейта : Постоянный
Битрейт : 448 Кбит/сек
Каналы : 6 каналов
Расположение каналов : Front: L C R, Side: L R, LFE
Частота : 48,0 КГц
Частота кадров : 31,250 кадров/сек (1536 spf)
Битовая глубина : 16 бит
Метод сжатия : С потерями
Размер потока : 326 Мбайт (4%)
Заголовок : BaibaKo
Язык : Russian
Default : Да
Forced : Нет
Аудио #2
Идентификатор : 3
Формат : AC-3
Формат/Информация : Audio Coding 3
Расширение режима : CM (complete main)
Параметр Endianness формата : Big
Идентификатор кодека : A_AC3
Продолжительность : 1 ч. 41 м.
Вид битрейта : Постоянный
Битрейт : 448 Кбит/сек
Каналы : 6 каналов
Расположение каналов : Front: L C R, Side: L R, LFE
Частота : 48,0 КГц
Частота кадров : 31,250 кадров/сек (1536 spf)
Битовая глубина : 16 бит
Метод сжатия : С потерями
Размер потока : 326 Мбайт (4%)
Заголовок : BadBajo
Язык : Russian
Default : Нет
Forced : Нет
Аудио #3
Идентификатор : 4
Формат : E-AC-3
Формат/Информация : Enhanced Audio Coding 3
Параметр Endianness формата : Big
Идентификатор кодека : A_EAC3
Продолжительность : 1 ч. 41 м.
Вид битрейта : Постоянный
Битрейт : 448 Кбит/сек
Каналы : 6 каналов
Расположение каналов : Front: L C R, Side: L R, LFE
Частота : 48,0 КГц
Частота кадров : 187,500 кадров/сек (256 spf)
Метод сжатия : С потерями
Размер потока : 326 Мбайт (4%)
Язык : English
Default : Нет
Forced : Нет
Текст #1
Идентификатор : 5
Формат : UTF-8
Идентификатор кодека : S_TEXT/UTF8
Идентификатор кодека/Информация : UTF-8 Plain Text
Продолжительность : 47 м. 38 с.
Битрейт : 3 бит/сек
Count of elements : 39
Размер потока : 1,23 Кбайт (0%)
Заголовок : Forced
Язык : English
Default : Нет
Forced : Да
Текст #2
Идентификатор : 6
Формат : UTF-8
Идентификатор кодека : S_TEXT/UTF8
Идентификатор кодека/Информация : UTF-8 Plain Text
Продолжительность : 1 ч. 36 м.
Битрейт : 59 бит/сек
Count of elements : 1399
Размер потока : 41,9 Кбайт (0%)
Заголовок : SDH
Язык : English
Default : Нет
Forced : Нет
Текст #3
Идентификатор : 7
Формат : UTF-8
Идентификатор кодека : S_TEXT/UTF8
Идентификатор кодека/Информация : UTF-8 Plain Text
Продолжительность : 1 ч. 35 м.
Битрейт : 47 бит/сек
Count of elements : 1123
Размер потока : 33,5 Кбайт (0%)
Язык : English
Default : Нет
Forced : Нет

Трейлер

-     - -

Theseus

Пост 06-Фев-2018 18:43

[Цитировать]

Парадокс Кловерфилда / Частица Бога-The Cloverfield Paradox -Год выхода: 2018
Страна: США
Жанр: ужасы, фантастика, триллер, детектив
Продолжительность: 01:42:26
Перевод: Любительский, одноголосый | Андрей Важенин [BadBajo]
Субтитры: Английские-Режиссер: Джулиус Она-В ролях: Гугу Эмбата-Ро, Дэвид Ойелоуо, Даниэль Брюль, Крис О`Дауд, Аксель Хенни, Цзыи Чжан, Элизабет Дебики, Роджер Дейвис, Джон Ортис-О фильме:
В то время как земной мир пребывает на грани войны за ресурсы, в космосе группа учёных проводит испытания устройства, которое способно решить проблему энергетического кризиса. Несколько неудачных попыток вводят учёных в отчаяние. Топлива осталось на три запуска, и когда вдруг происходит удачный запуск устройства, радость длится недолго — команде предстоит иметь дело с очень странными явлениями.- -Качество: WEBRip 1080p
Формат: MKV
Видео кодек: x.264
Аудио кодек: AC3
Видео: AVC, 1920х1080 (16:9), 23.976 fps, 5 800 Kbps (0.117 bit/pixel)
Аудио #1: AC-3, 48.0 KHz, 6 ch, 640 Kbps, CBR (Russian)
Аудио #2: E-AC-3, 48.0 KHz, 6 ch, 448 Kbps, CBR (English)-Сэмпл-Рекламы нет !-

MediaInfo

General
Unique ID : 46514731082388755342278190158715954385 (0x22FE694DE25DAFC7E1C64D8DFBBE24D1)
Complete name : the.cloverfield.paradox.2018.1080p.web.x264_rus_BadBajo.mkv
Format : Matroska
Format version : Version 4 / Version 2
File size : 4.89 GiB
Duration : 1 h 42 min
Overall bit rate mode : Variable
Overall bit rate : 6 830 kb/s
Movie name : the.cloverfield.paradox.2018.internal.1080p.web.x264_rus_BadBajo
Encoded date : UTC 2018-02-06 01:40:01
Writing application : mkvmerge v20.0.0 ('I Am The Sun') 64-bit
Writing library : libebml v1.3.5 + libmatroska v1.4.8
Cover : Yes
Attachments : cover.jpg
Video
ID : 1
Format : AVC
Format/Info : Advanced Video Codec
Format profile : [email protected]
Format settings, CABAC : Yes
Format settings, ReFrames : 3 frames
Codec ID : V_MPEG4/ISO/AVC
Duration : 1 h 42 min
Bit rate mode : Variable
Bit rate : 5 800 kb/s
Maximum bit rate : 8 700 kb/s
Width : 1 920 pixels
Height : 1 080 pixels
Display aspect ratio : 16:9
Frame rate mode : Constant
Frame rate : 23.976 (24000/1001) FPS
Color space : YUV
Chroma subsampling : 4:2:0
Bit depth : 8 bits
Scan type : Progressive
Bits/(Pixel*Frame) : 0.117
Stream size : 4.11 GiB (84%)
Writing library : x264 core 148 r2715 7e75228
Encoding settings : cabac=1 / ref=3 / deblock=1:0:0 / analyse=0x1:0x111 / me=umh / subme=10 / psy=1 / psy_rd=1.00:0.00 / mixed_ref=1 / me_range=24 / chroma_me=1 / trellis=2 / 8x8dct=0 / cqm=0 / deadzone=21,11 / fast_pskip=1 / chroma_qp_offset=-2 / threads=8 / lookahead_threads=1 / sliced_threads=0 / nr=0 / decimate=1 / interlaced=0 / bluray_compat=0 / stitchable=1 / constrained_intra=0 / bframes=2 / b_pyramid=0 / b_adapt=2 / b_bias=0 / direct=3 / weightb=1 / open_gop=0 / weightp=2 / keyint=48 / keyint_min=25 / scenecut=0 / intra_refresh=0 / rc_lookahead=48 / rc=2pass / mbtree=1 / bitrate=5800 / ratetol=1.0 / qcomp=0.50 / qpmin=6 / qpmax=51 / qpstep=4 / cplxblur=20.0 / qblur=0.5 / vbv_maxrate=8700 / vbv_bufsize=11600 / nal_hrd=vbr / filler=0 / ip_ratio=1.40 / aq=1:1.00
Default : Yes
Forced : No
Audio #1
ID : 2
Format : AC-3
Format/Info : Audio Coding 3
Mode extension : CM (complete main)
Format settings, Endianness : Big
Codec ID : A_AC3
Duration : 1 h 41 min
Bit rate mode : Constant
Bit rate : 640 kb/s
Channel(s) : 6 channels
Channel positions : Front: L C R, Side: L R, LFE
Sampling rate : 48.0 kHz
Frame rate : 31.250 FPS (1536 spf)
Bit depth : 16 bits
Compression mode : Lossy
Stream size : 466 MiB (9%)
Title : the.cloverfield.paradox.2018_rus_BadBajo
Language : Russian
Default : Yes
Forced : Yes
Audio #2
ID : 3
Format : E-AC-3
Format/Info : Enhanced Audio Coding 3
Format settings, Endianness : Big
Codec ID : A_EAC3
Duration : 1 h 41 min
Bit rate mode : Constant
Bit rate : 448 kb/s
Channel(s) : 6 channels
Channel positions : Front: L C R, Side: L R, LFE
Sampling rate : 48.0 kHz
Frame rate : 187.500 FPS (256 spf)
Compression mode : Lossy
Stream size : 326 MiB (7%)
Language : English
Default : No
Forced : No
Text #1
ID : 4
Format : UTF-8
Codec ID : S_TEXT/UTF8
Codec ID/Info : UTF-8 Plain Text
Duration : 47 min 40 s
Bit rate : 3 b/s
Count of elements : 42
Stream size : 1.24 KiB (0%)
Title : Forced
Language : English
Default : No
Forced : No
Text #2
ID : 5
Format : UTF-8
Codec ID : S_TEXT/UTF8
Codec ID/Info : UTF-8 Plain Text
Duration : 1 h 36 min
Bit rate : 56 b/s
Count of elements : 1436
Stream size : 40.1 KiB (0%)
Language : English
Default : No
Forced : No

Трейлер

-     - -

Theseus

Пост 06-Фев-2018 18:41

[Цитировать]

Парадокс Кловерфилда / Частица Бога-The Cloverfield Paradox -Год выхода: 2018
Страна: США
Жанр: ужасы, фантастика, триллер, детектив
Продолжительность: 01:42:26
Перевод: Любительский, одноголосый | Андрей Важенин [BadBajo]
Субтитры: English, Portuguese, French, German, Italian-Режиссер: Джулиус Она-В ролях: Гугу Эмбата-Ро, Дэвид Ойелоуо, Даниэль Брюль, Крис О`Дауд, Аксель Хенни, Цзыи Чжан, Элизабет Дебики, Роджер Дейвис, Джон Ортис-О фильме:
В то время как земной мир пребывает на грани войны за ресурсы, в космосе группа учёных проводит испытания устройства, которое способно решить проблему энергетического кризиса. Несколько неудачных попыток вводят учёных в отчаяние. Топлива осталось на три запуска, и когда вдруг происходит удачный запуск устройства, радость длится недолго — команде предстоит иметь дело с очень странными явлениями.- -Качество: WEBRip 720p
Формат: MKV
Видео кодек: x.264
Аудио кодек: AC3
Видео: AVC, 1280x532 (2.40:1), 23.976 fps, 2 656 Kbps (0.163 bit/pixel)
Аудио #1: AC-3, 48.0 KHz, 6 ch, 640 Kbps, CBR (Russian)
Аудио #2: E-AC-3, 48.0 KHz, 6 ch, 448 Kbps, CBR (English)-Сэмпл-Рекламы нет !-

MediaInfo

Общее
Уникальный идентификатор : 208245576168189117501066829665939900504 (0x9CAAA39B96C4DB1EACF5864995A24858)
Полное имя : the.cloverfield.paradox.2018.720p.mkv
Формат : Matroska
Версия формата : Version 2
Размер файла : 2,73 Гбайт
Продолжительность : 1 ч. 42 м.
Общий поток : 3820 Кбит/сек
Название фильма : the.cloverfield.paradox_BadBajo
Дата кодирования : UTC 2018-02-06 09:34:00
Программа кодирования : mkvmerge v5.4.0 ('Piper') built on Mar 10 2012 13:34:39
Библиотека кодирования : libebml v1.2.3 + libmatroska v1.3.0
Обложка : Yes
Attachments : cover.jpg
Видео
Идентификатор : 1
Формат : AVC
Формат/Информация : Advanced Video Codec
Профиль формата : [email protected]
Параметр CABAC формата : Да
Параметр ReFrames формата : 5 кадров
Идентификатор кодека : V_MPEG4/ISO/AVC
Продолжительность : 1 ч. 42 м.
Битрейт : 2656 Кбит/сек
Ширина : 1280 пикселей
Высота : 532 пикселя
Соотношение сторон : 2,40:1
Режим частоты кадров : Постоянный
Частота кадров : 23,976 (24000/1001) кадра/сек
Цветовое пространство : YUV
Субдискретизация насыщенности : 4:2:0
Битовая глубина : 8 бит
Тип развёртки : Прогрессивная
Бит/(Пиксели*Кадры) : 0.163
Размер потока : 1,90 Гбайт (70%)
Заголовок : The.Cloverfield.Paradox.2018.720p
Библиотека кодирования : x264 core 155 r2901 7d0ff22
Настройки программы : cabac=1 / ref=5 / deblock=1:-3:-3 / analyse=0x3:0x113 / me=umh / subme=8 / psy=1 / psy_rd=1.00:0.15 / mixed_ref=1 / me_range=16 / chroma_me=1 / trellis=2 / 8x8dct=1 / cqm=0 / deadzone=21,11 / fast_pskip=0 / chroma_qp_offset=-2 / threads=12 / lookahead_threads=2 / sliced_threads=0 / nr=0 / decimate=1 / interlaced=0 / bluray_compat=0 / constrained_intra=0 / bframes=3 / b_pyramid=2 / b_adapt=2 / b_bias=0 / direct=3 / weightb=1 / open_gop=0 / weightp=2 / keyint=240 / keyint_min=23 / scenecut=40 / intra_refresh=0 / rc_lookahead=50 / rc=crf / mbtree=1 / crf=18.0 / qcomp=0.60 / qpmin=0 / qpmax=69 / qpstep=4 / ip_ratio=1.40 / aq=3:0.80
Язык : English
Default : Да
Forced : Нет
Statistics Tags Issue : mkvmerge v8.3.0 ('Over the Horizon') 64bit 2018-02-05 04:55:21 / mkvmerge v5.4.0 ('Piper') built on Mar 10 2012 13:34:39 2018-02-06 09:34:00
FromStats_BitRate : 2736198
FromStats_Duration : 01:42:26.516000000
FromStats_FrameCount : 147369
FromStats_StreamSize : 2102260974
Аудио #1
Идентификатор : 2
Формат : AC-3
Формат/Информация : Audio Coding 3
Расширение режима : CM (complete main)
Параметр Endianness формата : Big
Идентификатор кодека : A_AC3
Продолжительность : 1 ч. 42 м.
Вид битрейта : Постоянный
Битрейт : 640 Кбит/сек
Каналы : 6 каналов
Расположение каналов : Front: L C R, Side: L R, LFE
Частота : 48,0 КГц
Частота кадров : 31,250 кадров/сек (1536 spf)
Битовая глубина : 16 бит
Метод сжатия : С потерями
Размер потока : 469 Мбайт (17%)
Заголовок : BadBajo
Язык : Russian
Default : Да
Forced : Нет
Аудио #2
Идентификатор : 3
Формат : E-AC-3
Формат/Информация : Enhanced Audio Coding 3
Параметр Endianness формата : Big
Идентификатор кодека : A_EAC3
Продолжительность : 1 ч. 42 м.
Вид битрейта : Постоянный
Битрейт : 448 Кбит/сек
Каналы : 6 каналов
Расположение каналов : Front: L C R, Side: L R, LFE
Частота : 48,0 КГц
Частота кадров : 187,500 кадров/сек (256 spf)
Метод сжатия : С потерями
Размер потока : 328 Мбайт (12%)
Язык : English
Default : Нет
Forced : Нет
Statistics Tags Issue : mkvmerge v8.3.0 ('Over the Horizon') 64bit 2018-02-05 04:55:21 / mkvmerge v5.4.0 ('Piper') built on Mar 10 2012 13:34:39 2018-02-06 09:34:00
FromStats_BitRate : 448000
FromStats_Duration : 01:41:46.656000000
FromStats_FrameCount : 190833
FromStats_StreamSize : 341972736
Текст #1
Идентификатор : 4
Формат : UTF-8
Идентификатор кодека : S_TEXT/UTF8
Идентификатор кодека/Информация : UTF-8 Plain Text
Язык : English
Default : Нет
Forced : Нет
Statistics Tags Issue : mkvmerge v8.3.0 ('Over the Horizon') 64bit 2018-02-05 04:55:21 / mkvmerge v5.4.0 ('Piper') built on Mar 10 2012 13:34:39 2018-02-06 09:34:00
FromStats_BitRate : 56
FromStats_Duration : 01:36:23.194000000
FromStats_FrameCount : 1436
FromStats_StreamSize : 41035
Текст #2
Идентификатор : 5
Формат : UTF-8
Идентификатор кодека : S_TEXT/UTF8
Идентификатор кодека/Информация : UTF-8 Plain Text
Заголовок : Brazilian
Язык : Portuguese
Default : Нет
Forced : Нет
Statistics Tags Issue : mkvmerge v8.3.0 ('Over the Horizon') 64bit 2018-02-05 04:55:21 / mkvmerge v5.4.0 ('Piper') built on Mar 10 2012 13:34:39 2018-02-06 09:34:00
FromStats_BitRate : 40
FromStats_Duration : 01:36:23.152000000
FromStats_FrameCount : 1097
FromStats_StreamSize : 29238
Текст #3
Идентификатор : 6
Формат : UTF-8
Идентификатор кодека : S_TEXT/UTF8
Идентификатор кодека/Информация : UTF-8 Plain Text
Язык : French
Default : Нет
Forced : Нет
Statistics Tags Issue : mkvmerge v8.3.0 ('Over the Horizon') 64bit 2018-02-05 04:55:21 / mkvmerge v5.4.0 ('Piper') built on Mar 10 2012 13:34:39 2018-02-06 09:34:00
FromStats_BitRate : 42
FromStats_Duration : 01:36:23.194000000
FromStats_FrameCount : 1196
FromStats_StreamSize : 30519
Текст #4
Идентификатор : 7
Формат : UTF-8
Идентификатор кодека : S_TEXT/UTF8
Идентификатор кодека/Информация : UTF-8 Plain Text
Язык : German
Default : Нет
Forced : Нет
Statistics Tags Issue : mkvmerge v8.3.0 ('Over the Horizon') 64bit 2018-02-05 04:55:21 / mkvmerge v5.4.0 ('Piper') built on Mar 10 2012 13:34:39 2018-02-06 09:34:00
FromStats_BitRate : 45
FromStats_Duration : 01:36:20.983000000
FromStats_FrameCount : 1080
FromStats_StreamSize : 32997
Текст #5
Идентификатор : 8
Формат : UTF-8
Идентификатор кодека : S_TEXT/UTF8
Идентификатор кодека/Информация : UTF-8 Plain Text
Язык : Italian
Default : Нет
Forced : Нет
Statistics Tags Issue : mkvmerge v8.3.0 ('Over the Horizon') 64bit 2018-02-05 04:55:21 / mkvmerge v5.4.0 ('Piper') built on Mar 10 2012 13:34:39 2018-02-06 09:34:00
FromStats_BitRate : 39
FromStats_Duration : 01:41:37.049000000
FromStats_FrameCount : 1198
FromStats_StreamSize : 29935

Трейлер

-     - -

Theseus

Пост 03-Фев-2018 00:18

[Цитировать]

Братство клинков 2: Адское поле битвы / Brotherhood of Blades II: The Infernal Battlefield-Xiu chun dao II: xiu luo zhan chang -Год выпуска: 2017
Страна: Китай
Жанр: боевик, история
Продолжительность: 01:59:58
Перевод: Любительский (двухголосый закадровый) [Ворон и Wenlana]
Субтитры: Русские (форс,полные), китайские-В ролях: Чан Чэнь, Ян Ми, Чжан И, Цзинь Шицзя, Лэй Цзяинь, Синь Чжилэй …-Режиссёр: Лу Ян-Описание: Действия фильма происходят во времена династии Мин, главный герой Шэнь Лянь должен разгадать тайну убийства евнуха Го из сыскной службы, но капнув чуть глубже понимает, что не всё так просто... Евнух Го и повстанцы Дунлина затеяли убийство Императора, что по тем временам было не редкостью, но наш доблестный капитан лейб-гвардии Шэнь Лянь, узнаёт про организатора сего покушения, это оказывается художник Бэй Чжэй из ближайшей деревни, и чтоб распутать это дело Шэнь Ляню потребуется много сил, ибо враги повсюду...- -Качество: BDRip 1080p
Формат: MKV
Видео кодек: x.264
Аудио кодек: AC3
Видео: AVC, 1920x720 (2.667), 24.000 fps, 10.1 Mbps (0.304 bit/pixel)
Аудио #1: AC-3, 48.0 KHz, 6 ch, 448 Kbps, CBR (Russian)
Аудио #2: AC-3, 48.0 KHz, 6 ch, 640 Kbps, CBR (Chinese)
-

MediaInfo

Общее
Уникальный идентификатор : 229460890137397465369465574140216470616 (0xACA08F581B0F6C0AB1927759B8F9EC58)
Полное имя : Brotherhood.of.Blades.II.The.Infernal.Battlefield.2017.BDRip.1080p.mkv
Формат : Matroska
Версия формата : Version 4 / Version 2
Размер файла : 9,38 Гбайт
Продолжительность : 1 ч. 59 м.
Общий поток : 11,2 Мбит/сек
Дата кодирования : UTC 2018-02-02 20:20:06
Программа кодирования : mkvmerge v8.3.0 ('Over the Horizon') 64bit
Библиотека кодирования : libebml v1.3.1 + libmatroska v1.4.2
Attachments : AGCROWO.TTF / BeaumarchaisC.ttf / dsbb_0.ttf / tahomabd.ttf
Видео
Идентификатор : 1
Формат : AVC
Формат/Информация : Advanced Video Codec
Профиль формата : [email protected]
Параметр CABAC формата : Да
Параметр ReFrames формата : 6 кадров
Идентификатор кодека : V_MPEG4/ISO/AVC
Продолжительность : 1 ч. 59 м.
Битрейт : 10,1 Мбит/сек
Ширина : 1920 пикселей
Высота : 720 пикселей
Соотношение сторон : 2,667
Режим частоты кадров : Постоянный
Частота кадров : 24,000 кадра/сек
Цветовое пространство : YUV
Субдискретизация насыщенности : 4:2:0
Битовая глубина : 8 бит
Тип развёртки : Прогрессивная
Бит/(Пиксели*Кадры) : 0.304
Размер потока : 8,47 Гбайт (90%)
Библиотека кодирования : x264 core 129 r2245+704+36 8e61944 tMod+MixAQ [[email protected]:2:0 X86_64]
Настройки программы : cabac=1 / ref=6 / deblock=1:-3:-3 / analyse=0x3:0x133 / me=umh / subme=11 / psy=1 / fade_compensate=0.00 / psy_rd=1.05:0.10 / mixed_ref=1 / me_range=64 / chroma_me=1 / trellis=2 / 8x8dct=1 / cqm=0 / deadzone=21,11 / fast_pskip=0 / chroma_qp_offset=-3 / threads=18 / lookahead_threads=3 / sliced_threads=0 / nr=0 / decimate=0 / interlaced=0 / bluray_compat=0 / constrained_intra=0 / fgo=0 / bframes=10 / b_pyramid=2 / b_adapt=2 / b_bias=0 / direct=3 / weightb=1 / open_gop=0 / weightp=2 / keyint=250 / keyint_min=24 / scenecut=40 / intra_refresh=0 / rc=2pass / mbtree=0 / bitrate=10102 / ratetol=1.0 / qcomp=0.70 / qpmin=0 / qpmax=69 / qpstep=4 / cplxblur=20.0 / qblur=0.5 / ip_ratio=1.40 / pb_ratio=1.30 / aq=1 / aq-strength=0.90 / aq-sensitivity=10.00 / aq-ifactor=1.00 / aq-pfactor=1.00 / aq-bfactor=1.00 / aq2=0
Язык : Chinese
Default : Да
Forced : Нет
Аудио #1
Идентификатор : 2
Формат : AC-3
Формат/Информация : Audio Coding 3
Расширение режима : CM (complete main)
Параметр Endianness формата : Big
Идентификатор кодека : A_AC3
Продолжительность : 1 ч. 59 м.
Вид битрейта : Постоянный
Битрейт : 448 Кбит/сек
Каналы : 6 каналов
Расположение каналов : Front: L C R, Side: L R, LFE
Частота : 48,0 КГц
Частота кадров : 31,250 кадров/сек (1536 spf)
Битовая глубина : 16 бит
Метод сжатия : С потерями
Размер потока : 384 Мбайт (4%)
Заголовок : L2
Язык : Russian
Default : Да
Forced : Нет
Аудио #2
Идентификатор : 3
Формат : AC-3
Формат/Информация : Audio Coding 3
Расширение режима : CM (complete main)
Параметр Endianness формата : Big
Идентификатор кодека : A_AC3
Продолжительность : 1 ч. 59 м.
Вид битрейта : Постоянный
Битрейт : 640 Кбит/сек
Каналы : 6 каналов
Расположение каналов : Front: L C R, Side: L R, LFE
Частота : 48,0 КГц
Частота кадров : 31,250 кадров/сек (1536 spf)
Битовая глубина : 16 бит
Метод сжатия : С потерями
Размер потока : 549 Мбайт (6%)
Язык : Chinese
Default : Нет
Forced : Нет
Текст #1
Идентификатор : 4
Формат : ASS
Идентификатор кодека : S_TEXT/ASS
Идентификатор кодека/Информация : Advanced Sub Station Alpha
Продолжительность : 1 ч. 53 м.
Битрейт : 4 бит/сек
Count of elements : 25
Метод сжатия : Без потерь
Размер потока : 4,11 Кбайт (0%)
Заголовок : Forced
Язык : Russian
Default : Нет
Forced : Нет
Текст #2
Идентификатор : 5
Формат : ASS
Идентификатор кодека : S_TEXT/ASS
Идентификатор кодека/Информация : Advanced Sub Station Alpha
Продолжительность : 1 ч. 58 м.
Битрейт : 79 бит/сек
Count of elements : 945
Метод сжатия : Без потерь
Размер потока : 69,0 Кбайт (0%)
Заголовок : Full
Язык : Russian
Default : Нет
Forced : Нет
Текст #3
Идентификатор : 6
Формат : UTF-8
Идентификатор кодека : S_TEXT/UTF8
Идентификатор кодека/Информация : UTF-8 Plain Text
Продолжительность : 1 ч. 57 м.
Битрейт : 23 бит/сек
Count of elements : 1216
Размер потока : 20,0 Кбайт (0%)
Заголовок : Simplified
Язык : Chinese
Default : Нет
Forced : Нет
Текст #4
Идентификатор : 7
Формат : UTF-8
Идентификатор кодека : S_TEXT/UTF8
Идентификатор кодека/Информация : UTF-8 Plain Text
Продолжительность : 1 ч. 57 м.
Битрейт : 23 бит/сек
Count of elements : 1216
Размер потока : 20,0 Кбайт (0%)
Заголовок : Traditional
Язык : Chinese
Default : Нет
Forced : Нет
Меню
00:00:00.000 : en:00:00:00.000
00:06:13.416 : en:00:06:13.416
00:12:59.208 : en:00:12:59.208
00:16:21.000 : en:00:16:21.000
00:22:34.458 : en:00:22:34.458
00:30:38.708 : en:00:30:38.708
00:34:40.833 : en:00:34:40.833
00:40:00.416 : en:00:40:00.416
00:45:12.666 : en:00:45:12.666
00:53:06.000 : en:00:53:06.000
00:59:21.625 : en:00:59:21.625
01:02:59.875 : en:01:02:59.875
01:09:05.125 : en:01:09:05.125
01:15:16.625 : en:01:15:16.625
01:21:22.666 : en:01:21:22.666
01:27:59.541 : en:01:27:59.541
01:32:45.833 : en:01:32:45.833
01:37:04.791 : en:01:37:04.791
01:51:21.291 : en:01:51:21.291
01:54:30.583 : en:01:54:30.583

Trailer

-     - -

Theseus

Пост 31-Янв-2018 15:17

[Цитировать]

Уотергейт. Крушение Белого дома-Mark Felt: The Man Who Brought Down the White House -Год выхода: 2017
Страна: США
Жанр: триллер, драма, биография, история
Продолжительность: 01:42:57
Перевод: Профессиональный (многоголосый, закадровый)
Субтитры: русские-Режиссер: Питер Ландесман-В ролях: Лиам Нисон, Дайан Лэйн, Мартон Чокаш, Тони Голдуин, Айк Баринхолц, Джош Лукас, Венди МакЛендон-Кови, Кейт Уолш, Брайан Д’Арси Джеймс, Майка Монро, Майкл С. Холл, Том Сайзмор-О фильме: Фильм о главном звене самого громкого скандала ХХ века «Уотергейт», который привел к преждевременной отставке президента Ричарда Никсона. Личность человека, передававшего прессе обличительную информацию на главу государства, долгое время была окутана тайной и установлена лишь спустя 30 лет после его собственного признания. Шокирующая невероятная история, основанная на реальных событиях, о жизни блестящего и бескомпромиссного Заместителя Начальника ФБР Марка Фелта, который пожертвовал всем — своей семьей, своей карьерой и своей свободой, чтобы мир узнал правду.- -Качество: Blu-ray
Контейнер: BDMV
Видео кодек: H.264
Аудио кодек: DTS-HD
Видео: 1920x1080 (16:9), 24 fps, MPEG-4 AVC Video ~19406 kbps avg
Аудио 1: DTS-HD / 5.1 / 48 kHz / 2382 kbps / 24-bit (DTS Core: 5.1 / 48 kHz / 1509 kbps / 24-bit) | RUS
Аудио 2: DTS-HD / 5.1 / 48 kHz / 3374 kbps / 24-bit (DTS Core: 5.1 / 48 kHz / 1509 kbps / 24-bit) | ENG
-

Инфо-файл

DISC INFO:
Disc Title: MARK_FELT_RUS_BLUEBIRD
Disc Size: 21 682 423 871 bytes
Protection: AACS
BD-Java: Yes
BDInfo: 0.5.8
PLAYLIST REPORT:
Name: 01003.MPLS
Length: 1:42:39.833 (h:m:s.ms)
Size: 20 664 207 360 bytes
Total Bitrate: 26,84 Mbps
VIDEO:
Codec Bitrate Deion
----- ------- -----------
MPEG-4 AVC Video 19406 kbps 1080p / 24 fps / 16:9 / High Profile 4.0
AUDIO:
Codec Language Bitrate Deion
----- -------- ------- -----------
DTS-HD Master Audio Russian 2382 kbps 5.1 / 48 kHz / 2382 kbps / 24-bit (DTS Core: 5.1 / 48 kHz / 1509 kbps / 24-bit)
DTS-HD Master Audio English 3374 kbps 5.1 / 48 kHz / 3374 kbps / 24-bit (DTS Core: 5.1 / 48 kHz / 1509 kbps / 24-bit)
SUBTITLES:
Codec Language Bitrate Deion
----- -------- ------- -----------
Presentation Graphics Russian 10,437 kbps

Трейлер

-     - -

Theseus

Пост 31-Янв-2018 15:16

[Цитировать]

Уотергейт. Крушение Белого дома-Mark Felt: The Man Who Brought Down the White House -Год выхода: 2017
Страна: США
Жанр: триллер, драма, биография, история
Продолжительность: 01:42:57
Перевод: Профессиональный (многоголосый, закадровый)
Субтитры: русские, английские (Full), английские (SDH)-Режиссер: Питер Ландесман-В ролях: Лиам Нисон, Дайан Лэйн, Мартон Чокаш, Тони Голдуин, Айк Баринхолц, Джош Лукас, Венди МакЛендон-Кови, Кейт Уолш, Брайан Д’Арси Джеймс, Майка Монро, Майкл С. Холл, Том Сайзмор-О фильме: Фильм о главном звене самого громкого скандала ХХ века «Уотергейт», который привел к преждевременной отставке президента Ричарда Никсона. Личность человека, передававшего прессе обличительную информацию на главу государства, долгое время была окутана тайной и установлена лишь спустя 30 лет после его собственного признания. Шокирующая невероятная история, основанная на реальных событиях, о жизни блестящего и бескомпромиссного Заместителя Начальника ФБР Марка Фелта, который пожертвовал всем — своей семьей, своей карьерой и своей свободой, чтобы мир узнал правду.- -Качество: BDRip 720p
Формат: MKV
Видео кодек: x.264
Аудио кодек: AC3
Видео: AVC, 1280x640 (2.000), 5184 kbps, 23,976 fps
Аудио 1: AC3 / 5.1 / 48 kHz / 448 kbps / 16 bit | RUS
Аудио 2: AC3 / 5.1 / 48 kHz / 448 kbps / 16 bit | ENG-

Трейлер

-    - -

Theseus

Пост 31-Янв-2018 02:23

[Цитировать]

Легенда о Коловрате-Год выхода: 2017
Страна: Россия
Жанр: история, боевик, фэнтези
Продолжительность: 01:53:03
Субтитры: Отсутствуют-Режиссер: Джаник Файзиев, Иван Шурховецкий-В ролях: Илья Малаков (Евпатий Коловрат), Полина Чернышова (Настя), Алексей Серебряков (Князь Юрий), Александр Ильин мл. (Каркуш), Игорь Савочкин (Ратмир), Тимофей Трибунцев , Александр Цой (Хан Батый), Юлия Хлынина (Лада)-О фильме: XIII век. Русь раздроблена и вот-вот падет на колени перед ханом Золотой Орды Батыем. Испепеляя города и заливая русские земли кровью, захватчики не встречают серьезного сопротивления, и лишь один воин бросает им вызов. Молодой рязанский витязь Евпатий Коловрат возглавляет отряд смельчаков, чтобы отомстить за свою любовь и за свою родину. Его отвага поразит даже Батыя, а его имя навсегда останется в памяти народа. Воин, ставший легендой. Подвиг, сохранившийся в веках.- -Качество: WEB-DL 1080p
Формат: MKV
Видео кодек: x.264
Аудио кодек: AC3
Видео: 1920x806 (2,40:1), 25 fps, MPEG-4 AVC ~ 4712 kbps avg, 0.122 bit/pixel
Аудио: AC-3, 48.0 KHz, 6 ch, 384 Kbps, CBR-

Трейлер

-     - -

Theseus

Пост 29-Янв-2018 22:07

[Цитировать]

- Тор: Рагнарёк / Thor: Ragnarok-Год выхода: 2017
Страна: США
Жанр: фантастика, боевик, комедия, приключения
Продолжительность: 02:11:18
Перевод: Профессиональный (полное дублирование) | Чистый звук
Субтитры: Отсутствуют-Режиссер: Тайка Вайтити-В ролях: Крис Хемсворт, Том Хиддлстон, Идрис Эльба, Энтони Хопкинс, Кейт Бланшетт, Тесса Томпсон, Джефф Голдблюм, Карл Урбан, Марк Руффало, Бенедикт Камбербэтч-О фильме: Вернувшись в Асгард в поисках таинственного врага, ведущего охоту на Камни Бесконечности, Тор обнаруживает, что действия его брата Локи, захватившего трон Асгарда, привели к приближению наиболее страшного события — Рагнарёка. По легенде, это ознаменует последнюю битву Асгарда, последствием которой станет его полное уничтожение. В попытке предотвратить это событие, Тору предстоит прибегнуть к помощи своего товарища из Мстителей — Халка. Вместе, им предстоит столкнуться лицом к лицу со злейшим врагом всех девяти миров — огненным демоном Суртуром, целью которого является исполнение пророчества о Рагнарёке и уничтожение девяти миров.- -Качество: WEB-DLRip 1080p
Формат: MKV
Видео кодек: x.264
Аудио кодек: AC3
Видео: MPEG4-AVC, 5774 Кбит/с, 1920x804, 23.976 fps
Аудио: AC-3, 48.0 KHz, 2 ch, 384 Kbps, CBR- -

Трейлер

-   - -

Theseus

Пост 29-Янв-2018 22:05

[Цитировать]

- Тор: Рагнарёк / Thor: Ragnarok-Год выхода: 2017
Страна: США
Жанр: фантастика, боевик, комедия, приключения
Продолжительность: 02:11:18
Перевод: Профессиональный (полное дублирование) | Чистый звук
Субтитры: Отсутствуют-Режиссер: Тайка Вайтити-В ролях: Крис Хемсворт, Том Хиддлстон, Идрис Эльба, Энтони Хопкинс, Кейт Бланшетт, Тесса Томпсон, Джефф Голдблюм, Карл Урбан, Марк Руффало, Бенедикт Камбербэтч-О фильме: Вернувшись в Асгард в поисках таинственного врага, ведущего охоту на Камни Бесконечности, Тор обнаруживает, что действия его брата Локи, захватившего трон Асгарда, привели к приближению наиболее страшного события — Рагнарёка. По легенде, это ознаменует последнюю битву Асгарда, последствием которой станет его полное уничтожение. В попытке предотвратить это событие, Тору предстоит прибегнуть к помощи своего товарища из Мстителей — Халка. Вместе, им предстоит столкнуться лицом к лицу со злейшим врагом всех девяти миров — огненным демоном Суртуром, целью которого является исполнение пророчества о Рагнарёке и уничтожение девяти миров.- -Качество: WEB-DLRip 720p
Формат: MKV
Видео кодек: x.264
Аудио кодек: AC3
Видео: MPEG4-AVC, 4667 Кбит/с, 1280x536, 23.976 fps
Аудио: AC-3, 48.0 KHz, 2 ch, 384 Kbps, CBR- -

Трейлер

-   - -

Theseus

Пост 27-Янв-2018 03:34

[Цитировать]

Полуночный человек / The Midnight Man-Год выхода: 2017
Страна: США, Канада
Жанр: ужасы
Продолжительность: 01:32:56
Перевод: Профессиональный (полное дублирование) | Чистый звук
Субтитры: Отсутствуют-Режиссер: Трэвис Заривны-В ролях: Лин Шэй, Габриэль Хоф, Грэйсон Сзакакс, Эмили Хейн, Саммер Х. Хауэлл, Луиз Линтон, Майкл Сироу, Роберт Инглунд, Логан Креран, Калли Лэйн, ...-О фильме:
На чердаке своей бабушки Алекс и ее друзья находят игру, с помощью которой можно вызвать Полуночного человека. Это опасное существо умеет воплощать самые худшие кошмары тех, кто к нему обращается.- -Качество: WEB-DL 720p
Формат: MKV
Видео кодек: x.264
Аудио кодек: AC3
Видео: AVC, 1280x528, 3972kb/s, 23.976fps
Аудио 1: AC-3, 48.0 KHz, 2 ch, 384 Kbps, CBR | RUS
Аудио 2: AC-3, 48.0 KHz, 6 ch, 384 Kbps, CBR | ENG- -

MediaInfo

Формат : Matroska
Версия формата : Version 2
Размер файла : 3,14 Гбайт
Продолжительность : 1 ч. 32 м.
Общий поток : 4836 Кбит/сек
Дата кодирования : UTC 2018-01-26 11:50:13
Программа кодирования : mkvmerge v7.8.0 ('River Man') 32bit built on Apr 3 2015 12:11:22
Библиотека кодирования : libebml v1.3.1 + libmatroska v1.4.2
Видео
Идентификатор : 1
Формат : AVC
Формат/Информация : Advanced Video Codec
Профиль формата : [email protected]
Настройки формата : 2 Ref Frames
Параметр CABAC формата : Нет
Параметр RefFrames формата : 2 кадра
Идентификатор кодека : V_MPEG4/ISO/AVC
Продолжительность : 1 ч. 32 м.
Битрейт : 3972 Кбит/сек
Ширина : 1280 пикселей
Высота : 528 пикселей
Соотношение сторон : 2,40:1
Режим частоты кадров : Постоянный
Частота кадров : 23,976 кадра/сек
Цветовое пространство : YUV
Субдискретизация насыщенности : 4:2:0
Битовая глубина : 8 бит
Тип развёртки : Прогрессивная
Бит/(Пиксели*Кадры) : 0.245
Размер потока : 2,58 Гбайт (82%)
Заголовок : The.Midnight.Man.2017.720p.WEB-DL.DD5.1.H264-FGT
Язык : English
Default : Да
Forced : Нет
Цветовой диапазон : Limited
Основные цвета : BT.709
Характеристики трансфера : BT.709
Коэффициенты матрицы : BT.709
Аудио #1
Идентификатор : 2
Формат : AC-3
Формат/Информация : Audio Coding 3
Параметр Endianness формата : Big
Идентификатор кодека : A_AC3
Продолжительность : 1 ч. 32 м.
Вид битрейта : Постоянный
Битрейт : 384 Кбит/сек
Каналы : 2 канала
Расположение каналов : Front: L R
Частота : 48,0 КГц
Частота кадров : 31,250 кадров/сек (1536 SPF)
Битовая глубина : 16 бит
Метод сжатия : С потерями
Размер потока : 255 Мбайт (8%)
Язык : Russian
Default : Да
Forced : Да
Аудио #2
Идентификатор : 3
Формат : AC-3
Формат/Информация : Audio Coding 3
Параметр Endianness формата : Big
Идентификатор кодека : A_AC3
Продолжительность : 1 ч. 32 м.
Вид битрейта : Постоянный
Битрейт : 384 Кбит/сек
Каналы : 6 каналов
Расположение каналов : Front: L C R, Side: L R, LFE
Частота : 48,0 КГц
Частота кадров : 31,250 кадров/сек (1536 SPF)
Битовая глубина : 16 бит
Метод сжатия : С потерями
Размер потока : 255 Мбайт (8%)
Заголовок : The.Midnight.Man.2017.720p.WEB-DL.DD5.1.H264-FGT
Язык : English
Default : Нет
Forced : Нет
Меню
00:00:00.000 : en:1
00:15:47.697 : en:2
00:28:44.598 : en:3
00:39:10.514 : en:4
00:50:13.093 : en:5
01:03:10.036 : en:6
01:14:45.564 : en:7
01:26:37.525 : en:8
01:27:33.037 : en:9

Трейлер

-     - -

Theseus

Пост 23-Янв-2018 23:25

[Цитировать]

- Тор: Рагнарёк / Thor: Ragnarok-Год выхода: 2017
Страна: США
Жанр: фантастика, боевик, комедия, приключения
Продолжительность: 02:11:18
Перевод: Любительский (многоголосый) | MUZOBOZ
Субтитры: Отсутствуют-Режиссер: Тайка Вайтити-В ролях: Крис Хемсворт, Том Хиддлстон, Идрис Эльба, Энтони Хопкинс, Кейт Бланшетт, Тесса Томпсон, Джефф Голдблюм, Карл Урбан, Марк Руффало, Бенедикт Камбербэтч-О фильме: Вернувшись в Асгард в поисках таинственного врага, ведущего охоту на Камни Бесконечности, Тор обнаруживает, что действия его брата Локи, захватившего трон Асгарда, привели к приближению наиболее страшного события — Рагнарёка. По легенде, это ознаменует последнюю битву Асгарда, последствием которой станет его полное уничтожение. В попытке предотвратить это событие, Тору предстоит прибегнуть к помощи своего товарища из Мстителей — Халка. Вместе, им предстоит столкнуться лицом к лицу со злейшим врагом всех девяти миров — огненным демоном Суртуром, целью которого является исполнение пророчества о Рагнарёке и уничтожение девяти миров.- -Качество: WEB-DLRip 1080p
Формат: MKV
Видео кодек: x.264
Аудио кодек: AC3
Видео: MPEG4-AVC, 5395 Кбит/с, 1920x804, 23.976 fps
Аудио: AC-3, 48.0 KHz, 2 ch, 384 Kbps, CBR- -

Трейлер

-   - -

Theseus

Пост 23-Янв-2018 23:24

[Цитировать]

- Тор: Рагнарёк / Thor: Ragnarok-Год выхода: 2017
Страна: США
Жанр: фантастика, боевик, комедия, приключения
Продолжительность: 02:11:18
Перевод: Любительский (многоголосый) | MUZOBOZ
Субтитры: Отсутствуют-Режиссер: Тайка Вайтити-В ролях: Крис Хемсворт, Том Хиддлстон, Идрис Эльба, Энтони Хопкинс, Кейт Бланшетт, Тесса Томпсон, Джефф Голдблюм, Карл Урбан, Марк Руффало, Бенедикт Камбербэтч-О фильме: Вернувшись в Асгард в поисках таинственного врага, ведущего охоту на Камни Бесконечности, Тор обнаруживает, что действия его брата Локи, захватившего трон Асгарда, привели к приближению наиболее страшного события — Рагнарёка. По легенде, это ознаменует последнюю битву Асгарда, последствием которой станет его полное уничтожение. В попытке предотвратить это событие, Тору предстоит прибегнуть к помощи своего товарища из Мстителей — Халка. Вместе, им предстоит столкнуться лицом к лицу со злейшим врагом всех девяти миров — огненным демоном Суртуром, целью которого является исполнение пророчества о Рагнарёке и уничтожение девяти миров.- -Качество: WEB-DLRip 720p
Формат: MKV
Видео кодек: x.264
Аудио кодек: AC3
Видео: MPEG4-AVC, 4680 Кбит/с, 1280x536, 23.976 fps
Аудио: AC-3, 48.0 KHz, 2 ch, 384 Kbps, CBR- -

Трейлер

-   - -

Theseus

Пост 22-Янв-2018 22:26

[Цитировать]

Мой любимый динозавр / My Pet Dinosaur- Год выхода: 2017
Страна: Австралия
Жанр: боевик, приключения, семейный
Продолжительность: 01:33:51
Перевод: Профессиональный (полное дублирование) | iTunes
Субтитры: Отсутствуют-Режиссер: Мэтт Драммонд-В ролях: Джордан Дюльо, Аннабель Вольф, Скотт Ирвин, Бет Чемпион, Роулэнд Холмс, Кристофер Габарди, Харрисон Саундерс, Том Руни-О фильме: В результате неудачного военного биологического эксперимента рождается удивительное создание. Это существо находит подросток и прячет у себя дома. Новый друг начинает стремительно расти и распространять хаос по всему городу. Это, конечно, сразу же вызывает недовольство людей в форме. Но они еще не знают, что на защиту животного выйдет команда местных подростков..- -Качество: BDRip 1080p
Формат: MKV
Видео кодек: x.264
Аудио кодек: AC3
Видео: AVC, 1920x800 (2.40:1), 23.976 fps, 12.6 Mbps (0.341 bit/pixel)
Аудио #1: AC-3, 48.0 KHz, 6 ch, 384 Kbps, CBR (Russian)
Аудио #2: AC-3, 48.0 KHz, 6 ch, 640 Kbps, CBR (English)-

MediaInfo

Общее
Уникальный идентификатор : 255052021610328152246467204931418074437 (0xBFE13B8A55E74B00A3242B4E47942D45)
Полное имя : My.Pet.Dinosaur.2O17.D.BDRip.1080p.mkv
Формат : Matroska
Версия формата : Version 4 / Version 2
Размер файла : 8,91 Гбайт
Продолжительность : 1 ч. 33 м.
Общий поток : 13,6 Мбит/сек
Дата кодирования : UTC 2018-01-22 18:21:57
Программа кодирования : mkvmerge v8.3.0 ('Over the Horizon') 64bit
Библиотека кодирования : libebml v1.3.1 + libmatroska v1.4.2
Видео
Идентификатор : 1
Формат : AVC
Формат/Информация : Advanced Video Codec
Профиль формата : [email protected]
Параметр CABAC формата : Да
Параметр ReFrames формата : 5 кадров
Идентификатор кодека : V_MPEG4/ISO/AVC
Продолжительность : 1 ч. 33 м.
Битрейт : 12,6 Мбит/сек
Ширина : 1920 пикселей
Высота : 800 пикселей
Соотношение сторон : 2,40:1
Режим частоты кадров : Постоянный
Частота кадров : 23,976 (24000/1001) кадра/сек
Цветовое пространство : YUV
Субдискретизация насыщенности : 4:2:0
Битовая глубина : 8 бит
Тип развёртки : Прогрессивная
Бит/(Пиксели*Кадры) : 0.341
Размер потока : 8,24 Гбайт (92%)
Библиотека кодирования : x264 core 152 r2851+58 429492e t_mod_Custom [[email protected] X86_64]
Настройки программы : cabac=1 / ref=5 / deblock=1:-3:-3 / analyse=0x3:0x133 / me=umh / subme=11 / psy=1 / fade_compensate=0.00 / psy_rd=1.00:0.00 / mixed_ref=1 / me_range=32 / chroma_me=1 / trellis=2 / 8x8dct=1 / cqm=0 / deadzone=21,11 / fast_pskip=0 / chroma_qp_offset=-2 / threads=6 / lookahead_threads=1 / sliced_threads=0 / nr=0 / decimate=0 / interlaced=0 / bluray_compat=0 / constrained_intra=0 / fgo=0 / bframes=8 / b_pyramid=2 / b_adapt=2 / b_bias=0 / direct=3 / weightb=1 / open_gop=0 / weightp=2 / keyint=250 / keyint_min=23 / scenecut=40 / intra_refresh=0 / rc_lookahead=60 / rc=crf / mbtree=0 / crf=14.5000 / qcomp=0.60 / qpmin=0:0:0 / qpmax=69:69:69 / qpstep=4 / vbv_maxrate=62500 / vbv_bufsize=78125 / crf_max=0.0 / nal_hrd=none / filler=0 / ip_ratio=1.30 / pb_ratio=1.20 / aq=3:0.70 / aq-sensitivity=10.00 / aq-factor=1.00:1.00:1.00 / aq2=0 / aq3=0 / zones=0,840,b=2
Язык : English
Default : Да
Forced : Нет
Цветовой диапазон : Limited
Коэффициенты матрицы : BT.709
Аудио #1
Идентификатор : 2
Формат : AC-3
Формат/Информация : Audio Coding 3
Параметр Endianness формата : Big
Идентификатор кодека : A_AC3
Продолжительность : 1 ч. 33 м.
Вид битрейта : Постоянный
Битрейт : 384 Кбит/сек
Каналы : 6 каналов
Расположение каналов : Front: L C R, Side: L R, LFE
Частота : 48,0 КГц
Частота кадров : 31,250 кадров/сек (1536 spf)
Битовая глубина : 16 бит
Метод сжатия : С потерями
Размер потока : 258 Мбайт (3%)
Заголовок : iTunes
Язык : Russian
Default : Да
Forced : Нет
Аудио #2
Идентификатор : 3
Формат : AC-3
Формат/Информация : Audio Coding 3
Параметр Endianness формата : Big
Идентификатор кодека : A_AC3
Продолжительность : 1 ч. 33 м.
Вид битрейта : Постоянный
Битрейт : 640 Кбит/сек
Каналы : 6 каналов
Расположение каналов : Front: L C R, Side: L R, LFE
Частота : 48,0 КГц
Частота кадров : 31,250 кадров/сек (1536 spf)
Битовая глубина : 16 бит
Метод сжатия : С потерями
Размер потока : 429 Мбайт (5%)
Заголовок : Original
Язык : English
Default : Нет
Forced : Нет
Меню
00:00:00.000 : en:Chapter 01
00:09:20.935 : en:Chapter 02
00:17:58.828 : en:Chapter 03
00:25:10.426 : en:Chapter 04
00:32:31.992 : en:Chapter 05
00:40:29.177 : en:Chapter 06
00:47:27.386 : en:Chapter 07
00:54:54.082 : en:Chapter 08
01:02:29.412 : en:Chapter 09
01:11:36.375 : en:Chapter 10
01:19:15.626 : en:Chapter 11
01:26:00.322 : en:Chapter 12

Трейлер

-     - -

Theseus

Пост 22-Янв-2018 22:25

[Цитировать]

Мой любимый динозавр / My Pet Dinosaur- Год выхода: 2017
Страна: Австралия
Жанр: боевик, приключения, семейный
Продолжительность: 01:33:51
Перевод: Профессиональный (полное дублирование) | iTunes
Субтитры: Отсутствуют-Режиссер: Мэтт Драммонд-В ролях: Джордан Дюльо, Аннабель Вольф, Скотт Ирвин, Бет Чемпион, Роулэнд Холмс, Кристофер Габарди, Харрисон Саундерс, Том Руни-О фильме: В результате неудачного военного биологического эксперимента рождается удивительное создание. Это существо находит подросток и прячет у себя дома. Новый друг начинает стремительно расти и распространять хаос по всему городу. Это, конечно, сразу же вызывает недовольство людей в форме. Но они еще не знают, что на защиту животного выйдет команда местных подростков..- -Качество: BDRip 720p
Формат: MKV
Видео кодек: x.264
Аудио кодек: AC3
Видео: AVC, 1280x532 (2.40:1), 23.976 fps, 6 643 Kbps (0.407 bit/pixel)
Аудио #1: AC-3, 48.0 KHz, 6 ch, 384 Kbps, CBR (Russian)
Аудио #2: AC-3, 48.0 KHz, 6 ch, 640 Kbps, CBR (English)-

MediaInfo

Общее
Уникальный идентификатор : 188010235477624902094160423256183478574 (0x8D717448CB8CBE00BF56862154FF192E)
Полное имя : My.Pet.Dinosaur.2O17.D.BDRip.720p.mkv
Формат : Matroska
Версия формата : Version 4 / Version 2
Размер файла : 5,02 Гбайт
Продолжительность : 1 ч. 33 м.
Общий поток : 7665 Кбит/сек
Дата кодирования : UTC 2018-01-22 18:00:08
Программа кодирования : mkvmerge v8.3.0 ('Over the Horizon') 64bit
Библиотека кодирования : libebml v1.3.1 + libmatroska v1.4.2
Видео
Идентификатор : 1
Формат : AVC
Формат/Информация : Advanced Video Codec
Профиль формата : [email protected]
Параметр CABAC формата : Да
Параметр ReFrames формата : 16 кадров
Идентификатор кодека : V_MPEG4/ISO/AVC
Продолжительность : 1 ч. 33 м.
Битрейт : 6643 Кбит/сек
Ширина : 1280 пикселей
Высота : 532 пикселя
Соотношение сторон : 2,40:1
Режим частоты кадров : Постоянный
Частота кадров : 23,976 (24000/1001) кадра/сек
Цветовое пространство : YUV
Субдискретизация насыщенности : 4:2:0
Битовая глубина : 8 бит
Тип развёртки : Прогрессивная
Бит/(Пиксели*Кадры) : 0.407
Размер потока : 4,35 Гбайт (87%)
Библиотека кодирования : x264 core 152 r2851+58 429492e t_mod_Custom [[email protected] X86_64]
Настройки программы : cabac=1 / ref=16 / deblock=1:-3:-3 / analyse=0x3:0x133 / me=umh / subme=11 / psy=1 / fade_compensate=0.00 / psy_rd=1.00:0.00 / mixed_ref=1 / me_range=32 / chroma_me=1 / trellis=2 / 8x8dct=1 / cqm=0 / deadzone=21,11 / fast_pskip=0 / chroma_qp_offset=-2 / threads=6 / lookahead_threads=1 / sliced_threads=0 / nr=0 / decimate=0 / interlaced=0 / bluray_compat=0 / constrained_intra=0 / fgo=0 / bframes=8 / b_pyramid=2 / b_adapt=2 / b_bias=0 / direct=3 / weightb=1 / open_gop=0 / weightp=2 / keyint=250 / keyint_min=23 / scenecut=40 / intra_refresh=0 / rc_lookahead=60 / rc=crf / mbtree=0 / crf=13.5000 / qcomp=0.60 / qpmin=0:0:0 / qpmax=69:69:69 / qpstep=4 / vbv_maxrate=62500 / vbv_bufsize=78125 / crf_max=0.0 / nal_hrd=none / filler=0 / ip_ratio=1.30 / pb_ratio=1.20 / aq=3:0.70 / aq-sensitivity=10.00 / aq-factor=1.00:1.00:1.00 / aq2=0 / aq3=0 / zones=0,840,b=2
Язык : English
Default : Да
Forced : Нет
Цветовой диапазон : Limited
Коэффициенты матрицы : BT.709
Аудио #1
Идентификатор : 2
Формат : AC-3
Формат/Информация : Audio Coding 3
Параметр Endianness формата : Big
Идентификатор кодека : A_AC3
Продолжительность : 1 ч. 33 м.
Вид битрейта : Постоянный
Битрейт : 384 Кбит/сек
Каналы : 6 каналов
Расположение каналов : Front: L C R, Side: L R, LFE
Частота : 48,0 КГц
Частота кадров : 31,250 кадров/сек (1536 spf)
Битовая глубина : 16 бит
Метод сжатия : С потерями
Размер потока : 258 Мбайт (5%)
Заголовок : iTunes
Язык : Russian
Default : Да
Forced : Нет
Аудио #2
Идентификатор : 3
Формат : AC-3
Формат/Информация : Audio Coding 3
Параметр Endianness формата : Big
Идентификатор кодека : A_AC3
Продолжительность : 1 ч. 33 м.
Вид битрейта : Постоянный
Битрейт : 640 Кбит/сек
Каналы : 6 каналов
Расположение каналов : Front: L C R, Side: L R, LFE
Частота : 48,0 КГц
Частота кадров : 31,250 кадров/сек (1536 spf)
Битовая глубина : 16 бит
Метод сжатия : С потерями
Размер потока : 429 Мбайт (8%)
Заголовок : Original
Язык : English
Default : Нет
Forced : Нет
Меню
00:00:00.000 : en:Chapter 01
00:09:20.935 : en:Chapter 02
00:17:58.828 : en:Chapter 03
00:25:10.426 : en:Chapter 04
00:32:31.992 : en:Chapte 05
00:40:29.177 : en:Chapter 06
00:47:27.386 : en:Chapter 07
00:54:54.082 : en:Chapter 08
01:02:29.412 : en:Chapter 09
01:11:36.375 : en:Chapter 10
01:19:15.626 : en:Chapter 11
01:26:00.322 : en:Chapter 12

Трейлер

-     - -

Theseus

Пост 19-Янв-2018 00:26

[Цитировать]

Геошторм / Geostorm- Год выхода: 2017
Страна: США
Жанр: фантастика, боевик, триллер
Продолжительность: 01:49:07
Перевод: Профессиональный (полное дублирование) | iTunes / Многоголосый закадровый | Paradox&Omskbird Records
Субтитры: Русские (forced, full), английские-Режиссер: Дин Девлин-В ролях: Джерард Батлер, Джим Стёрджесс, Эбби Корниш, Александра Мария Лара, Дэниэл Ву, Эухенио Дербес, Амр Вакед, Эдеперо Одуйе, Энди Гарсиа, Эд Харрис-О фильме: После беспрецедентной серии стихийных бедствий, обрушившихся на нашу планету, лидеры мировых держав объединили усилия, чтобы создать разветвленную сеть орбитальных спутников по контролю над климатом для предотвращения природных катаклизмов. Но что-то пошло не так — система, выстроенная для защиты Земли, теперь угрожает ей. Начинается гонка наперегонки со временем, в которой надо успеть обнаружить реальную угрозу до того, как всемирный Геошторм сотрёт с лица Земли всё живое.- -Качество: BDRip 720p
Формат: MKV
Видео кодек: x.264
Аудио кодек: AC3/DTS
Видео: MPEG-4 AVC, 1280x534, 4214 Kbit/s, 23.976 fps
Аудио #1: 48 kHz, AC3, 6 ch, 384 Kbps | Дублированный | iTunes | RUS |
Аудио #2: 48 kHz, AC3, 2 ch, 192 Kbps | Paradox&Omskbird Records | RUS |
Аудио #3: 48 kHz, DTS, 6 ch, 1509 Kbps | Оригинал | ENG |-

Трейлер

-     - -
 

Текущее время: Сегодня 08:11

Часовой пояс: GMT + 3