Сегодня идет свободное скачивание без начисления Download

Результатов поиска: 392

Автор Сообщение

Theseus

Пост Вчера 19:05

[Цитировать]

Убийца 2. Против всех / Sicario: Day of the Soldado- Год выпуска: 2018
Страна: США, Италия
Жанр: Боевик, триллер, драма, криминал
Продолжительность: 02:02:23
Перевод: Авторский одноголосый | Дмитрий Есарев
Субтитры: Английские-Режиссер: Стефано Соллима-В ролях: Бенисио Дель Торо, Джош Бролин, Изабела Монер, Джеффри Донован, Кэтрин Кинер, Мануэль Рульфо, Мэттью Модайн, Шей Уигэм, Элиас Гарза, Ховард Фергюсон мл.-Описание: Обстановка на американо-мексиканской границе накаляется, когда наркокартели начинают переправлять в США террористов. Чтобы дать им отпор федеральный агент Мэтт Грейвер вынужден вновь объединиться с не самым надежным напарником — Алехандро.- -Качество: WEB-DL 1080p [AMZN Version]
Формат: MKV
Видео кодек: x.264
Аудио кодек: AC3
Видео: MPEG-4 AVC, 1920x800, 4926 Kbit/s, 23.976 fps
Аудио 1: 48 kHz, AC3, 6 ch, 384 Kbps | RUS
Аудио 2: 48 kHz, E-AC3, 6 ch, 640 Kbps | ENG-

Трейлер

-     - -

Theseus

Пост 15-Сен-2018 14:49

[Цитировать]

Миссия невыполнима: Последствия / Mission: Impossible - Fallout- Год выхода: 2018
Страна: США, Китай
Жанр: боевик, триллер, приключения
Продолжительность: 02:27:15
Перевод: Любительский (многоголосый) | MUZOBOZ
Субтитры: Корейские [вшитые]-Режиссер: Кристофер МакКуорри-В ролях: Том Круз, Ребекка Фергюсон, Генри Кавилл, Мишель Монахэн, Ванесса Кирби, Уэс Бентли, Саймон Пегг, Анджела Бассетт, Алек Болдуин, Винг Реймз-Описание: Итан Хант и его команда, а также недавно примкнувшие к ним союзники, вынуждены действовать наперегонки со временем, когда новая миссия идет не по плану.- -Качество: HDTVRip 1080p
Формат: MKV
Видео кодек: x.264
Аудио кодек: AC3
Видео: AVC, 1920x800 (2.40:1), 23.976 fps, 5 729 Kbps
Аудио: AC-3, 48.0 KHz, 2 ch, 384 Kbps, CBR-Присутствует реклама-

Трейлер

-     - -

Theseus

Пост 15-Сен-2018 14:48

[Цитировать]

Миссия невыполнима: Последствия / Mission: Impossible - Fallout- Год выхода: 2018
Страна: США, Китай
Жанр: боевик, триллер, приключения
Продолжительность: 02:27:15
Перевод: Любительский (многоголосый) | MUZOBOZ
Субтитры: Корейские [вшитые]-Режиссер: Кристофер МакКуорри-В ролях: Том Круз, Ребекка Фергюсон, Генри Кавилл, Мишель Монахэн, Ванесса Кирби, Уэс Бентли, Саймон Пегг, Анджела Бассетт, Алек Болдуин, Винг Реймз-Описание: Итан Хант и его команда, а также недавно примкнувшие к ним союзники, вынуждены действовать наперегонки со временем, когда новая миссия идет не по плану.- -Качество: HDTVRip 720p
Формат: MKV
Видео кодек: x.264
Аудио кодек: AC3
Видео: AVC, 1280x534 (2.40:1), 23.976 fps, 4 943 Kbps
Аудио: AC-3, 48.0 KHz, 2 ch, 384 Kbps-Присутствует реклама-

Трейлер

-     - -

Theseus

Пост 13-Сен-2018 22:49

[Цитировать]

Хан Соло: Звёздные Войны. Истории / Solo: A Star Wars Story- Год выпуска: 2018
Страна: США
Жанр: Фантастика, фэнтези, боевик, приключения
Продолжительность: 02:14:46
Перевод: Профессиональный (полное дублирование) | iTunes
Субтитры: Русские (forced, full, SDH), английские (Full, SDH, SDH Colored)-Режиссер: Рон Ховард-В ролях: Олден Эренрайк, Йонас Суотамо, Вуди Харрельсон, Эмилия Кларк, Дональд Гловер, Тэнди Ньютон, Фиби Уоллер-Бридж, Пол Беттани, Джон Фавро, Линда Хант-Описание: Фильм расскажет о похождениях юного космического сорвиголовы Хана Соло и его верного напарника Чубакки и о том, как они стали самыми быстрыми пилотами и самыми хитрыми контрабандистами далёкой Галактики.- -Качество: BDRip 1080p
Формат: MKV
Видео кодек: x.264
Аудио кодек: AC3, DTS
Видео: MPEG-4 AVC, 1920x804, 14.0 Mbit/s, 23.976 fps
Аудио 1: 48 kHz, AC3, 6 ch, 384 Kbps | iTunes | RUS
Аудио 2: 48 kHz, DTS, 6 ch 1510 Kbps | Оригинал | ENG-

Трейлер

-     - -

Theseus

Пост 13-Сен-2018 22:48

[Цитировать]

Хан Соло: Звёздные Войны. Истории / Solo: A Star Wars Story- Год выпуска: 2018
Страна: США
Жанр: Фантастика, фэнтези, боевик, приключения
Продолжительность: 02:14:46
Перевод: Профессиональный (полное дублирование) | iTunes
Субтитры: Русские (forced, full, SDH), английские (Full, SDH, SDH Colored)-Режиссер: Рон Ховард-В ролях: Олден Эренрайк, Йонас Суотамо, Вуди Харрельсон, Эмилия Кларк, Дональд Гловер, Тэнди Ньютон, Фиби Уоллер-Бридж, Пол Беттани, Джон Фавро, Линда Хант-Описание: Фильм расскажет о похождениях юного космического сорвиголовы Хана Соло и его верного напарника Чубакки и о том, как они стали самыми быстрыми пилотами и самыми хитрыми контрабандистами далёкой Галактики.- -Качество: BDRip 720p
Формат: MKV
Видео кодек: x.264
Аудио кодек: AC3, DTS
Видео: MPEG-4 AVC, 1280x536, 5337 Kbit/s, 23.976 fps
Аудио 1: 48 kHz, AC3, 6 ch, 384 Kbps | iTunes | RUS
Аудио 2: 48 kHz, DTS, 6 ch 1510 Kbps | Оригинал | ENG-

Трейлер

-     - -

Theseus

Пост 10-Сен-2018 23:14

[Цитировать]

Хан Соло: Звёздные Войны. Истории / Solo: A Star Wars Story- Год выпуска: 2018
Страна: США
Жанр: Фантастика, фэнтези, боевик, приключения
Продолжительность: 02:17:29
Перевод: Профессиональный (полное дублирование) | Чистый звук
Субтитры: Отсутствуют-Режиссер: Рон Ховард-В ролях: Олден Эренрайк, Йонас Суотамо, Вуди Харрельсон, Эмилия Кларк, Дональд Гловер, Тэнди Ньютон, Фиби Уоллер-Бридж, Пол Беттани, Джон Фавро, Линда Хант-Описание: Фильм расскажет о похождениях юного космического сорвиголовы Хана Соло и его верного напарника Чубакки и о том, как они стали самыми быстрыми пилотами и самыми хитрыми контрабандистами далёкой Галактики.- -Качество: BDRip 1080p
Формат: MKV
Видео кодек: x.264
Аудио кодек: AC3
Видео: AVC, 1920x804 (2.40:1), 23.976 fps, 12.6 Mbps
Аудио: AC-3, 48.0 KHz, 2 ch, 448 Kbps, CBR-> Сэмпл-Присутствует реклама-

Трейлер

-     - -

Theseus

Пост 10-Сен-2018 23:13

[Цитировать]

Хан Соло: Звёздные Войны. Истории / Solo: A Star Wars Story- Год выпуска: 2018
Страна: США
Жанр: Фантастика, фэнтези, боевик, приключения
Продолжительность: 02:17:29
Перевод: Профессиональный (полное дублирование) | Чистый звук
Субтитры: Отсутствуют-Режиссер: Рон Ховард-В ролях: Олден Эренрайк, Йонас Суотамо, Вуди Харрельсон, Эмилия Кларк, Дональд Гловер, Тэнди Ньютон, Фиби Уоллер-Бридж, Пол Беттани, Джон Фавро, Линда Хант-Описание: Фильм расскажет о похождениях юного космического сорвиголовы Хана Соло и его верного напарника Чубакки и о том, как они стали самыми быстрыми пилотами и самыми хитрыми контрабандистами далёкой Галактики.- -Качество: BDRip 720p
Формат: MKV
Видео кодек: x.264
Аудио кодек: AC3
Видео: AVC, 1280x536 (2.40:1), 23.976 fps, 6920 kbps
Аудио: AC, 48.0 KHz, 2 ch, 448 Kbps-Присутствует реклама-

Трейлер

-   - -

Theseus

Пост 07-Сен-2018 12:55

[Цитировать]

Небоскреб / Skyscraper -Год выхода: 2018
Страна: США
Жанр: боевик, триллер
Продолжительность: 01:42:24
Перевод: Профессиональный (полное дублирование) | iTunes
Субтитры: Русские форсированные (вшитые), английские-Режиссер: Роусон Маршалл Тёрбер-В ролях: Дуэйн Джонсон, Нив Кэмпбелл, Чин Хань, Роланд Мюллер, Ноа Тейлор, Байрон Манн, Пабло Шрайбер, МакКенна Робертс, Ной Коттрелл, Ханна Куинливан-О фильме: Самый высокий и технологичный небоскрёб в мире становится центром огненной катастрофы. Только бывший агент ФБР, а теперь эксперт по безопасности Уилл Сойер может спасти вертикальный город под небесами. Когда нельзя доверять никому, а жизнь семьи в опасности, каждая секунда на счету.- -Качество: WEB-DL 1080p
Формат: MKV
Видео кодек: x.264
Аудио кодек: AC3
Видео: MPEG-4 AVC, 1916x796, 4562 kbps, 23.976 fps
Аудио 1: 48 kHz, AC3, 6 ch, 384.00 kbps | RUS
Аудио 2: 48 kHz, AC3, 2 ch, 192.00 kbps | ENG-

MI

Код:
Общее
Уникальный идентификатор : 15358443193770637362658013221548504568 (0xB8DEDB668F413146C19E1E17970B5F8)
Полное имя : Skyscraper.2018.WEB-DL.1080p.mkv
Формат : Matroska
Версия формата : Version 4 / Version 2
Размер файла : 3,68 Гбайт
Продолжительность : 1 ч. 42 м.
Общий поток : 5140 Кбит/сек
Дата кодирования : UTC 2018-09-05 21:46:58
Программа кодирования : mkvmerge v23.0.0 ('The Bride Said No') 64-bit
Библиотека кодирования : libebml v1.3.6 + libmatroska v1.4.9
Видео
Идентификатор : 1
Формат : AVC
Формат/Информация : Advanced Video Codec
Профиль формата : [email protected]
Настройки формата : CABAC / 5 Ref Frames
Параметр CABAC формата : Да
Параметр RefFrames формата : 5 кадров
Идентификатор кодека : V_MPEG4/ISO/AVC
Продолжительность : 1 ч. 42 м.
Битрейт : 4562 Кбит/сек
Ширина : 1916 пикселей
Высота : 796 пикселей
Соотношение сторон : 2,40:1
Режим частоты кадров : Постоянный
Частота кадров : 23,976 (23976/1000) кадра/сек
Цветовое пространство : YUV
Субдискретизация насыщенности : 4:2:0
Битовая глубина : 8 бит
Тип развёртки : Прогрессивная
Бит/(Пиксели*Кадры) : 0.125
Размер потока : 3,26 Гбайт (89%)
Язык : English
Default : Да
Forced : Нет
Цветовой диапазон : Limited
Основные цвета : BT.709
Характеристики трансфера : BT.709
Коэффициенты матрицы : BT.709
Аудио #1
Идентификатор : 2
Формат : AC-3
Формат/Информация : Audio Coding 3
Идентификатор кодека : A_AC3
Продолжительность : 1 ч. 42 м.
Вид битрейта : Постоянный
Битрейт : 384 Кбит/сек
Каналы : 6 каналов
Расположение каналов : Front: L C R, Side: L R, LFE
Частота : 48,0 КГц
Частота кадров : 31,250 кадров/сек (1536 SPF)
Битовая глубина : 16 бит
Метод сжатия : С потерями
Размер потока : 281 Мбайт (7%)
Заголовок : DUB / iTunes
Язык : Russian
ServiceKind : Complete Main
Default : Да
Forced : Нет
Аудио #2
Идентификатор : 3
Формат : AC-3
Формат/Информация : Audio Coding 3
Идентификатор кодека : A_AC3
Продолжительность : 1 ч. 42 м.
Вид битрейта : Постоянный
Битрейт : 192 Кбит/сек
Каналы : 2 канала
Расположение каналов : Front: L R
Частота : 48,0 КГц
Частота кадров : 31,250 кадров/сек (1536 SPF)
Битовая глубина : 16 бит
Метод сжатия : С потерями
Размер потока : 141 Мбайт (4%)
Язык : English
ServiceKind : Complete Main
Default : Нет
Forced : Нет
Текст
Идентификатор : 4
Формат : UTF-8
Идентификатор кодека : S_TEXT/UTF8
Идентификатор кодека/Информация : UTF-8 Plain Text
Продолжительность : 1 ч. 31 м.
Битрейт : 43 бит/сек
ElementCount : 1019
Размер потока : 28,9 Кбайт (0%)
Язык : English
Default : Нет
Forced : Нет
Меню
00:00:00.000 : en:1
00:04:25.765 : en:2
00:10:08.357 : en:3
00:16:10.927 : en:4
00:21:13.604 : en:5
00:25:35.991 : en:6
00:30:12.726 : en:7
00:35:24.913 : en:8
00:40:08.112 : en:9
00:47:19.960 : en:10
00:52:11.251 : en:11
00:58:17.784 : en:12
01:02:03.968 : en:13
01:05:30.632 : en:14
01:10:00.401 : en:15
01:14:32.423 : en:16
01:17:19.256 : en:17
01:23:34.339 : en:18
01:27:47.216 : en:19
01:32:55.566 : en:20

Трейлер

-    - -

Theseus

Пост 07-Сен-2018 12:53

[Цитировать]

Небоскреб / Skyscraper -Год выхода: 2018
Страна: США
Жанр: боевик, триллер
Продолжительность: 01:42:24
Перевод: Профессиональный (полное дублирование) | iTunes
Субтитры: Русские форсированные (вшитые), английские-Режиссер: Роусон Маршалл Тёрбер-В ролях: Дуэйн Джонсон, Нив Кэмпбелл, Чин Хань, Роланд Мюллер, Ноа Тейлор, Байрон Манн, Пабло Шрайбер, МакКенна Робертс, Ной Коттрелл, Ханна Куинливан-О фильме: Самый высокий и технологичный небоскрёб в мире становится центром огненной катастрофы. Только бывший агент ФБР, а теперь эксперт по безопасности Уилл Сойер может спасти вертикальный город под небесами. Когда нельзя доверять никому, а жизнь семьи в опасности, каждая секунда на счету.- -Качество: WEB-DL 720p
Формат: MKV
Видео кодек: x.264
Аудио кодек: AC3
Видео: MPEG-4 AVC, 1280x532, 23.976 fps, 4078 kbps
Аудио 1: 48 kHz, AC3, 6 ch, 384.00 kbps | RUS
Аудио 2: 48 kHz, AC3, 2 ch, 192.00 kbps | ENG-

MI

Код:
General
Unique ID : 10368037361278081696956056140579064708 (0x7CCCFB56932AE29226A23D45B0BCB84)
Complete name : Небоскрёб.2018.WEB-DL.720p_[DUB_iTunes].mkv
Format : Matroska
Format version : Version 4 / Version 2
File size : 3.33 GiB
Duration : 1 h 42 min
Overall bit rate : 4 656 kb/s
Encoded date : UTC 2018-09-06 05:21:49
Writing application : mkvmerge v25.0.0 ('Prog Noir') 64-bit
Writing library : libebml v1.3.6 + libmatroska v1.4.9
Video
ID : 1
Format : AVC
Format/Info : Advanced Video Codec
Format profile : [email protected]
Format settings : 2 Ref Frames
Format settings, CABAC : No
Format settings, ReFrames : 2 frames
Codec ID : V_MPEG4/ISO/AVC
Duration : 1 h 42 min
Bit rate : 4 078 kb/s
Width : 1 280 pixels
Height : 532 pixels
Display aspect ratio : 2.40:1
Frame rate mode : Constant
Frame rate : 23.976 (23976/1000) FPS
Color space : YUV
Chroma subsampling : 4:2:0
Bit depth : 8 bits
Scan type : Progressive
Bits/(Pixel*Frame) : 0.250
Stream size : 2.92 GiB (88%)
Language : English
Default : Yes
Forced : No
Color range : Limited
Color primaries : BT.709
Transfer characteristics : BT.709
Matrix coefficients : BT.709
Audio #1
ID : 2
Format : AC-3
Format/Info : Audio Coding 3
Commercial name : Dolby Digital
Codec ID : A_AC3
Duration : 1 h 42 min
Bit rate mode : Constant
Bit rate : 384 kb/s
Channel(s) : 6 channels
Channel positions : Front: L C R, Side: L R, LFE
Sampling rate : 48.0 kHz
Frame rate : 31.250 FPS (1536 SPF)
Bit depth : 16 bits
Compression mode : Lossy
Stream size : 281 MiB (8%)
Title : DUB / iTunes
Language : Russian
Service kind : Complete Main
Default : Yes
Forced : No
Audio #2
ID : 3
Format : AC-3
Format/Info : Audio Coding 3
Commercial name : Dolby Digital
Codec ID : A_AC3
Duration : 1 h 42 min
Bit rate mode : Constant
Bit rate : 192 kb/s
Channel(s) : 2 channels
Channel positions : Front: L R
Sampling rate : 48.0 kHz
Frame rate : 31.250 FPS (1536 SPF)
Bit depth : 16 bits
Compression mode : Lossy
Stream size : 141 MiB (4%)
Title : ENG
Language : English
Service kind : Complete Main
Default : No
Forced : No
Text
ID : 4
Format : UTF-8
Codec ID : S_TEXT/UTF8
Codec ID/Info : UTF-8 Plain Text
Duration : 1 h 31 min
Bit rate : 43 b/s
Count of elements : 1019
Stream size : 28.9 KiB (0%)
Title : ENG
Language : English
Default : No
Forced : No
Menu
00:00:00.000 : en:1
00:04:25.765 : en:2
00:10:08.357 : en:3
00:16:10.927 : en:4
00:21:13.604 : en:5
00:25:35.991 : en:6
00:30:12.726 : en:7
00:35:24.913 : en:8
00:40:08.112 : en:9
00:47:19.960 : en:10
00:52:11.251 : en:11
00:58:17.784 : en:12
01:02:03.968 : en:13
01:05:30.632 : en:14
01:10:00.401 : en:15
01:14:32.423 : en:16
01:17:19.256 : en:17
01:23:34.339 : en:18
01:27:47.216 : en:19
01:32:55.566 : en:20

Трейлер

-     - -

Theseus

Пост 29-Авг-2018 23:21

[Цитировать]

Правда или действие / Truth or Dare -Год выхода: 2018
Страна: США
Жанр: Ужасы, триллер
Продолжительность: 01:40:32
Перевод: Профессиональный (полное дублирование) | Лицензия
Субтитры: Русские (Forced, full), английские-Режиссер: Джефф Уодлоу-В ролях: Люси Хейл, Тайлер Пози, Вайолетт Бин, Софи Тэйлор Али, Нолан Джерард Фанк, Лэндон Либуарон, Сэм Лернер, Гэри Энтони Уильямс, Хейден Сзето-О фильме: Обычная игра «Правда или действие» превращается в жестокую гонку со смертью, когда к процессу подключается нечто сверхъестественное. Стоит кому-то из участников соврать или не выполнить положенное действие, его ждет жестокая расправа. Кто в итоге сможет выйти победителем в жестокой игре?- -Качество: BDRemux
Контейнер: MKV
Видео кодек: H.264
Аудио кодек: DTS, AС3
Видео: MPEG-4 AVC, 1920x1080, 34.5 Mbit/s, 23.976 fps
Аудио 1: 48 kHz, DTS, 6 ch, 768 kbps | RUS (DUB)
Аудио 2: 48 kHz, AС3, 6 ch, 448 kbps | RUS (DUB)
Аудио 3: 48 kHz, DTS-HD MA, 6 ch, 3840 kbps | ENG

MI

General
Unique ID : 24782718908138122928008708623258305952 (0x12A4FA6125BB31978F81A528688B45A0)
Complete name : Truth.or.Dare.2018.BDREMUX.1080p.ExKinoRay.mkv
Format : Matroska
Format version : Version 4 / Version 2
File size : 27.8 GiB
Duration : 1 h 40 min
Overall bit rate mode : Variable
Overall bit rate : 39.5 Mb/s
Movie name : Truth or Dare 2018 from ExKinoRay
Encoded date : UTC 2018-08-28 14:06:40
Writing application : mkvmerge v23.0.0 ('The Bride Said No') 64-bit
Writing library : libebml v1.3.6 + libmatroska v1.4.9
Video
ID : 1
Format : AVC
Format/Info : Advanced Video Codec
Format profile : [email protected]
Format settings : CABAC / 4 Ref Frames
Format settings, CABAC : Yes
Format settings, ReFrames : 4 frames
Codec ID : V_MPEG4/ISO/AVC
Duration : 1 h 40 min
Bit rate mode : Variable
Bit rate : 34.5 Mb/s
Maximum bit rate : 39.0 Mb/s
Width : 1 920 pixels
Height : 1 080 pixels
Display aspect ratio : 16:9
Frame rate mode : Constant
Frame rate : 23.976 (24000/1001) FPS
Color space : YUV
Chroma subsampling : 4:2:0
Bit depth : 8 bits
Scan type : Progressive
Bits/(Pixel*Frame) : 0.694
Stream size : 24.2 GiB (87%)
Language : English
Default : Yes
Forced : No
Audio #1
ID : 2
Format : DTS
Format/Info : Digital Theater Systems
Codec ID : A_DTS
Duration : 1 h 40 min
Bit rate mode : Constant
Bit rate : 768 kb/s
Channel(s) : 6 channels
Channel positions : Front: L C R, Side: L R, LFE
Sampling rate : 48.0 kHz
Frame rate : 93.750 FPS (512 SPF)
Bit depth : 24 bits
Compression mode : Lossy
Stream size : 552 MiB (2%)
Title : License
Language : Russian
Default : Yes
Forced : Yes
Audio #2
ID : 3
Format : AC-3
Format/Info : Audio Coding 3
Commercial name : Dolby Digital
Codec ID : A_AC3
Duration : 1 h 40 min
Bit rate mode : Constant
Bit rate : 448 kb/s
Channel(s) : 6 channels
Channel positions : Front: L C R, Side: L R, LFE
Sampling rate : 48.0 kHz
Frame rate : 31.250 FPS (1536 SPF)
Bit depth : 16 bits
Compression mode : Lossy
Stream size : 322 MiB (1%)
Title : License
Language : Russian
Service kind : Complete Main
Default : No
Forced : No
Audio #3
ID : 4
Format : DTS
Format/Info : Digital Theater Systems
Format profile : MA / Core
Codec ID : A_DTS
Duration : 1 h 40 min
Bit rate mode : Variable / Constant
Bit rate : 3 840 kb/s / 1 509 kb/s
Channel(s) : 6 channels
Channel positions : Front: L C R, Side: L R, LFE
Sampling rate : 48.0 kHz
Frame rate : 93.750 FPS (512 SPF)
Bit depth : 24 bits
Compression mode : Lossless / Lossy
Stream size : 2.69 GiB (10%)
Title : Original
Language : English
Default : No
Forced : No
Text #1
ID : 5
Format : UTF-8
Codec ID : S_TEXT/UTF8
Codec ID/Info : UTF-8 Plain Text
Duration : 1 h 38 min
Bit rate : 0 b/s
Count of elements : 6
Stream size : 213 Bytes (0%)
Title : Forced
Language : Russian
Default : Yes
Forced : Yes
Text #2
ID : 6
Format : UTF-8
Codec ID : S_TEXT/UTF8
Codec ID/Info : UTF-8 Plain Text
Duration : 1 h 39 min
Bit rate : 80 b/s
Count of elements : 1552
Stream size : 58.9 KiB (0%)
Title : Full
Language : Russian
Default : No
Forced : No
Text #3
ID : 7
Format : UTF-8
Codec ID : S_TEXT/UTF8
Codec ID/Info : UTF-8 Plain Text
Duration : 1 h 39 min
Bit rate : 63 b/s
Count of elements : 1516
Stream size : 46.1 KiB (0%)
Title : Full
Language : English
Default : No
Forced : No
Menu
00:00:00.000 : en:00:00:00.000
00:02:30.150 : en:00:02:30.150
00:10:48.064 : en:00:10:48.064
00:14:14.395 : en:00:14:14.395
00:20:26.475 : en:00:20:26.475
00:25:15.305 : en:00:25:15.305
00:29:19.716 : en:00:29:19.716
00:34:52.799 : en:00:34:52.799
00:41:21.104 : en:00:41:21.104
00:45:27.933 : en:00:45:27.933
00:48:32.534 : en:00:48:32.534
00:54:41.695 : en:00:54:41.695
00:58:25.418 : en:00:58:25.418
01:05:52.657 : en:01:05:52.657
01:10:03.115 : en:01:10:03.115
01:15:45.958 : en:01:15:45.958
01:21:58.246 : en:01:21:58.246
01:28:25.216 : en:01:28:25.216
01:31:46.000 : en:01:31:46.000
01:37:55.745 : en:01:37:55.745

Трейлер

-     - -

Theseus

Пост 29-Авг-2018 23:20

[Цитировать]

Правда или действие / Truth or Dare -Год выхода: 2018
Страна: США
Жанр: Ужасы, триллер
Продолжительность: 01:40:32
Перевод: Профессиональный (полное дублирование) | Лицензия
Субтитры: Русские (Forced, full), английские-Режиссер: Джефф Уодлоу-В ролях: Люси Хейл, Тайлер Пози, Вайолетт Бин, Софи Тэйлор Али, Нолан Джерард Фанк, Лэндон Либуарон, Сэм Лернер, Гэри Энтони Уильямс, Хейден Сзето-О фильме: Обычная игра «Правда или действие» превращается в жестокую гонку со смертью, когда к процессу подключается нечто сверхъестественное. Стоит кому-то из участников соврать или не выполнить положенное действие, его ждет жестокая расправа. Кто в итоге сможет выйти победителем в жестокой игре?- -Качество: BDRip 1080p
Формат: MKV
Видео кодек: x.264
Аудио кодек: DTS, AС3
Видео: MPEG-4 AVC, 1920x802, 8278 Kbit/s, 23.976 fps
Аудио 1: 48 kHz, DTS, 6 ch, 768 kbps | RUS (DUB)
Аудио 2: 48 kHz, AС3, 6 ch, 448 kbps | RUS (DUB)
Аудио 3: 48 kHz, DTS, 6 ch, 1509 kbps | ENG

MI

General
Unique ID : 196504616775874919263898596527752068782 (0x93D5699DEB362C82B17C53EF1B2BBEAE)
Complete name : Truth.or.Dare.2018.Lic.BDRip.1080p.ExKinoRay.mkv
Format : Matroska
Format version : Version 4 / Version 2
File size : 7.73 GiB
Duration : 1 h 40 min
Overall bit rate : 11.0 Mb/s
Movie name : Truth or Dare 2018 from ExKinoRay
Encoded date : UTC 2018-08-28 12:37:06
Writing application : mkvmerge v7.3.0 ('Nouages') 64bit built on Oct 22 2014 18:53:34
Writing library : libebml v1.3.0 + libmatroska v1.4.1
Video
ID : 1
Format : AVC
Format/Info : Advanced Video Codec
Format profile : [email protected]
Format settings : CABAC / 4 Ref Frames
Format settings, CABAC : Yes
Format settings, ReFrames : 4 frames
Codec ID : V_MPEG4/ISO/AVC
Duration : 1 h 40 min
Bit rate : 8 278 kb/s
Width : 1 920 pixels
Height : 802 pixels
Display aspect ratio : 2.40:1
Frame rate mode : Constant
Frame rate : 23.976 (24000/1001) FPS
Color space : YUV
Chroma subsampling : 4:2:0
Bit depth : 8 bits
Scan type : Progressive
Bits/(Pixel*Frame) : 0.224
Stream size : 5.81 GiB (75%)
Writing library : x264 core 155 r2867+74 66b5600 t_mod_Custom_2 [[email protected] X86_64]
Encoding settings : cabac=1 / ref=4 / deblock=1:-3:-3 / analyse=0x3:0x113 / me=umh / subme=10 / psy=1 / fade_compensate=0.00 / psy_rd=0.90:0.10 / mixed_ref=1 / me_range=48 / chroma_me=1 / trellis=2 / 8x8dct=1 / cqm=0 / deadzone=21,11 / fast_pskip=0 / chroma_qp_offset=-2 / threads=18 / lookahead_threads=3 / sliced_threads=0 / nr=0 / decimate=1 / interlaced=0 / bluray_compat=0 / constrained_intra=0 / fgo=0 / bframes=8 / b_pyramid=2 / b_adapt=2 / b_bias=0 / direct=3 / weightb=1 / open_gop=0 / weightp=2 / keyint=250 / keyint_min=23 / scenecut=40 / intra_refresh=0 / rc_lookahead=40 / rc=crf / mbtree=0 / crf=21.0000 / qcomp=0.70 / qpmin=0:0:0 / qpmax=69:69:69 / qpstep=4 / vbv_maxrate=35000 / vbv_bufsize=35000 / crf_max=0.0 / nal_hrd=none / filler=0 / ip_ratio=1.40 / pb_ratio=1.30 / aq=3:0.90 / aq-sensitivity=10.00 / aq-factor=1.00:1.00:1.00 / aq2=0 / aq3=2:[0.50:0.50]:[0.50:0.50]:[0.50:0.50]:[0.50:0.50] / aq3-sensitivity=10.00 / aq3-factor=[1.00:1.00]:[1.00:1.00]:[1.00:1.00] / aq3-boundary=192:64:24
Language : English
Default : Yes
Forced : No
Color range : Limited
Matrix coefficients : BT.709
Audio #1
ID : 2
Format : DTS
Format/Info : Digital Theater Systems
Codec ID : A_DTS
Duration : 1 h 40 min
Bit rate mode : Constant
Bit rate : 768 kb/s
Channel(s) : 6 channels
Channel positions : Front: L C R, Side: L R, LFE
Sampling rate : 48.0 kHz
Frame rate : 93.750 FPS (512 SPF)
Bit depth : 24 bits
Compression mode : Lossy
Stream size : 552 MiB (7%)
Title : License
Language : Russian
Default : Yes
Forced : Yes
Audio #2
ID : 3
Format : AC-3
Format/Info : Audio Coding 3
Commercial name : Dolby Digital
Codec ID : A_AC3
Duration : 1 h 40 min
Bit rate mode : Constant
Bit rate : 448 kb/s
Channel(s) : 6 channels
Channel positions : Front: L C R, Side: L R, LFE
Sampling rate : 48.0 kHz
Frame rate : 31.250 FPS (1536 SPF)
Bit depth : 16 bits
Compression mode : Lossy
Stream size : 322 MiB (4%)
Title : License
Language : Russian
Service kind : Complete Main
Default : No
Forced : No
Audio #3
ID : 4
Format : DTS
Format/Info : Digital Theater Systems
Codec ID : A_DTS
Duration : 1 h 40 min
Bit rate mode : Constant
Bit rate : 1 509 kb/s
Channel(s) : 6 channels
Channel positions : Front: L C R, Side: L R, LFE
Sampling rate : 48.0 kHz
Frame rate : 93.750 FPS (512 SPF)
Bit depth : 24 bits
Compression mode : Lossy
Stream size : 1.06 GiB (14%)
Title : Original
Language : English
Default : No
Forced : No
Text #1
ID : 5
Format : UTF-8
Codec ID : S_TEXT/UTF8
Codec ID/Info : UTF-8 Plain Text
Duration : 1 h 38 min
Bit rate : 0 b/s
Count of elements : 6
Stream size : 213 Bytes (0%)
Title : Forced
Language : Russian
Default : Yes
Forced : Yes
Text #2
ID : 6
Format : UTF-8
Codec ID : S_TEXT/UTF8
Codec ID/Info : UTF-8 Plain Text
Duration : 1 h 39 min
Bit rate : 80 b/s
Count of elements : 1552
Stream size : 58.9 KiB (0%)
Title : Full
Language : Russian
Default : No
Forced : No
Text #3
ID : 7
Format : UTF-8
Codec ID : S_TEXT/UTF8
Codec ID/Info : UTF-8 Plain Text
Duration : 1 h 39 min
Bit rate : 63 b/s
Count of elements : 1516
Stream size : 46.1 KiB (0%)
Title : Full
Language : English
Default : No
Forced : No
Menu
00:00:00.000 : en:00:00:00.000
00:02:30.150 : en:00:02:30.150
00:10:48.064 : en:00:10:48.064
00:14:14.395 : en:00:14:14.395
00:20:26.475 : en:00:20:26.475
00:25:15.305 : en:00:25:15.305
00:29:19.716 : en:00:29:19.716
00:34:52.799 : en:00:34:52.799
00:41:21.104 : en:00:41:21.104
00:45:27.933 : en:00:45:27.933
00:48:32.534 : en:00:48:32.534
00:54:41.695 : en:00:54:41.695
00:58:25.418 : en:00:58:25.418
01:05:52.657 : en:01:05:52.657
01:10:03.115 : en:01:10:03.115
01:15:45.958 : en:01:15:45.958
01:21:58.246 : en:01:21:58.246
01:28:25.216 : en:01:28:25.216
01:31:46.000 : en:01:31:46.000
01:37:55.745 : en:01:37:55.745

Трейлер

-     - -

Theseus

Пост 29-Авг-2018 23:20

[Цитировать]

Правда или действие / Truth or Dare -Год выхода: 2018
Страна: США
Жанр: Ужасы, триллер
Продолжительность: 01:40:32
Перевод: Профессиональный (полное дублирование) | Лицензия
Субтитры: Русские (Forced, full), английские-Режиссер: Джефф Уодлоу-В ролях: Люси Хейл, Тайлер Пози, Вайолетт Бин, Софи Тэйлор Али, Нолан Джерард Фанк, Лэндон Либуарон, Сэм Лернер, Гэри Энтони Уильямс, Хейден Сзето-О фильме: Обычная игра «Правда или действие» превращается в жестокую гонку со смертью, когда к процессу подключается нечто сверхъестественное. Стоит кому-то из участников соврать или не выполнить положенное действие, его ждет жестокая расправа. Кто в итоге сможет выйти победителем в жестокой игре?- -Качество: BDRip 720p
Формат: MKV
Видео кодек: x.264
Аудио кодек: DTS, AС3
Видео: MPEG-4 AVC, 1280x534, 3705 Kbit/s, 23.976 fps
Аудио 1: 48 kHz, DTS, 6 ch, 768 kbps | RUS (DUB)
Аудио 2: 48 kHz, AС3, 6 ch, 448 kbps | RUS (DUB)
Аудио 3: 48 kHz, DTS, 6 ch, 1509 kbps | ENG

MI

General
Unique ID : 214653148075906999332542122976714869582 (0xA17CB14B31F8816B8AF4A04135BACB4E)
Complete name : Truth.or.Dare.2018.Lic.BDRip.720p.ExKinoRay.mkv
Format : Matroska
Format version : Version 4 / Version 2
File size : 4.52 GiB
Duration : 1 h 40 min
Overall bit rate : 6 433 kb/s
Movie name : Truth or Dare 2018 from ExKinoRay
Encoded date : UTC 2018-08-28 12:41:07
Writing application : mkvmerge v7.3.0 ('Nouages') 64bit built on Oct 22 2014 18:53:34
Writing library : libebml v1.3.0 + libmatroska v1.4.1
Video
ID : 1
Format : AVC
Format/Info : Advanced Video Codec
Format profile : [email protected]
Format settings : CABAC / 9 Ref Frames
Format settings, CABAC : Yes
Format settings, ReFrames : 9 frames
Codec ID : V_MPEG4/ISO/AVC
Duration : 1 h 40 min
Bit rate : 3 705 kb/s
Width : 1 280 pixels
Height : 534 pixels
Display aspect ratio : 2.40:1
Frame rate mode : Constant
Frame rate : 23.976 (24000/1001) FPS
Color space : YUV
Chroma subsampling : 4:2:0
Bit depth : 8 bits
Scan type : Progressive
Bits/(Pixel*Frame) : 0.226
Stream size : 2.60 GiB (58%)
Writing library : x264 core 155 r2867+74 66b5600 t_mod_Custom_2 [[email protected] X86_64]
Encoding settings : cabac=1 / ref=9 / deblock=1:-3:-3 / analyse=0x3:0x113 / me=umh / subme=10 / psy=1 / fade_compensate=0.00 / psy_rd=0.90:0.10 / mixed_ref=1 / me_range=32 / chroma_me=1 / trellis=2 / 8x8dct=1 / cqm=0 / deadzone=21,11 / fast_pskip=0 / chroma_qp_offset=-2 / threads=17 / lookahead_threads=2 / sliced_threads=0 / nr=0 / decimate=1 / interlaced=0 / bluray_compat=0 / constrained_intra=0 / fgo=0 / bframes=8 / b_pyramid=2 / b_adapt=2 / b_bias=0 / direct=3 / weightb=1 / open_gop=0 / weightp=2 / keyint=250 / keyint_min=23 / scenecut=40 / intra_refresh=0 / rc_lookahead=40 / rc=crf / mbtree=0 / crf=20.0000 / qcomp=0.70 / qpmin=0:0:0 / qpmax=69:69:69 / qpstep=4 / vbv_maxrate=30000 / vbv_bufsize=30000 / crf_max=0.0 / nal_hrd=none / filler=0 / ip_ratio=1.40 / pb_ratio=1.30 / aq=3:0.90 / aq-sensitivity=10.00 / aq-factor=1.00:1.00:1.00 / aq2=0 / aq3=2:[0.50:0.50]:[0.50:0.50]:[0.50:0.50]:[0.50:0.50] / aq3-sensitivity=10.00 / aq3-factor=[1.00:1.00]:[1.00:1.00]:[1.00:1.00] / aq3-boundary=192:64:24
Language : English
Default : Yes
Forced : No
Color range : Limited
Matrix coefficients : BT.709
Audio #1
ID : 2
Format : DTS
Format/Info : Digital Theater Systems
Codec ID : A_DTS
Duration : 1 h 40 min
Bit rate mode : Constant
Bit rate : 768 kb/s
Channel(s) : 6 channels
Channel positions : Front: L C R, Side: L R, LFE
Sampling rate : 48.0 kHz
Frame rate : 93.750 FPS (512 SPF)
Bit depth : 24 bits
Compression mode : Lossy
Stream size : 552 MiB (12%)
Title : License
Language : Russian
Default : Yes
Forced : Yes
Audio #2
ID : 3
Format : AC-3
Format/Info : Audio Coding 3
Commercial name : Dolby Digital
Codec ID : A_AC3
Duration : 1 h 40 min
Bit rate mode : Constant
Bit rate : 448 kb/s
Channel(s) : 6 channels
Channel positions : Front: L C R, Side: L R, LFE
Sampling rate : 48.0 kHz
Frame rate : 31.250 FPS (1536 SPF)
Bit depth : 16 bits
Compression mode : Lossy
Stream size : 322 MiB (7%)
Title : License
Language : Russian
Service kind : Complete Main
Default : No
Forced : No
Audio #3
ID : 4
Format : DTS
Format/Info : Digital Theater Systems
Codec ID : A_DTS
Duration : 1 h 40 min
Bit rate mode : Constant
Bit rate : 1 509 kb/s
Channel(s) : 6 channels
Channel positions : Front: L C R, Side: L R, LFE
Sampling rate : 48.0 kHz
Frame rate : 93.750 FPS (512 SPF)
Bit depth : 24 bits
Compression mode : Lossy
Stream size : 1.06 GiB (23%)
Title : Original
Language : English
Default : No
Forced : No
Text #1
ID : 5
Format : UTF-8
Codec ID : S_TEXT/UTF8
Codec ID/Info : UTF-8 Plain Text
Duration : 1 h 38 min
Bit rate : 0 b/s
Count of elements : 6
Stream size : 213 Bytes (0%)
Title : Forced
Language : Russian
Default : Yes
Forced : Yes
Text #2
ID : 6
Format : UTF-8
Codec ID : S_TEXT/UTF8
Codec ID/Info : UTF-8 Plain Text
Duration : 1 h 39 min
Bit rate : 80 b/s
Count of elements : 1552
Stream size : 58.9 KiB (0%)
Title : Full
Language : Russian
Default : No
Forced : No
Text #3
ID : 7
Format : UTF-8
Codec ID : S_TEXT/UTF8
Codec ID/Info : UTF-8 Plain Text
Duration : 1 h 39 min
Bit rate : 63 b/s
Count of elements : 1516
Stream size : 46.1 KiB (0%)
Title : Full
Language : English
Default : No
Forced : No
Menu
00:00:00.000 : en:00:00:00.000
00:02:30.150 : en:00:02:30.150
00:10:48.064 : en:00:10:48.064
00:14:14.395 : en:00:14:14.395
00:20:26.475 : en:00:20:26.475
00:25:15.305 : en:00:25:15.305
00:29:19.716 : en:00:29:19.716
00:34:52.799 : en:00:34:52.799
00:41:21.104 : en:00:41:21.104
00:45:27.933 : en:00:45:27.933
00:48:32.534 : en:00:48:32.534
00:54:41.695 : en:00:54:41.695
00:58:25.418 : en:00:58:25.418
01:05:52.657 : en:01:05:52.657
01:10:03.115 : en:01:10:03.115
01:15:45.958 : en:01:15:45.958
01:21:58.246 : en:01:21:58.246
01:28:25.216 : en:01:28:25.216
01:31:46.000 : en:01:31:46.000
01:37:55.745 : en:01:37:55.745

Трейлер

-     - -

Theseus

Пост 22-Авг-2018 22:28

[Цитировать]

Реинкарнация / Hereditary-«У каждой родословной есть свои тайны» -Год выхода: 2018
Страна: США
Жанр: Ужасы, триллер, драма, детектив
Продолжительность: 02:07:15
Перевод: Профессиональный (полное дублирование) | iTunes
Субтитры: Отсутствуют-Режиссер: Ари Астер-В ролях: Алекс Вулф, Гэбриел Бирн, Тони Коллетт, Милли Шапиро, Кристи Саммерхэйс, Морган Ланд, Мэллори Бехтель, Джейк Браун, Харрисон Нелл, Брианн Рейчел-О фильме: После смерти матери Энни Грэхем в её ранее спокойном доме начинает твориться нечто необъяснимое. Теперь под угрозой жизнь её близких. С каждым днём открываются новые ужасающие секреты их семьи.- -Качество: WEB-DL 1080p
Формат: MKV
Видео кодек: x.264
Аудио кодек: AC3
Видео: MPEG-4 AVC, 1920x960, 4615 Kbit/s, 24.000 fps
Аудио: 48 kHz, AC3, 6 ch, 384.00 kbps-

MI

General
Unique ID : 182689554273309792287476355893792193456 (0x8970BA728913FD19ACA4DEBA0141BBB0)
Complete name : Hereditary.2018.WEB-DL.1080p.ExKinoRay.mkv
Format : Matroska
Format version : Version 4 / Version 2
File size : 4.45 GiB
Duration : 2 h 7 min
Overall bit rate : 5 001 kb/s
Movie name : Hereditary 2018 from ExKinoRay
Encoded date : UTC 2018-08-20 19:59:40
Writing application : mkvmerge v7.3.0 ('Nouages') 64bit built on Oct 22 2014 18:53:34
Writing library : libebml v1.3.0 + libmatroska v1.4.1
Video
ID : 1
Format : AVC
Format/Info : Advanced Video Codec
Format profile : [email protected]
Format settings : CABAC / 4 Ref Frames
Format settings, CABAC : Yes
Format settings, ReFrames : 4 frames
Codec ID : V_MPEG4/ISO/AVC
Duration : 2 h 7 min
Bit rate : 4 615 kb/s
Width : 1 920 pixels
Height : 960 pixels
Display aspect ratio : 2.000
Frame rate mode : Constant
Frame rate : 24.000 FPS
Color space : YUV
Chroma subsampling : 4:2:0
Bit depth : 8 bits
Scan type : Progressive
Bits/(Pixel*Frame) : 0.104
Stream size : 4.10 GiB (92%)
Language : English
Default : Yes
Forced : No
Color range : Limited
Color primaries : BT.709
Transfer characteristics : BT.709
Matrix coefficients : BT.709
Audio
ID : 2
Format : AC-3
Format/Info : Audio Coding 3
Commercial name : Dolby Digital
Codec ID : A_AC3
Duration : 2 h 7 min
Bit rate mode : Constant
Bit rate : 384 kb/s
Channel(s) : 6 channels
Channel positions : Front: L C R, Side: L R, LFE
Sampling rate : 48.0 kHz
Frame rate : 31.250 FPS (1536 SPF)
Bit depth : 16 bits
Compression mode : Lossy
Stream size : 350 MiB (8%)
Title : iTunes
Language : Russian
Service kind : Complete Main
Default : Yes
Forced : Yes
Menu
00:00:00.000 : en:Глава 1
00:06:00.666 : en:Глава 2
00:13:32.332 : en:Глава 3
00:18:38.123 : en:Глава 4
00:24:29.331 : en:Глава 5
00:30:51.747 : en:Глава 6
00:39:02.080 : en:Глава 7
00:47:19.246 : en:Глава 8
00:54:30.121 : en:Глава 9
01:01:03.662 : en:Глава 10
01:08:50.495 : en:Глава 11
01:13:40.286 : en:Глава 12
01:19:30.077 : en:Глава 13
01:26:14.285 : en:Глава 14
01:32:43.743 : en:Глава 15
01:39:03.326 : en:Глава 16
01:46:40.742 : en:Глава 17
01:53:02.742 : en:Глава 18

Трейлер

-     - -

Theseus

Пост 22-Авг-2018 22:27

[Цитировать]

Реинкарнация / Hereditary-«У каждой родословной есть свои тайны» -Год выхода: 2018
Страна: США
Жанр: Ужасы, триллер, драма, детектив
Продолжительность: 02:07:40
Перевод: Профессиональный (полное дублирование) | iTunes
Субтитры: Английские-Режиссер: Ари Астер-В ролях: Алекс Вулф, Гэбриел Бирн, Тони Коллетт, Милли Шапиро, Кристи Саммерхэйс, Морган Ланд, Мэллори Бехтель, Джейк Браун, Харрисон Нелл, Брианн Рейчел-О фильме: После смерти матери Энни Грэхем в её ранее спокойном доме начинает твориться нечто необъяснимое. Теперь под угрозой жизнь её близких. С каждым днём открываются новые ужасающие секреты их семьи.- -Качество: WEB-DL 720p
Формат: MKV
Видео кодек: x.264
Аудио кодек: AC3
Видео: MPEG-4 AVC, 1280x634, 4104 Kbit/s, 23.976 fps
Аудио #1: 48 kHz, AC3, 6 ch, 384.00 kbps | RUS (iTunes)
Аудио #2: 48 kHz, AC3, 6 ch, 384.00 kbps | ENG-

MI

General
Unique ID : 226180058877201627561110681240550809560 (0xAA28B1DFD22B81D7A1C8C0C73F589FD8)
Complete name : Hereditary.2018.WEB-DL.720p.ExKinoRay.mkv
Format : Matroska
Format version : Version 4 / Version 2
File size : 4.35 GiB
Duration : 2 h 7 min
Overall bit rate : 4 874 kb/s
Movie name : Hereditary 2018 from ExKinoRay
Encoded date : UTC 2018-08-21 09:44:10
Writing application : mkvmerge v7.3.0 ('Nouages') 64bit built on Oct 22 2014 18:53:34
Writing library : libebml v1.3.0 + libmatroska v1.4.1
Video
ID : 1
Format : AVC
Format/Info : Advanced Video Codec
Format profile : [email protected]
Format settings : 2 Ref Frames
Format settings, CABAC : No
Format settings, ReFrames : 2 frames
Codec ID : V_MPEG4/ISO/AVC
Duration : 2 h 7 min
Bit rate : 4 104 kb/s
Width : 1 280 pixels
Height : 634 pixels
Display aspect ratio : 2.019
Frame rate mode : Constant
Frame rate : 23.976 (23976/1000) FPS
Color space : YUV
Chroma subsampling : 4:2:0
Bit depth : 8 bits
Scan type : Progressive
Bits/(Pixel*Frame) : 0.211
Stream size : 3.66 GiB (84%)
Language : English
Default : Yes
Forced : No
Color range : Limited
Color primaries : BT.709
Transfer characteristics : BT.709
Matrix coefficients : BT.709
Audio #1
ID : 2
Format : AC-3
Format/Info : Audio Coding 3
Commercial name : Dolby Digital
Codec ID : A_AC3
Duration : 2 h 7 min
Bit rate mode : Constant
Bit rate : 384 kb/s
Channel(s) : 6 channels
Channel positions : Front: L C R, Side: L R, LFE
Sampling rate : 48.0 kHz
Frame rate : 31.250 FPS (1536 SPF)
Bit depth : 16 bits
Compression mode : Lossy
Stream size : 351 MiB (8%)
Title : iTunes
Language : Russian
Service kind : Complete Main
Default : Yes
Forced : Yes
Audio #2
ID : 3
Format : AC-3
Format/Info : Audio Coding 3
Commercial name : Dolby Digital
Codec ID : A_AC3
Duration : 2 h 7 min
Bit rate mode : Constant
Bit rate : 384 kb/s
Channel(s) : 6 channels
Channel positions : Front: L C R, Side: L R, LFE
Sampling rate : 48.0 kHz
Frame rate : 31.250 FPS (1536 SPF)
Bit depth : 16 bits
Compression mode : Lossy
Stream size : 351 MiB (8%)
Title : Original
Language : English
Service kind : Complete Main
Default : No
Forced : No
Text
ID : 4
Format : UTF-8
Codec ID : S_TEXT/UTF8
Codec ID/Info : UTF-8 Plain Text
Duration : 2 h 0 min
Bit rate : 33 b/s
Count of elements : 1018
Stream size : 29.5 KiB (0%)
Title : Full
Language : English
Default : No
Forced : No
Menu
00:00:00.000 : en:1
00:07:10.000 : en:2
00:13:28.000 : en:3
00:19:15.000 : en:4
00:25:35.000 : en:5
00:32:49.000 : en:6
00:39:23.000 : en:7
00:47:41.000 : en:8
00:51:03.000 : en:9
00:56:27.000 : en:10
01:04:20.000 : en:11
01:10:57.000 : en:12
01:16:27.000 : en:13
01:24:56.000 : en:14
01:32:11.000 : en:15
01:37:20.000 : en:16
01:42:18.000 : en:17
01:50:51.000 : en:18
01:58:34.000 : en:19
02:03:18.000 : en:20

Трейлер

-     - -

Theseus

Пост 22-Авг-2018 21:38

[Цитировать]

8 подруг Оушена / Ocean's Eight-«Украдут не только ваше внимание» -Год выхода: 2018
Страна: США
Жанр: Боевик, триллер, комедия, криминал
Продолжительность: 01:50:07
Перевод: Профессиональный (полное дублирование) | iTunes
Субтитры:Русские (forced,full), украинские (forced), английские-Режиссер: Гэри Росс-В ролях: Сандра Буллок, Кейт Бланшетт, Гриффин Данн, Дирдри Гудвин, Энн Хэтэуэй, Минди Кейлинг, Рианна, Даниэлла Раббани, Брайан Дж. Картер, Сара Полсон, Аквафина-О фильме: Пять лет, восемь месяцев, 12 дней… и далее. Именно столько Дебби Оушен разрабатывала план величайшего ограбления своей жизни.
Она точно знает, что для него потребуется, — команда лучших в своем деле, начиная с ее давней сообщницы Лу Миллер. Вместе они собирают команду уникальных специалистов. Их цель — неотразимые 150 миллионов долларов в бриллиантах — в бриллиантах на шее всемирно известной актрисы Дафны Клюгер, к которой будет приковано всеобщее внимание на главном событии года — бале в Метрополитен-музее.
Сам план бесподобен, но и реализация должна быть безупречна, если они хотят войти и выйти с драгоценностями в руках. Прямо у всех на виду.- -Качество: WEB-DL 1080p
Формат: MKV
Видео кодек: x.264
Аудио кодек: AC3, AAC
Видео: MPEG-4 AVC, 1920x804, 4581 Kbit/s, 23.976 fps
Аудио #1: 48 kHz, AC3, 6 ch, 384.00 kbps | RUS (iTunes)
Аудио #2: 48 kHz, AAC, 2 ch, 126.00 kbps | UKR (iTunes)
Аудио #3: 48 kHz, AC3, 6 ch, 384.00 kbps | ENG-

MI

General
Unique ID : 254748132539147885629838084952845845697 (0xBFA6B4A702D83ABA98FE4AD8D4CE04C1)
Complete name : Oceans.8.2018.WEB-DL.1080p.ExKinoRay.mkv
Format : Matroska
Format version : Version 4 / Version 2
File size : 4.21 GiB
Duration : 1 h 50 min
Overall bit rate : 5 479 kb/s
Movie name : Ocean's Eight 2018 from ExKinoRay
Encoded date : UTC 2018-08-21 18:43:19
Writing application : mkvmerge v7.3.0 ('Nouages') 64bit built on Oct 22 2014 18:53:34
Writing library : libebml v1.3.0 + libmatroska v1.4.1
Video
ID : 1
Format : AVC
Format/Info : Advanced Video Codec
Format profile : [email protected]
Format settings : CABAC / 5 Ref Frames
Format settings, CABAC : Yes
Format settings, ReFrames : 5 frames
Codec ID : V_MPEG4/ISO/AVC
Duration : 1 h 50 min
Bit rate : 4 581 kb/s
Width : 1 920 pixels
Height : 804 pixels
Display aspect ratio : 2.40:1
Frame rate mode : Constant
Frame rate : 23.976 FPS
Color space : YUV
Chroma subsampling : 4:2:0
Bit depth : 8 bits
Scan type : Progressive
Bits/(Pixel*Frame) : 0.124
Stream size : 3.52 GiB (84%)
Language : English
Default : Yes
Forced : No
Color range : Limited
Color primaries : BT.709
Transfer characteristics : BT.709
Matrix coefficients : BT.709
Audio #1
ID : 2
Format : AC-3
Format/Info : Audio Coding 3
Commercial name : Dolby Digital
Codec ID : A_AC3
Duration : 1 h 50 min
Bit rate mode : Constant
Bit rate : 384 kb/s
Channel(s) : 6 channels
Channel positions : Front: L C R, Side: L R, LFE
Sampling rate : 48.0 kHz
Frame rate : 31.250 FPS (1536 SPF)
Bit depth : 16 bits
Compression mode : Lossy
Stream size : 302 MiB (7%)
Title : iTunes
Language : Russian
Service kind : Complete Main
Default : Yes
Forced : Yes
Audio #2
ID : 3
Format : AAC
Format/Info : Advanced Audio Codec
Format profile : LC
Codec ID : A_AAC-2
Duration : 1 h 50 min
Bit rate : 126 kb/s
Channel(s) : 2 channels
Channel positions : Front: L R
Sampling rate : 48.0 kHz
Frame rate : 46.875 FPS (1024 SPF)
Compression mode : Lossy
Stream size : 99.6 MiB (2%)
Title : iTunes
Language : Ukrainian
Default : No
Forced : No
Audio #3
ID : 4
Format : AC-3
Format/Info : Audio Coding 3
Commercial name : Dolby Digital
Codec ID : A_AC3
Duration : 1 h 50 min
Bit rate mode : Constant
Bit rate : 384 kb/s
Channel(s) : 6 channels
Channel positions : Front: L C R, Side: L R, LFE
Sampling rate : 48.0 kHz
Frame rate : 31.250 FPS (1536 SPF)
Bit depth : 16 bits
Compression mode : Lossy
Stream size : 302 MiB (7%)
Title : Original
Language : English
Service kind : Complete Main
Default : No
Forced : No
Text #1
ID : 5
Format : UTF-8
Codec ID : S_TEXT/UTF8
Codec ID/Info : UTF-8 Plain Text
Duration : 1 h 43 min
Bit rate : 7 b/s
Count of elements : 110
Stream size : 5.79 KiB (0%)
Title : Forced
Language : Russian
Default : Yes
Forced : Yes
Text #2
ID : 6
Format : UTF-8
Codec ID : S_TEXT/UTF8
Codec ID/Info : UTF-8 Plain Text
Duration : 1 h 49 min
Bit rate : 107 b/s
Count of elements : 1381
Stream size : 86.3 KiB (0%)
Title : Full
Language : Russian
Default : No
Forced : No
Text #3
ID : 7
Format : UTF-8
Codec ID : S_TEXT/UTF8
Codec ID/Info : UTF-8 Plain Text
Duration : 1 h 47 min
Bit rate : 7 b/s
Count of elements : 114
Stream size : 5.64 KiB (0%)
Title : Forced
Language : Ukrainian
Default : No
Forced : No
Text #4
ID : 8
Format : UTF-8
Codec ID : S_TEXT/UTF8
Codec ID/Info : UTF-8 Plain Text
Duration : 1 h 43 min
Bit rate : 66 b/s
Count of elements : 1778
Stream size : 50.7 KiB (0%)
Title : Full
Language : English
Default : No
Forced : No
Menu
00:00:00.000 : en:Chapter 1
00:11:17.051 : en:Chapter 2
00:20:05.078 : en:Chapter 3
00:31:36.060 : en:Chapter 4
00:41:28.068 : en:Chapter 5
00:49:17.037 : en:Chapter 6
00:56:21.002 : en:Chapter 7
01:05:48.069 : en:Chapter 8
01:16:30.002 : en:Chapter 9
01:27:00.048 : en:Chapter 10
01:35:41.026 : en:Chapter 11
01:44:07.032 : en:Chapter 12

Трейлер

-     - -
 

Текущее время: Сегодня 17:15

Часовой пояс: GMT + 3