Today is a free download without charge Download

Search found 500 matches

Author Message

kilmister777

Post 30-Jun-2020 14:23

[Quote]

Принцесса и дракон: Тайна волшебного зеркала- Год выпуска: 2018
Страна: Россия
Жанр: мультфильм, фэнтези
Продолжительность: 01:10:16
Перевод: Не требуется- -Режиссер: Марина Нефедова-В ролях: Ани Лорак, Ирина Киреева, Сергей Смирнов (V), Василий Дахненко, Диомид Виноградов, Константин Кожевников, Данил Щебланов, Лина Иванова, Элиза Мартиросова, Варвара Чабан-Описание: Принцесса Варвара - известная в своем королевстве книголюбка: практически вся придворная библиотека была прочитана любознательной девочкой. Однако надежда найти что-то новенькое на полках не покидала героиню, и она отправилась в обход книжных рядов. Предчувствие не обмануло малышку – на самой верхней полке громоздился старинный и неизвестный том. Чтобы достать этот реликт героине понадобилась высоченная лестница, но затраченные усилия стоили того. Варвара нашла не что иное как магическую книгу, с помощью которой она смогла оказаться в волшебной стране. Принцесса своими глазами увидела гномов и других фантастических обитателей книжных страниц. Больше всего удивил дракон, который оказался милым и добрым созданием. Принцесса и дракон быстро подружились и стали вместе думать, как вернуть Варвару домой, ведь ту самую магическую книгу похитили...-Качество: WEBRip
Формат: AVI
Видео кодек: XviD
Аудио кодек: AC3
Видео: 720x400 (16:9), 25 fps, MPEG-4 ~2396 kbps avg, 0.26 bit/pixel
Аудио: 48 kHz, AC3 Dolby Digital, 2/0 (L,R) ch, ~320 kbps-

Скриншоты

       

kilmister777

Post 29-Jun-2020 21:00

[Quote]

Турбозавры- Год выпуска: 2019
Страна: Россия
Жанр: мультфильм, комедия, приключения, семейный
Продолжительность: 26 x ~ 00:07:00
Перевод: Не требуется- -Режиссер: Алексей Котёночкин-В ролях: Михаил Белякович, Лариса Брохман, Алексей Войтюк, Ольга Голованова, Людмила Ильина, Иван Калинин, Анна Киселёва, Александр Коврижных, Жанна Никонова, Никита Прозоровский-Описание: Давным-давно на нашей планете жили динозавры. Однажды Земля столкнулась с огромным метеоритом, и чтобы выжить, динозавры ушли в подземные пещеры. Под землей они стремительно эволюционировали и научились превращаться в различные машины и механизмы. Так возникла цивилизация турбозавров. Они знали, что на поверхности Земли развивается человечество, но своё существование держали в строгой тайне… Ровно до того дня, пока не произошла встреча турбозавра и человека. Это большое приключение динозавров и детей, которые образуют команду спасателей и совместными усилиями решают разные интересные задачи: помогают друзьям и соседям, спасают животных, защищают окружающую среду.-Качество: WEB-DLRip
Формат: AVI
Видео кодек: XviD
Аудио кодек: AC3
Видео: 720x400 (2.37:1), 24.000 fps, XviD build 73 ~1600 kbps avg, 0.30 bit/pixel
Аудио: 48 kHz, AC3 Dolby Digital, 2/0 (L,R) ch, ~192 kbps-

Скриншоты

       

DED

Post 29-Jun-2020 17:59

[Quote]

--Маша и медведь [01-78] + Машкины страшилки [01-26] + Машины сказки [01-26]
+ Караоке с Машей [01-18] + Машины песенки [01-12]
-- Год выпуска: 2009–2020
Страна: Россия
Студия: «Анимаккорд»
Жанр: мультфильм, комедия, семейный
Продолжительность: ~7 минут каждая серия
Язык: Русский
Режиссер: Олег Кузовков, Олег Ужинов, Денис Червяцов, …
Роли озвучивали: Алина Кукушкина, Варвара Саранцева , Эдуард Назаров, Борис Кутневич, Марк Кутневич, Ирина Кукушкина.-Описание: Мультсериал «Маша и Медведь» стал невероятным открытием для любителей мультипликационного жанра. Как оказалось, не только Дисней может выпускать качественные мультики, наши отечественные производители совсем не отстают. Сериал «Маша и Медведь» стал доказательством этого. Мультик очень яркий и красочный, выполнен в современной 3D технологии. Стоит отметить, что авторы сценария обладают очень тонким чувством юмора, ведь серии насквозь пропитаны смешными шутками, а главное добрыми. Герои сериала покорили сердца не только маленьких зрителей, а и их родителей. И это не случайно. Короткие серии несут в себе очень много позитива, которого иногда так не хватает во взрослой жизни. Наших детей сложно удивить чем-то новым и оригинальным, ведь выросли они на диснеевских мультиках, но авторам сериала «Маша и Медведь» это все-таки удалось. Целью мультсериала является показать детям, что в жизни главное оставаться добрым и отзывчивым человеком.- -Качество видео: BDRip; DVDRip; WEB-DLRip
Формат видео: AVI
Видеокодек: XviD
Аудиокодек: АС3
Видео: 720x400 (1.80:1), 24.000 fps, XviD MPEG-4, ~ 1994 kbps avg
Аудио: 48.0 kHz, AC3 Dolby Digital, 2/0 (L,R) ch, ~ 192.00 kbps avg
Cубтитры: нет
--

Список серий:

Раздача включает следующие серии:
2009 год
01 «Первая встреча» = 00:06:53
02 «До весны не будить!» = 00:06:53
03 «Раз, два, три! Ёлочка, гори!» = 00:08:06
04 «Весна пришла!» = 00:07:01
05 «Ловись рыбка!» = 00:06:55
06 «Следы невиданных зверей» = 00:07:17--2010 год
07 «С волками жить…» = 00:07:13
08 «Позвони мне, позвони!» = 00:07:11
09 «День варенья» = 00:07:07
10 «Праздник на льду» = 00:07:08
11 «Первый раз в первый класс» = 00:07:08
12 «Граница на замке» = 00:07:16
13 «Кто не спрятался, я не виноват!» = 00:06:58--2011 год
14 «Лыжню!» = 00:07:16
15 «Будьте здоровы!» = 00:07:15
16 «Маша + каша» = 00:07:09
17 «Дальний родственник» = 00:06:58
18 «Большая стирка» = 00:07:02
19 «Репетиция оркестра» = 00:07:12
20 «Усатый - Полосатый» = 00:07:14
21 «Один дома» = 00:07:10
22 «Дышите не дышите» = 00:07:10--2012 год
23 «Подкидыш» = 00:07:13
24 «Приятного аппетита» = 00:07:12
25 «Фокус покус» = 00:07:12
26 «Осторожно, ремонт!» = 00:07:11
27 «Картина маслом» = 00:07:09
28 «Ход конем» = 00:06:53
29 «Хит сезона» = 00:06:54--2013 год
30 «Витамин роста» = 00:06:59
31 «Когда все дома» = 00:06:57
32 «Новая метла» = 00:06:54
33 «Сладкая жизнь» = 00:06:12
34 «Фотография 9 х 12» = 00:06:56
35 «Трудно быть маленьким» = 00:06:35
36 «Двое на одного» = 00:06:50
37 «Большое путешествие» = 00:06:58
38 «Нынче все наоборот» = 00:06:53
39 «Сказка на ночь» = 00:06:49--2014 год
40 «Красота - страшная сила» = 00:06:53
41 «Дело в шляпе» = 00:06:54
42 «День кино» = 00:06:54
43 «Героями не рождаются» = 00:06:55
44 «Раз в году» = 00:06:48
45 «Запутанная история» = 00:06:58
46 «Учитель танцев» = 00:06:54
47 «Крик победы» = 00:07:33--2015 год
48 «Пещерный медведь» = 00:07:04
49 «Дорогая передача» = 00:06:53
50 «Праздник урожая» = 00:07:13
51 «Неуловимые мстители» = 00:07:19
52 «До новых встреч!» = 00:07:01
53 «На круги своя» = 00:06:54
54 «В гостях у сказки» = 00:08:09--2016 год
55 «Эх, прокачу» = 00:07:52
56 «Страшно, аж жуть!» = 00:06:57
57 «На привале» = 00:07:25
58. «Кошки-мышки» = 00:07:48
59. «Game Over» = 00:07:26
60. «К вашим услугам» = 00:07:43
61. «С любимыми не расставайтесь» = 00:07:08
62. «Спи, моя радость, усни!» = 00:07:04--2017 год
63. «Сюрприз! Сюрприз!» = 00:07:14
64. «Три Машкетёра» = 00:08:06
65. «Есть контакт!» = 00:07:53
66. «Спокойствие, только спокойствие» = 00:07:27
67. «Цирк, да и только» = 00:07:31
68. Квартет плюс--2018 год
69. Сколько волка ни корми
70. Звезда с неба
71. Вот такой хоккей!
72. Шарики и кубики
73. Случай на рыбалке
74. Вот как бывает!
75. Не царское дело!--2019 год
76. Вся жизнь - театр!
77. Вокруг света за один час!
78. Кем Быть?--Машкины страшилки - 2014-2017 г.г. - тех параметры - такие же, как и в остальных видеофайлах
01. Душераздирающая повесть о тёмном лесе и маленьком жучке
02. Жутко-страшное предание о том, как один мальчик боялся умываться
03. Чудовищная быль о том, как некоторые боятся Чудовищ
04. Тревожный сказ о потерявшемся котёнке
05. Кошмарное поверие о новогодних стишках
06. Мрачная притча о суеверной девочке
07. Угрюмый завет о сопливом мальчике
08. О Девочке, которая боялась зверушек
09. Ужасающая история про бабушку и внучка
10. Полный отчаяния миф об исторической ошибке
11. Панически невыносимая легенда о букашках
12. Тревожный сказ про Бабку-Ёжку
13. Зловещая Сага о больном животике и о Девочке, которая боялась докторов
14. Фантастический рассказ о ёжике, мальчике и зелёных гуманоидах
15. Ужасная быль о том, как мальчика перевели в другую школу
16. Жуткая байка про пастушка на пеньке
17. Приводящая в трепет сага о велосипеде - призраке
18. Страшная страшилка о страшилках
19. Жутчайшая повесть о полезных изобретениях
20. Мрачная новелла о мрачных сновидениях
21. Грозная песнь о громе и молнии
22. Чудовищная правда о том, как страшно быть маленьким
23. Леденящая кровь эпопея о радостном событии
24. Чудовищные россказни о высоком и низком
25. Пугающее происшествие в цирке
26. Шокирующая история про девочку, которая всего боялась--Машины сказки - 2011-2013 годы
01: Волк и семеро козлят
02: Гуси-лебеди
03: Красная шапочка
04: Лиса и заяц
05: Морозко
06: Волк и лиса
07: Вершки и корешки
08: Царевна-лягушка
09: Снегурочка
10: Мальчик с пальчик
11: Крошечка-хаврошечка
12: Бычок смоляной бочок
13: Три поросенка
14: Храбрый портняжка
15: Али-Баба
16: Золушка
17: Калиф-аист
18: Джек и бобовое зернышко
19: Свинопас
20: Синяя борода
21: По щучьему велению
22: Лисичка со скалочкой
23: Каша из топора
24: Пойди туда - не знаю куда, принеси то - не знаю что
25: Петушок золотой гребешок
26: Конек-горбунок--Бонус: Караоке с Машей
1 - Новогодняя песенка – 00:03:09
2 – Песенка про дружбу – 00:03:18
3 – Песенка про следы – 00:01:47
4 – Песенка про варенье – 00:01:17
5 – Песенка Три желанья – 00:02:45
6 – Песенка про коньки – 00:01:47
7 - Песенка о чистоте – 00:01:57
8 - Колыбельная песня - 00:01:40
9 - Песенка про время - 00:03:06
10 - Рок-клип - 00:01:47
11 - Когда все дома - 00:02:01
12.1 - Красотка (Маша) - 00:02:08
12.2 - Красотка (артистка) - 00:02:07
13.1 - С днем рождения (артистка) - 00:02:34
13.2 - С днем рождения (только титры) - 00:02:36
14.1 - Песня сладкоежли (Маша) - 0:03:06
14.2 - Песня сладкоежли (актриса) - 0:01:54
15 - Песенка - икалка - 0:01:46--Машины песенки
1. Там все любят петь.
2. Последний писк моды.
3. Терпение и труд - das ist gut!
4. Делу время, а карнавал раз в год!
5. Секрет Машуко.
6. Из Англии с любовью
7. Опять Новый год!
8. Испанские Мотивы
9. Когда цветут кактусы
10. Почти древнегреческая история
11. Восточные Сказки
12. Однажды на Диком Западе
-

Скриншоты:

     
     
-

Бонус - Караоке с Машей:

Качество видео: DVDRip
Формат видео: AVI
Видеокодек: XviD
Аудиокодек: АС3
Видео: 720x400 (1.80:1), 25.000 fps, XviD MPEG-4, ~ 1999 kbps avg
Аудио: 48.0 kHz, AC3 Dolby Digital, 2/0 (L,R) ch, ~ 192.00 kbps avg
-      
     
-- --

Clavik

Post 30-Nov-2019 10:34

[Quote]

Приключения барона Мюнхгаузена (1973-1974) DVDRip - Производство: СССР / ТО "Экран"
Жанр: Рисованная анимация, приключения, комедия, семейный
Режиссер: Натан Лернер, Анатолий Солин
Описание:
«Между крокодилом и львом» - O том, как, охотясь на уток, Мюнхгаузен сам чуть не стал добычей.
«Меткий выстрел» - O том, как Мюнхгаузен добывает белого медведя для Британского зоопарка.
«Павлин» - O том, как Мюнхгаузен отправляется на Восток и настоятельно просит знаменитого джинна Рахата ибн Лукума отдать (за соответствующее вознаграждение) чудесную птицу, именуемую "павлином" - чтобы послушать пение этой прекрасной птицы.
«Чудесный остров» - O том, как попавший на необитаемый остров Мюнхгаузен был атакован пиратами. Но остров вдруг оказывается рыбой.

Возраст: 6+ (зрителям, достигшим 6 лет)
Продолжительность: 00:39:12
Качество видео: DVDRip
Субтитры: отсутствуют
Видео: AVC/H.264, 720х548, ~4000 Kbps
Аудио: AC3, 6 ch, 448 kbps - русский

MediaInfo:

x264 info: frame I:389   Avg QP:15.46  size: 67763
x264 info: frame P:12796 Avg QP:17.57 size: 33708
x264 info: frame B:45617 Avg QP:19.31 size: 15748
Unique ID : 108015488514213012363259831060655057218 (0x514306C0C1613EA6808543DEA7412942)
Complete name : D:\Temp\NNM\Мюнхгаузен.1974.mkv
Format : Matroska
Format version : Version 4 / Version 2
File size : 1.22 GiB
Duration : 39mn 12s
Overall bit rate : 4 451 Kbps
Writing library : Lavf57.71.100
Video
ID : 1
Format : AVC
Format/Info : Advanced Video Codec
Format profile : [url=mailto:[email protected]][email protected][/url]
Format settings, CABAC : Yes
Format settings, ReFrames : 12 frames
Codec ID : V_MPEG4/ISO/AVC
Duration : 39mn 12s
Bit rate : 4 000 Kbps
Width : 720 pixels
Height : 548 pixels
Display aspect ratio : 4:3
Frame rate mode : Constant
Frame rate : 25.000 fps
Color space : YUV
Chroma subsampling : 4:2:0
Bit depth : 8 bits
Scan type : Progressive
Bits/(Pixel*Frame) : 0.406
Stream size : 1.07 GiB (88%)
Writing library : x264 core 157 r2935 545de2f
Encoding settings : cabac=1 / ref=12 / deblock=1:0:0 / analyse=0x3:0x133 / me=umh / subme=9 / psy=1 / psy_rd=1.05:0.10 / mixed_ref=1 / me_range=24 / chroma_me=1 / trellis=2 / 8x8dct=1 / cqm=0 / deadzone=21,11 / fast_pskip=0 / chroma_qp_offset=-3 / threads=5 / lookahead_threads=1 / sliced_threads=0 / nr=0 / decimate=0 / interlaced=0 / bluray_compat=0 / constrained_intra=0 / bframes=10 / b_pyramid=2 / b_adapt=2 / b_bias=0 / direct=1 / weightb=1 / open_gop=0 / weightp=2 / keyint=250 / keyint_min=25 / scenecut=40 / intra_refresh=0 / rc=2pass / mbtree=0 / bitrate=4000 / ratetol=1.0 / qcomp=0.70 / qpmin=3 / qpmax=69 / qpstep=4 / cplxblur=20.0 / qblur=0.5 / ip_ratio=1.40 / pb_ratio=1.30 / aq=2:1.00
Default : Yes
Forced : No
Audio
ID : 2
Format : AC-3
Format/Info : Audio Coding 3
Mode extension : CM (complete main)
Format settings, Endianness : Big
Codec ID : A_AC3
Duration : 39mn 12s
Bit rate mode : Constant
Bit rate : 448 Kbps
Channel(s) : 6 channels
Channel positions : Front: L C R, Side: L R, LFE
Sampling rate : 48.0 KHz
Bit depth : 16 bits
Compression mode : Lossy
Stream size : 126 MiB (10%)
Language : Russian
Default : Yes
Forced : No
Menu
00:00:00.000 : :Глава 1
00:09:19.040 : :Глава 2
00:18:45.240 : :Глава 3
00:29:01.960 : :Глава 4
Скриншоты:
       

Clavik

Post 16-Nov-2019 11:06

[Quote]

Незнайка на Луне (1997-1999) DVB (Серии 1-12 из 12)- Производство: Россия
Жанр: фантастика, приключения
Режиссер: Юрий Бутырин, Андрей Игнатенко, Александр Люткевич
Персонажи: Венера Рахимова, Кристина Орбакайте, Светлана Степченко, Алексей Борзунов, Клара Румянова, Александр Леньков, Артем Карапетян, Михаил Кононов, Светлана Харлап и др.
Описание:
"Незнайка на Луне" - грандиозный анимационный проект с участием звездных голосов российской эстрады Кристины Орбакайте в роли Звездочки и Валерия Меладзе с песенным хитом, как лейтмотивом фильма.
В очаровательной детской фантастике с захватывающим сюжетом, юмором и добротой за развлекательным жанром кроется глубокий смысл. Наряду с приключениями ребенка ждут жизненно важные знания об экономике, физике и астрономии. Веселая и поучительная история еще раз напомнит о вечных истинах, о том, что добро всегда побеждает зло.
Это интересная и поучительная сказка не оставит никого равнодушным и доставит огромное удовольствие от просмотра.

Продолжительность: серия ~00:14:00
Качество видео: DVB
Видео: MPEG-2, [email protected], ~3 401 Kbps
Аудио: MP2, 2 ch, 192 Kbps

Список серий:

1. Загадка Лунного Камня.
2. Грандиозный замысел Знайки.
3. Незнайка и Пончик летят на Луну.
4. Первый день на Луне.
5. Звёздочка.
6. Дорогие друзья.
7. Акционерное общество гигантских растений.
8. Большой бредлам.
9. Незнайка ищет работу.
10. Куда исчезла ракета.
11. Знайка спешит на помощь.
12. Дорога домой.

Дополнительная информация по релизу:

Серии 1-9 записаны с канала "Карусель", серии 10-12 - с канала "Мульт"

Mediainfo:

Код:
Общее
Формат                                   : MPEG-PS
Размер файла                             : 370 Мбайт
Продолжительность                        : 14 м.
Режим общего битрейта                    : Переменный
Общий поток                              : 3666 Кбит/сек
Видео
Идентификатор                            : 224 (0xE0)
Формат                                   : MPEG Video
Версия формата                           : Version 2
Профиль формата                          : [email protected]
Параметр BVOP формата                    : Да
Параметр матрицы формата                 : Выборочная
Параметр GOP формата                     : M=3, N=12
Format_Settings_PictureStructure         : Frame
Продолжительность                        : 14 м.
Вид битрейта                             : Переменный
Битрейт                                  : 3401 Кбит/сек
Максимальный битрейт                     : 5000 Кбит/сек
Ширина                                   : 720 пикселей
Высота                                   : 576 пикселей
Соотношение сторон                       : 4:3
Частота кадров                           : 25,000 кадров/сек
Стандарт вещания                         : PAL
Цветовое пространство                    : YUV
Субдискретизация насыщенности            : 4:2:0
Битовая глубина                          : 8 бит
Тип развёртки                            : Чересстрочная
Порядок развёртки                        : Верхнее поле первое
Метод сжатия                             : С потерями
Бит/(Пиксели*Кадры)                      : 0.328
Временной код первого кадра              : 00:00:00:00
Оригинал временного кода                 : Group of pictures header
Размер потока                            : 343 Мбайт (93%)
Аудио
Идентификатор                            : 192 (0xC0)
Формат                                   : MPEG Audio
Версия формата                           : Version 1
Профиль формата                          : Layer 2
Продолжительность                        : 14 м.
Вид битрейта                             : Постоянный
Битрейт                                  : 192 Кбит/сек
Каналы                                   : 2 канала
Частота                                  : 48,0 КГц
Метод сжатия                             : С потерями
Размер потока                            : 19,4 Мбайт (5%)
Скриншоты:
       

XP1971

Post 17-Jan-2017 08:53

[Quote]

Русские народные сказки (1949-1979) BDRip - Производство: "Союзмультфильм"
Жанр: Рисованная анимация
Режиссер: Иван Иванов-Вано, Роман Давыдов, Петр Носов
Описание:
Сборник мультфильмов из серии "Шедевры отечественной мультипликации"
Русские народные сказки
Возраст: 0+ (для любой зрительской аудитории)
Продолжительность: 02:33:10
Качество видео: BDRip
Субтитры: Отсутствуют
Видео: AVC/H.264, 1488х1080, ~7500 kbps
Аудио: AC3, 2 ch, 192 kbps, CBR

Содержание:

В некотором царстве...

Год выпуска: 1957
Жанр: Рисованая анимация, Детский
Описание:
Старинная сказка про царя Гороха, царевну Марью, заморского принца, про Емелю и про чудесную щуку. Чего только не натворил Емеля при помощи выловленной из проруби Щуки, выполнявшей все его желания.
Награды:
- XI МКФ в Карловых Варах, 1958 - Первая премия за лучший анимационный фильм;
- ВКФ в Киеве, 1958 - Первая премия по разделу мультипликационных фильмов;
- Госпремия РСФСР им. Братьев Васильевых - режиссеру Ивану Иванову-Вано
Режиссер: Иван Иванов-Вано
Персонажи: Емеля, щука, царь Горох, царевна Марья, заморский принц
Продолжительность: 00:28:24
Перевод: Оригинальный
Роли озвучивали: Георгий Милляр, Владимир Гуляев, Серафим Аникеев, Григорий Шпигель, Лев Потемкин, Мария Бабанова, Георгий Вицин, Вера Орлова

MI

Format : Matroska
Format version : Version 4 / Version 2
File size : 1.53 GiB
Duration : 28mn 24s
Overall bit rate : 7 693 Kbps
Writing application : XviD4PSP 7.0.345 DAILY
Writing library : Lavf57.41.100
Video
ID : 1
Format : AVC
Format/Info : Advanced Video Codec
Format profile : [url=mailto:[email protected]][email protected][/url]
Format settings, CABAC : Yes
Format settings, ReFrames : 4 frames
Codec ID : V_MPEG4/ISO/AVC
Duration : 28mn 24s
Bit rate : 7 500 Kbps
Width : 1 472 pixels
Height : 1 080 pixels
Display aspect ratio : 4:3
Frame rate mode : Constant
Frame rate : 25.000 fps
Color space : YUV
Chroma subsampling : 4:2:0
Bit depth : 8 bits
Bits/(Pixel*Frame) : 0.190
Stream size : 1.46 GiB (96%)
Writing library : x264 core 148 r2744M b97ae06
Encoding settings : cabac=1 / ref=4 / deblock=1:-3:-3 / analyse=0x3:0x113 / me=umh / subme=9 / psy=1 / psy_rd=1.05:0.10 / mixed_ref=1 / me_range=24 / chroma_me=1 / trellis=2 / 8x8dct=1 / cqm=0 / deadzone=21,11 / fast_pskip=0 / chroma_qp_offset=-3 / threads=5 / lookahead_threads=1 / sliced_threads=0 / nr=0 / decimate=1 / interlaced=tff / bluray_compat=0 / constrained_intra=0 / bframes=6 / b_pyramid=2 / b_adapt=2 / b_bias=0 / direct=2 / weightb=1 / open_gop=0 / weightp=0 / keyint=250 / keyint_min=25 / scenecut=40 / intra_refresh=0 / rc=2pass / mbtree=0 / bitrate=7500 / ratetol=1.0 / qcomp=0.70 / qpmin=3 / qpmax=69 / qpstep=4 / cplxblur=20.0 / qblur=0.5 / ip_ratio=1.40 / pb_ratio=1.30 / aq=2:1.00
Default : Yes
Forced : No
Audio
ID : 2
Format : AC-3
Format/Info : Audio Coding 3
Mode extension : CM (complete main)
Format settings, Endianness : Big
Codec ID : A_AC3
Duration : 28mn 24s
Bit rate mode : Constant
Bit rate : 192 Kbps
Channel(s) : 2 channels
Channel positions : Front: L R
Sampling rate : 48.0 KHz
Bit depth : 16 bits
Compression mode : Lossy
Stream size : 39.0 MiB (2%)
Default : Yes
Forced : No
       

Волк и семеро козлят

Русское название: Волк и семеро козлят
Год выпуска: 1957
Производство: СССР, Союзмультфильм
Жанр: Мультфильм, короткометражка
Режиссер: Петр Носов
Описание:
Мультипликационный фильм по мотивам известной русской народной сказки о том, как Волк хочет украсть у Козы её семерых козлят, но грубый голос выдаёт его. Волк просит Медведя-кузнеца выковать ему тоненький голосок и крадёт козлят, но его преследуют Коза, зайчата и Дятел. Медведь, узнав об обмане, помогает им и наказывает Волка.

MI

Format : Matroska
Format version : Version 4 / Version 2
File size : 558 MiB
Duration : 10mn 7s
Overall bit rate : 7 700 Kbps
Writing application : XviD4PSP 7.0.345 DAILY
Writing library : Lavf57.41.100
ENCODING_INFO : MATROSKA,WEBM > MKV / H264 > X264 VBR-2P 7500kbps XHQ / AC3 > COPY
Video
ID : 1
Format : AVC
Format/Info : Advanced Video Codec
Format profile : [url=mailto:[email protected]][email protected][/url]
Format settings, CABAC : Yes
Format settings, ReFrames : 4 frames
Codec ID : V_MPEG4/ISO/AVC
Duration : 10mn 7s
Bit rate : 7 500 Kbps
Width : 1 504 pixels
Height : 1 080 pixels
Display aspect ratio : 1.381
Frame rate mode : Constant
Frame rate : 25.000 fps
Color space : YUV
Chroma subsampling : 4:2:0
Bit depth : 8 bits
Scan type : MBAFF
Bits/(Pixel*Frame) : 0.186
Stream size : 533 MiB (96%)
Writing library : x264 core 148 r2744M b97ae06
Encoding settings : cabac=1 / ref=4 / deblock=1:-3:-3 / analyse=0x3:0x113 / me=umh / subme=9 / psy=1 / psy_rd=1.05:0.10 / mixed_ref=1 / me_range=24 / chroma_me=1 / trellis=2 / 8x8dct=1 / cqm=0 / deadzone=21,11 / fast_pskip=0 / chroma_qp_offset=-3 / threads=5 / lookahead_threads=1 / sliced_threads=0 / nr=0 / decimate=1 / interlaced=tff / bluray_compat=0 / constrained_intra=0 / bframes=6 / b_pyramid=2 / b_adapt=2 / b_bias=0 / direct=2 / weightb=1 / open_gop=0 / weightp=0 / keyint=250 / keyint_min=25 / scenecut=40 / intra_refresh=0 / rc=2pass / mbtree=0 / bitrate=7500 / ratetol=1.0 / qcomp=0.70 / qpmin=3 / qpmax=69 / qpstep=4 / cplxblur=20.0 / qblur=0.5 / ip_ratio=1.40 / pb_ratio=1.30 / aq=2:1.00
Default : Yes
Forced : No
Audio
ID : 2
Format : AC-3
Format/Info : Audio Coding 3
Mode extension : CM (complete main)
Format settings, Endianness : Big
Codec ID : A_AC3
Duration : 10mn 7s
Bit rate mode : Constant
Bit rate : 192 Kbps
Channel(s) : 2 channels
Channel positions : Front: L R
Sampling rate : 48.0 KHz
Bit depth : 16 bits
Compression mode : Lossy
Stream size : 13.9 MiB (2%)
Default : Yes
Forced : No
       

Гуси-лебеди

Русское название: Гуси-лебеди
Год выпуска: 1949
Жанр: Рисованная анимация, Сказка, Детский
Режиссер: Альберт Иванов, Александра Снежко-Блоцкая
Брата уносят волшебные птицы — гуси-лебеди. Сестра отправляется его искать. На пути она встречает печь, яблоню и речку,помогает им . Наконец она попадает к Бабе-Яге, у которой и находится в плену её братец — Баба-Яга заставляет его играть золотыми яблочками. Баба-Яга задумала изжарить сестрицу, так как догадалась о её намерении украсть братца. Девушке с братом удаётся бежать благодаря предупреждению, данному мышью они поочерёдно просят укрытия у речки, яблони и печки, и те прячут их. Спасшись от гусей-лебедей, сестра и брат возвращаются домой.

MI

Format : Matroska
Format version : Version 4 / Version 2
File size : 1 020 MiB
Duration : 18mn 31s
Overall bit rate : 7 698 Kbps
Writing application : XviD4PSP 7.0.346 DAILY
Writing library : Lavf57.41.100
ENCODING_INFO : MATROSKA,WEBM > MKV / H264 > X264 VBR-2P 7500kbps XHQ / AC3 > COPY
Video
ID : 1
Format : AVC
Format/Info : Advanced Video Codec
Format profile : [url=mailto:[email protected]][email protected][/url]
Format settings, CABAC : Yes
Format settings, ReFrames : 4 frames
Codec ID : V_MPEG4/ISO/AVC
Duration : 18mn 31s
Bit rate : 7 500 Kbps
Width : 1 472 pixels
Height : 1 080 pixels
Display aspect ratio : 4:3
Frame rate mode : Constant
Frame rate : 25.000 fps
Color space : YUV
Chroma subsampling : 4:2:0
Bit depth : 8 bits
Scan type : Progressive
Bits/(Pixel*Frame) : 0.189
Stream size : 974 MiB (96%)
Writing library : x264 core 148 r2744M b97ae06
Encoding settings : cabac=1 / ref=4 / deblock=1:-3:-3 / analyse=0x3:0x113 / me=umh / subme=9 / psy=1 / psy_rd=1.05:0.10 / mixed_ref=1 / me_range=24 / chroma_me=1 / trellis=2 / 8x8dct=1 / cqm=0 / deadzone=21,11 / fast_pskip=0 / chroma_qp_offset=-3 / threads=5 / lookahead_threads=1 / sliced_threads=0 / nr=0 / decimate=1 / interlaced=0 / bluray_compat=0 / constrained_intra=0 / bframes=6 / b_pyramid=2 / b_adapt=2 / b_bias=0 / direct=2 / weightb=1 / open_gop=0 / weightp=2 / keyint=250 / keyint_min=25 / scenecut=40 / intra_refresh=0 / rc=2pass / mbtree=0 / bitrate=7500 / ratetol=1.0 / qcomp=0.70 / qpmin=3 / qpmax=69 / qpstep=4 / cplxblur=20.0 / qblur=0.5 / ip_ratio=1.40 / pb_ratio=1.30 / aq=2:1.00
Default : Yes
Forced : No
Audio
ID : 2
Format : AC-3
Format/Info : Audio Coding 3
Mode extension : CM (complete main)
Format settings, Endianness : Big
Codec ID : A_AC3
Duration : 18mn 31s
Bit rate mode : Constant
Bit rate : 192 Kbps
Channel(s) : 2 channels
Channel positions : Front: L R
Sampling rate : 48.0 KHz
Bit depth : 16 bits
Compression mode : Lossy
Stream size : 25.4 MiB (2%)
Default : Yes
Forced : No
       

Петушок — золотой гребешок

Год выпуска: 1955 г.
Жанр: Рисованая анимация
Описание:
Экранизация народной сказки в обработке А.Толстого.
Режиссер: Петр Носов, Дмитрий Анпилов
По мотивам русской нар. сказки. Молодой петушок жил у котика и дрозда. А хитрая лисичка постоянно пыталась его украсть и съесть.

MI

Format : Matroska
Format version : Version 4 / Version 2
File size : 590 MiB
Duration : 10mn 3s
Overall bit rate : 8 195 Kbps
Writing application : XviD4PSP 7.0.345 DAILY
Writing library : Lavf57.41.100
ENCODING_INFO : MATROSKA,WEBM > MKV / H264 > X264 VBR-2P 8000kbps XHQ / AC3 > COPY
Video
ID : 1
Format : AVC
Format/Info : Advanced Video Codec
Format profile : [url=mailto:[email protected]][email protected][/url]
Format settings, CABAC : Yes
Format settings, ReFrames : 4 frames
Codec ID : V_MPEG4/ISO/AVC
Duration : 10mn 3s
Bit rate : 8 000 Kbps
Width : 1 488 pixels
Height : 1 080 pixels
Display aspect ratio : 1.370
Frame rate mode : Constant
Frame rate : 25.000 fps
Color space : YUV
Chroma subsampling : 4:2:0
Bit depth : 8 bits
Scan type : MBAFF
Bits/(Pixel*Frame) : 0.200
Stream size : 564 MiB (96%)
Writing library : x264 core 148 r2744M b97ae06
Encoding settings : cabac=1 / ref=4 / deblock=1:-3:-3 / analyse=0x3:0x113 / me=umh / subme=9 / psy=1 / psy_rd=1.05:0.10 / mixed_ref=1 / me_range=24 / chroma_me=1 / trellis=2 / 8x8dct=1 / cqm=0 / deadzone=21,11 / fast_pskip=0 / chroma_qp_offset=-3 / threads=5 / lookahead_threads=1 / sliced_threads=0 / nr=0 / decimate=1 / interlaced=tff / bluray_compat=0 / constrained_intra=0 / bframes=6 / b_pyramid=2 / b_adapt=2 / b_bias=0 / direct=2 / weightb=1 / open_gop=0 / weightp=0 / keyint=250 / keyint_min=25 / scenecut=40 / intra_refresh=0 / rc=2pass / mbtree=0 / bitrate=8000 / ratetol=1.0 / qcomp=0.70 / qpmin=3 / qpmax=69 / qpstep=4 / cplxblur=20.0 / qblur=0.5 / ip_ratio=1.40 / pb_ratio=1.30 / aq=2:1.00
Default : Yes
Forced : No
Audio
ID : 2
Format : AC-3
Format/Info : Audio Coding 3
Mode extension : CM (complete main)
Format settings, Endianness : Big
Codec ID : A_AC3
Duration : 10mn 3s
Bit rate mode : Constant
Bit rate : 192 Kbps
Channel(s) : 2 channels
Channel positions : Front: L R
Sampling rate : 48.0 KHz
Bit depth : 16 bits
Compression mode : Lossy
Stream size : 13.8 MiB (2%)
Default : Yes
Forced : No
       

Последняя невеста Змея Горыныча

Год выпуска: 1978
Жанр: Детский
Язык: русский
Описание:
В основе мультфильма лежит русская народная сказка о добром и бесстрашном солдате, который всегда спешит на помощь тем, кто оказывается в беде.
Режиссер: Роман Давыдов
Персонажи: Юрий Хржановский, Владимир Басов, Александр Баранов, Ольга Громова, Клара Румянова, Юрий Пузырев, В. Телегин, Людмила Касаткина, Елена Тертычная, Герман Качин

MI

Format : Matroska
Format version : Version 4 / Version 2
File size : 982 MiB
Duration : 17mn 50s
Overall bit rate : 7 695 Kbps
Writing application : XviD4PSP 7.0.346 DAILY
Writing library : Lavf57.41.100
ENCODING_INFO : MATROSKA,WEBM > MKV / H264 > X264 VBR-2P 7500kbps XHQ / AC3 > COPY
Video
ID : 1
Format : AVC
Format/Info : Advanced Video Codec
Format profile : [url=mailto:[email protected]][email protected][/url]
Format settings, CABAC : Yes
Format settings, ReFrames : 4 frames
Codec ID : V_MPEG4/ISO/AVC
Duration : 17mn 50s
Bit rate : 7 500 Kbps
Width : 1 536 pixels
Height : 1 074 pixels
Display aspect ratio : 1.426
Frame rate mode : Constant
Frame rate : 25.000 fps
Color space : YUV
Chroma subsampling : 4:2:0
Bit depth : 8 bits
Scan type : Progressive
Bits/(Pixel*Frame) : 0.182
Stream size : 938 MiB (96%)
Writing library : x264 core 148 r2744M b97ae06
Encoding settings : cabac=1 / ref=4 / deblock=1:-3:-3 / analyse=0x3:0x113 / me=umh / subme=9 / psy=1 / psy_rd=1.05:0.10 / mixed_ref=1 / me_range=24 / chroma_me=1 / trellis=2 / 8x8dct=1 / cqm=0 / deadzone=21,11 / fast_pskip=0 / chroma_qp_offset=-3 / threads=5 / lookahead_threads=1 / sliced_threads=0 / nr=0 / decimate=1 / interlaced=0 / bluray_compat=0 / constrained_intra=0 / bframes=6 / b_pyramid=2 / b_adapt=2 / b_bias=0 / direct=2 / weightb=1 / open_gop=0 / weightp=2 / keyint=250 / keyint_min=25 / scenecut=40 / intra_refresh=0 / rc=2pass / mbtree=0 / bitrate=7500 / ratetol=1.0 / qcomp=0.70 / qpmin=3 / qpmax=69 / qpstep=4 / cplxblur=20.0 / qblur=0.5 / ip_ratio=1.40 / pb_ratio=1.30 / aq=2:1.00
Default : Yes
Forced : No
Audio
ID : 2
Format : AC-3
Format/Info : Audio Coding 3
Mode extension : CM (complete main)
Format settings, Endianness : Big
Codec ID : A_AC3
Duration : 17mn 50s
Bit rate mode : Constant
Bit rate : 192 Kbps
Channel(s) : 2 channels
Channel positions : Front: L R
Sampling rate : 48.0 KHz
Bit depth : 16 bits
Compression mode : Lossy
Stream size : 24.5 MiB (2%)
Default : Yes
Forced : No
       

Сестрица Алёнушка и братец Иванушка

Русское название: Сестрица Аленушка и братец Иванушка
Год выпуска: 1953
Производство: СССР, Союзмультфильм
Жанр: Мультфильм
Режиссер: Ольга Ходатаева
Роли озвучивали: Борис Андреев, Мария Бабанова, Вера Орлова, Анатолий Папанов, Георгий Вицин
Описание:
По мотивам русской народной сказки. Не послушался Иванушка своей сестрицы, испил водицы из лужицы, в которой копытце отпечаталось, и превратился в козленочка…

MI

Format : Matroska
Format version : Version 4 / Version 2
File size : 560 MiB
Duration : 10mn 10s
Overall bit rate : 7 692 Kbps
Writing application : XviD4PSP 7.0.346 DAILY
Writing library : Lavf57.41.100
ENCODING_INFO : MATROSKA,WEBM > MKV / H264 > X264 VBR-2P 7500kbps XHQ / AC3 > COPY
Video
ID : 1
Format : AVC
Format/Info : Advanced Video Codec
Format profile : [url=mailto:[email protected]][email protected][/url]
Format settings, CABAC : Yes
Format settings, ReFrames : 4 frames
Codec ID : V_MPEG4/ISO/AVC
Duration : 10mn 10s
Bit rate : 7 500 Kbps
Width : 1 488 pixels
Height : 1 080 pixels
Display aspect ratio : 1.372
Frame rate mode : Constant
Frame rate : 25.000 fps
Color space : YUV
Chroma subsampling : 4:2:0
Bit depth : 8 bits
Scan type : Progressive
Bits/(Pixel*Frame) : 0.187
Stream size : 535 MiB (96%)
Writing library : x264 core 148 r2744M b97ae06
Encoding settings : cabac=1 / ref=4 / deblock=1:-3:-3 / analyse=0x3:0x113 / me=umh / subme=9 / psy=1 / psy_rd=1.05:0.10 / mixed_ref=1 / me_range=24 / chroma_me=1 / trellis=2 / 8x8dct=1 / cqm=0 / deadzone=21,11 / fast_pskip=0 / chroma_qp_offset=-3 / threads=5 / lookahead_threads=1 / sliced_threads=0 / nr=0 / decimate=1 / interlaced=0 / bluray_compat=0 / constrained_intra=0 / bframes=6 / b_pyramid=2 / b_adapt=2 / b_bias=0 / direct=2 / weightb=1 / open_gop=0 / weightp=2 / keyint=250 / keyint_min=25 / scenecut=40 / intra_refresh=0 / rc=2pass / mbtree=0 / bitrate=7500 / ratetol=1.0 / qcomp=0.70 / qpmin=3 / qpmax=69 / qpstep=4 / cplxblur=20.0 / qblur=0.5 / ip_ratio=1.40 / pb_ratio=1.30 / aq=2:1.00
Default : Yes
Forced : No
DURATION : 00:10:10.560000000
Audio
ID : 2
Format : AC-3
Format/Info : Audio Coding 3
Mode extension : CM (complete main)
Format settings, Endianness : Big
Codec ID : A_AC3
Duration : 10mn 10s
Bit rate mode : Constant
Bit rate : 192 Kbps
Channel(s) : 2 channels
Channel positions : Front: L R
Sampling rate : 48.0 KHz
Bit depth : 16 bits
Compression mode : Lossy
Stream size : 14.0 MiB (2%)
Default : Yes
Forced : No
       

Царевна-лягушка

Производство: СССР
Жанр: Сказка, Детский, Рисованная анимация
Режиссер: Михаил Цехановский
Роли озвучивали: Маргарита Куприянова, Анатолий Вербицкий, Александр Румнев, Алексей Грибов, Борис Чирков, Владимир Грибков, Георгий Милляр
Описание:
В некотором царстве, в некотором государстве жил-был царь. И задумал он женить своих сыновей. Решили они послать свои стрелы в разные стороны, какая куда попадет, там и невесту искать. Попала посланная Иваном-царевичем стрела на болотную кочку, где сидела лягушка…

MI

Format : Matroska
Format version : Version 4 / Version 2
File size : 2.09 GiB
Duration : 38mn 47s
Overall bit rate : 7 697 Kbps
Writing application : XviD4PSP 7.0.345 DAILY
Writing library : Lavf57.41.100
ENCODING_INFO : MATROSKA,WEBM > MKV / H264 > X264 VBR-2P 7500kbps XHQ / AC3 > COPY
Video
ID : 1
Format : AVC
Format/Info : Advanced Video Codec
Format profile : [url=mailto:[email protected]][email protected][/url]
Format settings, CABAC : Yes
Format settings, ReFrames : 4 frames
Codec ID : V_MPEG4/ISO/AVC
Duration : 38mn 47s
Bit rate : 7 500 Kbps
Width : 1 488 pixels
Height : 1 080 pixels
Display aspect ratio : 4:3
Frame rate mode : Constant
Frame rate : 25.000 fps
Color space : YUV
Chroma subsampling : 4:2:0
Bit depth : 8 bits
Scan type : MBAFF
Bits/(Pixel*Frame) : 0.188
Stream size : 1.99 GiB (96%)
Writing library : x264 core 148 r2744M b97ae06
Encoding settings : cabac=1 / ref=4 / deblock=1:-3:-3 / analyse=0x3:0x113 / me=umh / subme=9 / psy=1 / psy_rd=1.05:0.10 / mixed_ref=1 / me_range=24 / chroma_me=1 / trellis=2 / 8x8dct=1 / cqm=0 / deadzone=21,11 / fast_pskip=0 / chroma_qp_offset=-3 / threads=5 / lookahead_threads=1 / sliced_threads=0 / nr=0 / decimate=1 / interlaced=tff / bluray_compat=0 / constrained_intra=0 / bframes=6 / b_pyramid=2 / b_adapt=2 / b_bias=0 / direct=2 / weightb=1 / open_gop=0 / weightp=0 / keyint=250 / keyint_min=25 / scenecut=40 / intra_refresh=0 / rc=2pass / mbtree=0 / bitrate=7500 / ratetol=1.0 / qcomp=0.70 / qpmin=3 / qpmax=69 / qpstep=4 / cplxblur=20.0 / qblur=0.5 / ip_ratio=1.40 / pb_ratio=1.30 / aq=2:1.00
Default : Yes
Forced : No
DURATION : 00:38:47.480000000
Audio
ID : 2
Format : AC-3
Format/Info : Audio Coding 3
Mode extension : CM (complete main)
Format settings, Endianness : Big
Codec ID : A_AC3
Duration : 38mn 47s
Bit rate mode : Constant
Bit rate : 192 Kbps
Channel(s) : 2 channels
Channel positions : Front: L R
Sampling rate : 48.0 KHz
Bit depth : 16 bits
Compression mode : Lossy
Stream size : 53.3 MiB (2%)
Default : Yes
Forced : No
       

Чудесный колокольчик

Русское название: Чудесный колокольчик
Год выпуска: 1949
Режиссер: Зинаида Брумберг, Валентина Брумберг
Роли озвучивали: Владимир Готовцев, Т. Цыганок, Галина Новожилова, Вера Бендина, Александра Денисова, Михаил Яншин
Описание фильма:
Мультипликационный фильм по мотивам русских народных сказок о том, как отправила злая мачеха приёмную дочь с глаз долой. Приказала сидеть в лесу, пока не спрядёт целый воз шерсти. Попала Маша в землянку к медведю. Прибрала в горнице, обед приготовила, мышку досыта накормила. Пришёл вечером хозяин. Понравилось ему, как управилась девочка с делами. За ночь спряли они с мышью всю шерсть, а на утро отправили Машу домой с богатыми подарками. Позавидовала мачеха неожиданным дарам и отправила в лес родную дочь — Лушу. Та всё сделала наоборот. В комнате навела беспорядок и медведю с мышкой надерзила. Потребовала себе набить повозку мехами, да серебром с золотом. Поехала домой, но по дороге кони, обратившись в птиц, улетели прочь, а всё её богатство превратилось в кучу черепков.

MI

Format : Matroska
Format version : Version 4 / Version 2
File size : 1.03 GiB
Duration : 19mn 14s
Overall bit rate : 7 690 Kbps
Writing application : XviD4PSP 7.0.346 DAILY
Writing library : Lavf57.41.100
ENCODING_INFO : MATROSKA,WEBM > MKV / H264 > X264 VBR-2P 7500kbps XHQ / AC3 > COPY
Video
ID : 1
Format : AVC
Format/Info : Advanced Video Codec
Format profile : [url=mailto:[email protected]][email protected][/url]
Format settings, CABAC : Yes
Format settings, ReFrames : 4 frames
Codec ID : V_MPEG4/ISO/AVC
Duration : 19mn 14s
Bit rate : 7 500 Kbps
Width : 1 488 pixels
Height : 1 080 pixels
Display aspect ratio : 1.374
Frame rate mode : Constant
Frame rate : 25.000 fps
Color space : YUV
Chroma subsampling : 4:2:0
Bit depth : 8 bits
Scan type : MBAFF
Bits/(Pixel*Frame) : 0.187
Stream size : 1 011 MiB (96%)
Writing library : x264 core 148 r2744M b97ae06
Encoding settings : cabac=1 / ref=4 / deblock=1:-3:-3 / analyse=0x3:0x113 / me=umh / subme=9 / psy=1 / psy_rd=1.05:0.10 / mixed_ref=1 / me_range=24 / chroma_me=1 / trellis=2 / 8x8dct=1 / cqm=0 / deadzone=21,11 / fast_pskip=0 / chroma_qp_offset=-3 / threads=5 / lookahead_threads=1 / sliced_threads=0 / nr=0 / decimate=1 / interlaced=tff / bluray_compat=0 / constrained_intra=0 / bframes=6 / b_pyramid=2 / b_adapt=2 / b_bias=0 / direct=2 / weightb=1 / open_gop=0 / weightp=0 / keyint=250 / keyint_min=25 / scenecut=40 / intra_refresh=0 / rc=2pass / mbtree=0 / bitrate=7500 / ratetol=1.0 / qcomp=0.70 / qpmin=3 / qpmax=69 / qpstep=4 / cplxblur=20.0 / qblur=0.5 / ip_ratio=1.40 / pb_ratio=1.30 / aq=2:1.00
Default : Yes
Forced : No
DURATION : 00:19:14.920000000
Audio
ID : 2
Format : AC-3
Format/Info : Audio Coding 3
Mode extension : CM (complete main)
Format settings, Endianness : Big
Codec ID : A_AC3
Duration : 19mn 14s
Bit rate mode : Constant
Bit rate : 192 Kbps
Channel(s) : 2 channels
Channel positions : Front: L R
Sampling rate : 48.0 KHz
Bit depth : 16 bits
Compression mode : Lossy
Stream size : 26.4 MiB (2%)
Default : Yes
Forced : No
       

Mediainfo:

Format                                   : Matroska
Format version : Version 4 / Version 2
File size : 982 MiB
Duration : 17mn 50s
Overall bit rate : 7 695 Kbps
Writing application : XviD4PSP 7.0.346 DAILY
Writing library : Lavf57.41.100
Video
ID : 1
Format : AVC
Format/Info : Advanced Video Codec
Format profile : [url=mailto:[email protected]][email protected][/url]
Format settings, CABAC : Yes
Format settings, ReFrames : 4 frames
Codec ID : V_MPEG4/ISO/AVC
Duration : 17mn 50s
Bit rate : 7 500 Kbps
Width : 1 488 pixels
Height : 1 080 pixels
Display aspect ratio : 1.426
Frame rate mode : Constant
Frame rate : 25.000 fps
Color space : YUV
Chroma subsampling : 4:2:0
Bit depth : 8 bits
Scan type : Progressive
Bits/(Pixel*Frame) : 0.182
Stream size : 938 MiB (96%)
Writing library : x264 core 148 r2744M b97ae06
Encoding settings : cabac=1 / ref=4 / deblock=1:-3:-3 / analyse=0x3:0x113 / me=umh / subme=9 / psy=1 / psy_rd=1.05:0.10 / mixed_ref=1 / me_range=24 / chroma_me=1 / trellis=2 / 8x8dct=1 / cqm=0 / deadzone=21,11 / fast_pskip=0 / chroma_qp_offset=-3 / threads=5 / lookahead_threads=1 / sliced_threads=0 / nr=0 / decimate=1 / interlaced=0 / bluray_compat=0 / constrained_intra=0 / bframes=6 / b_pyramid=2 / b_adapt=2 / b_bias=0 / direct=2 / weightb=1 / open_gop=0 / weightp=2 / keyint=250 / keyint_min=25 / scenecut=40 / intra_refresh=0 / rc=2pass / mbtree=0 / bitrate=7500 / ratetol=1.0 / qcomp=0.70 / qpmin=3 / qpmax=69 / qpstep=4 / cplxblur=20.0 / qblur=0.5 / ip_ratio=1.40 / pb_ratio=1.30 / aq=2:1.00
Default : Yes
Forced : No
DURATION : 00:17:50.600000000
Audio
ID : 2
Format : AC-3
Format/Info : Audio Coding 3
Mode extension : CM (complete main)
Format settings, Endianness : Big
Codec ID : A_AC3
Duration : 17mn 50s
Bit rate mode : Constant
Bit rate : 192 Kbps
Channel(s) : 2 channels
Channel positions : Front: L R
Sampling rate : 48.0 KHz
Bit depth : 16 bits
Compression mode : Lossy
Stream size : 24.5 MiB (2%)
Default : Yes
Forced : No
Скриншоты:
       

Omen

Post 17-Jan-2017 01:00

[Quote]

Кукарача
Страна: Россия
Жанр: мультфильм
Продолжительность: 00:05:03
Год выпуска: 2013
Режиссёр: Андрей Желудков
Описание: Музыкальный мультфильм по шуточному стихотворению Андрея Усачёва.
Качество: WEBRip-AVC
Формат: MP4
Видео: 1614 kbps, 1280х720 (16:9), 25.000 fps, AVC ([email protected])
Аудио: 126 kbps, 44.1 kHz, 2 channels, AAC (LC)
Субтитры: отсутствуют

Подробные технические данные

GeneralComplete name : Кукарача (2013).mp4Format : MPEG-4Format profile : Base Media / Version 2Codec ID : mp42File size : 63.1 MiBDuration : 5mn 3sOverall bit rate mode : VariableOverall bit rate : 1 743 KbpsEncoded date : UTC 2016-08-23 01:25:47Tagged date : UTC 2016-08-23 01:25:47gsst : 0gstd : 303531
VideoID : 1Format : AVCFormat/Info : Advanced Video CodecFormat profile : [email protected] settings, CABAC : YesFormat settings, ReFrames : 3 framesCodec ID : avc1Codec ID/Info : Advanced Video CodingDuration : 5mn 3sBit rate : 1 614 KbpsWidth : 1 280 pixelsHeight : 720 pixelsDisplay aspect ratio : 16:9Frame rate mode : ConstantFrame rate : 25.000 fpsColor space : YUVChroma subsampling : 4:2:0Bit depth : 8 bitsScan type : ProgressiveBits/(Pixel*Frame) : 0.070Stream size : 58.4 MiB (93%)Title : ISO Media file produced by Google Inc.Encoded date : UTC 2016-08-23 01:25:47Tagged date : UTC 2016-08-23 01:25:47
AudioID : 2Format : AACFormat/Info : Advanced Audio CodecFormat profile : LCCodec ID : 40Duration : 5mn 3sBit rate mode : VariableBit rate : 126 KbpsChannel(s) : 2 channelsChannel positions : Front: L RSampling rate : 44.1 KHzCompression mode : LossyStream size : 4.54 MiB (7%)Title : ISO Media file produced by Google Inc.Encoded date : UTC 2016-08-23 01:25:47Tagged date : UTC 2016-08-23 01:25:47

Скриншоты

Omen

Post 17-Jan-2017 01:00

[Quote]

Эвенкийская колыбельная
Страна: Россия
Жанр: музыкальный мультфильм
Продолжительность: 00:04:07
Год выпуска: 2007
Режиссёр: Елизавета Скворцова
Поёт: Валентина Кялундзюга
Описание: Колыбельная песня на эвенкийском языке.
Перед началом дети рассказывают про эвенков.
Качество: WEBRip
Формат: AVI
Видео: 1739 kbps, 608х480 (5:4), 25.000 fps, MPEG-4 Visual (XviD)
Аудио: 128 kbps, 44.1 kHz, 2 channels, MPEG Audio (MP3)
Субтитры: отсутствуют

Подробные технические данные

GeneralComplete name : Эвенкийская колыбельная.aviFormat : AVIFormat/Info : Audio Video InterleaveFile size : 55.3 MiBDuration : 4mn 7sOverall bit rate : 1 877 KbpsWriting application : Lavf55.33.100Writing library : VirtualDub build 35491/release
VideoID : 0Format : MPEG-4 VisualFormat profile : Advanced [email protected] settings, BVOP : 2Format settings, QPel : NoFormat settings, GMC : No warppointsFormat settings, Matrix : Default (H.263)Codec ID : XVIDCodec ID/Hint : XviDDuration : 4mn 7sBit rate : 1 739 KbpsWidth : 608 pixelsHeight : 480 pixelsDisplay aspect ratio : 5:4Frame rate : 25.000 fpsColor space : YUVChroma subsampling : 4:2:0Bit depth : 8 bitsScan type : ProgressiveCompression mode : LossyBits/(Pixel*Frame) : 0.238Stream size : 51.2 MiB (93%)Writing library : XviD 64
AudioID : 1Format : MPEG AudioFormat version : Version 1Format profile : Layer 3Mode : Joint stereoMode extension : MS StereoCodec ID : 55Codec ID/Hint : MP3Duration : 4mn 7sBit rate mode : ConstantBit rate : 128 KbpsChannel(s) : 2 channelsSampling rate : 44.1 KHzCompression mode : LossyStream size : 3.76 MiB (7%)Alignment : Split accross interleavesInterleave, duration : 40 ms (1.00 video frame)Interleave, preload duration : 500 ms

Скриншоты

Перевод колыбельной

Милое дитя – нюлимдя,
Ты проснулась – нюлимдя,
Я нашла тебя – нюлимдя,
Нашла и рада – нюлимдя.
Семь лет ждала – нюлимдя,
Семь зим ждала – нюлимдя,
И вдруг нашла – нюлимдя,
И вдруг нашла – нюлимдя.
Люблю тебя моя – нюлимдя,
Лизну тихонько – нюлимдя,
И присяду - нюлимдя
Я на пятки – нюлимдя.
Любовь моя ты – нюлимдя,
Играй ты на песке – нюлимдя,
Пусть бедность от тебя уйдёт
И будешь, счастлива всегда –
Моя нюлимдя.

Omen

Post 17-Jan-2017 01:00

[Quote]

Синдбад. Пираты семи штормов- Страна: Россия
Жанр: мультфильм
Продолжительность: 01:17:30
Год выпуска: 2016
Русские субтитры: нет
Режиссёр: Владлен Барбэ
Роли озвучивали: Андрей Лёвин, Катерина Шпица, Дмитрий Нагиев, Марина Лисовец, Диомид Виноградов, Юрий Стоянов, Андрей Кайков, Эдуард Радзюкевич, Игорь Лифанов, Илья Лыков
Описание: Синдбад, молодой веселый пират, не очень удачлив в пиратском промысле — за год ему и его команде не удалось захватить ни одного корабля. Но судьба улыбается Синдбаду: старик Антиох показывает ему старинную карту и предлагает плыть на остров Скелета, где хранятся сокровища. Синдбад не знает, что этот Антиох — волшебник, который преследует свои корыстные планы…
Да тут еще Солара, подруга Синдбада по детским играм, свалилась ему на голову! Неужели любовь? Нет, Синдбад так просто не сдается! Путь на остров Скелета лежит через Море Семи Штормов. Синдабада и его команду ждет сражение с Канатным Монстром и встреча со своим заклятым врагом пиратом Кесамом. Да и на острове не обойдется без приключений: Циклоп, Птица Рух и ее Птенчик уже давно ждут гостей.
Семпл: http://multi-up.com/1135967
Качество: WEB-DLRip
Формат: AVI
Видео: 720x384 (1.85:1), 24.000 fps, XviD, 2132 Kbps, 0.32 bit/pixel
Аудио: 48 kHz, AC3 Dolby Digital, 3/2 (L,C,R,l,r) + LFE ch, 384 Kbps
Субтитры: отсутствуют

Подробные технические данные

General Complete name : Downloads\Синдбад.Пираты.семи.штормов.2016.WEB-DLRip.avi Format : AVI Format/Info : Audio Video Interleave File size : 1.37 GiB Duration : 1h 17mn Overall bit rate : 2 525 Kbps Writing application : VirtualDubMod 1.5.10.2 (build 2540/release) Writing library : VirtualDubMod build 2540/release Video #0 ID : 0 Format : MPEG-4 Visual Format profile : Advanced [email protected] Format settings, BVOP : 2 Format settings, QPel : No Format settings, GMC : No warppoints Format settings, Matrix : Default (MPEG) Codec ID : XVID Codec ID/Hint : XviD Duration : 1h 17mn Bit rate : 2 132 Kbps Width : 720 pixels Height : 384 pixels Display aspect ratio : 1.85:1 Frame rate : 24.000 fps Color space : YUV Chroma subsampling : 4:2:0 Bit depth : 8 bits Scan type : Progressive Compression mode : Lossy Bits/(Pixel*Frame) : 0.321 Stream size : 1.15 GiB (84%) Writing library : XviD 1.2.1 (UTC 2008-12-04) Audio #1 ID : 1 Format : AC-3 Format/Info : Audio Coding 3 Mode extension : CM (complete main) Format settings, Endianness : Big Codec ID : 2000 Duration : 1h 17mn Bit rate mode : Constant Bit rate : 384 Kbps Channel(s) : 6 channels Channel positions : Front: L C R, Side: L R, LFE Sampling rate : 48.0 KHz Bit depth : 16 bits Compression mode : Lossy Stream size : 213 MiB (15%) Alignment : Split accross interleaves Interleave, duration : 42 ms (1.00 video frame) Interleave, preload duration : 500 ms

Скриншоты

Omen

Post 10-Jan-2017 01:01

[Quote]

-Снежная королева 3. Огонь и лед- Страна: Россия
Жанр: мультфильм, комедия, приключения, семейный
Продолжительность: 01:21:31
Год выпуска: 2016
Перевод: Не требуется
Русские субтитры: нет-Бюджет: 975 000 000 руб.
Премьера (мир): 23 декабря 2016
Премьера (РФ): 29 декабря 2016, «UPI»
-Режиссёр: Алексей Цицилин
Роли озвучивали: Наталия Быстрова, Филипп Лебедев, Диомид Виноградов, Александр Груздев, Михаил Тихонов, Николай Быстров, Ольга Шорохова, Ольга Зубкова, Всеволод Кузнецов, Филл Савенков

Описание: Герда — милая девочка, которая не знает, что такое страх, и это в ее-то нежном возрасте! Не так давно она даже сражалась с опасными врагами, но в этой битве ей безоговорочно удалось победить. Конечно, девочка потратила на это много сил, но победа того стоила — злодеи были повержены и не имели ни единого шанса дать отпор. И все в ее жизни было хорошо кроме самого главного. Ее родителей, любимых маму и папу, унес Северный Ветер. Девочка потратила очень много сил для того, чтобы найти их и вернуть обратно, но все попытки были безуспешными.
Несмотря на это, она совершенно не собирается сдаваться. Герда готова сделать все, чтобы разыскать пропавших предков. Девочка, уже не раз бывавшая в разных сложных ситуациях, прекрасно знает, какой непростой будет дорога. Но она по-прежнему готова идти до самого конца наперекор всем опасностям. На пути она встретит много всего интересного. Но главной находкой станет старинное сокровище троллей. Найдя эту драгоценность, она было оживилась — Герда думала, что это поможет ей разыскать родителей. Но ее боевое настроение быстро сменилось печальным, когда девочка поняла, что камень не просто не исполняет ее желания, а становится опасным для всего мира. И теперь у главной героини есть целых две важнейших задачи: спасти весь мир, а затем и своих родителей. И сделать это будет ой как нелегко.
-Качество: TeleSynch
Формат: AVI
Видео: XVID, 720х352, 25,000 кадров/сек, 8 бит
Аудио: AC-3, 48,0 КГц, 384 Кбит/сек, 2 ch
Субтитры: отсутствуют

Подробные технические данные

ОбщееПолное имя : E:\Sneg.Korileva.3.2O16.O.TS.14OOMB.aviФормат : AVIФормат/Информация : Audio Video InterleaveРазмер файла : 1,37 ГбайтПродолжительность : 1 ч. 21 м.Общий поток : 2401 Кбит/секПрограмма кодирования : VirtualDubMod 1.5.10.2 (build 2540/release)Библиотека кодирования : VirtualDubMod build 2540/release
ВидеоИдентификатор : 0Формат : MPEG-4 VisualПрофиль формата : Advanced [email protected]Параметр BVOP формата : 2Параметр QPel формата : НетПараметр GMC формата : Без точки переходаПараметр матрицы формата : Default (MPEG)Идентификатор кодека : XVIDИдентификатор кодека/Подсказка : XviDПродолжительность : 1 ч. 21 м.Продолжительность оригинала : 37 м. 49 с.Битрейт : 2042 Кбит/секШирина : 720 пикселейВысота : 352 пикселяСоотношение сторон : 2,045Частота кадров : 25,000 кадров/секЦветовое пространство : YUVСубдискретизация насыщенности : 4:2:0Битовая глубина : 8 битТип развёртки : ПрогрессивнаяМетод сжатия : С потерямиБит/(Пиксели*Кадры) : 0.322Размер потока : 552 Мбайт (39%)Библиотека кодирования : XviD 1.2.1 (UTC 2008-12-04)
АудиоИдентификатор : 1Формат : AC-3Формат/Информация : Audio Coding 3Расширение режима : CM (complete main)Параметр Endianness формата : BigИдентификатор кодека : 2000Продолжительность : 1 ч. 21 м.Продолжительность оригинала : 37 м. 49 с.Вид битрейта : ПостоянныйБитрейт : 384 Кбит/секКаналы : 2 каналаРасположение каналов : Front: L RЧастота : 48,0 КГцЧастота кадров : 31,250 кадров/сек (1536 spf)Битовая глубина : 16 битМетод сжатия : С потерямиЗадержка видео : 12 мс.Размер потока : 104 Мбайт (7%)Выравнивание : Разделение по промежуткамПродолжительность промежутка : 40 мс. (1,00 видеокадр)Время предзагрузки промежутка : 500 мс.

Скриншоты

Без рекламы!

Omen

Post 10-Jan-2017 01:00

[Quote]

Бременские разбойники- Страна: Россия, Украина
Жанр: Мультфильм, комедия, приключения, музыка
Продолжительность: 01:12:46
Год выпуска: 2016
Перевод: Русский
Русские субтитры: нет-Режиссёр: Алексей Лукьянчиков-Роли озвучивали: Дина Гарипова, Наталья Подольская, Максим Матвеев, Александр Иванов, Владимир Кошевой, Андрей Тартаков, Дмитрий Филимонов, Юлия Яблонская, Игорь Тарадайкин, Анастасия Садовская-Описание: Среди высохших рек и выжженных лесов раскинулось Королевство, где не поют птицы, не доются коровы, а люди живут в постоянном страхе и нищете. А все потому, что 18 лет назад в результате дворцового переворота к власти пришли хитрые и жадные Министры. Неповиновение новым законам жестоко карается, и никто не осмеливается перечить Королевской охране. Никто, кроме благородного разбойника Трубин Гуда, который грабит Министров и раздаёт награбленное бедным. А помогают ему в этом его верные друзья: кот Зигмунд, пес Баскервиль, петух Петруччо и ослица Гретхен. В то время как жители Королевства слагают о нём легенды, а Министры готовы отдать за его голову любую награду, сам Трубин Гуд мечтает лишь о том, чтобы вернуть Королевство к прежнему процветанию.- / -Качество: WEB-DLRip
Формат: AVI
Видео: 720x400 (16:9), 25.000 fps, XviD, 1907 Kbps, 0.26 bit/pixel
Аудио: 48 kHz, AC3 Dolby Digital, 3/2 (L,C,R,l,r) + LFE ch, 384 Kbps [iTunes]
Субтитры: отсутствуют

MI

General Complete name : Downloads\Bremenskie.RaZBoyniKi.2O16.O.WEB-DLRip.14OOMb.avi Format : AVI Format/Info : Audio Video Interleave File size : 1.37 GiB Duration : 1h 12mn Overall bit rate : 2 689 Kbps Writing application : VirtualDubMod 1.5.10.2 (build 2540/release) Writing library : VirtualDubMod build 2540/release Video #0 ID : 0 Format : MPEG-4 Visual Format profile : Advanced [email protected] Format settings, BVOP : 2 Format settings, QPel : No Format settings, GMC : No warppoints Format settings, Matrix : Default (MPEG) Codec ID : XVID Codec ID/Hint : XviD Duration : 1h 12mn Bit rate : 1 907 Kbps Width : 720 pixels Height : 400 pixels Display aspect ratio : 16:9 Frame rate : 25.000 fps Color space : YUV Chroma subsampling : 4:2:0 Bit depth : 8 bits Scan type : Progressive Compression mode : Lossy Bits/(Pixel*Frame) : 0.265 Stream size : 992 MiB (71%) Writing library : XviD 1.2.1 (UTC 2008-12-04) Audio #1 ID : 1 Format : AC-3 Format/Info : Audio Coding 3 Mode extension : CM (complete main) Format settings, Endianness : Big Codec ID : 2000 Duration : 1h 12mn Bit rate mode : Constant Bit rate : 384 Kbps Channel(s) : 6 channels Channel positions : Front: L C R, Side: L R, LFE Sampling rate : 48.0 KHz Bit depth : 16 bits Compression mode : Lossy Stream size : 200 MiB (14%) Alignment : Split accross interleaves Interleave, duration : 40 ms (1.00 video frame) Interleave, preload duration : 500 ms

Скриншоты

Omen

Post 10-Jan-2017 01:00

[Quote]

Мороз Иванович
Страна: СССР
Жанр: мультфильм, короткометражный
Продолжительность: 00:09:39
Год выпуска: 1981
Русские субтитры: нет
Режиссёр: Иван Аксенчук
Роли озвучивали: Вероника Васильева, Клара Румянова, Ольга Громова, Вячеслав Невинный
Описание: По мотивам русской сказки о ленивой и прилежной сестрах.
Качество: DVDRip
Формат: MKV
Видео: AVC (H.264), [email protected] (4:3), 25 fps, 2000kbps
Аудио: 48 kHz, АAC-LC, 2 ch, ~128 kbps
Субтитры: отсутствуют

Подробные технические данные

ОбщееУникальный идентификатор : 183506436170700966280756077858164837054 (0x8A0E0DD59FBF7FDDB19B0952CF940ABE)Полное имя : D:\Мультфильмы\Раздать\Мороз Иванович.mkvФормат : MatroskaВерсия формата : Version 4 / Version 2Размер файла : 146 МбайтПродолжительность : 9 м. 39 с.Общий поток : 2115 Кбит/секДата кодирования : UTC 2017-01-08 17:19:44Программа кодирования : mkvmerge v7.0.0 ('Where We Going') 32bit built on Jun 9 2014 15:08:34Библиотека кодирования : libebml v1.3.0 + libmatroska v1.4.1DURATION : 00:09:39.648000000NUMBER_OF_FRAMES : 27171NUMBER_OF_BYTES : 8115072_STATISTICS_WRITING_APP : mkvmerge v7.0.0 ('Where We Going') 32bit built on Jun 9 2014 15:08:34_STATISTICS_WRITING_DATE_UTC : 2017-01-08 17:19:44_STATISTICS_TAGS : BPS DURATION NUMBER_OF_FRAMES NUMBER_OF_BYTES
ВидеоИдентификатор : 1Формат : AVCФормат/Информация : Advanced Video CodecПрофиль формата : [email protected]Параметр CABAC формата : ДаПараметр ReFrames формата : 10 кадровИдентификатор кодека : V_MPEG4/ISO/AVCНоминальный битрейт : 2000 Кбит/секШирина : 720 пикселейВысота : 570 пикселейСоотношение сторон : 5:4Соотношение сторон в оригинале : 4:3Частота кадров в оригинале : 25,500 кадров/секЦветовое пространство : YUVСубдискретизация насыщенности : 4:2:0Битовая глубина : 8 битТип развёртки : ПрогрессивнаяБит/(Пиксели*Кадры) : 0.000Библиотека кодирования : x264 core 142 r2431 ac76440Настройки программы : cabac=1 / ref=10 / deblock=1:-1:-1 / analyse=0x3:0x113 / me=umh / subme=10 / psy=1 / psy_rd=1.00:0.00 / mixed_ref=1 / me_range=32 / chroma_me=1 / trellis=2 / 8x8dct=1 / cqm=0 / deadzone=21,11 / fast_pskip=0 / chroma_qp_offset=-2 / threads=6 / lookahead_threads=1 / sliced_threads=0 / nr=0 / decimate=1 / interlaced=0 / bluray_compat=0 / constrained_intra=0 / bframes=10 / b_pyramid=2 / b_adapt=2 / b_bias=0 / direct=3 / weightb=1 / open_gop=0 / weightp=2 / keyint=250 / keyint_min=25 / scenecut=40 / intra_refresh=0 / rc=2pass / mbtree=0 / bitrate=2000 / ratetol=1.0 / qcomp=0.60 / qpmin=0 / qpmax=69 / qpstep=4 / cplxblur=20.0 / qblur=0.5 / ip_ratio=1.40 / pb_ratio=1.30 / aq=1:1.00Язык : EnglishDefault : ДаForced : НетDURATION : 00:09:39.640000000NUMBER_OF_FRAMES : 14492NUMBER_OF_BYTES : 144961727_STATISTICS_WRITING_APP : mkvmerge v7.0.0 ('Where We Going') 32bit built on Jun 9 2014 15:08:34_STATISTICS_WRITING_DATE_UTC : 2017-01-08 17:19:44_STATISTICS_TAGS : BPS DURATION NUMBER_OF_FRAMES NUMBER_OF_BYTES
АудиоИдентификатор : 2Формат : AACФормат/Информация : Advanced Audio CodecПрофиль формата : LCИдентификатор кодека : A_AACПродолжительность : 9 м. 39 с.Каналы : 2 каналаРасположение каналов : Front: L RЧастота : 48,0 КГцМетод сжатия : С потерямиЗадержка видео : 9 мс.Default : ДаForced : Нет

Скриншоты

Omen

Post 10-Jan-2017 01:00

[Quote]

Мук-скороход
Страна: СССР
Жанр: мультфильм, короткометражный
Продолжительность: 00:16:51
Год выпуска: 1975
Русские субтитры: нет
Режиссёр: Натан Лернер
Роли озвучивали: Галина Иванова, Михаил Козаков, Георгий Милляр, Ролан Быков
Описание: По сказке В. Гауфа «Маленький Мук».
Качество: DVDRip
Формат: MKV
Видео: AVC (H.264), [email protected] (4:3), 25 fps, 2000kbps
Аудио: 48 kHz, АAC-LC, 2 ch, ~128 kbps
Субтитры: отсутствуют

Подробные технические данные

ОбщееУникальный идентификатор : 245255390975071938308771984528677742163 (0xB882785BC2444D21A997C5008D7F2653)Полное имя : D:\Мультфильмы\Раздать\Мук-скороход.mkvФормат : MatroskaВерсия формата : Version 4 / Version 2Размер файла : 257 МбайтПродолжительность : 16 м.Общий поток : 2130 Кбит/секДата кодирования : UTC 2017-01-09 10:05:10Программа кодирования : mkvmerge v7.0.0 ('Where We Going') 32bit built on Jun 9 2014 15:08:34Библиотека кодирования : libebml v1.3.0 + libmatroska v1.4.1DURATION : 00:16:51.904000000NUMBER_OF_FRAMES : 47433NUMBER_OF_BYTES : 16190464_STATISTICS_WRITING_APP : mkvmerge v7.0.0 ('Where We Going') 32bit built on Jun 9 2014 15:08:34_STATISTICS_WRITING_DATE_UTC : 2017-01-09 10:05:10_STATISTICS_TAGS : BPS DURATION NUMBER_OF_FRAMES NUMBER_OF_BYTES
ВидеоИдентификатор : 1Формат : AVCФормат/Информация : Advanced Video CodecПрофиль формата : [email protected]Параметр CABAC формата : ДаПараметр ReFrames формата : 10 кадровИдентификатор кодека : V_MPEG4/ISO/AVCНоминальный битрейт : 2000 Кбит/секШирина : 720 пикселейВысота : 576 пикселейСоотношение сторон : 5:4Соотношение сторон в оригинале : 4:3Частота кадров в оригинале : 25,000 кадров/секСтандарт вещания : PALЦветовое пространство : YUVСубдискретизация насыщенности : 4:2:0Битовая глубина : 8 битТип развёртки : ПрогрессивнаяБит/(Пиксели*Кадры) : 0.000Библиотека кодирования : x264 core 142 r2431 ac76440Настройки программы : cabac=1 / ref=10 / deblock=1:-1:-1 / analyse=0x3:0x113 / me=umh / subme=10 / psy=1 / psy_rd=1.00:0.00 / mixed_ref=1 / me_range=32 / chroma_me=1 / trellis=2 / 8x8dct=1 / cqm=0 / deadzone=21,11 / fast_pskip=0 / chroma_qp_offset=-2 / threads=6 / lookahead_threads=1 / sliced_threads=0 / nr=0 / decimate=1 / interlaced=0 / bluray_compat=0 / constrained_intra=0 / bframes=10 / b_pyramid=2 / b_adapt=2 / b_bias=0 / direct=3 / weightb=1 / open_gop=0 / weightp=2 / keyint=250 / keyint_min=25 / scenecut=40 / intra_refresh=0 / rc=2pass / mbtree=0 / bitrate=2000 / ratetol=1.0 / qcomp=0.60 / qpmin=0 / qpmax=69 / qpstep=4 / cplxblur=20.0 / qblur=0.5 / ip_ratio=1.40 / pb_ratio=1.30 / aq=1:1.00Язык : EnglishDefault : ДаForced : НетDURATION : 00:16:51.880000000NUMBER_OF_FRAMES : 25298NUMBER_OF_BYTES : 252988900_STATISTICS_WRITING_APP : mkvmerge v7.0.0 ('Where We Going') 32bit built on Jun 9 2014 15:08:34_STATISTICS_WRITING_DATE_UTC : 2017-01-09 10:05:10_STATISTICS_TAGS : BPS DURATION NUMBER_OF_FRAMES NUMBER_OF_BYTES
АудиоИдентификатор : 2Формат : AACФормат/Информация : Advanced Audio CodecПрофиль формата : LCИдентификатор кодека : A_AACПродолжительность : 16 м.Каналы : 2 каналаРасположение каналов : Front: L RЧастота : 48,0 КГцМетод сжатия : С потерямиЗадержка видео : 9 мс.Default : ДаForced : Нет

Скриншоты

Omen

Post 10-Jan-2017 01:00

[Quote]

Встречайте бабушку
Страна: СССР
Жанр: мультфильм, короткометражный
Продолжительность: 00:10:04
Год выпуска: 1984
Русские субтитры: нет
Режиссёр: Раса Страутмане
Роли озвучивали: Галина Иванова, Раиса Мухаметшина, Татьяна Пельтцер, Артем Карапетян
Описание: Когда из деревни приезжает бабушка, в доме становится уютно и спокойно.
Качество: DVDRip
Формат: MKV
Видео: AVC (H.264), [email protected] (4:3), 25 fps, 2000kbps
Аудио: 48 kHz, АAC-LC, 2 ch, ~128 kbps
Субтитры: отсутствуют

Подробные технические данные

ОбщееУникальный идентификатор : 184941165500024320417757708474832911769 (0x8B225F73A9E4FC7286B7BA4B4F9BFD99)Полное имя : D:\Мультфильмы\Раздать\Встречайте бабушку.mkvФормат : MatroskaВерсия формата : Version 4 / Version 2Размер файла : 153 МбайтПродолжительность : 10 м.Общий поток : 2123 Кбит/секДата кодирования : UTC 2017-01-09 13:20:27Программа кодирования : mkvmerge v7.0.0 ('Where We Going') 32bit built on Jun 9 2014 15:08:34Библиотека кодирования : libebml v1.3.0 + libmatroska v1.4.1DURATION : 00:10:04.203000000NUMBER_OF_FRAMES : 28322NUMBER_OF_BYTES : 9667242_STATISTICS_WRITING_APP : mkvmerge v7.0.0 ('Where We Going') 32bit built on Jun 9 2014 15:08:34_STATISTICS_WRITING_DATE_UTC : 2017-01-09 13:20:27_STATISTICS_TAGS : BPS DURATION NUMBER_OF_FRAMES NUMBER_OF_BYTES
ВидеоИдентификатор : 1Формат : AVCФормат/Информация : Advanced Video CodecПрофиль формата : [email protected]Параметр CABAC формата : ДаПараметр ReFrames формата : 10 кадровИдентификатор кодека : V_MPEG4/ISO/AVCНоминальный битрейт : 2000 Кбит/секШирина : 720 пикселейВысота : 576 пикселейСоотношение сторон : 5:4Соотношение сторон в оригинале : 4:3Частота кадров в оригинале : 25,000 кадров/секСтандарт вещания : PALЦветовое пространство : YUVСубдискретизация насыщенности : 4:2:0Битовая глубина : 8 битТип развёртки : ПрогрессивнаяБит/(Пиксели*Кадры) : 0.000Библиотека кодирования : x264 core 142 r2431 ac76440Настройки программы : cabac=1 / ref=10 / deblock=1:-1:-1 / analyse=0x3:0x113 / me=umh / subme=10 / psy=1 / psy_rd=1.00:0.00 / mixed_ref=1 / me_range=32 / chroma_me=1 / trellis=2 / 8x8dct=1 / cqm=0 / deadzone=21,11 / fast_pskip=0 / chroma_qp_offset=-2 / threads=6 / lookahead_threads=1 / sliced_threads=0 / nr=0 / decimate=1 / interlaced=0 / bluray_compat=0 / constrained_intra=0 / bframes=10 / b_pyramid=2 / b_adapt=2 / b_bias=0 / direct=3 / weightb=1 / open_gop=0 / weightp=2 / keyint=250 / keyint_min=25 / scenecut=40 / intra_refresh=0 / rc=2pass / mbtree=0 / bitrate=2000 / ratetol=1.0 / qcomp=0.60 / qpmin=0 / qpmax=69 / qpstep=4 / cplxblur=20.0 / qblur=0.5 / ip_ratio=1.40 / pb_ratio=1.30 / aq=1:1.00Язык : EnglishDefault : ДаForced : НетDURATION : 00:10:04.160000000NUMBER_OF_FRAMES : 15105NUMBER_OF_BYTES : 150474973_STATISTICS_WRITING_APP : mkvmerge v7.0.0 ('Where We Going') 32bit built on Jun 9 2014 15:08:34_STATISTICS_WRITING_DATE_UTC : 2017-01-09 13:20:27_STATISTICS_TAGS : BPS DURATION NUMBER_OF_FRAMES NUMBER_OF_BYTES
АудиоИдентификатор : 2Формат : AACФормат/Информация : Advanced Audio CodecПрофиль формата : LCИдентификатор кодека : A_AACПродолжительность : 10 м.Каналы : 2 каналаРасположение каналов : Front: L RЧастота : 48,0 КГцМетод сжатия : С потерямиЗадержка видео : 9 мс.Default : ДаForced : Нет

Скриншоты

Omen

Post 09-Jan-2017 01:00

[Quote]

Две недлинных сказки
Страна: Россия
Жанр: мультфильм
Продолжительность: 00:14:57
Год выпуска: 2015
Режиссёр: Елена Касавина
Текст читает: Николай Рушковский
Описание: Две еврейских сказки.
Первая - про двух братьев и пять снопов пшеницы.
Вторая - про юного царя Соломона, пожилую вдову и червя по имени Шамир.
Доп. информация: Диплом в номинации "Анимация" - Кинофестиваль "Отцы и дети" (2016)
Качество: WEBRip-AVC
Формат: MP4
Видео: 1453 kbps, 1280х720 (16:9), 25.000 fps, AVC ([email protected])
Аудио: 126 kbps, 44.1 kHz, 2 channels, AAC (LC)
Субтитры: отсутствуют

Подробные технические данные

GeneralComplete name : Две недлинных сказки (2015).mp4Format : MPEG-4Format profile : Base Media / Version 2Codec ID : mp42File size : 169 MiBDuration : 14mn 57sOverall bit rate mode : VariableOverall bit rate : 1 582 KbpsEncoded date : UTC 2016-04-19 04:04:43Tagged date : UTC 2016-04-19 04:04:43gsst : 0gstd : 897056
VideoID : 1Format : AVCFormat/Info : Advanced Video CodecFormat profile : [email protected] settings, CABAC : YesFormat settings, ReFrames : 3 framesCodec ID : avc1Codec ID/Info : Advanced Video CodingDuration : 14mn 57sBit rate : 1 453 KbpsWidth : 1 280 pixelsHeight : 720 pixelsDisplay aspect ratio : 16:9Frame rate mode : ConstantFrame rate : 25.000 fpsColor space : YUVChroma subsampling : 4:2:0Bit depth : 8 bitsScan type : ProgressiveBits/(Pixel*Frame) : 0.063Stream size : 155 MiB (92%)Title : ISO Media file produced by Google Inc.Encoded date : UTC 2016-04-19 04:04:43Tagged date : UTC 2016-04-19 04:04:43Color primaries : BT.709Transfer characteristics : BT.709Matrix coefficients : BT.709
AudioID : 2Format : AACFormat/Info : Advanced Audio CodecFormat profile : LCCodec ID : 40Duration : 14mn 57sBit rate mode : VariableBit rate : 126 KbpsChannel(s) : 2 channelsChannel positions : Front: L RSampling rate : 44.1 KHzCompression mode : LossyStream size : 13.4 MiB (8%)Title : ISO Media file produced by Google Inc.Encoded date : UTC 2016-04-19 04:04:43Tagged date : UTC 2016-04-19 04:04:43

Скриншоты

 

The time now is: Today 02:05

All times are GMT + 3 Hours