Today is a free download without charge Download

Search found 500 matches

Author Message

SIRUS

Post 08-Jul-2020 19:29

[Quote]

ВАЛЛ·И / WALL·E --Информация о фильме
Название: ВАЛЛ·И
Оригинальное название: WALL·E
Год выхода: 2008
Жанр: Мультфильм, фантастика, приключения, семейный
Режиссер: Эндрю Стэнтон
В ролях: Бен Бертт, Элисса Найт, Джефф Гарлин, Фред Уиллард, MacInTalk, Джон Ратценбергер, Кэти Нэджими, Сигурни Уивер, Лори Алан, Боб Берген
О фильме :
Робот ВАЛЛ·И из года в год прилежно трудится на опустевшей Земле, очищая нашу планету от гор мусора, которые оставили после себя улетевшие в космос люди. Он и не представляет, что совсем скоро произойдут невероятные события, благодаря которым он встретит друзей, поднимется к звездам и даже сумеет изменить к лучшему своих бывших хозяев, совсем позабывших родную Землю.
Страна: США
Студия: Pixar Animation Studios, Walt Disney Pictures
Продолжительность: 01:38:11
Перевод: Дублированный | Лицензия
Файл
Формат: MKV
Качество: HDRip-AVC
Видео: MPEG-4 AVC, 784x328, - 985 Кбит/с
Аудио: AAC-HE, 2 ch, - 76 Кбит/с
Субтитры: Русские (полные + форс.), английские (Full)

MI

Общее
Уникальный идентификатор : 238262890857366446821556020556070004728 (0xB33FC37C32738E02BA1883C0F8D227F8)
Полное имя : D:MOVIESValli.2008.ExKinoRay.mkv
Формат : Matroska
Версия формата : Version 4 / Version 2
Размер файла : 747 Мбайт
Продолжительность : 1 ч. 38 м.
Общий поток : 1058 Кбит/сек
Дата кодирования : UTC 2018-11-22 04:29:59
Программа кодирования : mkvmerge v15.0.0 ('Duel with the Devil') 64-bit
Библиотека кодирования : libebml v1.3.5 + libmatroska v1.4.5
Видео
Идентификатор : 1
Формат : AVC
Формат/Информация : Advanced Video Codec
Профиль формата : [email protected]
Параметр CABAC формата : Да
Параметр RefFrames формата : 12 кадров
Идентификатор кодека : V_MPEG4/ISO/AVC
Продолжительность : 1 ч. 38 м.
Битрейт : 985 Кбит/сек
Ширина : 784 пикселя
Высота : 328 пикселей
Соотношение сторон : 2,40:1
Режим частоты кадров : Постоянный
Частота кадров : 23,976 (24000/1001) кадра/сек
Цветовое пространство : YUV
Субдискретизация насыщенности : 4:2:0
Битовая глубина : 8 бит
Тип развёртки : Прогрессивная
Бит/(Пиксели*Кадры) : 0.160
Размер потока : 692 Мбайт (93%)
Библиотека кодирования : x264 core 152 r2851kMod ba24899
Настройки программы : cabac=1 / ref=12 / deblock=1:-3:-3 / analyse=0x3:0x133 / me=umh / subme=10 / psy=1 / fade_compensate=0.00 / psy_rd=1.00:0.13 / mixed_ref=1 / me_range=32 / chroma_me=1 / trellis=2 / 8x8dct=1 / cqm=0 / deadzone=21,11 / fast_pskip=0 / chroma_qp_offset=-3 / threads=6 / lookahead_threads=1 / sliced_threads=0 / nr=0 / decimate=0 / interlaced=0 / bluray_compat=0 / constrained_intra=0 / bframes=11 / b_pyramid=2 / b_adapt=2 / b_bias=0 / direct=3 / weightb=1 / open_gop=0 / weightp=2 / keyint=240 / keyint_min=23 / scenecut=40 / intra_refresh=0 / rc_lookahead=40 / rc=2pass / mbtree=1 / bitrate=985 / ratetol=1.0 / qcomp=0.60 / qpmin=0 / qpmax=69 / qpstep=4 / cplxblur=20.0 / qblur=0.5 / ip_ratio=1.40 / aq=3:1.00
Default : Да
Forced : Нет
Аудио
Идентификатор : 2
Формат : AAC
Формат/Информация : Advanced Audio Codec
Профиль формата : HE-AAC / LC
Идентификатор кодека : A_AAC
Продолжительность : 1 ч. 38 м.
Битрейт : 76,0 Кбит/сек
Каналы : 2 канала
Расположение каналов : Front: L R
Частота : 48,0 КГц / 24,0 КГц
Частота кадров : 23,438 кадра/сек (1024 SPF)
Метод сжатия : С потерями
Задержка видео : 31 мс.
Размер потока : 53,7 Мбайт (7%)
Язык : Russian
Default : Да
Forced : Нет
Текст #1
Идентификатор : 3
Формат : UTF-8
Идентификатор кодека : S_TEXT/UTF8
Идентификатор кодека/Информация : UTF-8 Plain Text
Продолжительность : 1 ч. 23 м.
Битрейт : 1 бит/сек
ElementCount : 18
Размер потока : 889 байт (0%)
Заголовок : Forced
Язык : Russian
Default : Да
Forced : Нет
Текст #2
Идентификатор : 4
Формат : UTF-8
Идентификатор кодека : S_TEXT/UTF8
Идентификатор кодека/Информация : UTF-8 Plain Text
Продолжительность : 1 ч. 26 м.
Битрейт : 35 бит/сек
ElementCount : 507
Размер потока : 22,6 Кбайт (0%)
Заголовок : Blu-ray
Язык : Russian
Default : Нет
Forced : Нет
Текст #3
Идентификатор : 5
Формат : UTF-8
Идентификатор кодека : S_TEXT/UTF8
Идентификатор кодека/Информация : UTF-8 Plain Text
Продолжительность : 1 ч. 25 м.
Битрейт : 21 бит/сек
ElementCount : 484
Размер потока : 13,3 Кбайт (0%)
Заголовок : Full
Язык : English
Default : Нет
Forced : Нет
Меню
00:00:00.000 : en:(01)00:00:00:000
00:03:36.299 : en:(02)00:03:36:299
00:05:49.682 : en:(03)00:05:49:682
00:09:18.766 : en:(04)00:09:18:766
00:12:03.430 : en:(05)00:12:03:430
00:17:56.450 : en:(06)00:17:56:450
00:19:33.380 : en:(07)00:19:33:380
00:21:10.143 : en:(08)00:21:10:143
00:23:46.800 : en:(09)00:23:46:800
00:29:18.006 : en:(10)00:29:18:006
00:31:25.091 : en:(11)00:31:25:091
00:33:27.755 : en:(12)00:33:27:755
00:35:20.117 : en:(13)00:35:20:117
00:38:49.535 : en:(14)00:38:49:535
00:42:53.529 : en:(15)00:42:53:529
00:43:31.650 : en:(16)00:43:31:650
00:51:08.940 : en:(17)00:51:08:940
00:52:07.582 : en:(18)00:52:07:582
00:54:47.450 : en:(19)00:54:47:450
00:56:05.778 : en:(20)00:56:05:778
00:57:58.016 : en:(21)00:57:58:016
00:58:41.184 : en:(22)00:58:41:184
01:02:14.897 : en:(23)01:02:14:897
01:03:21.047 : en:(24)01:03:21:047
01:05:49.695 : en:(25)01:05:49:695
01:11:44.883 : en:(26)01:11:44:883
01:15:54.215 : en:(27)01:15:54:215
01:19:22.799 : en:(28)01:19:22:799
01:20:14.684 : en:(29)01:20:14:684
01:24:14.090 : en:(30)01:24:14:090
01:25:45.765 : en:(31)01:25:45:765
01:30:17.494 : en:(32)01:30:17:494
01:38:11.676 : en:(33)01:38:11:676

Скриншоты

     

Kon912

Post 27-Jun-2020 21:28

[Quote]

Королевские каникулы / Trouble- Год выхода: 2019
Страна: Канада, США, Каймановы острова
Студия: 3QU Media, Cinesite Animation, Vanguard Animation
Жанр: Мультфильм, комедия, семейный
Продолжительность: 01:27:40
Перевод: Дублированный | iTunes-Режиссер:
Кевин Джонсон-В ролях:
Биг Шон, Памела Адлон, Люси Хейл, Марисса Джэрет Винокур, Джоэл МакХэйл, Уилмер Вальдеррама, Сет Роллинз, Ди Брэдли Бэйкер, Кевин Чэмберлин, Лудо Лефевр-О фильме:
Наследник миллионного состояния и кучки неблагодарных родственников, его псиятельство Принц вышел из зоны комфорта и оказался на улице. Теперь он мечтает вернуться домой. Для этого ему нужно найти новых друзей, избавиться от назойливых белок и сбросить с хвоста матерого охотника. Королевские каникулы начинаются.- -Качество: BDRemux 1080p
Формат: MKV
Видео: MPEG-4 AVC, 1920x1080, 22.6 Mbit/s, 24.000 fps
Аудио #01: 48 kHz, AC3, 5.1, 384 Kbps | iTunes | RUS |
Аудио #02: 48 kHz, DTS-HD MA, 5.1, 1978 Kbps | Оригинал | ENG |
Субтитры: Нет-

Скриншоты

     

MI

General
Unique ID : 330190060718373357891708715806782854820 (0xF8684AE317A979B1DAADB57DC92B16A4)
Complete name : E:Video111Trouble.2019.BDREMUX.1080p.seleZen.mkv
Format : Matroska
Format version : Version 4
File size : 15.3 GiB
Duration : 1 h 27 min
Overall bit rate mode : Variable
Overall bit rate : 25.0 Mb/s
Movie name : Trouble 2019 from селезень
Encoded date : UTC 2020-04-10 15:00:27
Writing application : mkvmerge v40.0.0 ('Old Town Road + Pony') 64-bit
Writing library : libebml v1.3.9 + libmatroska v1.5.2
Video
ID : 1
Format : AVC
Format/Info : Advanced Video Codec
Format profile : [email protected]
Format settings : CABAC / 4 Ref Frames
Format settings, CABAC : Yes
Format settings, Reference : 4 frames
Codec ID : V_MPEG4/ISO/AVC
Duration : 1 h 27 min
Bit rate mode : Variable
Bit rate : 22.6 Mb/s
Maximum bit rate : 30.0 Mb/s
Width : 1 920 pixels
Height : 1 080 pixels
Display aspect ratio : 16:9
Frame rate mode : Constant
Frame rate : 24.000 FPS
Standard : NTSC
Color space : YUV
Chroma subsampling : 4:2:0
Bit depth : 8 bits
Scan type : Progressive
Bits/(Pixel*Frame) : 0.454
Stream size : 13.8 GiB (91%)
Language : English
Default : Yes
Forced : No
Color range : Limited
Color primaries : BT.709
Transfer characteristics : BT.709
Matrix coefficients : BT.709
Audio #1
ID : 2
Format : AC-3
Format/Info : Audio Coding 3
Commercial name : Dolby Digital
Codec ID : A_AC3
Duration : 1 h 27 min
Bit rate mode : Constant
Bit rate : 384 kb/s
Channel(s) : 6 channels
Channel layout : L R C LFE Ls Rs
Sampling rate : 48.0 kHz
Frame rate : 31.250 FPS (1536 SPF)
Compression mode : Lossy
Stream size : 240 MiB (2%)
Title : iTunes
Language : Russian
Service kind : Complete Main
Default : Yes
Forced : Yes
Audio #2
ID : 3
Format : DTS XLL
Format/Info : Digital Theater Systems
Commercial name : DTS-HD Master Audio
Codec ID : A_DTS
Duration : 1 h 27 min
Bit rate mode : Variable
Bit rate : 1 978 kb/s
Channel(s) : 6 channels
Channel layout : C L R Ls Rs LFE
Sampling rate : 48.0 kHz
Frame rate : 93.750 FPS (512 SPF)
Bit depth : 16 bits
Compression mode : Lossless
Stream size : 1.21 GiB (8%)
Title : Original
Language : English
Default : No
Forced : No
Menu
00:00:00.000 : en:Chapter 01
00:12:11.250 : en:Chapter 02
00:23:03.292 : en:Chapter 03
00:30:35.542 : en:Chapter 04
00:43:59.792 : en:Chapter 05
00:54:18.958 : en:Chapter 06
01:06:18.000 : en:Chapter 07
01:18:34.583 : en:Chapter 08
Релиз от:

kilmister777

Post 02-Jun-2020 13:35

[Quote]

Остров собак / Isle of Dogs- Год выпуска: 2018
Страна: США, Германия
Жанр: Мультфильм, фантастика, фэнтези, драма, комедия, приключения, полнометражный
Продолжительность: 01:41:10
Перевод: Профессиональный(дублированный) Лицензия BD EUR
Субтитры: Русские форсированные (стилизованные, анимированные, вшиты в видео)- -Режиссер: Уэс Андерсон-В ролях: Брайан Крэнстон, Кою Ранкин, Эдвард Нортон, Боб Бэлабан, Билл Мюррей, Джефф Голдблюм, Кунъити Номура, Акира Такаяма, Грета Гервиг, Фрэнсис МакДорманд-Описание: История 12-летнего мальчика Атари Кобаяши, опекаемого коррумпированным мэром Кобаяши. Когда по Указу последнего все домашние собаки города Мегасаки изгоняются на громадную свалку, Атари в одиночку отправляется на миниатюрном летательном аппарате на мусорный остров, чтобы найти своего верного пса по прозвищу Спотс. Там на острове вместе со стаей новых друзей-дворняг он начнет эпичное путешествие, которое решит будущую судьбу всей Префектуры.-Качество: BDRip
Формат: AVI
Видео кодек: XviD
Аудио кодек: AC3
Видео: 720x304 (2.37:1), 24.000 fps, XviD build 73 ~1606 kbps avg, 0.30 bit/pixel
Аудио: 48 kHz, AC3 Dolby Digital, 3/2 (L,C,R,l,r) + LFE ch, ~448 kbps-

Скриншоты

       

RazBoyNik

Post 17-Feb-2020 10:28

[Quote]

Семейка Аддамс / The Addams Family (2019) BDRip [H.264/1080p] - Год: 2019
Производство: Канада, США / Metro-Goldwyn-Mayer (MGM), Cinesite Animation
Жанр: Мультфильм, ужасы, фэнтези, комедия, семейный
Режиссер: Грег Тирнан, Конрад Вернон
Актеры: Оскар Айзек, Шарлиз Терон, Хлоя Грейс Морец, Финн Вулфард, Ник Кролл, Снуп Догг, Бетт Мидлер, Эллисон Джэнни, Мартин Шорт, Кэтрин О`Хара
Описание:
Папа любит долгие прогулки в ненастную погоду. Мама считает, что черный цвет самый яркий. У детей кладбище - любимая площадка для игр. Бабушка выпивает пару капель яда перед сном. Вы все еще думаете, что ваши родственники странные? Знакомьтесь - семейка Аддамс.

Возраст: 12+ (зрителям, достигшим 12 лет)
Рейтинг MPAA: PG (рекомендуется присутствие родителей)
Дата российской премьеры: 31 октября 2019
Продолжительность: 01:27:01
Качество видео: BDRip 1080p
Перевод: Дублированный (iTunes)
Субтитры: Русские, английские
Видео: AVC/H.264, 1920x1036, ~11.7 mbps
Аудио 1: AC3, 6 ch, 384 Kbps | Русский (DUB iTunes)
Аудио 2: DTS, 6 ch, 1509 Kbps | Английский

MediaInfo:

Общее
Уникальный идентификатор : 254422993868192391776507970757737262079 (0xBF68161407CA9631B89E253A88B72BFF)
Полное имя : D:\MULT\The.Addams.Family.2019.1080p.BluRay.mkv
Формат : Matroska
Версия формата : Version 4
Размер файла : 8,25 Гбайт
Продолжительность : 1 ч. 27 м.
Общий поток : 13,6 Мбит/сек
Название фильма : The Addams Family (2019)
Дата кодирования : UTC 2020-02-17 04:17:17
Программа кодирования : mkvmerge v8.2.0 ('World of Adventure') 64bit
Библиотека кодирования : libebml v1.3.1 + libmatroska v1.4.2
Видео
Идентификатор : 1
Формат : AVC
Формат/Информация : Advanced Video Codec
Профиль формата : [url=mailto:[email protected]][email protected][/url]
Настройки формата : CABAC / 4 Ref Frames
Параметр CABAC формата : Да
Параметр RefFrames формата : 4 кадра
Идентификатор кодека : V_MPEG4/ISO/AVC
Продолжительность : 1 ч. 27 м.
Битрейт : 11,7 Мбит/сек
Ширина : 1920 пикселей
Высота : 1036 пикселей
Соотношение сторон : 1,85:1
Режим частоты кадров : Постоянный
Частота кадров : 23,976 (24000/1001) кадра/сек
Цветовое пространство : YUV
Субдискретизация насыщенности : 4:2:0
Битовая глубина : 8 бит
Тип развёртки : Прогрессивная
Бит/(Пиксели*Кадры) : 0.245
Размер потока : 7,10 Гбайт (86%)
Заголовок : potroks
Библиотека кодирования : x264 core 157 r2958 57baac4
Настройки программы : cabac=1 / ref=4 / deblock=1:-1:-1 / analyse=0x3:0x113 / me=umh / subme=11 / psy=1 / psy_rd=1.00:0.00 / mixed_ref=1 / me_range=48 / chroma_me=1 / trellis=2 / 8x8dct=1 / cqm=0 / deadzone=21,11 / fast_pskip=0 / chroma_qp_offset=-2 / threads=9 / lookahead_threads=2 / sliced_threads=0 / nr=0 / decimate=0 / interlaced=0 / bluray_compat=0 / constrained_intra=0 / bframes=10 / b_pyramid=2 / b_adapt=2 / b_bias=0 / direct=3 / weightb=1 / open_gop=0 / weightp=2 / keyint=240 / keyint_min=23 / scenecut=40 / intra_refresh=0 / rc_lookahead=100 / rc=2pass / mbtree=0 / bitrate=11676 / ratetol=1.0 / qcomp=0.70 / qpmin=0 / qpmax=69 / qpstep=4 / cplxblur=20.0 / qblur=0.5 / vbv_maxrate=50000 / vbv_bufsize=62500 / nal_hrd=none / filler=0 / ip_ratio=1.40 / pb_ratio=1.30 / aq=1:0.70
Язык : Russian
Default : Да
Forced : Нет
Аудио #1
Идентификатор : 2
Формат : AC-3
Формат/Информация : Audio Coding 3
Коммерческое название : Dolby Digital
Идентификатор кодека : A_AC3
Продолжительность : 1 ч. 27 м.
Вид битрейта : Постоянный
Битрейт : 384 Кбит/сек
Каналы : 6 каналов
ChannelLayout : L R C LFE Ls Rs
Частота : 48,0 КГц
Частота кадров : 31,250 кадров/сек (1536 SPF)
Метод сжатия : С потерями
Размер потока : 239 Мбайт (3%)
Заголовок : Dub | DD 5.1 @ 384 kbps - iTunes
Язык : Russian
ServiceKind/String : Complete Main
Default : Да
Forced : Да
Аудио #2
Идентификатор : 3
Формат : DTS
Формат/Информация : Digital Theater Systems
Идентификатор кодека : A_DTS
Продолжительность : 1 ч. 27 м.
Вид битрейта : Постоянный
Битрейт : 1509 Кбит/сек
Каналы : 6 каналов
ChannelLayout : C L R Ls Rs LFE
Частота : 48,0 КГц
Частота кадров : 93,750 кадра/сек (512 SPF)
Битовая глубина : 16 бит
Метод сжатия : С потерями
Размер потока : 939 Мбайт (11%)
Заголовок : Original | DTS 5.1 @ 1509 kbps
Язык : English
Default : Нет
Forced : Нет
Текст #1
Идентификатор : 4
Формат : UTF-8
Идентификатор кодека : S_TEXT/UTF8
Идентификатор кодека/Информация : UTF-8 Plain Text
Продолжительность : 1 ч. 19 м.
Битрейт : 1 бит/сек
ElementCount : 39
Размер потока : 1,16 Кбайт (0%)
Заголовок : Forced
Язык : Russian
Default : Да
Forced : Да
Текст #2
Идентификатор : 5
Формат : UTF-8
Идентификатор кодека : S_TEXT/UTF8
Идентификатор кодека/Информация : UTF-8 Plain Text
Продолжительность : 53 м. 24 с.
Битрейт : 7 бит/сек
ElementCount : 56
Размер потока : 2,81 Кбайт (0%)
Заголовок : Songs
Язык : Russian
Default : Нет
Forced : Нет
Текст #3
Идентификатор : 6
Формат : UTF-8
Идентификатор кодека : S_TEXT/UTF8
Идентификатор кодека/Информация : UTF-8 Plain Text
Продолжительность : 1 ч. 19 м.
Битрейт : 105 бит/сек
ElementCount : 1221
Размер потока : 61,5 Кбайт (0%)
Заголовок : iTunes
Язык : Russian
Default : Нет
Forced : Нет
Текст #4
Идентификатор : 7
Формат : UTF-8
Идентификатор кодека : S_TEXT/UTF8
Идентификатор кодека/Информация : UTF-8 Plain Text
Продолжительность : 1 ч. 25 м.
Битрейт : 69 бит/сек
ElementCount : 1436
Размер потока : 43,3 Кбайт (0%)
Заголовок : Full
Язык : English
Default : Нет
Forced : Нет
Текст #5
Идентификатор : 8
Формат : UTF-8
Идентификатор кодека : S_TEXT/UTF8
Идентификатор кодека/Информация : UTF-8 Plain Text
Продолжительность : 1 ч. 25 м.
Битрейт : 84 бит/сек
ElementCount : 1746
Размер потока : 52,9 Кбайт (0%)
Заголовок : SDH
Язык : English
Default : Нет
Forced : Нет
Меню
00:00:00.000 : en:Chapter 01
00:05:08.557 : en:Chapter 02
00:10:35.465 : en:Chapter 03
00:15:46.946 : en:Chapter 04
00:19:35.257 : en:Chapter 05
00:25:14.804 : en:Chapter 06
00:29:25.761 : en:Chapter 07
00:34:20.556 : en:Chapter 08
00:39:46.967 : en:Chapter 09
00:45:01.739 : en:Chapter 10
00:49:07.610 : en:Chapter 11
00:53:40.925 : en:Chapter 12
00:56:36.559 : en:Chapter 13
01:00:01.014 : en:Chapter 14
01:03:45.947 : en:Chapter 15
01:06:02.458 : en:Chapter 16
01:10:54.582 : en:Chapter 17
01:18:09.475 : en:Chapter 18
01:20:21.314 : en:Chapter 19
01:21:11.323 : en:Chapter 20
Скриншоты:
       

RazBoyNik

Post 15-Feb-2020 13:51

[Quote]

Холодное сердце 2 / Frozen II (2019) HDRip- Год: 2019
Производство: США, Walt Disney
Жанр: мультфильм, мюзикл, фэнтези, комедия, приключения, семейный
Режиссер: Крис Бак, Дженнифер Ли
Описание:
Анна, Эльза, Кристоф, его верный олень Свен и никогда не унывающий снеговик Олаф должны будут покинуть уютное королевство Эренделл и отправиться ещё дальше на север, в путешествие, которое приведет их к истокам древних легенд и поможет раскрыть тайны, касающиеся прошлого их родной страны.

Возраст: 6+ (зрителям, достигшим 6 лет)
Рейтинг MPAA: PG (рекомендуется присутствие родителей)
Дата мировой премьеры: 7 ноября 2019
Дата российской премьеры: 28 ноября 2019
Продолжительность: 01:43:14
Качество видео: HDRip
Перевод: Дублированный (iTunes)
Субтитры: русские, английские - (отдельными файлами)
Видео: XviD, 720x304, 2169 Kbps
Аудио #1: AC-3, 6 ch, 384 Kbps - русский (DUB iTunes)
Аудио #2: AC-3, 6 ch, 448 Kbps - английский

MediaInfo:

Общее
Полное имя : G:\Холодное сердце 2_2019_HDRip\Холодное сердце 2_2019_HDRip.avi
Формат : AVI
Формат/Информация : Audio Video Interleave
Профиль формата : OpenDML
Размер файла : 2,18 Гбайт
Продолжительность : 1 ч. 43 м.
Общий поток : 3019 Кбит/сек
Название фильма : Холодное сердце 2_2019_HDRip
Программа кодирования : VirtualDubMod 1.5.10.3 | www.virtualdub-fr.org || (build 2550/release)
Авторское право : порошков
Видео
Идентификатор : 0
Формат : MPEG-4 Visual
Профиль формата : Advanced [email protected]
Параметр BVOP формата : 1
Параметр QPel формата : Нет
Параметр GMC формата : Без точки перехода
Параметр матрицы формата : Выборочная
Идентификатор кодека : XVID
Идентификатор кодека/Подсказка : XviD
Продолжительность : 1 ч. 43 м.
Битрейт : 2169 Кбит/сек
Ширина : 720 пикселей
Высота : 304 пикселя
Соотношение сторон : 2,35:1
Частота кадров : 23,976 (24000/1001) кадра/сек
Цветовое пространство : YUV
Субдискретизация насыщенности : 4:2:0
Битовая глубина : 8 бит
Тип развёртки : Прогрессивная
Метод сжатия : С потерями
Бит/(Пиксели*Кадры) : 0.413
Размер потока : 1,56 Гбайт (72%)
Библиотека кодирования : XviD 73
Аудио #1
Идентификатор : 1
Формат : AC-3
Формат/Информация : Audio Coding 3
Расширение режима : CM (complete main)
Параметр Endianness формата : Big
Идентификатор кодека : 2000
Продолжительность : 1 ч. 43 м.
Вид битрейта : Постоянный
Битрейт : 384 Кбит/сек
Каналы : 6 каналов
Расположение каналов : Front: L C R, Side: L R, LFE
Частота : 48,0 КГц
Частота кадров : 31,250 кадров/сек (1536 spf)
Битовая глубина : 16 бит
Метод сжатия : С потерями
Размер потока : 283 Мбайт (13%)
Выравнивание : Разделение по промежуткам
Продолжительность промежутка : 42 мс. (1,00 видеокадр)
Время предзагрузки промежутка : 500 мс.
Заголовок : rus
Аудио #2
Идентификатор : 2
Формат : AC-3
Формат/Информация : Audio Coding 3
Расширение режима : CM (complete main)
Параметр Endianness формата : Big
Идентификатор кодека : 2000
Продолжительность : 1 ч. 43 м.
Вид битрейта : Постоянный
Битрейт : 448 Кбит/сек
Каналы : 6 каналов
Расположение каналов : Front: L C R, Side: L R, LFE
Частота : 48,0 КГц
Частота кадров : 31,250 кадров/сек (1536 spf)
Битовая глубина : 16 бит
Метод сжатия : С потерями
Размер потока : 331 Мбайт (15%)
Выравнивание : Разделение по промежуткам
Продолжительность промежутка : 42 мс. (1,00 видеокадр)
Время предзагрузки промежутка : 500 мс.
Заголовок : eng
Текст1 en
Формат : SubRip
Метод сжатия : Без потерь
Текст2 en
Формат : SubRip
Метод сжатия : Без потерь
Текст3 ru
Формат : SubRip
Метод сжатия : Без потерь
Текст4 ru
Формат : SubRip
Метод сжатия : Без потерь
Скриншоты:
       

mayor

Post 13-Jan-2020 18:40

[Quote]

- Похождения бравого солдата Швейка - Производство: Россия, Украина / Арт Продакшн, Ялта-фильм
Жанр: Мультфильм, комедия, рисованная анимация, для взрослых
Режиссер: Ринат Газизов
Актеры: Юрий Стоянов, Юрий Деркач, Гоша Куценко, Владислав Копп, Павел Сметанкин, Денис Некрасов, Александр Новиков, Данил Щебланов, Михаил Тихонов, Андрей Казанцев
Описание:
Йозефа Швейка, чешского торговца собаками, которого уже дисквалифицировали из армии как форменного идиота, снова призывают на службу в качестве пушечного мяса во время Первой мировой войны. Ему докучали бюрократы, полицейские, доктора и духовенство, его «продавали» от одного офицера другому, но добродушный, болтливый и бесхитростный солдат Швейк все же неохотно приближается к линии фронта и, очевидно, к верной смерти.

Возраст: 16+ (зрителям, достигшим 16 лет)
Продолжительность: 01:10:22
Качество видео: WEBRip
Субтитры: Отсутствуют
Видео: AVC/H.264, 1920x1038 (1.85:1), ~5120 Kbps
Аудио: AC3, 2 ch, 192 Kbps

Доп.Информация:

Общее
Уникальный идентификатор : 291050566326690015225263179135643022490 (0xDAF64CD37B210E837F20039E988FF49A)
Полное имя : F:\Похождение бравого солдата Швейка (2009).mkv
Формат : Matroska
Версия формата : Version 4
Размер файла : 2,61 Гбайт
Продолжительность : 1 ч. 10 м.
Общий поток : 5306 Кбит/сек
Программа кодирования : Lavf58.20.100
Библиотека кодирования : Lavf58.20.100
ErrorDetectionType : Per level 1
Видео
Идентификатор : 1
Формат : AVC
Формат/Информация : Advanced Video Codec
Профиль формата : [email protected]
Настройки формата : CABAC / 4 Ref Frames
Параметр CABAC формата : Да
Параметр RefFrames формата : 4 кадра
Идентификатор кодека : V_MPEG4/ISO/AVC
Продолжительность : 1 ч. 10 м.
Битрейт : 5120 Кбит/сек
Ширина : 1920 пикселей
Высота : 1038 пикселей
Соотношение сторон : 1,85:1
Режим частоты кадров : Постоянный
Частота кадров : 25,000 кадров/сек
Цветовое пространство : YUV
Субдискретизация насыщенности : 4:2:0
Битовая глубина : 8 бит
Тип развёртки : Прогрессивная
Бит/(Пиксели*Кадры) : 0.103
Размер потока : 2,46 Гбайт (94%)
Библиотека кодирования : x264 core 142
Настройки программы : cabac=1 / ref=3 / deblock=1:0:0 / analyse=0x3:0x113 / me=hex / subme=7 / psy=1 / psy_rd=1.00:0.00 / mixed_ref=1 / me_range=16 / chroma_me=1 / trellis=1 / 8x8dct=1 / cqm=0 / deadzone=21,11 / fast_pskip=1 / chroma_qp_offset=-2 / threads=108 / lookahead_threads=8 / sliced_threads=0 / nr=0 / decimate=1 / interlaced=0 / bluray_compat=0 / constrained_intra=0 / bframes=6 / b_pyramid=2 / b_adapt=1 / b_bias=0 / direct=1 / weightb=1 / open_gop=0 / weightp=2 / keyint=50 / keyint_min=26 / scenecut=0 / intra_refresh=0 / rc_lookahead=40 / rc=2pass / mbtree=1 / bitrate=5120 / ratetol=1.0 / qcomp=0.60 / qpmin=0 / qpmax=69 / qpstep=4 / cplxblur=20.0 / qblur=0.5 / vbv_maxrate=7680 / vbv_bufsize=20480 / nal_hrd=none / filler=0 / ip_ratio=1.40 / aq=1:1.00
Default : Да
Forced : Нет
Аудио
Идентификатор : 2
Формат : AC-3
Формат/Информация : Audio Coding 3
Коммерческое название : Dolby Digital
Идентификатор кодека : A_AC3
Продолжительность : 1 ч. 10 м.
Вид битрейта : Постоянный
Битрейт : 192 Кбит/сек
Каналы : 2 канала
ChannelLayout : L R
Частота : 48,0 КГц
Частота кадров : 31,250 кадров/сек (1536 SPF)
Метод сжатия : С потерями
Задержка видео : -80 мс.
Размер потока : 96,6 Мбайт (4%)
ServiceKind/String : Complete Main
Default : Да
Forced : Нет
Скриншоты:
       

mayor

Post 04-Jan-2020 20:30

[Quote]

Холодное сердце 2 | Frozen II- Год выхода: 2019
Страна: США
Жанр: мультфильм, мюзикл, фэнтези, комедия, приключения, семейный
Продолжительность: 01:43:13
Перевод Отсутствует
Субтитры: Русские (Full), английские (Full) | внешние-Режиссер: Крис Бак, Дженнифер Ли-В ролях: Идина Мензел, Кристен Белл, Джонатан Грофф, Джош Гад, Стерлинг К. Браун, Эван Рэйчел Вуд, Альфред Молина, Марта Плимптон, Джейсон Риттер, Рэйчел Мэттьюз-О фильме: Анна, Эльза, Кристоф, его верный олень Свен и никогда не унывающий снеговик Олаф должны будут покинуть уютное королевство Эренделл и отправиться ещё дальше на север, в путешествие, которое приведет их к истокам древних легенд и поможет раскрыть тайны, касающиеся прошлого их родной страны.- -Качество: DVDScr
Формат: AVI
Видео кодек: XviD
Аудио кодек: AC3
Видео: MPEG4, XviD, 720x304 (2.35:1), 23.976 fps, 2 004 kb/s
Аудио: AC-3, 48.0 kHz, 2 ch, 256 kb/s | ENG-Рекламы нет | Сэмпл-

Трейлер

-          - -

Орлов Владимир

Post 16-Dec-2019 16:13

[Quote]

--Королевские каникулы / Trouble--
Информация
Название: Королевские каникулы
Оригинальное название: Trouble
Год выхода: 2019
Жанр: Мультфильм, комедия, семейный
Режиссер: Кевин Джонсон--В ролях: Биг Шон, Памела Адлон, Люси Хейл, Марисса Джэрет Винокур, Джоэл МакХэйл, Уилмер Вальдеррама, Сет Роллинз, Ди Брэдли Бейкер, Кевин Чэмберлин, Лудо Лефевр--Описание:
Наследник миллионного состояния и кучки неблагодарных родственников, его псиятельство Принц вышел из зоны комфорта и оказался на улице. Теперь он мечтает вернуться домой. Для этого ему нужно найти новых друзей, избавиться от назойливых белок и сбросить с хвоста матерого охотника. Королевские каникулы начинаются.-- --Страна: Канада, США, Каймановы острова
Студия: 3QU Media, Cinesite Animation, Storyoscopic Films, Vanguard Animation, WV Enterprises
Продолжительность: 01:27:26
Перевод: Дублированный iTunes--Файл
Формат: AVI
Качество: WEB-DLRip
Видео: 720x400 (1.80:1), 24.000 fps, XviD build 73 ~1057 kbps avg, 0.15 bit/pixel
Звук: 48 kHz, MPEG Layer 3, 2 ch, ~128.00 kbps avg
Субтитры: Нет--

Тех.данные видеофайла

Общее
Полное имя: C:\Trouble.2019.WEB-DLRip.740.mb.avi
Формат: AVI
Формат/Информация: Audio Video Interleave
Размер файла: 747 Мбайт
Продолжительность: 1 ч. 27 м.
Общий поток: 1194 Кбит/сек
Программа кодирования: VirtualDubMod 1.5.10.3 | (build 2550/release)
Библиотека кодирования: VirtualDubMod build 2550/release
Видео
Идентификатор: 0
Формат: MPEG-4 Visual
Профиль формата: Advanced [email protected]
Параметр BVOP формата: 1
Параметр QPel формата: Нет
Параметр GMC формата: Без точки перехода
Параметр матрицы формата: Выборочная
Идентификатор кодека: XVID
Идентификатор кодека/Подсказка: XviD
Продолжительность: 1 ч. 27 м.
Битрейт: 1057 Кбит/сек
Ширина: 720 пикселей
Высота: 400 пикселей
Соотношение сторон: 16:9
Частота кадров: 24,000 кадра/сек
Цветовое пространство: YUV
Субдискретизация насыщенности: 4:2:0
Битовая глубина: 8 бит
Тип развёртки: Прогрессивная
Метод сжатия: С потерями
Бит/(Пиксели*Кадры): 0.153
Размер потока: 661 Мбайт (89%)
Библиотека кодирования: XviD 73
Аудио
Идентификатор: 1
Формат: MPEG Audio
Версия формата: Version 1
Профиль формата: Layer 3
Идентификатор кодека: 55
Идентификатор кодека/Подсказка: MP3
Продолжительность: 1 ч. 27 м.
Вид битрейта: Постоянный
Битрейт: 128 Кбит/сек
Каналы: 2 канала
Частота: 48,0 КГц
Метод сжатия: С потерями
Размер потока: 80,1 Мбайт (11%)
Выравнивание: Соединение по промежуткам
Продолжительность промежутка: 42 мс. (1,00 видеокадр)
Время предзагрузки промежутка: 504 мс.
Библиотека кодирования: LAME3.99r
Настройки программы: -m s -V 4 -q 2 -lowpass 17 -b 128

Скриншоты

               

Орлов Владимир

Post 16-Dec-2019 07:38

[Quote]

--Королевские каникулы / Trouble--
Информация
Название: Королевские каникулы
Оригинальное название: Trouble
Год выхода: 2019
Жанр: Мультфильм, комедия, семейный
Режиссер: Кевин Джонсон--В ролях: Биг Шон, Памела Адлон, Люси Хейл, Марисса Джэрет Винокур, Джоэл МакХэйл, Уилмер Вальдеррама, Сет Роллинз, Ди Брэдли Бейкер, Кевин Чэмберлин, Лудо Лефевр--Описание:
Наследник миллионного состояния и кучки неблагодарных родственников, его псиятельство Принц вышел из зоны комфорта и оказался на улице. Теперь он мечтает вернуться домой. Для этого ему нужно найти новых друзей, избавиться от назойливых белок и сбросить с хвоста матерого охотника. Королевские каникулы начинаются.-- --Страна: Канада, США, Каймановы острова
Студия: 3QU Media, Cinesite Animation, Storyoscopic Films, Vanguard Animation, WV Enterprises
Продолжительность: 01:27:26
Перевод: Дублированный iTunes--Файл
Формат: AVI
Качество: WEB-DLRip
Видео: 720x400 (1.80:1), 24 fps, XviD build 73 ~1997 kbps avg, 0.29 bit/pixel
Звук: 48 kHz, AC3 Dolby Digital, 3/2 (L,C,R,l,r) + LFE ch, ~384 kbps
Субтитры: Нет--

Скриншоты

               

Soldat_5

Post 11-Dec-2019 14:34

[Quote]

Эверест / Abominable (2019) BDRip [H.264/720p] - Производство: Китай, США, DreamWorks Animation, Pearl Studio
Жанр: Мультфильм, Фэнтези, Комедия, Приключения, Семейный
Режиссер: Джилл Калтон, Тодд Вилдерман
Продюсер: Сюзанн Бёрги, Пейлин Чоу, Дейв Полски
Персонажи: Хлоя Беннет, Альберт Цай, Тензинг Норгай Трэйнор, Джозеф Иццо, Эдди Иззард, Сара Полсон, Цай Чинь, Мишель Вонг, Рич Дитль, Джеймс Хонг
Описание:
Путешествие на самую высокую точку мира? Что может быть круче! Так решает Лу, когда случайно находит огромное, но очень милое чудовище посреди шумного мегаполиса. Пусть их преследуют ученые из сверхсекретной лаборатории, зато её новый друг умеет смешить и творить чудеса. Лу уверена, что поможет дружелюбному йети вернуться домой — на Эверест.

Возраст: 6+ (зрителям, достигшим 6 лет)
Рейтинг MPAA: PG (рекомендуется присутствие родителей)
Дата мировой премьеры: 7 сентября 2019
Дата российской премьеры: 3 октября 2019, «UPI»
Релиз от: TeamHD
Продолжительность: 01:37:13
Качество видео: BDRip
Перевод: Дублированный (iTunes)
Субтитры: русские (Forced, Full), английские (Full, SDH)
Видео: AVC/H.264, 1280x694, 6700 Kbps
Аудио 1: АС3, 6 ch, 384 Kbps, Русский (DUB iTunes)
Аудио 2: AC3, 6 ch, 640 Kbps, Английский

Mediainfo:

Общее
Уникальный идентификатор : 212668597591840844334979539327753800394 (0x9FFE7B6688BC4180906FDF85A6424ACA)
Полное имя : D:\MULT\Abominable.2019.720p.BluRay.mkv
Формат : Matroska
Версия формата : Version 4
Размер файла : 5,25 Гбайт
Продолжительность : 1 ч. 37 м.
Общий поток : 7728 Кбит/сек
Дата кодирования : UTC 2019-12-11 01:14:14
Программа кодирования : mkvmerge v8.2.0 ('World of Adventure') 64bit
Библиотека кодирования : libebml v1.3.1 + libmatroska v1.4.2
Обложка : Yes
Attachments : cover.jpg
Видео
Идентификатор : 1
Формат : AVC
Формат/Информация : Advanced Video Codec
Профиль формата : [url=mailto:[email protected]][email protected][/url]
Настройки формата : CABAC / 9 Ref Frames
Параметр CABAC формата : Да
Параметр RefFrames формата : 9 кадров
Идентификатор кодека : V_MPEG4/ISO/AVC
Продолжительность : 1 ч. 37 м.
Битрейт : 6700 Кбит/сек
Ширина : 1280 пикселей
Высота : 694 пикселя
Соотношение сторон : 1,85:1
Режим частоты кадров : Постоянный
Частота кадров : 23,976 (24000/1001) кадра/сек
Цветовое пространство : YUV
Субдискретизация насыщенности : 4:2:0
Битовая глубина : 8 бит
Тип развёртки : Прогрессивная
Бит/(Пиксели*Кадры) : 0.315
Размер потока : 4,55 Гбайт (87%)
Библиотека кодирования : x264 core 152 r2851kMod ba24899
Настройки программы : cabac=1 / ref=9 / deblock=1:-3:-3 / analyse=0x3:0x133 / me=umh / subme=10 / psy=1 / fade_compensate=0.00 / psy_rd=1.03:0.00 / mixed_ref=1 / me_range=32 / chroma_me=1 / trellis=2 / 8x8dct=1 / cqm=0 / deadzone=21,11 / fast_pskip=0 / chroma_qp_offset=-2 / threads=12 / lookahead_threads=2 / sliced_threads=0 / nr=0 / decimate=1 / interlaced=0 / bluray_compat=0 / constrained_intra=0 / bframes=8 / b_pyramid=2 / b_adapt=2 / b_bias=0 / direct=3 / weightb=1 / open_gop=0 / weightp=2 / keyint=250 / keyint_min=23 / scenecut=40 / intra_refresh=0 / rc=2pass / mbtree=0 / bitrate=6700 / ratetol=1.0 / qcomp=0.60 / qpmin=0 / qpmax=69 / qpstep=4 / cplxblur=20.0 / qblur=0.5 / ip_ratio=1.30 / pb_ratio=1.20 / aq=3:0.70 / zones=16,604,b=1.4/1405,1806,b=1.2/2016,4123,b=1.4/4176,5507,b=1.4/18576,19801,b=1.4/27066,32605,b=1.4/52888,58744,b=1.4/71326,78977,b=1.4/124799,127999,b=1.3
Язык : English
Default : Да
Forced : Нет
Цветовой диапазон : Limited
Коэффициенты матрицы : BT.709
Аудио #1
Идентификатор : 2
Формат : AC-3
Формат/Информация : Audio Coding 3
Коммерческое название : Dolby Digital
Идентификатор кодека : A_AC3
Продолжительность : 1 ч. 37 м.
Вид битрейта : Постоянный
Битрейт : 384 Кбит/сек
Каналы : 6 каналов
ChannelLayout : L R C LFE Ls Rs
Частота : 48,0 КГц
Частота кадров : 31,250 кадров/сек (1536 SPF)
Метод сжатия : С потерями
Размер потока : 267 Мбайт (5%)
Заголовок : Дубляж, iTunes
Язык : Russian
ServiceKind/String : Complete Main
Default : Да
Forced : Нет
Аудио #2
Идентификатор : 3
Формат : AC-3
Формат/Информация : Audio Coding 3
Коммерческое название : Dolby Digital
Идентификатор кодека : A_AC3
Продолжительность : 1 ч. 37 м.
Вид битрейта : Постоянный
Битрейт : 640 Кбит/сек
Каналы : 6 каналов
ChannelLayout : L R C LFE Ls Rs
Частота : 48,0 КГц
Частота кадров : 31,250 кадров/сек (1536 SPF)
Метод сжатия : С потерями
Размер потока : 445 Мбайт (8%)
Язык : English
ServiceKind/String : Complete Main
Default : Нет
Forced : Нет
Текст #1
Идентификатор : 4
Формат : UTF-8
Идентификатор кодека : S_TEXT/UTF8
Идентификатор кодека/Информация : UTF-8 Plain Text
Продолжительность : 1 ч. 23 м.
Битрейт : 0 бит/сек
ElementCount : 9
Размер потока : 325 байт (0%)
Заголовок : Forced
Язык : Russian
Default : Да
Forced : Нет
Текст #2
Идентификатор : 5
Формат : UTF-8
Идентификатор кодека : S_TEXT/UTF8
Идентификатор кодека/Информация : UTF-8 Plain Text
Продолжительность : 1 ч. 25 м.
Битрейт : 67 бит/сек
ElementCount : 997
Размер потока : 42,3 Кбайт (0%)
Язык : Russian
Default : Нет
Forced : Нет
Текст #3
Идентификатор : 6
Формат : UTF-8
Идентификатор кодека : S_TEXT/UTF8
Идентификатор кодека/Информация : UTF-8 Plain Text
Продолжительность : 1 ч. 25 м.
Битрейт : 45 бит/сек
ElementCount : 1090
Размер потока : 28,3 Кбайт (0%)
Язык : English
Default : Нет
Forced : Нет
Текст #4
Идентификатор : 7
Формат : UTF-8
Идентификатор кодека : S_TEXT/UTF8
Идентификатор кодека/Информация : UTF-8 Plain Text
Продолжительность : 1 ч. 35 м.
Битрейт : 53 бит/сек
ElementCount : 1545
Размер потока : 37,5 Кбайт (0%)
Заголовок : SDH
Язык : English
Default : Нет
Forced : Нет
Меню
00:00:00.000 : :Chapter 01
00:04:11.833 : :Chapter 02
00:09:10.883 : :Chapter 03
00:13:42.238 : :Chapter 04
00:16:13.597 : :Chapter 05
00:21:34.751 : :Chapter 06
00:25:02.458 : :Chapter 07
00:29:30.435 : :Chapter 08
00:33:57.452 : :Chapter 09
00:36:43.784 : :Chapter 10
00:41:53.010 : :Chapter 11
00:46:30.704 : :Chapter 12
00:50:42.330 : :Chapter 13
00:56:31.554 : :Chapter 14
01:01:40.530 : :Chapter 15
01:06:33.197 : :Chapter 16
01:11:44.425 : :Chapter 17
01:15:26.354 : :Chapter 18
01:20:41.545 : :Chapter 19
01:26:44.407 : :Chapter 20
Скриншоты:
       

Орлов Владимир

Post 02-Dec-2019 08:42

[Quote]

-Playmobil фильм: Через вселенные / Playmobil: The Movie--
Информация о фильме
Год выпуска: 2019
Жанр: мультфильм, фэнтези, комедия, приключения, семейный
Страна: Франция, Германия
Режиссёр: Лино ДиСальво
Перевод: Профессиональный многоголосый ["Синема УС"]
Субтитры: нет
Продолжительность: 01:41:49-- В ролях: Дино Андраде, Гэбриел Бейтман, Йен Джеймс Корлетт, Лино ДиСальво, Бен Дискин, Джим Гэффиган, Келлен Гофф, Уилсон Оксенкнехт, Райан С. Хилл, Пол Гурвиц-- Описание: Чарли неожиданно попадает в волшебную вселенную PLAYMOBIL®. Обеспокоенная внезапным исчезновением брата, старшая сестра Марла отважно отправляется на его поиски. Марлу ждет фантастическое путешествие по удивительным новым мирам. По пути она познакомится и подружится с невероятными героями. Среди них Дел, оптимистичный и неугомонный водитель передвижной закусочной; Рекс Дашер, неудержимый и самовлюбленный секретный агент; чуткий и преданный робот; добрая, но своенравная фея и многие другие.
Невероятные приключения помогают Марле и Чарли понять, что, невзирая на любые сложности, главное - всегда верить в себя. И тогда даже невозможное станет возможным!-- --Файлы
Качество: BDRip 720p
Формат: MKV
Видео: h.264,6 991 Кбит/с, 1280x536
Аудио: Русский (AC3, 2 ch, 448 Кбит/с)
--премьера (мир): 10 июня 2019
премьера (РФ): 30 января 2020
--

Скриншоты

     

Орлов Владимир

Post 02-Dec-2019 08:39

[Quote]

-Playmobil фильм: Через вселенные / Playmobil: The Movie--
Информация о фильме
Год выпуска: 2019
Жанр: мультфильм, фэнтези, комедия, приключения, семейный
Страна: Франция, Германия
Режиссёр: Лино ДиСальво
Перевод: Профессиональный многоголосый ["Синема УС"]
Субтитры: нет
Продолжительность: 01:41:49-- В ролях: Дино Андраде, Гэбриел Бейтман, Йен Джеймс Корлетт, Лино ДиСальво, Бен Дискин, Джим Гэффиган, Келлен Гофф, Уилсон Оксенкнехт, Райан С. Хилл, Пол Гурвиц-- Описание: Чарли неожиданно попадает в волшебную вселенную PLAYMOBIL®. Обеспокоенная внезапным исчезновением брата, старшая сестра Марла отважно отправляется на его поиски. Марлу ждет фантастическое путешествие по удивительным новым мирам. По пути она познакомится и подружится с невероятными героями. Среди них Дел, оптимистичный и неугомонный водитель передвижной закусочной; Рекс Дашер, неудержимый и самовлюбленный секретный агент; чуткий и преданный робот; добрая, но своенравная фея и многие другие.
Невероятные приключения помогают Марле и Чарли понять, что, невзирая на любые сложности, главное - всегда верить в себя. И тогда даже невозможное станет возможным!-- --Файлы
Качество: HDRip
Формат: AVI
Видео: XviD,1528 Кбит/с, 720x304
Аудио: Русский (AC3, 2 ch, 448 Кбит/с)
--премьера (мир): 10 июня 2019
премьера (РФ): 30 января 2020
--

Скриншоты

   

Орлов Владимир

Post 28-Nov-2019 00:05

[Quote]

--Эверест / Abominable--
Информация
Название: Эверест
Оригинальное название: Abominable
Год выхода: 2019
Жанр: Мультфильм, фэнтези, комедия, приключения, семейный, полнометражный
Режиссер: Джилл Калтон, Тодд Вилдерман--В ролях: Хлоя Беннет, Альберт Цай, Тензинг Норгай Трэйнор, Джозеф Иццо, Эдди Иззард, Сара Полсон, Цай Чинь, Мишель Вонг, Рич Дитль, Джеймс Хонг--Описание: Путешествие на самую высокую точку мира? Что может быть круче! Так решает Лу, когда случайно находит огромное, но очень милое чудовище посреди шумного мегаполиса. Пусть их преследуют ученые из сверхсекретной лаборатории, зато её новый друг умеет смешить и творить чудеса. Лу уверена, что поможет дружелюбному йети вернуться домой - на Эверест.-- --Страна: Китай, США
Студия: DreamWorks Animation, Pearl Studio
Продолжительность: 01:37:13
Перевод: Дублированный iTunes--Качество: WEB-DL (720p)
Видео: MPEG-4 AVC, 4014 Кбит/с, 1280x688
Аудио: Русский, английский (AC3, 6 ch, 384 Кбит/с)
Субтитры: Русские (форсированные, вшитые)
--

Скриншоты

         
 

Тех.данные видеофайла

General
Unique ID : 20390666453417161028788308406813769383 (0xF5719798B4614613FD5B4295C26BEA7)
Complete name : F:Video111Abominable.2019.WEB-DL.720p.seleZen.mkv
Format : Matroska
Format version : Version 4
File size : 3.25 GiB
Duration : 1 h 37 min
Overall bit rate : 4 785 kb/s
Movie name : Abominable 2019 from селезень
Encoded date : UTC 2019-11-27 20:32:01
Writing application : mkvmerge v40.0.0 ('Old Town Road + Pony') 64-bit
Writing library : libebml v1.3.9 + libmatroska v1.5.2
Cover : Yes
Attachments : cover.jpg / cover.jpg
Video
ID : 1
Format : AVC
Format/Info : Advanced Video Codec
Format profile : [email protected]
Format settings : 2 Ref Frames
Format settings, CABAC : No
Format settings, Reference : 2 frames
Codec ID : V_MPEG4/ISO/AVC
Duration : 1 h 37 min
Bit rate : 4 014 kb/s
Width : 1 280 pixels
Height : 688 pixels
Display aspect ratio : 1.85:1
Frame rate mode : Constant
Frame rate : 23.976 (23976/1000) FPS
Color space : YUV
Chroma subsampling : 4:2:0
Bit depth : 8 bits
Scan type : Progressive
Bits/(Pixel*Frame) : 0.190
Stream size : 2.73 GiB (84%)
Language : English
Default : Yes
Forced : No
Color range : Limited
Color primaries : BT.709
Transfer characteristics : BT.709
Matrix coefficients : BT.709
Audio #1
ID : 2
Format : AC-3
Format/Info : Audio Coding 3
Commercial name : Dolby Digital
Codec ID : A_AC3
Duration : 1 h 37 min
Bit rate mode : Constant
Bit rate : 384 kb/s
Channel(s) : 6 channels
Channel layout : L R C LFE Ls Rs
Sampling rate : 48.0 kHz
Frame rate : 31.250 FPS (1536 SPF)
Bit depth : 16 bits
Compression mode : Lossy
Stream size : 267 MiB (8%)
Title : iTunes
Language : Russian
Service kind : Complete Main
Default : Yes
Forced : Yes
Audio #2
ID : 3
Format : AC-3
Format/Info : Audio Coding 3
Commercial name : Dolby Digital
Codec ID : A_AC3
Duration : 1 h 37 min
Bit rate mode : Constant
Bit rate : 384 kb/s
Channel(s) : 6 channels
Channel layout : L R C LFE Ls Rs
Sampling rate : 48.0 kHz
Frame rate : 31.250 FPS (1536 SPF)
Bit depth : 16 bits
Compression mode : Lossy
Stream size : 267 MiB (8%)
Title : Original
Language : English
Service kind : Complete Main
Default : No
Forced : No
Menu
00:00:00.000 : en:1
00:04:12.836 : en:2
00:09:11.885 : en:3
00:13:43.239 : en:4
00:16:14.598 : en:5
00:21:35.752 : en:6
00:25:03.459 : en:7
00:29:31.435 : en:8
00:33:58.452 : en:9
00:36:44.784 : en:10
00:41:54.009 : en:11
00:46:31.703 : en:12
00:50:43.329 : en:13
00:56:32.553 : en:14
01:01:41.528 : en:15
01:06:34.195 : en:16
01:11:45.422 : en:17
01:15:27.352 : en:18
01:20:42.542 : en:19
01:26:45.404 : en:20

Орлов Владимир

Post 27-Nov-2019 23:47

[Quote]

--Эверест / Abominable--
Информация
Название: Эверест
Оригинальное название: Abominable
Год выпуска: 2019
Жанр: Мультфильм, фэнтези, комедия, приключения, семейный, полнометражный
Режиссер: Джилл Калтон, Тодд Вилдерман--В ролях: Хлоя Беннет, Альберт Цай, Тензинг Норгай Трэйнор, Джозеф Иццо, Эдди Иззард, Сара Полсон, Цай Чинь, Мишель Вонг, Рич Дитль, Джеймс Хонг--Описание:
Путешествие на самую высокую точку мира? Что может быть круче! Так решает Лу, когда случайно находит огромное, но очень милое чудовище посреди шумного мегаполиса. Пусть их преследуют ученые из сверхсекретной лаборатории, зато её новый друг умеет смешить и творить чудеса. Лу уверена, что поможет дружелюбному йети вернуться домой - на Эверест.-- --Страна: Китай, США
Студия: DreamWorks Animation, Pearl Studio
Продолжительность: 01:37:13
Перевод: Дублированный iTunes--Файл
Качество: HDRip
Видео: XviD, 1750 Кбит/с, 720x384
Аудио: AC3, 6 ch, 384 Кбит/с
--

Скриншоты

           

Орлов Владимир

Post 27-Nov-2019 23:27

[Quote]

--Эверест / Abominable
--
Информация
Название: Эверест
Оригинальное название: Abominable
Год выхода: 2019
Жанр: Мультфильм, фэнтези, комедия, приключения, семейный, полнометражный
Режиссер: Джилл Калтон, Тодд Вилдерман--В ролях: Хлоя Беннет, Альберт Цай, Тензинг Норгай Трэйнор, Джозеф Иццо, Эдди Иззард, Сара Полсон, Цай Чинь, Мишель Вонг, Рич Дитль, Джеймс Хонг--Описание: Путешествие на самую высокую точку мира? Что может быть круче! Так решает Лу, когда случайно находит огромное, но очень милое чудовище посреди шумного мегаполиса. Пусть их преследуют ученые из сверхсекретной лаборатории, зато её новый друг умеет смешить и творить чудеса. Лу уверена, что поможет дружелюбному йети вернуться домой - на Эверест.-- --Страна: Китай, США
Студия: DreamWorks Animation, Pearl Studio
Продолжительность: 01:37:13
Перевод: Дублированный iTunes--Качество: BDRip (1080p)
Видео: MPEG-4 AVC, 12.2 Mбит/с, 1920x1040
Аудио: Русский (AC3, 6 ch, 384 Кбит/с), английский (AC3, 6 ch, 640 Кбит/с)
--

Скриншоты

       
 

The time now is: Today 04:18

All times are GMT + 3 Hours