Today is a free download without charge Download

Search found 500 matches

Author Message

RazBoyNik

Post 14-Aug-2020 14:03

[Quote]

Чистокровные / Thoroughbreds (2017) BDRemux [H.264/1080p] - Производство: США / B Story, Big Indie Pictures, June Pictures
Жанр: Триллер, Драма, Криминал
Режиссер: Кори Финли
Актеры: Оливия Кук, Аня Тейлор-Джой, Антон Ельчин, Пол Спаркс, Фрэнси Свифт, Кайли Вернофф
Описание:
Дороги двух подруг из пригорода Коннектикута разошлись, и девушки не виделись несколько лет. Когда они снова встречаются, то решают восстановить былую дружбу. При более тесном общении девушки замечают, что они обе очень изменились, и даже стали способными на убийство.

Возраст: 18+ (зрителям, достигшим 18 лет. запрещено для детей)
Рейтинг MPAA: R (лицам до 17 лет обязательно присутствие взрослого)
Продолжительность: 01:32:04
Качество видео: BDRemux
Перевод: Дублированный
Субтитры: Русские (Full, Forced), Украинские, Английские (PGS)
Видео: AVC/H.264, 1920x1080, ~29,8 Mbps
Аудио 1: AC3, 6 ch, 640 Kbps - Русский (DUB)
Аудио 2: DTS-HD MA, 6 ch, 2924 Kbps - Английский

MediaInfo:

Complete name : Thoroughbreds.2017.1080p.BluRay.Remux.Rus.Eng-EPSiLON_TeamHD.mkv
Format : Matroska
Format version : Version 4
File size : 21.4 GiB
Duration : 1 h 32 min
Overall bit rate mode : Variable
Overall bit rate : 33.3 Mb/s
Movie name : Thoroughbreds (2017) - Release for TeamHD
Encoded date : UTC 2020-08-12 11:49:35
Writing application : mkvmerge v48.0.0 ('Fortress Around Your Heart') 64-bit
Writing library : libebml v1.4.0 + libmatroska v1.6.0
Video
ID : 1
Format : AVC
Format/Info : Advanced Video Codec
Format profile : [url=mailto:[email protected]][email protected][/url]
Format settings : CABAC / 4 Ref Frames
Format settings, CABAC : Yes
Format settings, Reference frames : 4 frames
Codec ID : V_MPEG4/ISO/AVC
Duration : 1 h 32 min
Bit rate mode : Variable
Bit rate : 29.8 Mb/s
Maximum bit rate : 35.0 Mb/s
Width : 1 920 pixels
Height : 1 080 pixels
Display aspect ratio : 16:9
Frame rate mode : Constant
Frame rate : 23.976 (24000/1001) FPS
Color space : YUV
Chroma subsampling : 4:2:0
Bit depth : 8 bits
Scan type : Progressive
Bits/(Pixel*Frame) : 0.598
Stream size : 19.1 GiB (89%)
Language : English
Default : Yes
Forced : No
Audio #1
ID : 2
Format : E-AC-3
Format/Info : Enhanced AC-3
Commercial name : Dolby Digital Plus
Codec ID : A_EAC3
Duration : 1 h 32 min
Bit rate mode : Constant
Bit rate : 640 kb/s
Channel(s) : 6 channels
Channel layout : L R C LFE Ls Rs
Sampling rate : 48.0 kHz
Frame rate : 31.250 FPS (1536 SPF)
Compression mode : Lossy
Stream size : 421 MiB (2%)
Language : Russian
Service kind : Complete Main
Default : Yes
Forced : No
Audio #2
ID : 3
Format : DTS XLL
Format/Info : Digital Theater Systems
Commercial name : DTS-HD Master Audio
Codec ID : A_DTS
Duration : 1 h 32 min
Bit rate mode : Variable
Bit rate : 2 924 kb/s
Channel(s) : 6 channels
Channel layout : C L R Ls Rs LFE
Sampling rate : 48.0 kHz
Frame rate : 93.750 FPS (512 SPF)
Bit depth : 24 bits
Compression mode : Lossless
Stream size : 1.88 GiB (9%)
Language : English
Default : No
Forced : No
Text #1
ID : 4
Format : UTF-8
Codec ID : S_TEXT/UTF8
Codec ID/Info : UTF-8 Plain Text
Duration : 1 h 5 min
Bit rate : 0 b/s
Count of elements : 11
Stream size : 478 Bytes (0%)
Title : Forced
Language : Russian
Default : Yes
Forced : No
Text #2
ID : 5
Format : UTF-8
Codec ID : S_TEXT/UTF8
Codec ID/Info : UTF-8 Plain Text
Duration : 1 h 23 min
Bit rate : 83 b/s
Count of elements : 886
Stream size : 51.6 KiB (0%)
Language : Russian
Default : No
Forced : No
Text #3
ID : 6
Format : UTF-8
Codec ID : S_TEXT/UTF8
Codec ID/Info : UTF-8 Plain Text
Duration : 1 h 29 min
Bit rate : 71 b/s
Count of elements : 968
Stream size : 46.9 KiB (0%)
Language : Ukrainian
Default : No
Forced : No
Text #4
ID : 7
Format : PGS
Muxing mode : zlib
Codec ID : S_HDMV/PGS
Codec ID/Info : Picture based subtitle format used on BDs/HD-DVDs
Duration : 1 h 26 min
Bit rate : 34.2 kb/s
Count of elements : 1942
Stream size : 21.1 MiB (0%)
Title : SDH
Language : English
Default : No
Forced : No
Menu
00:00:00.000 : en:Chapter 1
00:05:34.125 : en:Chapter 2
00:10:22.789 : en:Chapter 3
00:16:01.335 : en:Chapter 4
00:21:39.548 : en:Chapter 5
00:24:58.122 : en:Chapter 6
00:27:04.915 : en:Chapter 7
00:29:56.586 : en:Chapter 8
00:34:05.794 : en:Chapter 9
00:39:16.271 : en:Chapter 10
00:44:33.671 : en:Chapter 11
00:48:59.728 : en:Chapter 12
00:52:28.228 : en:Chapter 13
00:58:50.360 : en:Chapter 14
01:01:30.228 : en:Chapter 15
01:05:48.444 : en:Chapter 16
01:11:20.902 : en:Chapter 17
01:17:56.839 : en:Chapter 18
01:21:46.944 : en:Chapter 19
01:26:36.149 : en:Chapter 20
Скриншоты:
         

RazBoyNik

Post 14-Aug-2020 14:01

[Quote]

Медиум / Luz (2018) BDRip [H.264/1080p] - Производство: Германия / KHM
Жанр: ужасы, триллер, детектив
Режиссер: Тильман Сингер
Актеры: Луана Велис, Йоханнес Бенеке, Ян Блютхардт, Лилли Лоренц, Юлия Ридлер, Надя Штюбигер
Описание:
Спасаясь от чего-то неведомого, Лус прибегает ночью в полицейский участок. За девушкой давно охотится нечто демоническое и сейчас, вселившись в психолога, вызванного для работы с Лус, подбирается максимально близко.

Продолжительность: 01:10:33
Качество видео: BDRip
Перевод: Многоголосый профессиональный (iTunes)
Субтитры: Английские
Видео: AVC/H.264, 1920x808, ~9578 Kbps
Аудио 1: AC3, 6 ch, 384 Kbps, русские (MVO)
Аудио 2: DTS, 6 ch, 1509 Kbps, немецкий (оригинал)

MediaInfo:

Общее
Уникальный идентификатор : 232497575912682452244819100763479110325 (0xAEE967832382B92595E60C7FC23C72B5)
Полное имя : E:\Downloads\Luz.2018.1080p.BluRay.ELEKTRI4KA.UNIONGANG.mkv
Формат : Matroska
Версия формата : Version 4
Размер файла : 5,65 Гбайт
Продолжительность : 1 ч. 10 м.
Общий поток : 11,5 Мбит/сек
Название фильма : .ELEKTRI4KA.UNIONGANG.
Дата кодирования : UTC 2020-08-12 13:24:29
Программа кодирования : mkvmerge v8.3.0 ('Over the Horizon') 64bit
Библиотека кодирования : libebml v1.3.1 + libmatroska v1.4.2
Видео
Идентификатор : 1
Формат : AVC
Формат/Информация : Advanced Video Codec
Профиль формата : [url=mailto:[email protected]][email protected][/url]
Настройки формата : CABAC / 5 Ref Frames
Параметр CABAC формата : Да
Параметр RefFrames формата : 5 кадров
Идентификатор кодека : V_MPEG4/ISO/AVC
Продолжительность : 1 ч. 10 м.
Битрейт : 9 578 Кбит/сек
Ширина : 1 920 пикселей
Высота : 808 пикселей
Соотношение сторон : 2,40:1
Режим частоты кадров : Постоянный
Частота кадров : 24,000 кадра/сек
Цветовое пространство : YUV
Субдискретизация насыщенности : 4:2:0
Битовая глубина : 8 бит
Тип развёртки : Прогрессивная
Бит/(Пиксели*Кадры) : 0.257
Размер потока : 4,72 Гбайт (83%)
Заголовок : .ELEKTRI4KA.UNIONGANG.
Библиотека кодирования : x264 core 159 r2991 1771b55
Настройки программы : cabac=1 / ref=5 / deblock=1:-3:-3 / analyse=0x3:0x133 / me=umh / subme=9 / psy=1 / psy_rd=1.00:0.00 / mixed_ref=1 / me_range=24 / chroma_me=1 / trellis=1 / 8x8dct=1 / cqm=0 / deadzone=21,11 / fast_pskip=0 / chroma_qp_offset=-2 / threads=24 / lookahead_threads=4 / sliced_threads=0 / nr=0 / decimate=1 / interlaced=0 / bluray_compat=0 / constrained_intra=0 / bframes=8 / b_pyramid=2 / b_adapt=2 / b_bias=0 / direct=3 / weightb=1 / open_gop=0 / weightp=2 / keyint=250 / keyint_min=24 / scenecut=40 / intra_refresh=0 / rc_lookahead=60 / rc=2pass / mbtree=1 / bitrate=9578 / ratetol=1.0 / qcomp=0.60 / qpmin=0 / qpmax=69 / qpstep=4 / cplxblur=20.0 / qblur=0.5 / vbv_maxrate=62500 / vbv_bufsize=78125 / nal_hrd=none / filler=0 / ip_ratio=1.40 / aq=1:1.00
Default : Да
Forced : Нет
Аудио #1
Идентификатор : 2
Формат : AC-3
Формат/Информация : Audio Coding 3
Коммерческое название : Dolby Digital
Идентификатор кодека : A_AC3
Продолжительность : 1 ч. 10 м.
Вид битрейта : Постоянный
Битрейт : 384 Кбит/сек
Каналы : 6 каналов
Channel layout : L R C LFE Ls Rs
Частота : 48,0 КГц
Частота кадров : 31,250 кадров/сек (1536 SPF)
Метод сжатия : С потерями
Размер потока : 194 Мбайт (3%)
Заголовок : iTunes
Язык : Russian
Service kind : Complete Main
Default : Да
Forced : Да
Аудио #2
Идентификатор : 3
Формат : DTS
Формат/Информация : Digital Theater Systems
Идентификатор кодека : A_DTS
Продолжительность : 1 ч. 10 м.
Вид битрейта : Постоянный
Битрейт : 1 509 Кбит/сек
Каналы : 6 каналов
Channel layout : C L R Ls Rs LFE
Частота : 48,0 КГц
Частота кадров : 93,750 кадра/сек (512 SPF)
Битовая глубина : 24 бит
Метод сжатия : С потерями
Размер потока : 761 Мбайт (13%)
Язык : German
Default : Нет
Forced : Нет
Текст
Идентификатор : 4
Формат : UTF-8
Идентификатор кодека : S_TEXT/UTF8
Идентификатор кодека/Информация : UTF-8 Plain Text
Продолжительность : 1 ч. 0 м.
Битрейт : 22 бит/сек
Count of elements : 346
Размер потока : 9,89 Кбайт (0%)
Язык : English
Default : Да
Forced : Нет
Меню
00:00:00.000 : en:Chapter 01
00:09:33.917 : en:Chapter 02
00:17:04.667 : en:Chapter 03
00:26:47.625 : en:Chapter 04
00:34:36.083 : en:Chapter 05
00:41:46.583 : en:Chapter 06
00:53:29.125 : en:Chapter 07
01:02:39.708 : en:Chapter 08
Скриншоты:
       

RazBoyNik

Post 14-Aug-2020 13:59

[Quote]

Лето 84 / Summer of 84 (2018) BDRemux [H.264/1080p]- Производство: Канада, США / Brightlight Pictures, Gunpowder & Sky
Жанр: Ужасы, триллер, драма, детектив
Режиссер: Франсуа Симар, Анук Висселль, Йоанн-Карл Висселль
Актеры: Грэм Верчир, Джуда Льюис, Калеб Эмери, Кори Грютер-Эндрю, Тиера Сковбай, Рич Соммер, Джейсон Грей-Стенфорд, Шона Йоханнесен, Марк Брэндон, Дж. Алекс Бринсон
Описание:
Четверо 15-летних друзей проводят лето 1984 года за необычным занятием: они вычисляют серийного убийцу, несколько лет подряд орудующего в округе. Все улики ведут к соседскому дому, где живёт уважаемый офицер полиции.

Дата мировой премьеры: 22 января 2018
Продолжительность: 01:45:36
Качество видео: BDRemux 1080p
Перевод: Дублированный (iTunes), Профессиональный (многоголосый, закадровый), Авторский (одноголосый)
Субтитры: Русские, украинские, английские
Видео: AVC/H.264, 1920x1080, ~25 Мbps, 23.976 fps
Аудио 1: AC3, 6 ch, 384 Kbps - Русский (DUB iTunes)
Аудио 2: AC3, 6 ch, 640 Kbps - Русский (MVO Jaskier)
Аудио 3: AC3, 6 ch, 384 Kbps - Русский (MVO HDrezka Studio)
Аудио 4: AC3, 6 ch, 384 Kbps - Русский (AVO Ю.Живов)
Аудио 5: DTS-HD MA, 6 ch, 1706 Kbps - Английский

Доп. инфо

Дорожка №3 получена путем наложения выделенных фраз и диалогов из перевода HDRezka studio на центр оригинальной английской дорожки. спасибо karasidi

MediaInfo:

Общее
Уникальный идентификатор : 119245809616905089123776243749088153559 (0x59B5E855175D451E9558E89237304FD7)
Полное имя : Summer of_84_2018_Remux_W.mkv
Формат : Matroska
Версия формата : Version 4
Размер файла : 20,3 Гбайт
Продолжительность : 1 ч. 45 м.
Режим общего битрейта : Переменный
Общий поток : 27,6 Мбит/сек
Название фильма : Summer of_84_2018_Remux_W
Дата кодирования : UTC 2020-08-12 21:05:58
Программа кодирования : mkvmerge v23.0.0 ('The Bride Said No') 64-bit
Библиотека кодирования : libebml v1.3.6 + libmatroska v1.4.9
Видео
Идентификатор : 1
Формат : AVC
Формат/Информация : Advanced Video Codec
Профиль формата : [url=mailto:[email protected]][email protected][/url]
Настройки формата : CABAC / 3 Ref Frames
Параметр CABAC формата : Да
Параметр RefFrames формата : 3 кадра
Идентификатор кодека : V_MPEG4/ISO/AVC
Продолжительность : 1 ч. 45 м.
Вид битрейта : Переменный
Битрейт : 25,0 Мбит/сек
Максимальный битрейт : 40,0 Мбит/сек
Ширина : 1 920 пикселей
Высота : 1 080 пикселей
Соотношение сторон : 16:9
Режим частоты кадров : Постоянный
Частота кадров : 23,976 (24000/1001) кадра/сек
Цветовое пространство : YUV
Субдискретизация насыщенности : 4:2:0
Битовая глубина : 8 бит
Тип развёртки : Прогрессивная
Бит/(Пиксели*Кадры) : 0.503
Размер потока : 17,7 Гбайт (87%)
Библиотека кодирования : x264 core 148 r2694bm 3b70645
Настройки программы : cabac=1 / ref=4 / deblock=1:-1:-1 / analyse=0x3:0x133 / me=umh / subme=10 / psy=1 / psy_rd=1.00:0.15 / mixed_ref=1 / me_range=24 / chroma_me=1 / trellis=2 / 8x8dct=1 / cqm=0 / deadzone=21,11 / fast_pskip=1 / chroma_qp_offset=-3 / threads=12 / lookahead_threads=1 / sliced_threads=0 / slices=4 / nr=0 / decimate=1 / interlaced=0 / bluray_compat=1 / constrained_intra=0 / bframes=3 / b_pyramid=1 / b_adapt=2 / b_bias=0 / direct=3 / weightb=1 / open_gop=1 / weightp=1 / keyint=24 / keyint_min=1 / scenecut=40 / intra_refresh=0 / rc_lookahead=24 / rc=abr / mbtree=1 / bitrate=25000 / ratetol=1.0 / qcomp=0.60 / qpmin=0 / qpmax=69 / qpstep=4 / vbv_maxrate=40000 / vbv_bufsize=30000 / nal_hrd=vbr / filler=0 / ip_ratio=1.40 / aq=1:1.00
Язык : English
Default : Да
Forced : Нет
Цветовой диапазон : Limited
Основные цвета : BT.709
Характеристики трансфера : BT.709
Коэффициенты матрицы : BT.709
Аудио #1
Идентификатор : 2
Формат : AC-3
Формат/Информация : Audio Coding 3
Коммерческое название : Dolby Digital
Идентификатор кодека : A_AC3
Продолжительность : 1 ч. 45 м.
Вид битрейта : Постоянный
Битрейт : 384 Кбит/сек
Каналы : 6 каналов
Channel layout : L R C LFE Ls Rs
Частота : 48,0 КГц
Частота кадров : 31,250 кадров/сек (1536 SPF)
Метод сжатия : С потерями
Размер потока : 290 Мбайт (1%)
Заголовок : DUB | iTunes
Язык : Russian
Service kind : Complete Main
Default : Да
Forced : Нет
Аудио #2
Идентификатор : 3
Формат : AC-3
Формат/Информация : Audio Coding 3
Коммерческое название : Dolby Digital
Идентификатор кодека : A_AC3
Продолжительность : 1 ч. 45 м.
Вид битрейта : Постоянный
Битрейт : 640 Кбит/сек
Каналы : 6 каналов
Channel layout : L R C LFE Ls Rs
Частота : 48,0 КГц
Частота кадров : 31,250 кадров/сек (1536 SPF)
Метод сжатия : С потерями
Размер потока : 483 Мбайт (2%)
Заголовок : MVO (Jaskier)
Язык : Russian
Service kind : Complete Main
Default : Нет
Forced : Нет
Аудио #3
Идентификатор : 4
Формат : AC-3
Формат/Информация : Audio Coding 3
Коммерческое название : Dolby Digital
Идентификатор кодека : A_AC3
Продолжительность : 1 ч. 45 м.
Вид битрейта : Постоянный
Битрейт : 384 Кбит/сек
Каналы : 6 каналов
Channel layout : L R C LFE Ls Rs
Частота : 48,0 КГц
Частота кадров : 31,250 кадров/сек (1536 SPF)
Метод сжатия : С потерями
Размер потока : 290 Мбайт (1%)
Заголовок : MVO | HDRezka Studio
Язык : Russian
Service kind : Complete Main
Default : Нет
Forced : Нет
Аудио #4
Идентификатор : 5
Формат : AC-3
Формат/Информация : Audio Coding 3
Коммерческое название : Dolby Digital
Идентификатор кодека : A_AC3
Продолжительность : 1 ч. 45 м.
Вид битрейта : Постоянный
Битрейт : 448 Кбит/сек
Каналы : 6 каналов
Channel layout : L R C LFE Ls Rs
Частота : 48,0 КГц
Частота кадров : 31,250 кадров/сек (1536 SPF)
Метод сжатия : С потерями
Размер потока : 338 Мбайт (2%)
Заголовок : AVO (Живов)
Язык : Russian
Service kind : Complete Main
Default : Нет
Forced : Нет
Аудио #5
Идентификатор : 6
Формат : DTS XLL
Формат/Информация : Digital Theater Systems
Коммерческое название : DTS-HD Master Audio
Идентификатор кодека : A_DTS
Продолжительность : 1 ч. 45 м.
Вид битрейта : Переменный
Битрейт : 1 706 Кбит/сек
Каналы : 6 каналов
Channel layout : C L R Ls Rs LFE
Частота : 48,0 КГц
Частота кадров : 93,750 кадра/сек (512 SPF)
Битовая глубина : 16 бит
Метод сжатия : Без потерь
Размер потока : 1,26 Гбайт (6%)
Язык : English
Default : Нет
Forced : Нет
Текст #1
Идентификатор : 7
Формат : UTF-8
Идентификатор кодека : S_TEXT/UTF8
Идентификатор кодека/Информация : UTF-8 Plain Text
Продолжительность : 1 ч. 40 м.
Битрейт : 100 бит/сек
Count of elements : 1605
Размер потока : 73,9 Кбайт (0%)
Язык : Russian
Default : Нет
Forced : Нет
Текст #2
Идентификатор : 8
Формат : UTF-8
Идентификатор кодека : S_TEXT/UTF8
Идентификатор кодека/Информация : UTF-8 Plain Text
Продолжительность : 1 ч. 41 м.
Битрейт : 98 бит/сек
Count of elements : 1606
Размер потока : 73,0 Кбайт (0%)
Язык : Ukrainian
Default : Нет
Forced : Нет
Текст #3
Идентификатор : 9
Формат : UTF-8
Идентификатор кодека : S_TEXT/UTF8
Идентификатор кодека/Информация : UTF-8 Plain Text
Продолжительность : 1 ч. 40 м.
Битрейт : 63 бит/сек
Count of elements : 1772
Размер потока : 47,0 Кбайт (0%)
Язык : English
Default : Нет
Forced : Нет
Меню
00:00:00.000 : en:Chapter 1
00:20:01.200 : en:Chapter 2
00:40:02.400 : en:Chapter 3
01:00:04.601 : en:Chapter 4
01:20:04.799 : en:Chapter 5
01:30:06.401 : en:Chapter 6
01:41:03.057 : en:Chapter 7
01:45:36.330 : en:Chapter 8
Скриншоты:        

Kon912

Post 12-Aug-2020 23:29

[Quote]

Зависнуть в Палм-Спрингс / Палм-Спрингс / Palm Springs- Год выхода: 2020
Страна: США
Студия: Culmination Productions, Limelight, Lonely Island, The, Sun Entertainment Culture
Жанр: Комедия, мелодрама, фантастика
Продолжительность: 01:29:59
Перевод: Дублированный | iTunes-Режиссер:
Макс Барбаков-В ролях:
Энди Сэмберг, Кристин Милиоти, Дж.К. Симмонс, Тайлер Хэклин, Питер Галлахер, Дейл Дикки, Камила Мендес, Жаклин Обрадорс, Мередит Хагнер, Крис Пэнг-О фильме:
На одной летней свадьбе знакомятся сестра невесты Сара и парень подружки невесты Найлз. Интересно, что Найлз на этой свадьбе бывал миллион раз, так как застрял в петле времени. Как вскоре выяснится, в этом праздничном дне сурка торчит довольно много народу, и некоторым тут даже нравится.- -Качество: WEB-DL 1080p
Формат: MKV
Видео: MPEG-4 AVC, 1920x1080, 4422 Kbit/s, 24.000 fps
Аудио #01: 48 kHz, AC3, 5.1, 384 Kbps | iTunes | RUS |
Аудио #02: 48 kHz, E-AC3, 5.1, 256 Kbps | Оригинал | ENG |
Субтитры: Русские (Full), английские, испанские-

Скриншоты

     

MI

General
Unique ID : 44780206193845676377988386588130345447 (0x21B05A9FE7AC26893C36A76DB40901E7)
Complete name : E:Video111Palm.Springs.2020.WEB-DL.1080p.seleZen.mkv
Format : Matroska
Format version : Version 4
File size : 3.18 GiB
Duration : 1 h 29 min
Overall bit rate : 5 064 kb/s
Movie name : Palm Springs 2020 from селезень
Encoded date : UTC 2020-08-12 19:35:28
Writing application : mkvmerge v40.0.0 ('Old Town Road + Pony') 64-bit
Writing library : libebml v1.3.9 + libmatroska v1.5.2
Video
ID : 1
Format : AVC
Format/Info : Advanced Video Codec
Format profile : [email protected]
Format settings : CABAC / 4 Ref Frames
Format settings, CABAC : Yes
Format settings, Reference frames : 4 frames
Codec ID : V_MPEG4/ISO/AVC
Duration : 1 h 29 min
Bit rate : 4 422 kb/s
Width : 1 920 pixels
Height : 1 080 pixels
Display aspect ratio : 16:9
Frame rate mode : Constant
Frame rate : 24.000 FPS
Color space : YUV
Chroma subsampling : 4:2:0
Bit depth : 8 bits
Scan type : Progressive
Bits/(Pixel*Frame) : 0.089
Stream size : 2.78 GiB (87%)
Language : English
Default : Yes
Forced : No
Audio #1
ID : 2
Format : AC-3
Format/Info : Audio Coding 3
Commercial name : Dolby Digital
Codec ID : A_AC3
Duration : 1 h 29 min
Bit rate mode : Constant
Bit rate : 384 kb/s
Channel(s) : 6 channels
Channel layout : L R C LFE Ls Rs
Sampling rate : 48.0 kHz
Frame rate : 31.250 FPS (1536 SPF)
Compression mode : Lossy
Stream size : 247 MiB (8%)
Title : Full
Language : Russian
Service kind : Complete Main
Default : Yes
Forced : Yes
Audio #2
ID : 3
Format : E-AC-3
Format/Info : Enhanced AC-3
Commercial name : Dolby Digital Plus
Codec ID : A_EAC3
Duration : 1 h 29 min
Bit rate mode : Constant
Bit rate : 256 kb/s
Channel(s) : 6 channels
Channel layout : L R C LFE Ls Rs
Sampling rate : 48.0 kHz
Frame rate : 31.250 FPS (1536 SPF)
Compression mode : Lossy
Stream size : 165 MiB (5%)
Title : Original
Language : English
Service kind : Complete Main
Default : No
Forced : No
Text #1
ID : 4
Format : UTF-8
Codec ID : S_TEXT/UTF8
Codec ID/Info : UTF-8 Plain Text
Duration : 1 h 24 min
Bit rate : 106 b/s
Count of elements : 1452
Stream size : 65.9 KiB (0%)
Title : Full
Language : Russian
Default : No
Forced : No
Text #2
ID : 5
Format : UTF-8
Codec ID : S_TEXT/UTF8
Codec ID/Info : UTF-8 Plain Text
Duration : 1 h 29 min
Bit rate : 76 b/s
Count of elements : 1802
Stream size : 50.1 KiB (0%)
Language : English
Default : No
Forced : No
Text #3
ID : 6
Format : UTF-8
Codec ID : S_TEXT/UTF8
Codec ID/Info : UTF-8 Plain Text
Duration : 1 h 29 min
Bit rate : 76 b/s
Count of elements : 1920
Stream size : 50.6 KiB (0%)
Language : Spanish
Default : No
Forced : No
Релиз от:

Kon912

Post 12-Aug-2020 23:29

[Quote]

Зависнуть в Палм-Спрингс / Палм-Спрингс / Palm Springs- Год выхода: 2020
Страна: США
Студия: Culmination Productions, Limelight, Lonely Island, The, Sun Entertainment Culture
Жанр: Комедия, мелодрама, фантастика
Продолжительность: 01:29:59
Перевод: Дублированный | iTunes-Режиссер:
Макс Барбаков-В ролях:
Энди Сэмберг, Кристин Милиоти, Дж.К. Симмонс, Тайлер Хэклин, Питер Галлахер, Дейл Дикки, Камила Мендес, Жаклин Обрадорс, Мередит Хагнер, Крис Пэнг-О фильме:
На одной летней свадьбе знакомятся сестра невесты Сара и парень подружки невесты Найлз. Интересно, что Найлз на этой свадьбе бывал миллион раз, так как застрял в петле времени. Как вскоре выяснится, в этом праздничном дне сурка торчит довольно много народу, и некоторым тут даже нравится.- -Качество: WEB-DL 720p
Формат: MKV
Видео: MPEG-4 AVC, 1280x720, 1954 Kbit/s, 24.000 fps
Аудио #01: 48 kHz, AC3, 5.1, 384 Kbps | iTunes | RUS |
Аудио #02: 48 kHz, E-AC3, 5.1, 256 Kbps | Оригинал | ENG |
Субтитры: Русские (Full), английские, испанские-

Скриншоты

     

MI

General
Unique ID : 292048401051161474247515294713756080510 (0xDBB679E058580A2DD9A653274ECD597E)
Complete name : E:Video111Palm.Springs.2020.WEB-DL.720p.seleZen.mkv
Format : Matroska
Format version : Version 4
File size : 1.63 GiB
Duration : 1 h 29 min
Overall bit rate : 2 597 kb/s
Movie name : Palm Springs 2020 from селезень
Encoded date : UTC 2020-08-12 20:04:06
Writing application : mkvmerge v40.0.0 ('Old Town Road + Pony') 64-bit
Writing library : libebml v1.3.9 + libmatroska v1.5.2
Video
ID : 1
Format : AVC
Format/Info : Advanced Video Codec
Format profile : [email protected]
Format settings : CABAC / 5 Ref Frames
Format settings, CABAC : Yes
Format settings, Reference frames : 5 frames
Codec ID : V_MPEG4/ISO/AVC
Duration : 1 h 29 min
Bit rate : 1 954 kb/s
Width : 1 280 pixels
Height : 720 pixels
Display aspect ratio : 16:9
Frame rate mode : Constant
Frame rate : 24.000 FPS
Color space : YUV
Chroma subsampling : 4:2:0
Bit depth : 8 bits
Scan type : Progressive
Bits/(Pixel*Frame) : 0.088
Stream size : 1.23 GiB (75%)
Language : English
Default : Yes
Forced : No
Audio #1
ID : 2
Format : AC-3
Format/Info : Audio Coding 3
Commercial name : Dolby Digital
Codec ID : A_AC3
Duration : 1 h 29 min
Bit rate mode : Constant
Bit rate : 384 kb/s
Channel(s) : 6 channels
Channel layout : L R C LFE Ls Rs
Sampling rate : 48.0 kHz
Frame rate : 31.250 FPS (1536 SPF)
Compression mode : Lossy
Stream size : 247 MiB (15%)
Title : Full
Language : Russian
Service kind : Complete Main
Default : Yes
Forced : Yes
Audio #2
ID : 3
Format : E-AC-3
Format/Info : Enhanced AC-3
Commercial name : Dolby Digital Plus
Codec ID : A_EAC3
Duration : 1 h 29 min
Bit rate mode : Constant
Bit rate : 256 kb/s
Channel(s) : 6 channels
Channel layout : L R C LFE Ls Rs
Sampling rate : 48.0 kHz
Frame rate : 31.250 FPS (1536 SPF)
Compression mode : Lossy
Stream size : 165 MiB (10%)
Title : Original
Language : English
Service kind : Complete Main
Default : No
Forced : No
Text #1
ID : 4
Format : UTF-8
Codec ID : S_TEXT/UTF8
Codec ID/Info : UTF-8 Plain Text
Duration : 1 h 24 min
Bit rate : 106 b/s
Count of elements : 1452
Stream size : 65.9 KiB (0%)
Title : Full
Language : Russian
Default : No
Forced : No
Text #2
ID : 5
Format : UTF-8
Codec ID : S_TEXT/UTF8
Codec ID/Info : UTF-8 Plain Text
Duration : 1 h 29 min
Bit rate : 76 b/s
Count of elements : 1802
Stream size : 50.1 KiB (0%)
Language : English
Default : No
Forced : No
Text #3
ID : 6
Format : UTF-8
Codec ID : S_TEXT/UTF8
Codec ID/Info : UTF-8 Plain Text
Duration : 1 h 29 min
Bit rate : 76 b/s
Count of elements : 1920
Stream size : 50.6 KiB (0%)
Language : Spanish
Default : No
Forced : No
Релиз от:

Kon912

Post 31-Jul-2020 22:18

[Quote]

Виселица / Hangman- Год выхода: 2017
Выпущено: США
Студия: Patriot Pictures, Cheyenne Enterprises
Жанр: триллер, криминал, детектив
Продолжительность: 01:38:33
Озвучивание #1: Профессиональное (многоголосое) | iTunes
Озвучивание #2: Профессиональное (многоголосое) | HDRezka Studio
Озвучивание #3: Профессиональное (многоголосое) | "Paradox" & Omskbird-Режиссер:
Джонни Мартин-В ролях:
Карл Урбан, Аль Пачино, Бриттани Сноу, Сара Шахи, Джо Андерсон, Жермен Риверс, Майкл Пападжон, Чили Рамос, Одесса Рэй, Стив Култер-О фильме:
На месте преступления коп и журналистка, пишущая о работе полиции, видят на столе вырезанные ножом цифры, которые соответствуют двум номерам полицейских жетонов: самого копа и другого полицейского, который уже вышел на пенсию. Логично, что его приглашают к расследованию и троица идёт по следам маньяка-убийцы, совершающего свои преступления каждые 24 часа. Все четверо связаны между собой разными жизненными обстоятельствами, но только один из них не ищет в преступлениях логики и здравого смысла, потому что понять это невозможно.- -Качество: BDRip 720p
Формат: MKV
Видео: MPEG-4 AVC, 12.4 Mb/s, 1920x804
Аудио #1: Russian: 48 kHz, AC3 Dolby Digital, 2/0 (L, R) ch, ~192 Kbps | iTunes
Аудио #2: Russian: 48 kHz, AC3 Dolby Digital, 2/0 (L, R) ch, ~384 Kbps | HDRezka Studio
Аудио #3: Russian: 48 kHz, AC3 Dolby Digital, 2/0 (L, R) ch, ~192 Kbps | "Paradox" & Omskbird
Аудио #4: English: 48 kHz, AC3 Dolby Digital, 3/2 (L, C, R, l, r) + LFE ch, ~640 Kbps | Original
Субтитры: English
Дополнительно: Сохранены оригинальные чаптеры.-

MI

Complete name: Hangman.2017.BDRip.1080p.ELEKTRI4KA.UNIONGANG.mkv
Format: Matroska
Format version: Version 4 / Version 2
File size: 9.52 GiB
Duration: 1 h 38 min
Overall bit rate: 13.8 Mb/s
Movie name: .ELEKTRI4KA.UNIONGANG.
Encoded date: UTC 2020-07-30 20:08:24
Writing application: mkvmerge v8.3.0 ('Over the Horizon') 64bit
Writing library: libebml v1.3.1 + libmatroska v1.4.2
Video
ID: 1
Format: AVC
Format/Info: Advanced Video Codec
Format profile: [email protected]
Format settings, CABAC: Yes
Format settings, Reference frames: 5 frames
Codec ID: V_MPEG4/ISO/AVC
Duration: 1 h 38 min
Bit rate: 12.4 Mb/s
Width: 1 920 pixels
Height: 804 pixels
Display aspect ratio: 2.40:1
Frame rate mode: Constant
Frame rate: 23.976 (24000/1001) FPS
Color space: YUV
Chroma subsampling: 4:2:0
Bit depth: 8 bits
Scan type: Progressive
Bits/(Pixel*Frame): 0.335
Stream size: 8.55 GiB (90%)
Writing library: x264 core 152 r2851+58 429492e t_mod_Custom [[email protected] X86_64]
Encoding settings: cabac=1 / ref=5 / deblock=1:-3:-3 / analyse=0x3:0x133 / me=umh / subme=11 / psy=1 / fade_compensate=0.00 / psy_rd=1.05:0.00 / mixed_ref=1 / me_range=64 / chroma_me=1 / trellis=2 / 8x8dct=1 / cqm=0 / deadzone=21, 11 / fast_pskip=0 / chroma_qp_offset=-2 / threads=6 / lookahead_threads=1 / sliced_threads=0 / nr=0 / decimate=0 / interlaced=0 / bluray_compat=0 / constrained_intra=0 / fgo=0 / bframes=8 / b_pyramid=2 / b_adapt=2 / b_bias=0 / direct=3 / weightb=1 / open_gop=0 / weightp=2 / keyint=250 / keyint_min=23 / scenecut=40 / intra_refresh=0 / rc_lookahead=60 / rc=crf / mbtree=0 / crf=17.7000 / qcomp=0.65 / qpmin=0:0:0 / qpmax=69:69:69 / qpstep=4 / vbv_maxrate=62500 / vbv_bufsize=78125 / crf_max=0.0 / nal_hrd=none / filler=0 / ip_ratio=1.30 / pb_ratio=1.20 / aq=3:0.65 / aq-sensitivity=10.00 / aq-factor=1.00:1.00:1.00 / aq2=0 / aq3=0 / zones=0, 1297, b=2/4700, 7118, b=1.5/9543, 14950, b=1.5/23044, 26643, b=1.5/28625, 28722, b=2/34163, 39261, b=1.5/40280, 41200, b=1.5/42925, 52121, b=2/62549, 66383, b=2/74600, 75388, b=1.5/86889, 90240, b=1.5
Language: English
Default: Yes
Forced: No
Color range: Limited
Matrix coefficients: BT.709
Audio #1
ID: 2
Format: AC-3
Format/Info: Audio Coding 3
Mode extension: CM (complete main)
Format settings, Endianness: Big
Codec ID: A_AC3
Duration: 1 h 38 min
Bit rate mode: Constant
Bit rate: 192 kb/s
Channel(s): 2 channels
Channel positions: Front: L R
Sampling rate: 48.0 kHz
Frame rate: 31.250 FPS (1536 spf)
Bit depth: 16 bits
Compression mode: Lossy
Stream size: 135 MiB (1%)
Title: MVO [iTunes]
Language: Russian
Default: Yes
Forced: Yes
Audio #2
ID: 3
Format: AC-3
Format/Info: Audio Coding 3
Mode extension: CM (complete main)
Format settings, Endianness: Big
Codec ID: A_AC3
Duration: 1 h 38 min
Bit rate mode: Constant
Bit rate: 384 kb/s
Channel(s): 2 channels
Channel positions: Front: L R
Sampling rate: 48.0 kHz
Frame rate: 31.250 FPS (1536 spf)
Bit depth: 16 bits
Compression mode: Lossy
Stream size: 271 MiB (3%)
Title: MVO [HDRezka Studio]
Language: Russian
Default: No
Forced: No
Audio #3
ID: 4
Format: AC-3
Format/Info: Audio Coding 3
Mode extension: CM (complete main)
Format settings, Endianness: Big
Codec ID: A_AC3
Duration: 1 h 38 min
Bit rate mode: Constant
Bit rate: 192 kb/s
Channel(s): 2 channels
Channel positions: Front: L R
Sampling rate: 48.0 kHz
Frame rate: 31.250 FPS (1536 spf)
Bit depth: 16 bits
Compression mode: Lossy
Stream size: 135 MiB (1%)
Title: MVO [Paradox & Omskbird]
Language: Russian
Default: No
Forced: No
Audio #4
ID: 5
Format: AC-3
Format/Info: Audio Coding 3
Mode extension: CM (complete main)
Format settings, Endianness: Big
Codec ID: A_AC3
Duration: 1 h 38 min
Bit rate mode: Constant
Bit rate: 640 kb/s
Channel(s): 6 channels
Channel positions: Front: L C R, Side: L R, LFE
Sampling rate: 48.0 kHz
Frame rate: 31.250 FPS (1536 spf)
Bit depth: 16 bits
Compression mode: Lossy
Stream size: 451 MiB (5%)
Title: Original
Language: English
Default: No
Forced: No
Text
ID: 6
Format: UTF-8
Codec ID: S_TEXT/UTF8
Codec ID/Info: UTF-8 Plain Text
Duration: 1 h 37 min
Bit rate: 62 b/s
Count of elements: 1393
Stream size: 44.7 KiB (0%)
Language: English
Default: No
Forced: No
Menu
00:00:00.000: en:CHAPTER01
00:06:34.311: en:CHAPTER02
00:14:04.302: en:CHAPTER03
00:18:31.277: en:CHAPTER04
00:23:44.882: en:CHAPTER05
00:30:21.862: en:CHAPTER06
00:36:13.922: en:CHAPTER07
00:42:59.744: en:CHAPTER08
00:51:42.224: en:CHAPTER09
00:57:23.815: en:CHAPTER10
01:00:11.441: en:CHAPTER11
01:09:00.178: en:CHAPTER12
01:13:32.658: en:CHAPTER13
01:20:24.820: en:CHAPTER14
01:29:09.511: en:CHAPTER15
01:34:28.663: en:CHAPTER16

Скриншоты

     

Спасибо Релиз группам: ELEKTRI4KA и UNIONGANG

Kon912

Post 31-Jul-2020 22:18

[Quote]

Виселица / Hangman- Год выхода: 2017
Выпущено: США
Студия: Patriot Pictures, Cheyenne Enterprises
Жанр: триллер, криминал, детектив
Продолжительность: 01:38:33
Озвучивание #1: Профессиональное (многоголосое) | iTunes
Озвучивание #2: Профессиональное (многоголосое) | HDRezka Studio
Озвучивание #3: Профессиональное (многоголосое) | "Paradox" & Omskbird-Режиссер:
Джонни Мартин-В ролях:
Карл Урбан, Аль Пачино, Бриттани Сноу, Сара Шахи, Джо Андерсон, Жермен Риверс, Майкл Пападжон, Чили Рамос, Одесса Рэй, Стив Култер-О фильме:
На месте преступления коп и журналистка, пишущая о работе полиции, видят на столе вырезанные ножом цифры, которые соответствуют двум номерам полицейских жетонов: самого копа и другого полицейского, который уже вышел на пенсию. Логично, что его приглашают к расследованию и троица идёт по следам маньяка-убийцы, совершающего свои преступления каждые 24 часа. Все четверо связаны между собой разными жизненными обстоятельствами, но только один из них не ищет в преступлениях логики и здравого смысла, потому что понять это невозможно.- -Качество: BDRip 720p
Формат: MKV
Видео: MPEG-4 AVC, 6032 Kb/s, 1280x536
Аудио #1: Russian: 48 kHz, AC3 Dolby Digital, 2/0 (L, R) ch, ~192 Kbps | iTunes
Аудио #2: Russian: 48 kHz, AC3 Dolby Digital, 2/0 (L, R) ch, ~384 Kbps | HDRezka Studio
Аудио #3: Russian: 48 kHz, AC3 Dolby Digital, 2/0 (L, R) ch, ~192 Kbps | "Paradox" & Omskbird
Аудио #4: English: 48 kHz, AC3 Dolby Digital, 3/2 (L, C, R, l, r) + LFE ch, ~640 Kbps | Original
Субтитры: English
Дополнительно: Сохранены оригинальные чаптеры.-

MI

Complete name: D:\Hangman.2017.BDRip.720p.ELEKTRI4KA.UNIONGANG.mkv
Format: Matroska
Format version: Version 4 / Version 2
File size: 5.12 GiB
Duration: 1 h 38 min
Overall bit rate: 7 443 kb/s
Movie name: .ELEKTRI4KA.UNIONGANG.
Encoded date: UTC 2020-07-30 20:44:10
Writing application: mkvmerge v8.3.0 ('Over the Horizon') 64bit
Writing library: libebml v1.3.1 + libmatroska v1.4.2
Cover: Yes
Attachments: cover.jpg / cover land.jpg
Video
ID: 1
Format: AVC
Format/Info: Advanced Video Codec
Format profile: [email protected]
Format settings, CABAC: Yes
Format settings, Reference frames: 12 frames
Codec ID: V_MPEG4/ISO/AVC
Duration: 1 h 38 min
Bit rate: 6 032 kb/s
Width: 1 280 pixels
Height: 536 pixels
Display aspect ratio: 2.40:1
Frame rate mode: Constant
Frame rate: 23.976 (24000/1001) FPS
Color space: YUV
Chroma subsampling: 4:2:0
Bit depth: 8 bits
Scan type: Progressive
Bits/(Pixel*Frame): 0.367
Stream size: 4.15 GiB (81%)
Writing library: x264 core 152 r2851+58 429492e t_mod_Custom [[email protected] X86_64]
Encoding settings: cabac=1 / ref=12 / deblock=1:-3:-3 / analyse=0x3:0x133 / me=umh / subme=11 / psy=1 / fade_compensate=0.00 / psy_rd=1.05:0.00 / mixed_ref=1 / me_range=64 / chroma_me=1 / trellis=2 / 8x8dct=1 / cqm=0 / deadzone=21, 11 / fast_pskip=0 / chroma_qp_offset=-2 / threads=6 / lookahead_threads=1 / sliced_threads=0 / nr=0 / decimate=0 / interlaced=0 / bluray_compat=0 / constrained_intra=0 / fgo=0 / bframes=8 / b_pyramid=2 / b_adapt=2 / b_bias=0 / direct=3 / weightb=1 / open_gop=0 / weightp=2 / keyint=250 / keyint_min=23 / scenecut=40 / intra_refresh=0 / rc_lookahead=60 / rc=crf / mbtree=0 / crf=17.0000 / qcomp=0.65 / qpmin=0:0:0 / qpmax=69:69:69 / qpstep=4 / vbv_maxrate=62500 / vbv_bufsize=78125 / crf_max=0.0 / nal_hrd=none / filler=0 / ip_ratio=1.30 / pb_ratio=1.20 / aq=3:0.65 / aq-sensitivity=10.00 / aq-factor=1.00:1.00:1.00 / aq2=0 / aq3=0 / zones=0, 1297, b=2/4700, 7118, b=1.5/9543, 14950, b=1.5/23044, 26643, b=1.5/28625, 28722, b=2/34163, 39261, b=1.5/40280, 41200, b=1.5/42925, 52121, b=2/62549, 66383, b=2/74600, 75388, b=1.5/86889, 90240, b=1.5
Language: English
Default: Yes
Forced: No
Color range: Limited
Matrix coefficients: BT.709
Audio #1
ID: 2
Format: AC-3
Format/Info: Audio Coding 3
Mode extension: CM (complete main)
Format settings, Endianness: Big
Codec ID: A_AC3
Duration: 1 h 38 min
Bit rate mode: Constant
Bit rate: 192 kb/s
Channel(s): 2 channels
Channel positions: Front: L R
Sampling rate: 48.0 kHz
Frame rate: 31.250 FPS (1536 spf)
Bit depth: 16 bits
Compression mode: Lossy
Stream size: 135 MiB (3%)
Title: MVO [iTunes]
Language: Russian
Default: Yes
Forced: Yes
Audio #2
ID: 3
Format: AC-3
Format/Info: Audio Coding 3
Mode extension: CM (complete main)
Format settings, Endianness: Big
Codec ID: A_AC3
Duration: 1 h 38 min
Bit rate mode: Constant
Bit rate: 384 kb/s
Channel(s): 2 channels
Channel positions: Front: L R
Sampling rate: 48.0 kHz
Frame rate: 31.250 FPS (1536 spf)
Bit depth: 16 bits
Compression mode: Lossy
Stream size: 271 MiB (5%)
Title: MVO [HDRezka Studio]
Language: Russian
Default: No
Forced: No
Audio #3
ID: 4
Format: AC-3
Format/Info: Audio Coding 3
Mode extension: CM (complete main)
Format settings, Endianness: Big
Codec ID: A_AC3
Duration: 1 h 38 min
Bit rate mode: Constant
Bit rate: 192 kb/s
Channel(s): 2 channels
Channel positions: Front: L R
Sampling rate: 48.0 kHz
Frame rate: 31.250 FPS (1536 spf)
Bit depth: 16 bits
Compression mode: Lossy
Stream size: 135 MiB (3%)
Title: MVO [Paradox & Omskbird]
Language: Russian
Default: No
Forced: No
Audio #4
ID: 5
Format: AC-3
Format/Info: Audio Coding 3
Mode extension: CM (complete main)
Format settings, Endianness: Big
Codec ID: A_AC3
Duration: 1 h 38 min
Bit rate mode: Constant
Bit rate: 640 kb/s
Channel(s): 6 channels
Channel positions: Front: L C R, Side: L R, LFE
Sampling rate: 48.0 kHz
Frame rate: 31.250 FPS (1536 spf)
Bit depth: 16 bits
Compression mode: Lossy
Stream size: 451 MiB (9%)
Title: Original
Language: English
Default: No
Forced: No
Text
ID: 6
Format: UTF-8
Codec ID: S_TEXT/UTF8
Codec ID/Info: UTF-8 Plain Text
Duration: 1 h 37 min
Bit rate: 62 b/s
Count of elements: 1393
Stream size: 44.7 KiB (0%)
Language: English
Default: No
Forced: No
Menu
00:00:00.000: en:CHAPTER01
00:06:34.311: en:CHAPTER02
00:14:04.302: en:CHAPTER03
00:18:31.277: en:CHAPTER04
00:23:44.882: en:CHAPTER05
00:30:21.862: en:CHAPTER06
00:36:13.922: en:CHAPTER07
00:42:59.744: en:CHAPTER08
00:51:42.224: en:CHAPTER09
00:57:23.815: en:CHAPTER10
01:00:11.441: en:CHAPTER11
01:09:00.178: en:CHAPTER12
01:13:32.658: en:CHAPTER13
01:20:24.820: en:CHAPTER14
01:29:09.511: en:CHAPTER15
01:34:28.663: en:CHAPTER16

Скриншоты

     

Спасибо Релиз группам: ELEKTRI4KA и UNIONGANG

Kon912

Post 31-Jul-2020 22:17

[Quote]

Связь / Coherence- Год выхода: 2013
Страна: США, Великобритания
Студия: Bellanova Films, Ugly Duckling Films
Жанр: Ужасы, фантастика, триллер, драма, детектив
Продолжительность: 01:28:06
Перевод: Профессиональный (многоголосый закадровый) | iTunes-Режиссер:
Джеймс Уорд Биркит-В ролях:
Эмили Бальдони, Мори Стерлинг, Николас Брендон, Лорин Скафария, Элизабет Грэйсен, Хьюго Армстронг, Алекс Манугян, Лорен Мехер, Акилла Золл, Кэрри Паттерсон и др.-О фильме:
В ночь падения кометы на званом ужине собираются восемь друзей. Наслаждаясь общением, они даже не подозревают о грядущих изменениях и во время непринужденной беседы становятся участниками цепи странных и загадочных событий. Игры с прошлым, настоящим и будущим.- -Качество: BDRip 1080p
Формат: MKV
Видео: MPEG-4 AVC, 1920x818, 11500 kbps, 23,976 fps
Звук#1: русский, AC3, 5.1 ch, 48 kHz, 384 kbps | iTunes
Звук#2: английский, AC3, 5.1 ch, 48 kHz, 448 kbps | оригинал
Субтитры: русские (полные (Janetta, Beliar)), английские (полные)-

MI

Общее
Уникальный идентификатор : 181523589766683781115059513938471167732 (0x88902BF57A1DFEFD8A2CF2E6F4CE26F4)
Полное имя : E:Torrent4SvyazBDRip1080p.mkv
Формат : Matroska
Версия формата : Version 4 / Version 2
Размер файла : 7,59 Гбайт
Продолжительность : 1 ч. 28 м.
Общий поток : 12,3 Мбит/сек
Дата кодирования : UTC 2020-07-30 16:50:00
Программа кодирования : mkvmerge v9.5.0 ('Quiet Fire') 64bit
Библиотека кодирования : libebml v1.3.4 + libmatroska v1.4.5
Видео
Идентификатор : 1
Формат : AVC
Формат/Информация : Advanced Video Codec
Профиль формата : [email protected]
Настройки формата : CABAC / 5 Ref Frames
Параметр CABAC формата : Да
Параметр RefFrames формата : 5 кадров
Идентификатор кодека : V_MPEG4/ISO/AVC
Продолжительность : 1 ч. 28 м.
Битрейт : 11,5 Мбит/сек
Ширина : 1920 пикселей
Высота : 818 пикселей
Соотношение сторон : 2,35:1
Режим частоты кадров : Постоянный
Частота кадров : 23,976 (23976/1000) кадра/сек
Цветовое пространство : YUV
Субдискретизация насыщенности : 4:2:0
Битовая глубина : 8 бит
Тип развёртки : Прогрессивная
Бит/(Пиксели*Кадры) : 0.305
Размер потока : 7,08 Гбайт (93%)
Заголовок : Sisendrovich(R)
Библиотека кодирования : x264 core 159 r2991 1771b55
Настройки программы : cabac=1 / ref=5 / deblock=1:-1:-1 / analyse=0x3:0x133 / me=tesa / subme=11 / psy=1 / psy_rd=1.00:0.00 / mixed_ref=1 / me_range=32 / chroma_me=1 / trellis=2 / 8x8dct=1 / cqm=0 / deadzone=21,11 / fast_pskip=0 / chroma_qp_offset=-2 / threads=24 / lookahead_threads=6 / sliced_threads=0 / nr=0 / decimate=0 / interlaced=0 / bluray_compat=0 / constrained_intra=0 / bframes=12 / b_pyramid=2 / b_adapt=2 / b_bias=0 / direct=3 / weightb=1 / open_gop=0 / weightp=2 / keyint=240 / keyint_min=23 / scenecut=40 / intra_refresh=0 / rc_lookahead=60 / rc=2pass / mbtree=0 / bitrate=11500 / ratetol=1.0 / qcomp=0.70 / qpmin=0 / qpmax=69 / qpstep=4 / cplxblur=20.0 / qblur=0.5 / vbv_maxrate=50000 / vbv_bufsize=62500 / nal_hrd=none / filler=0 / ip_ratio=1.40 / pb_ratio=1.30 / aq=3:0.90
Язык : English
Default : Да
Forced : Нет
Аудио #1
Идентификатор : 2
Формат : AC-3
Формат/Информация : Audio Coding 3
Параметр Endianness формата : Big
Идентификатор кодека : A_AC3
Продолжительность : 1 ч. 27 м.
Вид битрейта : Постоянный
Битрейт : 384 Кбит/сек
Каналы : 6 каналов
Расположение каналов : Front: L C R, Side: L R, LFE
Частота : 48,0 КГц
Частота кадров : 31,250 кадров/сек (1536 SPF)
Битовая глубина : 16 бит
Метод сжатия : С потерями
Размер потока : 242 Мбайт (3%)
Заголовок : rus
Язык : Russian
Default : Да
Forced : Нет
Аудио #2
Идентификатор : 3
Формат : AC-3
Формат/Информация : Audio Coding 3
Параметр Endianness формата : Big
Идентификатор кодека : A_AC3
Продолжительность : 1 ч. 27 м.
Вид битрейта : Постоянный
Битрейт : 448 Кбит/сек
Каналы : 6 каналов
Расположение каналов : Front: L C R, Side: L R, LFE
Частота : 48,0 КГц
Частота кадров : 31,250 кадров/сек (1536 SPF)
Битовая глубина : 16 бит
Метод сжатия : С потерями
Размер потока : 282 Мбайт (4%)
Заголовок : eng
Язык : English
Default : Нет
Forced : Нет
Текст #1
Идентификатор : 4
Формат : UTF-8
Идентификатор кодека : S_TEXT/UTF8
Идентификатор кодека/Информация : UTF-8 Plain Text
Продолжительность : 1 ч. 26 м.
Битрейт : 150 бит/сек
ElementCount : 1470
Размер потока : 95,2 Кбайт (0%)
Заголовок : rusFull
Язык : Russian
Default : Нет
Forced : Нет
Текст #2
Идентификатор : 5
Формат : UTF-8
Идентификатор кодека : S_TEXT/UTF8
Идентификатор кодека/Информация : UTF-8 Plain Text
Продолжительность : 1 ч. 27 м.
Битрейт : 95 бит/сек
ElementCount : 1695
Размер потока : 61,1 Кбайт (0%)
Заголовок : engFull
Язык : English
Default : Нет
Forced : Нет
Меню
00:00:00.000 : en:00:00:00.000
00:15:40.773 : en:00:15:40.773
00:22:39.692 : en:00:22:39.692
00:36:17.425 : en:00:36:17.425
00:42:17.368 : en:00:42:17.368
00:56:26.133 : en:00:56:26.133
01:06:07.964 : en:01:06:07.964
01:15:05.835 : en:01:15:05.835
01:23:38.764 : en:01:23:38.764

Скриншоты

       
Рип и релиз от:

Kon912

Post 31-Jul-2020 22:17

[Quote]

Связь / Coherence- Год выхода: 2013
Страна: США, Великобритания
Студия: Bellanova Films, Ugly Duckling Films
Жанр: Ужасы, фантастика, триллер, драма, детектив
Продолжительность: 01:28:06
Перевод: Профессиональный (многоголосый закадровый) | iTunes-Режиссер:
Джеймс Уорд Биркит-В ролях:
Эмили Бальдони, Мори Стерлинг, Николас Брендон, Лорин Скафария, Элизабет Грэйсен, Хьюго Армстронг, Алекс Манугян, Лорен Мехер, Акилла Золл, Кэрри Паттерсон и др.-О фильме:
В ночь падения кометы на званом ужине собираются восемь друзей. Наслаждаясь общением, они даже не подозревают о грядущих изменениях и во время непринужденной беседы становятся участниками цепи странных и загадочных событий. Игры с прошлым, настоящим и будущим.- -Качество: BDRip 720p
Формат: MKV
Видео: MPEG-4 AVC, 1280x546, 5739 kbps, 23,976 fps
Звук#1: русский, AC3, 5.1 ch, 48 kHz, 384 kbps | iTunes
Звук#2: английский, AC3, 5.1 ch, 48 kHz, 448 kbps | оригинал
Субтитры: русские (полные (Janetta, Beliar)), английские (полные)-

MI

Общее
Уникальный идентификатор : 204186428959836193234122158658792510689 (0x999CE032EDFC9260A3C746DCDB98D4E1)
Полное имя : E:Torrent4SvyazBDRip720p.mkv
Формат : Matroska
Версия формата : Version 4 / Version 2
Размер файла : 4,04 Гбайт
Продолжительность : 1 ч. 28 м.
Общий поток : 6572 Кбит/сек
Дата кодирования : UTC 2020-07-30 16:47:51
Программа кодирования : mkvmerge v9.5.0 ('Quiet Fire') 64bit
Библиотека кодирования : libebml v1.3.4 + libmatroska v1.4.5
Видео
Идентификатор : 1
Формат : AVC
Формат/Информация : Advanced Video Codec
Профиль формата : [email protected]
Настройки формата : CABAC / 11 Ref Frames
Параметр CABAC формата : Да
Параметр RefFrames формата : 11 кадров
Идентификатор кодека : V_MPEG4/ISO/AVC
Продолжительность : 1 ч. 28 м.
Битрейт : 5739 Кбит/сек
Ширина : 1280 пикселей
Высота : 546 пикселей
Соотношение сторон : 2,35:1
Режим частоты кадров : Постоянный
Частота кадров : 23,976 (23976/1000) кадра/сек
Цветовое пространство : YUV
Субдискретизация насыщенности : 4:2:0
Битовая глубина : 8 бит
Тип развёртки : Прогрессивная
Бит/(Пиксели*Кадры) : 0.342
Размер потока : 3,53 Гбайт (87%)
Заголовок : Sisendrovich(R)
Библиотека кодирования : x264 core 159 r2991 1771b55
Настройки программы : cabac=1 / ref=11 / deblock=1:-1:-1 / analyse=0x3:0x133 / me=tesa / subme=11 / psy=1 / psy_rd=1.00:0.00 / mixed_ref=1 / me_range=32 / chroma_me=1 / trellis=2 / 8x8dct=1 / cqm=0 / deadzone=21,11 / fast_pskip=0 / chroma_qp_offset=-2 / threads=17 / lookahead_threads=4 / sliced_threads=0 / nr=0 / decimate=0 / interlaced=0 / bluray_compat=0 / constrained_intra=0 / bframes=12 / b_pyramid=2 / b_adapt=2 / b_bias=0 / direct=3 / weightb=1 / open_gop=0 / weightp=2 / keyint=240 / keyint_min=23 / scenecut=40 / intra_refresh=0 / rc_lookahead=60 / rc=2pass / mbtree=0 / bitrate=5739 / ratetol=1.0 / qcomp=0.70 / qpmin=0 / qpmax=69 / qpstep=4 / cplxblur=20.0 / qblur=0.5 / vbv_maxrate=50000 / vbv_bufsize=62500 / nal_hrd=none / filler=0 / ip_ratio=1.40 / pb_ratio=1.30 / aq=3:0.90
Язык : English
Default : Да
Forced : Нет
Аудио #1
Идентификатор : 2
Формат : AC-3
Формат/Информация : Audio Coding 3
Параметр Endianness формата : Big
Идентификатор кодека : A_AC3
Продолжительность : 1 ч. 27 м.
Вид битрейта : Постоянный
Битрейт : 384 Кбит/сек
Каналы : 6 каналов
Расположение каналов : Front: L C R, Side: L R, LFE
Частота : 48,0 КГц
Частота кадров : 31,250 кадров/сек (1536 SPF)
Битовая глубина : 16 бит
Метод сжатия : С потерями
Размер потока : 242 Мбайт (6%)
Заголовок : rus
Язык : Russian
Default : Да
Forced : Нет
Аудио #2
Идентификатор : 3
Формат : AC-3
Формат/Информация : Audio Coding 3
Параметр Endianness формата : Big
Идентификатор кодека : A_AC3
Продолжительность : 1 ч. 27 м.
Вид битрейта : Постоянный
Битрейт : 448 Кбит/сек
Каналы : 6 каналов
Расположение каналов : Front: L C R, Side: L R, LFE
Частота : 48,0 КГц
Частота кадров : 31,250 кадров/сек (1536 SPF)
Битовая глубина : 16 бит
Метод сжатия : С потерями
Размер потока : 282 Мбайт (7%)
Заголовок : eng
Язык : English
Default : Нет
Forced : Нет
Текст #1
Идентификатор : 4
Формат : UTF-8
Идентификатор кодека : S_TEXT/UTF8
Идентификатор кодека/Информация : UTF-8 Plain Text
Продолжительность : 1 ч. 26 м.
Битрейт : 150 бит/сек
ElementCount : 1470
Размер потока : 95,2 Кбайт (0%)
Заголовок : rusFull
Язык : Russian
Default : Нет
Forced : Нет
Текст #2
Идентификатор : 5
Формат : UTF-8
Идентификатор кодека : S_TEXT/UTF8
Идентификатор кодека/Информация : UTF-8 Plain Text
Продолжительность : 1 ч. 27 м.
Битрейт : 95 бит/сек
ElementCount : 1695
Размер потока : 61,1 Кбайт (0%)
Заголовок : engFull
Язык : English
Default : Нет
Forced : Нет
Меню
00:00:00.000 : en:00:00:00.000
00:15:40.773 : en:00:15:40.773
00:22:39.692 : en:00:22:39.692
00:36:17.425 : en:00:36:17.425
00:42:17.368 : en:00:42:17.368
00:56:26.133 : en:00:56:26.133
01:06:07.964 : en:01:06:07.964
01:15:05.835 : en:01:15:05.835
01:23:38.764 : en:01:23:38.764

Скриншоты

       
Рип и релиз от:

Kon912

Post 30-Jul-2020 21:56

[Quote]

Туннель: Опасно для жизни / Tunnelen- Год выхода: 2019
Страна: Норвегия
Студия: Nordisk Film Production AS, Handmade films in Norwegian woods
Жанр: Триллер
Продолжительность: 01:43:44
Перевод: Дублированный | iTunes-Режиссер:
Пол Ойе-В ролях:
Торбьорн Харр, Ильва Фюглегуд, Лиза Карлехед, Миккель Братт Сильсет, Питер Форде, Даниэль Александер Скадаль, Пер Эгиль Аске, Тор Кристиан Блейкли, Ян Гуннар Рёйсе, Уильям Оскневад-О фильме:
Каждый день въезжая в туннель, думаете ли вы о том, что в нем нет аварийного выхода? Что вы будете делать, если начнется пожар? Сотни машин, тысячи людей оказались в плену между снежной бурей и бушующим пламенем. Им осталось надеяться только на себя.- -Качество: BDRemux 1080p
Формат: MKV
Видео: MPEG-4 AVC, 1920x1080, 24.0 Mbit/s, 24.000 fps
Аудио #01: 48 kHz, AC3, 5.1, 384 Kbps | iTunes | RUS |
Аудио #02: 48 kHz, DTS-HD MA, 5.1, 3925 Kbps | Оригинал | NOR |
Субтитры: Русские (Full), английские, норвежские-

Скриншоты

     

MI

General
Unique ID : 190770122372143586788675596199944098022 (0x8F84FD36C71DC7F4FFA66FED7E5590E6)
Complete name : E:Video111Tunnelen.2019.BDREMUX.1080p.seleZen.mkv
Format : Matroska
Format version : Version 4
File size : 20.5 GiB
Duration : 1 h 43 min
Overall bit rate mode : Variable
Overall bit rate : 28.3 Mb/s
Movie name : Tunnelen 2019 from seleZen
Encoded date : UTC 2020-07-30 06:53:33
Writing application : mkvmerge v40.0.0 ('Old Town Road + Pony') 64-bit
Writing library : libebml v1.3.9 + libmatroska v1.5.2
Video
ID : 1
Format : AVC
Format/Info : Advanced Video Codec
Format profile : [email protected]
Format settings : CABAC / 4 Ref Frames
Format settings, CABAC : Yes
Format settings, Reference frames : 4 frames
Format settings, GOP : M=3, N=12
Codec ID : V_MPEG4/ISO/AVC
Duration : 1 h 43 min
Bit rate mode : Variable
Bit rate : 24.0 Mb/s
Maximum bit rate : 35.0 Mb/s
Width : 1 920 pixels
Height : 1 080 pixels
Display aspect ratio : 16:9
Frame rate mode : Constant
Frame rate : 24.000 FPS
Standard : NTSC
Color space : YUV
Chroma subsampling : 4:2:0
Bit depth : 8 bits
Scan type : Progressive
Bits/(Pixel*Frame) : 0.482
Stream size : 17.4 GiB (85%)
Language : Norwegian
Default : Yes
Forced : No
Color range : Limited
Color primaries : BT.709
Transfer characteristics : BT.709
Matrix coefficients : BT.709
Audio #1
ID : 2
Format : AC-3
Format/Info : Audio Coding 3
Commercial name : Dolby Digital
Codec ID : A_AC3
Duration : 1 h 43 min
Bit rate mode : Constant
Bit rate : 384 kb/s
Channel(s) : 6 channels
Channel layout : L R C LFE Ls Rs
Sampling rate : 48.0 kHz
Frame rate : 31.250 FPS (1536 SPF)
Compression mode : Lossy
Stream size : 285 MiB (1%)
Title : iTunes
Language : Russian
Service kind : Complete Main
Default : Yes
Forced : Yes
Audio #2
ID : 3
Format : DTS XLL
Format/Info : Digital Theater Systems
Commercial name : DTS-HD Master Audio
Codec ID : A_DTS
Duration : 1 h 43 min
Bit rate mode : Variable
Bit rate : 3 925 kb/s
Channel(s) : 6 channels
Channel layout : C L R Ls Rs LFE
Sampling rate : 48.0 kHz
Frame rate : 93.750 FPS (512 SPF)
Bit depth : 24 bits
Compression mode : Lossless
Stream size : 2.84 GiB (14%)
Title : Original
Language : Norwegian
Default : No
Forced : No
Text #1
ID : 4
Format : UTF-8
Codec ID : S_TEXT/UTF8
Codec ID/Info : UTF-8 Plain Text
Duration : 1 h 37 min
Bit rate : 78 b/s
Count of elements : 1488
Stream size : 56.1 KiB (0%)
Title : Full
Language : Russian
Default : No
Forced : No
Text #2
ID : 5
Format : UTF-8
Codec ID : S_TEXT/UTF8
Codec ID/Info : UTF-8 Plain Text
Duration : 1 h 38 min
Bit rate : 40 b/s
Count of elements : 783
Stream size : 29.5 KiB (0%)
Title : Full
Language : English
Default : No
Forced : No
Text #3
ID : 6
Format : UTF-8
Codec ID : S_TEXT/UTF8
Codec ID/Info : UTF-8 Plain Text
Duration : 1 h 39 min
Bit rate : 4 b/s
Count of elements : 96
Stream size : 2.92 KiB (0%)
Title : for foreign parts
Language : Norwegian
Default : No
Forced : No
Text #4
ID : 7
Format : UTF-8
Codec ID : S_TEXT/UTF8
Codec ID/Info : UTF-8 Plain Text
Duration : 1 h 41 min
Bit rate : 37 b/s
Count of elements : 797
Stream size : 27.8 KiB (0%)
Title : for hearing impaired
Language : Norwegian
Default : No
Forced : No
Text #5
ID : 8
Format : UTF-8
Codec ID : S_TEXT/UTF8
Codec ID/Info : UTF-8 Plain Text
Duration : 1 h 41 min
Bit rate : 36 b/s
Count of elements : 751
Stream size : 27.2 KiB (0%)
Language : Norwegian
Default : No
Forced : No
Menu
00:00:00.000 : no:Глава 01
00:10:05.708 : no:Глава 02
00:20:20.125 : no:Глава 03
00:30:51.458 : no:Глава 04
00:40:53.625 : no:Глава 05
00:51:45.750 : no:Глава 06
01:01:58.208 : no:Глава 07
01:12:20.750 : no:Глава 08
01:22:55.958 : no:Глава 09
01:33:29.417 : no:Глава 10
Релиз от:

Kon912

Post 30-Jul-2020 21:55

[Quote]

Туннель: Опасно для жизни / Tunnelen- Год выхода: 2019
Страна: Норвегия
Студия: Nordisk Film Production AS, Handmade films in Norwegian woods
Жанр: Триллер
Продолжительность: 01:43:44
Перевод: Дублированный | iTunes-Режиссер:
Пол Ойе-В ролях:
Торбьорн Харр, Ильва Фюглегуд, Лиза Карлехед, Миккель Братт Сильсет, Питер Форде, Даниэль Александер Скадаль, Пер Эгиль Аске, Тор Кристиан Блейкли, Ян Гуннар Рёйсе, Уильям Оскневад-О фильме:
Каждый день въезжая в туннель, думаете ли вы о том, что в нем нет аварийного выхода? Что вы будете делать, если начнется пожар? Сотни машин, тысячи людей оказались в плену между снежной бурей и бушующим пламенем. Им осталось надеяться только на себя.- -Качество: BDRip 1080p
Формат: MKV
Видео: MPEG-4 AVC, 1920x804, 9279 Kbit/s, 24.000 fps
Аудио #01: 48 kHz, AC3, 5.1, 384 Kbps | iTunes | RUS |
Аудио #02: 48 kHz, AC3, 5.1, 640 Kbps | Оригинал | NOR |
Субтитры: Русские (Full), английские, норвежские-

Скриншоты

     

MI

General
Unique ID : 71396305102235984974623193257952539919 (0x35B66D9DF54A6ACF3F1BB2736F25F50F)
Complete name : E:Video111Tunnelen.2019.BDRip.1080p.seleZen.mkv
Format : Matroska
Format version : Version 4
File size : 7.47 GiB
Duration : 1 h 43 min
Overall bit rate : 10.3 Mb/s
Movie name : Tunnelen 2019 from seleZen
Encoded date : UTC 2020-07-30 10:15:40
Writing application : mkvmerge v40.0.0 ('Old Town Road + Pony') 64-bit
Writing library : libebml v1.3.9 + libmatroska v1.5.2
Video
ID : 1
Format : AVC
Format/Info : Advanced Video Codec
Format profile : [email protected]
Format settings : CABAC / 5 Ref Frames
Format settings, CABAC : Yes
Format settings, Reference frames : 5 frames
Codec ID : V_MPEG4/ISO/AVC
Duration : 1 h 43 min
Bit rate : 9 279 kb/s
Width : 1 920 pixels
Height : 804 pixels
Display aspect ratio : 2.40:1
Frame rate mode : Constant
Frame rate : 24.000 FPS
Color space : YUV
Chroma subsampling : 4:2:0
Bit depth : 8 bits
Scan type : Progressive
Bits/(Pixel*Frame) : 0.250
Stream size : 6.72 GiB (90%)
Writing library : x264 core 157 r2969 d4099dd
Encoding settings : cabac=1 / ref=5 / deblock=1:-2:-2 / analyse=0x3:0x113 / me=umh / subme=10 / psy=1 / psy_rd=1.00:0.00 / mixed_ref=1 / me_range=32 / chroma_me=1 / trellis=2 / 8x8dct=1 / cqm=0 / deadzone=21,11 / fast_pskip=0 / chroma_qp_offset=-2 / threads=24 / lookahead_threads=4 / sliced_threads=0 / nr=0 / decimate=0 / interlaced=0 / bluray_compat=0 / constrained_intra=0 / bframes=9 / b_pyramid=2 / b_adapt=2 / b_bias=0 / direct=3 / weightb=1 / open_gop=0 / weightp=2 / keyint=230 / keyint_min=23 / scenecut=40 / intra_refresh=0 / rc_lookahead=40 / rc=crf / mbtree=0 / crf=16.8 / qcomp=0.60 / qpmin=0 / qpmax=51 / qpstep=4 / vbv_maxrate=50000 / vbv_bufsize=62000 / crf_max=0.0 / nal_hrd=none / filler=0 / ip_ratio=1.40 / pb_ratio=1.30 / aq=3:0.80
Default : Yes
Forced : No
Audio #1
ID : 2
Format : AC-3
Format/Info : Audio Coding 3
Commercial name : Dolby Digital
Codec ID : A_AC3
Duration : 1 h 43 min
Bit rate mode : Constant
Bit rate : 384 kb/s
Channel(s) : 6 channels
Channel layout : L R C LFE Ls Rs
Sampling rate : 48.0 kHz
Frame rate : 31.250 FPS (1536 SPF)
Compression mode : Lossy
Stream size : 285 MiB (4%)
Title : iTunes
Language : Russian
Service kind : Complete Main
Default : Yes
Forced : Yes
Audio #2
ID : 3
Format : AC-3
Format/Info : Audio Coding 3
Commercial name : Dolby Digital
Codec ID : A_AC3
Duration : 1 h 43 min
Bit rate mode : Constant
Bit rate : 640 kb/s
Channel(s) : 6 channels
Channel layout : L R C LFE Ls Rs
Sampling rate : 48.0 kHz
Frame rate : 31.250 FPS (1536 SPF)
Compression mode : Lossy
Stream size : 475 MiB (6%)
Title : Original
Language : Norwegian
Service kind : Complete Main
Default : No
Forced : No
Text #1
ID : 4
Format : UTF-8
Codec ID : S_TEXT/UTF8
Codec ID/Info : UTF-8 Plain Text
Duration : 1 h 37 min
Bit rate : 78 b/s
Count of elements : 1488
Stream size : 56.1 KiB (0%)
Title : Full
Language : Russian
Default : No
Forced : No
Text #2
ID : 5
Format : UTF-8
Codec ID : S_TEXT/UTF8
Codec ID/Info : UTF-8 Plain Text
Duration : 1 h 38 min
Bit rate : 40 b/s
Count of elements : 783
Stream size : 29.5 KiB (0%)
Title : Full
Language : English
Default : No
Forced : No
Text #3
ID : 6
Format : UTF-8
Codec ID : S_TEXT/UTF8
Codec ID/Info : UTF-8 Plain Text
Duration : 1 h 39 min
Bit rate : 4 b/s
Count of elements : 96
Stream size : 2.92 KiB (0%)
Title : for foreign parts
Language : Norwegian
Default : No
Forced : No
Text #4
ID : 7
Format : UTF-8
Codec ID : S_TEXT/UTF8
Codec ID/Info : UTF-8 Plain Text
Duration : 1 h 41 min
Bit rate : 37 b/s
Count of elements : 797
Stream size : 27.8 KiB (0%)
Title : for hearing impaired
Language : Norwegian
Default : No
Forced : No
Text #5
ID : 8
Format : UTF-8
Codec ID : S_TEXT/UTF8
Codec ID/Info : UTF-8 Plain Text
Duration : 1 h 41 min
Bit rate : 36 b/s
Count of elements : 751
Stream size : 27.2 KiB (0%)
Language : Norwegian
Default : No
Forced : No
Menu
00:00:00.000 : no:Глава 01
00:10:05.708 : no:Глава 02
00:20:20.125 : no:Глава 03
00:30:51.458 : no:Глава 04
00:40:53.625 : no:Глава 05
00:51:45.750 : no:Глава 06
01:01:58.208 : no:Глава 07
01:12:20.750 : no:Глава 08
01:22:55.958 : no:Глава 09
01:33:29.417 : no:Глава 10
Релиз от:

Kon912

Post 30-Jul-2020 21:55

[Quote]

Туннель: Опасно для жизни / Tunnelen- Год выхода: 2019
Страна: Норвегия
Студия: Nordisk Film Production AS, Handmade films in Norwegian woods
Жанр: Триллер
Продолжительность: 01:43:44
Перевод: Дублированный | iTunes-Режиссер:
Пол Ойе-В ролях:
Торбьорн Харр, Ильва Фюглегуд, Лиза Карлехед, Миккель Братт Сильсет, Питер Форде, Даниэль Александер Скадаль, Пер Эгиль Аске, Тор Кристиан Блейкли, Ян Гуннар Рёйсе, Уильям Оскневад-О фильме:
Каждый день въезжая в туннель, думаете ли вы о том, что в нем нет аварийного выхода? Что вы будете делать, если начнется пожар? Сотни машин, тысячи людей оказались в плену между снежной бурей и бушующим пламенем. Им осталось надеяться только на себя.- -Качество: BDRip 720p
Формат: MKV
Видео: MPEG-4 AVC, 1280x536, 3178 Kbit/s, 24.000 fps
Аудио #01: 48 kHz, AC3, 5.1, 384 Kbps | iTunes | RUS |
Аудио #02: 48 kHz, AC3, 5.1, 640 Kbps | Оригинал | NOR |
Субтитры: Русские (Full), английские, норвежские-

Скриншоты

     

MI

General
Unique ID : 156377140671643121877907591228185809475 (0x75A5244BF00CBC301E706578FB7A9243)
Complete name : E:Video111Tunnelen.2019.BDRip.720p.seleZen.mkv
Format : Matroska
Format version : Version 4
File size : 3.05 GiB
Duration : 1 h 43 min
Overall bit rate : 4 204 kb/s
Movie name : Tunnelen 2019 from seleZen
Encoded date : UTC 2020-07-30 11:53:04
Writing application : mkvmerge v40.0.0 ('Old Town Road + Pony') 64-bit
Writing library : libebml v1.3.9 + libmatroska v1.5.2
Video
ID : 1
Format : AVC
Format/Info : Advanced Video Codec
Format profile : [email protected]
Format settings : CABAC / 12 Ref Frames
Format settings, CABAC : Yes
Format settings, Reference frames : 12 frames
Codec ID : V_MPEG4/ISO/AVC
Duration : 1 h 43 min
Bit rate : 3 178 kb/s
Width : 1 280 pixels
Height : 536 pixels
Display aspect ratio : 2.40:1
Frame rate mode : Constant
Frame rate : 24.000 FPS
Color space : YUV
Chroma subsampling : 4:2:0
Bit depth : 8 bits
Scan type : Progressive
Bits/(Pixel*Frame) : 0.193
Stream size : 2.30 GiB (76%)
Writing library : x264 core 157 r2969 d4099dd
Encoding settings : cabac=1 / ref=12 / deblock=1:-2:-2 / analyse=0x3:0x113 / me=umh / subme=10 / psy=1 / psy_rd=1.00:0.00 / mixed_ref=1 / me_range=32 / chroma_me=1 / trellis=2 / 8x8dct=1 / cqm=0 / deadzone=21,11 / fast_pskip=0 / chroma_qp_offset=-2 / threads=17 / lookahead_threads=2 / sliced_threads=0 / nr=0 / decimate=0 / interlaced=0 / bluray_compat=0 / constrained_intra=0 / bframes=9 / b_pyramid=2 / b_adapt=2 / b_bias=0 / direct=3 / weightb=1 / open_gop=0 / weightp=2 / keyint=230 / keyint_min=23 / scenecut=40 / intra_refresh=0 / rc_lookahead=40 / rc=crf / mbtree=0 / crf=16.8 / qcomp=0.60 / qpmin=0 / qpmax=51 / qpstep=4 / vbv_maxrate=50000 / vbv_bufsize=62000 / crf_max=0.0 / nal_hrd=none / filler=0 / ip_ratio=1.40 / pb_ratio=1.30 / aq=3:0.80
Default : Yes
Forced : No
Audio #1
ID : 2
Format : AC-3
Format/Info : Audio Coding 3
Commercial name : Dolby Digital
Codec ID : A_AC3
Duration : 1 h 43 min
Bit rate mode : Constant
Bit rate : 384 kb/s
Channel(s) : 6 channels
Channel layout : L R C LFE Ls Rs
Sampling rate : 48.0 kHz
Frame rate : 31.250 FPS (1536 SPF)
Compression mode : Lossy
Stream size : 285 MiB (9%)
Title : iTunes
Language : Russian
Service kind : Complete Main
Default : Yes
Forced : Yes
Audio #2
ID : 3
Format : AC-3
Format/Info : Audio Coding 3
Commercial name : Dolby Digital
Codec ID : A_AC3
Duration : 1 h 43 min
Bit rate mode : Constant
Bit rate : 640 kb/s
Channel(s) : 6 channels
Channel layout : L R C LFE Ls Rs
Sampling rate : 48.0 kHz
Frame rate : 31.250 FPS (1536 SPF)
Compression mode : Lossy
Stream size : 475 MiB (15%)
Title : Original
Language : Norwegian
Service kind : Complete Main
Default : No
Forced : No
Text #1
ID : 4
Format : UTF-8
Codec ID : S_TEXT/UTF8
Codec ID/Info : UTF-8 Plain Text
Duration : 1 h 37 min
Bit rate : 78 b/s
Count of elements : 1488
Stream size : 56.1 KiB (0%)
Title : Full
Language : Russian
Default : No
Forced : No
Text #2
ID : 5
Format : UTF-8
Codec ID : S_TEXT/UTF8
Codec ID/Info : UTF-8 Plain Text
Duration : 1 h 38 min
Bit rate : 40 b/s
Count of elements : 783
Stream size : 29.5 KiB (0%)
Title : Full
Language : English
Default : No
Forced : No
Text #3
ID : 6
Format : UTF-8
Codec ID : S_TEXT/UTF8
Codec ID/Info : UTF-8 Plain Text
Duration : 1 h 39 min
Bit rate : 4 b/s
Count of elements : 96
Stream size : 2.92 KiB (0%)
Title : for foreign parts
Language : Norwegian
Default : No
Forced : No
Text #4
ID : 7
Format : UTF-8
Codec ID : S_TEXT/UTF8
Codec ID/Info : UTF-8 Plain Text
Duration : 1 h 41 min
Bit rate : 37 b/s
Count of elements : 797
Stream size : 27.8 KiB (0%)
Title : for hearing impaired
Language : Norwegian
Default : No
Forced : No
Text #5
ID : 8
Format : UTF-8
Codec ID : S_TEXT/UTF8
Codec ID/Info : UTF-8 Plain Text
Duration : 1 h 41 min
Bit rate : 36 b/s
Count of elements : 751
Stream size : 27.2 KiB (0%)
Language : Norwegian
Default : No
Forced : No
Menu
00:00:00.000 : no:Глава 01
00:10:05.708 : no:Глава 02
00:20:20.125 : no:Глава 03
00:30:51.458 : no:Глава 04
00:40:53.625 : no:Глава 05
00:51:45.750 : no:Глава 06
01:01:58.208 : no:Глава 07
01:12:20.750 : no:Глава 08
01:22:55.958 : no:Глава 09
01:33:29.417 : no:Глава 10
Релиз от:

Kon912

Post 30-Jul-2020 21:52

[Quote]

Бекки / Becky - Год выхода: 2020
Страна: США
Студия: BondIt, BoulderLight Pictures, Buffalo 8 Productions, SSS Entertainment, SSS Film Capital, United Talent Agency (UTA), Yale Productions
Жанр: Боевик, триллер, драма
Продолжительность: 01:33:08
Перевод: Профессиональный (полное дублирование) | iTunes-Режиссер:
Джонатан Милотт, Кэри Мернион-В ролях:
Лулу Уилсон, Кевин Джеймс, Джоэл МакХэйл, Роберт Мэйллет, Аманда Бругел, Айзиа Роклифф, Райан Макдональд, Джеймс МакДугалл, Лесли Адлам, Джастин Холлидей-О фильме:
13-летняя Бекки уже год не может смириться со смертью матери. Девушка обижена на весь мир, а особенно - на отца, который в её любимый лесной дом пригласил свою любовницу с сыном и объявил, что собирается жениться. Бекки убегает в лес, но не успевает толком поистерить, так как в дом проникает банда сбежавших из тюрьмы нацистов и берёт остальных в заложники. Им очень нужен некий ключ, который они когда-то спрятали в подвале, но Бекки не верит, что, заполучив желаемое, они уберутся восвояси, поэтому решает дать уголовникам отпор.- -Качество: BDRemux 1080p
Формат: MKV
Видео: MPEG-4 AVC, 1920x1080, ~18.3 Mbps
Аудио: AC3, 48 kHz, 6 ch, ~384.00 kbps avg | русский | iTunes
Аудио: DTS, 48 kHz, 6 ch, ~1509.00 kbps avg | английский | Оригинал
Субтитры: Русские (полные (focs)), Английские (полные, SDH)-

MI

Общее
Формат : Matroska
Версия формата : Version 4
Размер файла : 13,1 Гбайт
Продолжительность : 1 ч. 33 м.
Режим общего битрейта : Переменный
Общий поток : 20,2 Мбит/сек
Дата кодирования : UTC 2020-07-30 04:41:59
Программа кодирования : mkvmerge v45.0.0 ('Heaven in Pennies') 64-bit
Библиотека кодирования : libebml v1.3.10 + libmatroska v1.5.2
Видео
Идентификатор : 1
Формат : AVC
Формат/Информация : Advanced Video Codec
Профиль формата : [email protected]
Настройки формата : CABAC / 3 Ref Frames
Параметр CABAC формата : Да
Параметр RefFrames формата : 3 кадра
Параметр GOP формата : M=3, N=12
Идентификатор кодека : V_MPEG4/ISO/AVC
Продолжительность : 1 ч. 33 м.
Вид битрейта : Переменный
Битрейт : 18,3 Мбит/сек
Максимальный битрейт : 35,0 Мбит/сек
Ширина : 1 920 пикселей
Высота : 1 080 пикселей
Соотношение сторон : 16:9
Режим частоты кадров : Постоянный
Частота кадров : 23,976 (24000/1001) кадра/сек
Стандарт вещания : NTSC
Цветовое пространство : YUV
Субдискретизация насыщенности : 4:2:0
Битовая глубина : 8 бит
Тип развёртки : Прогрессивная
Бит/(Пиксели*Кадры) : 0.367
Размер потока : 11,9 Гбайт (91%)
Default : Да
Forced : Нет
Цветовой диапазон : Limited
Основные цвета : BT.709
Характеристики трансфера : BT.709
Коэффициенты матрицы : BT.709
Аудио #1
Идентификатор : 2
Формат : AC-3
Формат/Информация : Audio Coding 3
Коммерческое название : Dolby Digital
Идентификатор кодека : A_AC3
Продолжительность : 1 ч. 33 м.
Вид битрейта : Постоянный
Битрейт : 384 Кбит/сек
Каналы : 6 каналов
Channel layout : L R C LFE Ls Rs
Частота : 48,0 КГц
Частота кадров : 31,250 кадров/сек (1536 SPF)
Метод сжатия : С потерями
Размер потока : 256 Мбайт (2%)
Язык : Russian
Service kind : Complete Main
Default : Да
Forced : Нет
Аудио #2
Идентификатор : 3
Формат : DTS
Формат/Информация : Digital Theater Systems
Идентификатор кодека : A_DTS
Продолжительность : 1 ч. 33 м.
Вид битрейта : Постоянный
Битрейт : 1 509 Кбит/сек
Каналы : 6 каналов
Channel layout : C L R Ls Rs LFE
Частота : 48,0 КГц
Частота кадров : 93,750 кадра/сек (512 SPF)
Битовая глубина : 24 бит
Метод сжатия : С потерями
Размер потока : 1 005 Мбайт (7%)
Язык : English
Default : Нет
Forced : Нет
Текст #1
Идентификатор : 4
Формат : UTF-8
Идентификатор кодека : S_TEXT/UTF8
Идентификатор кодека/Информация : UTF-8 Plain Text
Продолжительность : 1 ч. 24 м.
Битрейт : 54 бит/сек
Count of elements : 884
Размер потока : 33,3 Кбайт (0%)
Язык : Russian
Default : Нет
Forced : Нет
Текст #2
Идентификатор : 5
Формат : UTF-8
Идентификатор кодека : S_TEXT/UTF8
Идентификатор кодека/Информация : UTF-8 Plain Text
Продолжительность : 1 ч. 23 м.
Битрейт : 33 бит/сек
Count of elements : 951
Размер потока : 20,7 Кбайт (0%)
Язык : English
Default : Нет
Forced : Нет
Текст #3
Идентификатор : 6
Формат : UTF-8
Идентификатор кодека : S_TEXT/UTF8
Идентификатор кодека/Информация : UTF-8 Plain Text
Продолжительность : 1 ч. 32 м.
Битрейт : 38 бит/сек
Count of elements : 1224
Размер потока : 26,1 Кбайт (0%)
Язык : English
Default : Нет
Forced : Нет

Скриншоты

     

Kon912

Post 30-Jul-2020 21:52

[Quote]

Бекки / Becky - Год выхода: 2020
Страна: США
Студия: BondIt, BoulderLight Pictures, Buffalo 8 Productions, SSS Entertainment, SSS Film Capital, United Talent Agency (UTA), Yale Productions
Жанр: Боевик, триллер, драма
Продолжительность: 01:33:08
Перевод: Профессиональный (полное дублирование) | iTunes-Режиссер:
Джонатан Милотт, Кэри Мернион-В ролях:
Лулу Уилсон, Кевин Джеймс, Джоэл МакХэйл, Роберт Мэйллет, Аманда Бругел, Айзиа Роклифф, Райан Макдональд, Джеймс МакДугалл, Лесли Адлам, Джастин Холлидей-О фильме:
13-летняя Бекки уже год не может смириться со смертью матери. Девушка обижена на весь мир, а особенно - на отца, который в её любимый лесной дом пригласил свою любовницу с сыном и объявил, что собирается жениться. Бекки убегает в лес, но не успевает толком поистерить, так как в дом проникает банда сбежавших из тюрьмы нацистов и берёт остальных в заложники. Им очень нужен некий ключ, который они когда-то спрятали в подвале, но Бекки не верит, что, заполучив желаемое, они уберутся восвояси, поэтому решает дать уголовникам отпор.- -Качество: BDRip 1080p
Формат: MKV
Видео: 1920x800 (2,40:1), 23,976 fps, MPEG-4 AVC ~ 10.7 Mbps avg, 0.290 bit/pixel
Аудио: AC3, 48 kHz, 6 ch, ~384.00 kbps avg | русский | iTunes
Аудио: DTS, 48 kHz, 6 ch, ~1509.00 kbps avg | английский | Оригинал
Субтитры: Русские (полные (focs)), Английские (полные, SDH)-

MI

Общее
Уникальный идентификатор : 57164233707643789768142542408807573334 (0x2B016E5261CD38EC08133F9A74876756)
Полное имя : Becky.2020.1080p.BluRay.x264.mkv
Формат : Matroska
Версия формата : Version 4
Размер файла : 8,12 Гбайт
Продолжительность : 1 ч. 33 м.
Общий поток : 12,5 Мбит/сек
Название фильма : Бекки / Becky (2020)
Дата кодирования : UTC 2020-07-30 05:52:50
Программа кодирования : mkvmerge v47.0.0 ('Black Flag') 64-bit
Библиотека кодирования : libebml v1.3.10 + libmatroska v1.5.2
Обложка : Yes
Attachments : cover.jpg
Видео
Идентификатор : 1
Формат : AVC
Формат/Информация : Advanced Video Codec
Профиль формата : [email protected]
Настройки формата : CABAC / 5 Ref Frames
Параметр CABAC формата : Да
Параметр RefFrames формата : 5 кадров
Идентификатор кодека : V_MPEG4/ISO/AVC
Продолжительность : 1 ч. 33 м.
Битрейт : 10,7 Мбит/сек
Ширина : 1 920 пикселей
Высота : 800 пикселей
Соотношение сторон : 2,40:1
Режим частоты кадров : Постоянный
Частота кадров : 23,976 (24000/1001) кадра/сек
Цветовое пространство : YUV
Субдискретизация насыщенности : 4:2:0
Битовая глубина : 8 бит
Тип развёртки : Прогрессивная
Бит/(Пиксели*Кадры) : 0.290
Размер потока : 6,89 Гбайт (85%)
Заголовок : #stillet
Библиотека кодирования : x264 core 152 r2851bm ba24899
Настройки программы : cabac=1 / ref=5 / deblock=1:-3:-3 / analyse=0x3:0x113 / me=umh / subme=10 / psy=1 / psy_rd=1.00:0.15 / mixed_ref=1 / me_range=32 / chroma_me=1 / trellis=2 / 8x8dct=1 / cqm=0 / deadzone=21,11 / fast_pskip=0 / chroma_qp_offset=-3 / threads=12 / lookahead_threads=3 / sliced_threads=0 / nr=0 / decimate=0 / interlaced=0 / bluray_compat=0 / constrained_intra=0 / bframes=10 / b_pyramid=2 / b_adapt=2 / b_bias=0 / direct=3 / weightb=1 / open_gop=0 / weightp=2 / keyint=240 / keyint_min=23 / scenecut=40 / intra_refresh=0 / rc_lookahead=40 / rc=2pass / mbtree=0 / bitrate=10669 / ratetol=1.0 / qcomp=0.60 / qpmin=0 / qpmax=69 / qpstep=4 / cplxblur=20.0 / qblur=0.5 / vbv_maxrate=50000 / vbv_bufsize=62500 / nal_hrd=none / filler=0 / ip_ratio=1.40 / pb_ratio=1.30 / aq=1:1.00
Язык : English
Default : Да
Forced : Нет
Аудио #1
Идентификатор : 2
Формат : AC-3
Формат/Информация : Audio Coding 3
Коммерческое название : Dolby Digital
Идентификатор кодека : A_AC3
Продолжительность : 1 ч. 33 м.
Вид битрейта : Постоянный
Битрейт : 384 Кбит/сек
Каналы : 6 каналов
Channel layout : L R C LFE Ls Rs
Частота : 48,0 КГц
Частота кадров : 31,250 кадров/сек (1536 SPF)
Метод сжатия : С потерями
Размер потока : 256 Мбайт (3%)
Заголовок : iTunes
Язык : Russian
Service kind : Complete Main
Default : Да
Forced : Да
Аудио #2
Идентификатор : 3
Формат : DTS
Формат/Информация : Digital Theater Systems
Идентификатор кодека : A_DTS
Продолжительность : 1 ч. 33 м.
Вид битрейта : Постоянный
Битрейт : 1 509 Кбит/сек
Каналы : 6 каналов
Channel layout : C L R Ls Rs LFE
Частота : 48,0 КГц
Частота кадров : 93,750 кадра/сек (512 SPF)
Битовая глубина : 24 бит
Метод сжатия : С потерями
Размер потока : 1 005 Мбайт (12%)
Язык : English
Default : Нет
Forced : Нет
Текст #1
Идентификатор : 4
Формат : UTF-8
Идентификатор кодека : S_TEXT/UTF8
Идентификатор кодека/Информация : UTF-8 Plain Text
Продолжительность : 1 ч. 24 м.
Битрейт : 54 бит/сек
Count of elements : 884
Размер потока : 33,3 Кбайт (0%)
Заголовок : Full (focs)
Язык : Russian
Default : Нет
Forced : Нет
Текст #2
Идентификатор : 5
Формат : UTF-8
Идентификатор кодека : S_TEXT/UTF8
Идентификатор кодека/Информация : UTF-8 Plain Text
Продолжительность : 1 ч. 23 м.
Битрейт : 33 бит/сек
Count of elements : 951
Размер потока : 20,7 Кбайт (0%)
Заголовок : Full
Язык : English
Default : Нет
Forced : Нет
Текст #3
Идентификатор : 6
Формат : UTF-8
Идентификатор кодека : S_TEXT/UTF8
Идентификатор кодека/Информация : UTF-8 Plain Text
Продолжительность : 1 ч. 32 м.
Битрейт : 38 бит/сек
Count of elements : 1224
Размер потока : 26,1 Кбайт (0%)
Заголовок : SDH
Язык : English
Default : Нет
Forced : Нет
Меню
00:00:00.000 : en:Chapter 1
00:05:43.843 : en:Chapter 2
00:10:33.674 : en:Chapter 3
00:17:48.817 : en:Chapter 4
00:23:46.842 : en:Chapter 5
00:30:08.389 : en:Chapter 6
00:35:50.857 : en:Chapter 7
00:42:34.677 : en:Chapter 8
00:49:33.929 : en:Chapter 9
00:55:20.483 : en:Chapter 10
01:00:41.721 : en:Chapter 11
01:06:40.913 : en:Chapter 12
01:11:17.273 : en:Chapter 13
01:15:17.262 : en:Chapter 14
01:19:13.165 : en:Chapter 15
01:24:17.343 : en:Chapter 16

Скриншоты

     

Kon912

Post 30-Jul-2020 21:51

[Quote]

Бекки / Becky - Год выхода: 2020
Страна: США
Студия: BondIt, BoulderLight Pictures, Buffalo 8 Productions, SSS Entertainment, SSS Film Capital, United Talent Agency (UTA), Yale Productions
Жанр: Боевик, триллер, драма
Продолжительность: 01:33:08
Перевод: Профессиональный (полное дублирование) | iTunes-Режиссер:
Джонатан Милотт, Кэри Мернион-В ролях:
Лулу Уилсон, Кевин Джеймс, Джоэл МакХэйл, Роберт Мэйллет, Аманда Бругел, Айзиа Роклифф, Райан Макдональд, Джеймс МакДугалл, Лесли Адлам, Джастин Холлидей-О фильме:
13-летняя Бекки уже год не может смириться со смертью матери. Девушка обижена на весь мир, а особенно - на отца, который в её любимый лесной дом пригласил свою любовницу с сыном и объявил, что собирается жениться. Бекки убегает в лес, но не успевает толком поистерить, так как в дом проникает банда сбежавших из тюрьмы нацистов и берёт остальных в заложники. Им очень нужен некий ключ, который они когда-то спрятали в подвале, но Бекки не верит, что, заполучив желаемое, они уберутся восвояси, поэтому решает дать уголовникам отпор.- -Качество: BDRip 720p
Формат: MKV
Видео: 1280x534 (2,40:1), 23,976 fps, MPEG-4 AVC ~ 4768 Kbps avg, 0.291 bit/pixel
Аудио: AC3, 48 kHz, 6 ch, ~384.00 kbps avg | русский | iTunes
Аудио: DTS, 48 kHz, 6 ch, ~1509.00 kbps avg | английский | Оригинал
Субтитры: Русские (полные (focs)), Английские (полные, SDH)-

MI

Общее
Уникальный идентификатор : 226580974911271104283705859037437515301 (0xAA75E88F96FF6D6E51BD705D07825625)
Полное имя : Becky.2020.720p.BluRay.x264.mkv
Формат : Matroska
Версия формата : Version 4
Размер файла : 4,32 Гбайт
Продолжительность : 1 ч. 33 м.
Общий поток : 6 634 Кбит/сек
Название фильма : Бекки / Becky (2020)
Дата кодирования : UTC 2020-07-30 06:48:22
Программа кодирования : mkvmerge v47.0.0 ('Black Flag') 64-bit
Библиотека кодирования : libebml v1.3.10 + libmatroska v1.5.2
Обложка : Yes
Attachments : cover.jpg
Видео
Идентификатор : 1
Формат : AVC
Формат/Информация : Advanced Video Codec
Профиль формата : [email protected]
Настройки формата : CABAC / 9 Ref Frames
Параметр CABAC формата : Да
Параметр RefFrames формата : 9 кадров
Идентификатор кодека : V_MPEG4/ISO/AVC
Продолжительность : 1 ч. 33 м.
Битрейт : 4 768 Кбит/сек
Ширина : 1 280 пикселей
Высота : 534 пикселя
Соотношение сторон : 2,40:1
Режим частоты кадров : Постоянный
Частота кадров : 23,976 (24000/1001) кадра/сек
Цветовое пространство : YUV
Субдискретизация насыщенности : 4:2:0
Битовая глубина : 8 бит
Тип развёртки : Прогрессивная
Бит/(Пиксели*Кадры) : 0.291
Размер потока : 3,08 Гбайт (71%)
Заголовок : #stillet
Библиотека кодирования : x264 core 152 r2851bm ba24899
Настройки программы : cabac=1 / ref=9 / deblock=1:-3:-3 / analyse=0x3:0x113 / me=umh / subme=10 / psy=1 / psy_rd=1.00:0.15 / mixed_ref=1 / me_range=32 / chroma_me=1 / trellis=2 / 8x8dct=1 / cqm=0 / deadzone=21,11 / fast_pskip=0 / chroma_qp_offset=-3 / threads=12 / lookahead_threads=3 / sliced_threads=0 / nr=0 / decimate=0 / interlaced=0 / bluray_compat=0 / constrained_intra=0 / bframes=11 / b_pyramid=2 / b_adapt=2 / b_bias=0 / direct=3 / weightb=1 / open_gop=0 / weightp=2 / keyint=240 / keyint_min=23 / scenecut=40 / intra_refresh=0 / rc_lookahead=40 / rc=2pass / mbtree=0 / bitrate=4768 / ratetol=1.0 / qcomp=0.60 / qpmin=0 / qpmax=69 / qpstep=4 / cplxblur=20.0 / qblur=0.5 / vbv_maxrate=50000 / vbv_bufsize=62500 / nal_hrd=none / filler=0 / ip_ratio=1.40 / pb_ratio=1.30 / aq=1:1.00
Язык : English
Default : Да
Forced : Нет
Аудио #1
Идентификатор : 2
Формат : AC-3
Формат/Информация : Audio Coding 3
Коммерческое название : Dolby Digital
Идентификатор кодека : A_AC3
Продолжительность : 1 ч. 33 м.
Вид битрейта : Постоянный
Битрейт : 384 Кбит/сек
Каналы : 6 каналов
Channel layout : L R C LFE Ls Rs
Частота : 48,0 КГц
Частота кадров : 31,250 кадров/сек (1536 SPF)
Метод сжатия : С потерями
Размер потока : 256 Мбайт (6%)
Заголовок : iTunes
Язык : Russian
Service kind : Complete Main
Default : Да
Forced : Да
Аудио #2
Идентификатор : 3
Формат : DTS
Формат/Информация : Digital Theater Systems
Идентификатор кодека : A_DTS
Продолжительность : 1 ч. 33 м.
Вид битрейта : Постоянный
Битрейт : 1 509 Кбит/сек
Каналы : 6 каналов
Channel layout : C L R Ls Rs LFE
Частота : 48,0 КГц
Частота кадров : 93,750 кадра/сек (512 SPF)
Битовая глубина : 24 бит
Метод сжатия : С потерями
Размер потока : 1 005 Мбайт (23%)
Язык : English
Default : Нет
Forced : Нет
Текст #1
Идентификатор : 4
Формат : UTF-8
Идентификатор кодека : S_TEXT/UTF8
Идентификатор кодека/Информация : UTF-8 Plain Text
Продолжительность : 1 ч. 24 м.
Битрейт : 54 бит/сек
Count of elements : 884
Размер потока : 33,3 Кбайт (0%)
Заголовок : Full (focs)
Язык : Russian
Default : Нет
Forced : Нет
Текст #2
Идентификатор : 5
Формат : UTF-8
Идентификатор кодека : S_TEXT/UTF8
Идентификатор кодека/Информация : UTF-8 Plain Text
Продолжительность : 1 ч. 23 м.
Битрейт : 33 бит/сек
Count of elements : 951
Размер потока : 20,7 Кбайт (0%)
Заголовок : Full
Язык : English
Default : Нет
Forced : Нет
Текст #3
Идентификатор : 6
Формат : UTF-8
Идентификатор кодека : S_TEXT/UTF8
Идентификатор кодека/Информация : UTF-8 Plain Text
Продолжительность : 1 ч. 32 м.
Битрейт : 38 бит/сек
Count of elements : 1224
Размер потока : 26,1 Кбайт (0%)
Заголовок : SDH
Язык : English
Default : Нет
Forced : Нет
Меню
00:00:00.000 : en:Chapter 1
00:05:43.843 : en:Chapter 2
00:10:33.674 : en:Chapter 3
00:17:48.817 : en:Chapter 4
00:23:46.842 : en:Chapter 5
00:30:08.389 : en:Chapter 6
00:35:50.857 : en:Chapter 7
00:42:34.677 : en:Chapter 8
00:49:33.929 : en:Chapter 9
00:55:20.483 : en:Chapter 10
01:00:41.721 : en:Chapter 11
01:06:40.913 : en:Chapter 12
01:11:17.273 : en:Chapter 13
01:15:17.262 : en:Chapter 14
01:19:13.165 : en:Chapter 15
01:24:17.343 : en:Chapter 16

Скриншоты

     
 

The time now is: Today 14:15

All times are GMT + 3 Hours