Today is a free download without charge Download

Search found 500 matches

Author Message

БАНДИТ

Post 03-Nov-2020 16:03

[Quote]

Ужасные истории: Древние римляне / Horrible Histories: The Movie - Rotten Romans
Страна: Великобритания
Жанр: комедия, история
Год выпуска: 2019
Продолжительность: 01:32:12-Перевод: Профессиональный (дублированный) iTunes
Субтитры: английские
Оригинальная аудиодорожка: английский-Режиссер: Доминик Бригсток / Dominic Brigstocke-В ролях: Себастьян Крофт, Эмилия Джонс, Ник Фрост, Крэйг Робертс, Кейт Нэш, Руперт Грейвз, Алекс МакКуин, Ли Мак, Уорвик Дэвис, Санджив Бхаскар
Описание: Рим. Начало нашей эры. Умный и пронырливый подросток Атти попадает в немилость императора Нерона и за это отправляется проходить службу в богом забытую Британию как раз в тот момент, когда воительница Будика поднимает восстание на острове и пытается объединить разрозненные кланы. Атти оказывается в центре заварушки, выбраться из которой ему помогают его новые друзья.imdb | kinopoisk-Тип релиза: BDRemux 1080p
Контейнер: MKV-Видео: 1920x1080p (16:9), 24 fps, AVC MPEG-4 (x264), [email protected], ~ 21901 kbps, 0.440 bit/pixel-Аудио 1: Russian: 48 kHz, AC3, 3/2 (L,C,R,l,r) + LFE ch, ~384 kbps avg / 16-bit
Аудио 2: English: 48 kHz/16-bit, DTS-HD MA 5.1 , ~4123 kbps avg (DTS Core: 5.1 / 48 kHz / 1509 kbps / 16-bit)

MediaInfo

Общее
Уникальный идентификатор : 338629356768016930568923533252729630958 (0xFEC1A44EA17DFE129404C60CE255F0EE)
Полное имя : D:\Horrible.Histories.the.Movie.Rotten.Romans.2019.Remux.1080p.mkv
Формат : Matroska
Версия формата : Version 4 / Version 2
Размер файла : 17,0 Гбайт
Продолжительность : 1 ч. 32 м.
Режим общего битрейта : Переменный
Общий поток : 26,4 Мбит/сек
Дата кодирования : UTC 2020-11-03 04:42:13
Программа кодирования : mkvmerge v37.0.0 ('Leave It') 64-bit
Библиотека кодирования : libebml v1.3.9 + libmatroska v1.5.2
Видео
Идентификатор : 1
Формат : AVC
Формат/Информация : Advanced Video Codec
Профиль формата : [email protected]
Параметр CABAC формата : Да
Параметр RefFrames формата : 4 кадра
Идентификатор кодека : V_MPEG4/ISO/AVC
Продолжительность : 1 ч. 32 м.
Вид битрейта : Переменный
Битрейт : 21,9 Мбит/сек
Максимальный битрейт : 33,0 Мбит/сек
Ширина : 1920 пикселей
Высота : 1080 пикселей
Соотношение сторон : 16:9
Режим частоты кадров : Постоянный
Частота кадров : 24,000 кадра/сек
Цветовое пространство : YUV
Субдискретизация насыщенности : 4:2:0
Битовая глубина : 8 бит
Тип развёртки : Прогрессивная
Бит/(Пиксели*Кадры) : 0.440
Размер потока : 14,1 Гбайт (83%)
Язык : English
Default : Да
Forced : Нет
Аудио #1
Идентификатор : 2
Формат : AC-3
Формат/Информация : Audio Coding 3
Параметр Endianness формата : Big
Идентификатор кодека : A_AC3
Продолжительность : 1 ч. 32 м.
Вид битрейта : Постоянный
Битрейт : 384 Кбит/сек
Каналы : 6 каналов
Расположение каналов : Front: L C R, Side: L R, LFE
Частота : 48,0 КГц
Частота кадров : 31,250 кадров/сек (1536 SPF)
Битовая глубина : 16 бит
Метод сжатия : С потерями
Размер потока : 253 Мбайт (1%)
Заголовок : DUB
Язык : Russian
ServiceKind/String : Complete Main
Default : Да
Forced : Нет
Аудио #2
Идентификатор : 3
Формат : DTS
Формат/Информация : Digital Theater Systems
Профиль формата : MA / Core
Режим : 16
Параметр Endianness формата : Big
Идентификатор кодека : A_DTS
Продолжительность : 1 ч. 32 м.
Вид битрейта : Переменный / Постоянный
Битрейт : 4123 Кбит/сек / 1509 Кбит/сек
Каналы : 6 каналов
Расположение каналов : Front: L C R, Side: L R, LFE
Частота : 48,0 КГц
Частота кадров : 93,750 кадра/сек (512 SPF)
Битовая глубина : 24 бит
Метод сжатия : Без потерь / Lossy
Размер потока : 2,66 Гбайт (16%)
Заголовок : Original
Язык : English
Default : Нет
Forced : Нет
Текст
Идентификатор : 4
Формат : UTF-8
Идентификатор кодека : S_TEXT/UTF8
Идентификатор кодека/Информация : UTF-8 Plain Text
Продолжительность : 1 ч. 31 м.
Битрейт : 76 бит/сек
ElementCount : 1807
Размер потока : 51,5 Кбайт (0%)
Заголовок : SDH
Язык : English
Default : Нет
Forced : Нет
Меню
00:00:00.000 : en:Chapter 1
00:06:59.333 : en:Chapter 2
00:12:28.875 : en:Chapter 3
00:19:38.708 : en:Chapter 4
00:27:14.083 : en:Chapter 5
00:32:39.916 : en:Chapter 6
00:39:45.750 : en:Chapter 7
00:45:00.666 : en:Chapter 8
00:52:32.208 : en:Chapter 9
01:03:11.041 : en:Chapter 10
01:16:00.666 : en:Chapter 11
01:25:10.875 : en:Chapter 12

Скриншоты

БАНДИТ

Post 29-Oct-2020 09:28

[Quote]


Клаустрофобы: Квест в Москве / Follow Me
Год выхода: 2020
Жанр: Ужасы, триллер
Страна: США
Студия: Escape Productions
Продолжительность: 01:32:02
Перевод: Профессиональный (полное дублирование) | iTunes
Режиссер: Уилл Верник
В ролях: Кигэн Аллен, Холлэнд Роден, Дензел Уитакер, Ронен Рубинштейн, Павел Лычников, Джордж Янко, Сия, Данияр, Димитар Маринов, Эмилия Арес Зорян
О фильме:
Популярный американский видеоблогер Коул сделал имя на участии в самых зрелищных и опасных испытаниях, которые он находит по всему миру. На 10-летие своего канала он непременно хочет устроить что-нибудь особенное, и друзья предлагают ему пройти необычный квест в Москве. Поначалу Коул настроен скептически. Квест? Кого этим сейчас можно удивить? Узнав, что данные испытания разработали специально для него, парень воодушевляется, но квест окажется намного страшнее, чем он мог предположить.

Качество: BDRemux 1080p
Формат: MKV
Кодек: MPEG-4 AVC
Видео: 1920x1080 (16:9), 23.976 fps, MPEG-4 AVC ~ 27.6 Mbps avg, 0.554 bit/pixel
Аудио: AC3, 48 kHz, 6 ch, ~384.00 kbps avg | русский | iTunes
Аудио: DTS-HD MA, 48 kHz, 6 ch, ~2565.00 kbps avg | английский | Оригинал
Субтитры: Английские (SDH)

Инфо-файл

Общее
Уникальный идентификатор : 239974772879972123148755329437035526460 (0xB48975C9076108B7064553D29F95F93C)
Полное имя : Follow.Me.2020.1080p.BDRemux.AVC.mkv
Формат : Matroska
Версия формата : Version 4
Размер файла : 19,6 Гбайт
Продолжительность : 1 ч. 32 м.
Режим общего битрейта : Переменный
Общий поток : 30,5 Мбит/сек
Название фильма : Клаустрофобы: Квест в Москве / Follow Me (2020)
Дата кодирования : UTC 2020-10-29 03:02:51
Программа кодирования : mkvmerge v47.0.0 ('Black Flag') 64-bit
Библиотека кодирования : libebml v1.3.10 + libmatroska v1.5.2
Обложка : Yes
Attachments : cover.jpg
IMDB : tt8160834
TMDB : movie/606625
Видео
Идентификатор : 1
Формат : AVC
Формат/Информация : Advanced Video Codec
Профиль формата : [email protected]
Настройки формата : CABAC / 4 Ref Frames
Параметр CABAC формата : Да
Параметр RefFrames формата : 4 кадра
Идентификатор кодека : V_MPEG4/ISO/AVC
Продолжительность : 1 ч. 32 м.
Вид битрейта : Переменный
Битрейт : 27,6 Мбит/сек
Максимальный битрейт : 38,0 Мбит/сек
Ширина : 1 920 пикселей
Высота : 1 080 пикселей
Соотношение сторон : 16:9
Режим частоты кадров : Постоянный
Частота кадров : 23,976 (24000/1001) кадра/сек
Цветовое пространство : YUV
Субдискретизация насыщенности : 4:2:0
Битовая глубина : 8 бит
Тип развёртки : Прогрессивная
Бит/(Пиксели*Кадры) : 0.554
Размер потока : 17,7 Гбайт (90%)
Заголовок : MPEG-4 AVC Video / 27986 kbps / 1080p / 23.976 fps / 16:9 / High Profile 4.1
Язык : English
Default : Да
Forced : Нет
Аудио #1
Идентификатор : 2
Формат : AC-3
Формат/Информация : Audio Coding 3
Коммерческое название : Dolby Digital
Идентификатор кодека : A_AC3
Продолжительность : 1 ч. 32 м.
Вид битрейта : Постоянный
Битрейт : 384 Кбит/сек
Каналы : 6 каналов
Channel layout : L R C LFE Ls Rs
Частота : 48,0 КГц
Частота кадров : 31,250 кадров/сек (1536 SPF)
Метод сжатия : С потерями
Размер потока : 253 Мбайт (1%)
Заголовок : iTunes
Язык : Russian
Service kind : Complete Main
Default : Да
Forced : Да
Аудио #2
Идентификатор : 3
Формат : DTS XLL
Формат/Информация : Digital Theater Systems
Коммерческое название : DTS-HD Master Audio
Идентификатор кодека : A_DTS
Продолжительность : 1 ч. 32 м.
Вид битрейта : Переменный
Битрейт : 2 565 Кбит/сек
Каналы : 6 каналов
Channel layout : C L R Ls Rs LFE
Частота : 48,0 КГц
Частота кадров : 93,750 кадра/сек (512 SPF)
Битовая глубина : 16 бит
Метод сжатия : Без потерь
Размер потока : 1,65 Гбайт (8%)
Заголовок : DTS-HD Master Audio / 5.1 / 48 kHz / 2565 kbps / 16-bit
Язык : English
Default : Нет
Forced : Нет
Текст
Идентификатор : 4
Формат : UTF-8
Идентификатор кодека : S_TEXT/UTF8
Идентификатор кодека/Информация : UTF-8 Plain Text
Продолжительность : 1 ч. 27 м.
Битрейт : 68 бит/сек
Count of elements : 1594
Размер потока : 43,5 Кбайт (0%)
Заголовок : SDH
Язык : English
Default : Нет
Forced : Нет
Меню
00:00:00.000 : en:Chapter 1
00:08:20.708 : en:Chapter 2
00:16:59.809 : en:Chapter 3
00:25:56.053 : en:Chapter 4
00:31:57.873 : en:Chapter 5
00:39:01.296 : en:Chapter 6
00:46:47.012 : en:Chapter 7
00:53:13.940 : en:Chapter 8
00:59:23.976 : en:Chapter 9
01:07:08.774 : en:Chapter 10
01:14:31.049 : en:Chapter 11
01:26:27.765 : en:Chapter 12

Скриншоты

Kon912

Post 21-Oct-2020 00:07

[Quote]

За призрачной дверью / The Pale Door- Год выхода: 2020
Страна: США
Студия: Paper Street Pictures, Storyteller Media, BondIt Media Capital
Жанр: Ужасы, вестерн
Продолжительность: 01:36:23
Перевод: Дублированный | iTunes-Режиссер:
А.Б. Кунц-В ролях:
Мелора Уолтерс, Захари Найтон, Ноа Сеган, Наташа Бассетт, Стэн Шоу, Девин Друид, Билл Сейдж, Пэт Хили, Джеймс Хеберт, Тина Паркер-О фильме:
Ограбив поезд, банда лихих ковбоев находит в нём окованный цепями сундук, но вместо несметных сокровищ там оказывается связанная девушка. Она уговаривает своих внезапных спасителей отвезти её в родной городок Потёмкин и даже сулит награду. Не долго думая, банда соглашается. Они привозят девушку домой, и их радушно встречает хозяйка борделя, но вскоре окажется, что это странное место таит в себе жуткую тайну.- -Качество: BDRemux 1080p
Формат: MKV
Видео: MPEG-4 AVC, 1920x1080, 37.1 Mbit/s, 23.976 fps
Аудио #01: 48 kHz, AC3, 5.1, 384 Kbps | iTunes | RUS |
Аудио #02: 48 kHz, DTS-HD MA, 5.1, 2056 Kbps | Оригинал | ENG |
Субтитры: Английские-

Скриншоты

   [      

MI

General
Unique ID : 114944248049891014916038633386198422435 (0x567974F910BC01A95B3D4C270E63D3A3)
Complete name : D:Video111The.Pale.Door.2020.BDREMUX.1080p.seleZen.mkv
Format : Matroska
Format version : Version 4
File size : 26.6 GiB
Duration : 1 h 36 min
Overall bit rate mode : Variable
Overall bit rate : 39.5 Mb/s
Movie name : The Pale Door 2020 from селезень
Encoded date : UTC 2020-10-19 12:16:24
Writing application : mkvmerge v40.0.0 ('Old Town Road + Pony') 64-bit
Writing library : libebml v1.3.9 + libmatroska v1.5.2
Video
ID : 1
Format : AVC
Format/Info : Advanced Video Codec
Format profile : [email protected]
Format settings : CABAC / 4 Ref Frames
Format settings, CABAC : Yes
Format settings, Reference : 4 frames
Codec ID : V_MPEG4/ISO/AVC
Duration : 1 h 36 min
Bit rate mode : Variable
Bit rate : 37.1 Mb/s
Maximum bit rate : 40.0 Mb/s
Width : 1 920 pixels
Height : 1 080 pixels
Display aspect ratio : 16:9
Frame rate mode : Constant
Frame rate : 23.976 (24000/1001) FPS
Color space : YUV
Chroma subsampling : 4:2:0
Bit depth : 8 bits
Scan type : Progressive
Bits/(Pixel*Frame) : 0.746
Stream size : 25.0 GiB (94%)
Language : English
Default : Yes
Forced : No
Audio #1
ID : 2
Format : AC-3
Format/Info : Audio Coding 3
Commercial name : Dolby Digital
Codec ID : A_AC3
Duration : 1 h 36 min
Bit rate mode : Constant
Bit rate : 384 kb/s
Channel(s) : 6 channels
Channel layout : L R C LFE Ls Rs
Sampling rate : 48.0 kHz
Frame rate : 31.250 FPS (1536 SPF)
Compression mode : Lossy
Stream size : 265 MiB (1%)
Title : iTunes
Language : Russian
Service kind : Complete Main
Default : Yes
Forced : Yes
Audio #2
ID : 3
Format : DTS XLL
Format/Info : Digital Theater Systems
Commercial name : DTS-HD Master Audio
Codec ID : A_DTS
Duration : 1 h 36 min
Bit rate mode : Variable
Bit rate : 2 056 kb/s
Channel(s) : 6 channels
Channel layout : C L R Ls Rs LFE
Sampling rate : 48.0 kHz
Frame rate : 93.750 FPS (512 SPF)
Bit depth : 16 bits
Compression mode : Lossless
Stream size : 1.38 GiB (5%)
Title : Original
Language : English
Default : No
Forced : No
Text #1
ID : 4
Format : UTF-8
Codec ID : S_TEXT/UTF8
Codec ID/Info : UTF-8 Plain Text
Duration : 1 h 27 min
Bit rate : 39 b/s
Count of elements : 995
Stream size : 25.3 KiB (0%)
Title : Full
Language : English
Default : No
Forced : No
Text #2
ID : 5
Format : UTF-8
Codec ID : S_TEXT/UTF8
Codec ID/Info : UTF-8 Plain Text
Duration : 1 h 35 min
Bit rate : 42 b/s
Count of elements : 1213
Stream size : 29.6 KiB (0%)
Title : SDH
Language : English
Default : No
Forced : No
Menu
00:00:00.000 : en:They're Here
00:09:03.918 : en:The Daltons
00:19:00.014 : en:Train Robbery
00:24:23.796 : en:Pearl
00:29:44.741 : en:Hell Of A Situation
00:37:32.750 : en:Make Yourselves At Home
00:46:36.711 : en:Witchcraft
00:54:09.163 : en:Bring The Boy To Me
01:05:45.150 : en:House Of God
01:14:52.905 : en:The Sun Ain't Coming Up
01:24:17.052 : en:Done Running
01:30:43.063 : en:Coda
Релиз:

Kon912

Post 21-Oct-2020 00:07

[Quote]

За призрачной дверью / The Pale Door- Год выхода: 2020
Страна: США
Студия: Paper Street Pictures, Storyteller Media, BondIt Media Capital
Жанр: Ужасы, вестерн
Продолжительность: 01:36:23
Перевод: Дублированный | iTunes-Режиссер:
А.Б. Кунц-В ролях:
Мелора Уолтерс, Захари Найтон, Ноа Сеган, Наташа Бассетт, Стэн Шоу, Девин Друид, Билл Сейдж, Пэт Хили, Джеймс Хеберт, Тина Паркер-О фильме:
Ограбив поезд, банда лихих ковбоев находит в нём окованный цепями сундук, но вместо несметных сокровищ там оказывается связанная девушка. Она уговаривает своих внезапных спасителей отвезти её в родной городок Потёмкин и даже сулит награду. Не долго думая, банда соглашается. Они привозят девушку домой, и их радушно встречает хозяйка борделя, но вскоре окажется, что это странное место таит в себе жуткую тайну.- -Качество: BDRip 1080p
Формат: MKV
Видео: MPEG-4 AVC, 1920x1024, 22.0 Mbit/s, 23.976 fps
Аудио #01: 48 kHz, AC3, 5.1, 384 Kbps | iTunes | RUS |
Аудио #02: 48 kHz, AC3, 5.1, 640 Kbps | Оригинал | ENG |
Субтитры: Английские-

Скриншоты

         

MI

General
Unique ID : 241690781193779293145192570461326697047 (0xB5D3F386FA4223163F53BCB725606257)
Complete name : D:Video111The.Pale.Door.2020.BDRip.1080p.seleZen.mkv
Format : Matroska
Format version : Version 4
File size : 15.5 GiB
Duration : 1 h 36 min
Overall bit rate : 23.0 Mb/s
Movie name : The Pale Door 2020 from селезень
Encoded date : UTC 2020-10-19 11:58:18
Writing application : mkvmerge v40.0.0 ('Old Town Road + Pony') 64-bit
Writing library : libebml v1.3.9 + libmatroska v1.5.2
Video
ID : 1
Format : AVC
Format/Info : Advanced Video Codec
Format profile : [email protected]
Format settings : CABAC / 4 Ref Frames
Format settings, CABAC : Yes
Format settings, Reference : 4 frames
Codec ID : V_MPEG4/ISO/AVC
Duration : 1 h 36 min
Bit rate : 22.0 Mb/s
Width : 1 920 pixels
Height : 1 024 pixels
Display aspect ratio : 1.85:1
Frame rate mode : Constant
Frame rate : 23.976 (24000/1001) FPS
Color space : YUV
Chroma subsampling : 4:2:0
Bit depth : 8 bits
Scan type : Progressive
Bits/(Pixel*Frame) : 0.466
Stream size : 14.8 GiB (96%)
Title : iFT
Writing library : x264 core 161 r3018+53 ~ Encoded by Mocunaman in Portugal
Encoding settings : cabac=1 / ref=4 / deblock=1:-3:-3 / analyse=0x3:0x113 / me=umh / subme=11 / psy=1 / fade_compensate=0.00 / psy_rd=1.05:0.00 / mixed_ref=1 / me_range=32 / chroma_me=1 / trellis=2 / 8x8dct=1 / cqm=0 / deadzone=21,11 / fast_pskip=0 / chroma_qp_offset=-2 / threads=32 / lookahead_threads=5 / sliced_threads=0 / nr=0 / decimate=0 / interlaced=0 / bluray_compat=0 / constrained_intra=0 / fgo=0 / bframes=9 / b_pyramid=2 / b_adapt=2 / b_bias=0 / direct=3 / weightb=1 / open_gop=0 / weightp=2 / keyint=250 / keyint_min=23 / scenecut=40 / intra_refresh=0 / rc_lookahead=60 / rc=crf / mbtree=0 / crf=19.8000 / qcomp=0.65 / qpmin=0:0:0 / qpmax=69:69:69 / qpstep=4 / vbv_maxrate=62500 / vbv_bufsize=78125 / crf_max=0.0 / nal_hrd=none / filler=0 / ip_ratio=1.30 / pb_ratio=1.20 / aq=3:0.75 / aq-sensitivity=10.00 / aq-factor=1.00:1.00:1.00 / aq2=0 / aq3=0
Language : English
Default : Yes
Forced : No
Color range : Limited
Color primaries : BT.709
Transfer characteristics : BT.709
Matrix coefficients : BT.709
Audio #1
ID : 2
Format : AC-3
Format/Info : Audio Coding 3
Commercial name : Dolby Digital
Codec ID : A_AC3
Duration : 1 h 36 min
Bit rate mode : Constant
Bit rate : 384 kb/s
Channel(s) : 6 channels
Channel layout : L R C LFE Ls Rs
Sampling rate : 48.0 kHz
Frame rate : 31.250 FPS (1536 SPF)
Compression mode : Lossy
Stream size : 265 MiB (2%)
Title : iTunes
Language : Russian
Service kind : Complete Main
Default : Yes
Forced : Yes
Audio #2
ID : 3
Format : AC-3
Format/Info : Audio Coding 3
Commercial name : Dolby Digital
Codec ID : A_AC3
Duration : 1 h 36 min
Bit rate mode : Constant
Bit rate : 640 kb/s
Channel(s) : 6 channels
Channel layout : L R C LFE Ls Rs
Sampling rate : 48.0 kHz
Frame rate : 31.250 FPS (1536 SPF)
Compression mode : Lossy
Stream size : 441 MiB (3%)
Title : Original
Language : English
Service kind : Complete Main
Default : No
Forced : No
Text #1
ID : 4
Format : UTF-8
Codec ID : S_TEXT/UTF8
Codec ID/Info : UTF-8 Plain Text
Duration : 1 h 27 min
Bit rate : 39 b/s
Count of elements : 995
Stream size : 25.3 KiB (0%)
Title : Full
Language : English
Default : No
Forced : No
Text #2
ID : 5
Format : UTF-8
Codec ID : S_TEXT/UTF8
Codec ID/Info : UTF-8 Plain Text
Duration : 1 h 35 min
Bit rate : 42 b/s
Count of elements : 1213
Stream size : 29.6 KiB (0%)
Title : SDH
Language : English
Default : No
Forced : No
Menu
00:00:00.000 : en:They're Here
00:09:03.918 : en:The Daltons
00:19:00.014 : en:Train Robbery
00:24:23.796 : en:Pearl
00:29:44.741 : en:Hell Of A Situation
00:37:32.750 : en:Make Yourselves At Home
00:46:36.711 : en:Witchcraft
00:54:09.163 : en:Bring The Boy To Me
01:05:45.150 : en:House Of God
01:14:52.905 : en:The Sun Ain't Coming Up
01:24:17.052 : en:Done Running
01:30:43.063 : en:Coda
Релиз:

Kon912

Post 21-Oct-2020 00:06

[Quote]

За призрачной дверью / The Pale Door- Год выхода: 2020
Страна: США
Студия: Paper Street Pictures, Storyteller Media, BondIt Media Capital
Жанр: Ужасы, вестерн
Продолжительность: 01:36:23
Перевод: Дублированный | iTunes-Режиссер:
А.Б. Кунц-В ролях:
Мелора Уолтерс, Захари Найтон, Ноа Сеган, Наташа Бассетт, Стэн Шоу, Девин Друид, Билл Сейдж, Пэт Хили, Джеймс Хеберт, Тина Паркер-О фильме:
Ограбив поезд, банда лихих ковбоев находит в нём окованный цепями сундук, но вместо несметных сокровищ там оказывается связанная девушка. Она уговаривает своих внезапных спасителей отвезти её в родной городок Потёмкин и даже сулит награду. Не долго думая, банда соглашается. Они привозят девушку домой, и их радушно встречает хозяйка борделя, но вскоре окажется, что это странное место таит в себе жуткую тайну.- -Качество: BDRip 720p
Формат: MKV
Видео: MPEG-4 AVC, 1280x680, 9523 Kbit/s, 23.976 fps
Аудио #01: 48 kHz, AC3, 5.1, 384 Kbps | iTunes | RUS |
Аудио #02: 48 kHz, AC3, 5.1, 640 Kbps | Оригинал | ENG |
Субтитры: Английские-

Скриншоты

         

MI

General
Unique ID : 112770286430055050388676037401703528777 (0x54D6C463C3915231DA4B4181553AB949)
Complete name : D:Video111The.Pale.Door.2020.BDRip.720p.seleZen.mkv
Format : Matroska
Format version : Version 4
File size : 7.10 GiB
Duration : 1 h 36 min
Overall bit rate : 10.5 Mb/s
Movie name : The Pale Door 2020 from селезень
Encoded date : UTC 2020-10-19 12:07:13
Writing application : mkvmerge v40.0.0 ('Old Town Road + Pony') 64-bit
Writing library : libebml v1.3.9 + libmatroska v1.5.2
Video
ID : 1
Format : AVC
Format/Info : Advanced Video Codec
Format profile : [email protected]
Format settings : CABAC / 9 Ref Frames
Format settings, CABAC : Yes
Format settings, Reference : 9 frames
Codec ID : V_MPEG4/ISO/AVC
Duration : 1 h 36 min
Bit rate : 9 523 kb/s
Width : 1 280 pixels
Height : 680 pixels
Display aspect ratio : 1.882
Frame rate mode : Constant
Frame rate : 23.976 (24000/1001) FPS
Color space : YUV
Chroma subsampling : 4:2:0
Bit depth : 8 bits
Scan type : Progressive
Bits/(Pixel*Frame) : 0.456
Stream size : 6.41 GiB (90%)
Title : iFT
Writing library : x264 core 161 r3018+53 ~ Encoded by Mocunaman in Portugal
Encoding settings : cabac=1 / ref=9 / deblock=1:-3:-3 / analyse=0x3:0x113 / me=umh / subme=11 / psy=1 / fade_compensate=0.00 / psy_rd=1.05:0.00 / mixed_ref=1 / me_range=32 / chroma_me=1 / trellis=2 / 8x8dct=1 / cqm=0 / deadzone=21,11 / fast_pskip=0 / chroma_qp_offset=-2 / threads=21 / lookahead_threads=5 / sliced_threads=0 / nr=0 / decimate=0 / interlaced=0 / bluray_compat=0 / constrained_intra=0 / fgo=0 / bframes=10 / b_pyramid=2 / b_adapt=2 / b_bias=0 / direct=3 / weightb=1 / open_gop=0 / weightp=2 / keyint=250 / keyint_min=23 / scenecut=40 / intra_refresh=0 / rc_lookahead=60 / rc=crf / mbtree=0 / crf=18.0000 / qcomp=0.65 / qpmin=0:0:0 / qpmax=69:69:69 / qpstep=4 / vbv_maxrate=62500 / vbv_bufsize=78125 / crf_max=0.0 / nal_hrd=none / filler=0 / ip_ratio=1.30 / pb_ratio=1.20 / aq=3:0.75 / aq-sensitivity=10.00 / aq-factor=1.00:1.00:1.00 / aq2=0 / aq3=0
Language : English
Default : Yes
Forced : No
Color range : Limited
Color primaries : BT.709
Transfer characteristics : BT.709
Matrix coefficients : BT.709
Audio #1
ID : 2
Format : AC-3
Format/Info : Audio Coding 3
Commercial name : Dolby Digital
Codec ID : A_AC3
Duration : 1 h 36 min
Bit rate mode : Constant
Bit rate : 384 kb/s
Channel(s) : 6 channels
Channel layout : L R C LFE Ls Rs
Sampling rate : 48.0 kHz
Frame rate : 31.250 FPS (1536 SPF)
Compression mode : Lossy
Stream size : 265 MiB (4%)
Title : iTunes
Language : Russian
Service kind : Complete Main
Default : Yes
Forced : Yes
Audio #2
ID : 3
Format : AC-3
Format/Info : Audio Coding 3
Commercial name : Dolby Digital
Codec ID : A_AC3
Duration : 1 h 36 min
Bit rate mode : Constant
Bit rate : 640 kb/s
Channel(s) : 6 channels
Channel layout : L R C LFE Ls Rs
Sampling rate : 48.0 kHz
Frame rate : 31.250 FPS (1536 SPF)
Compression mode : Lossy
Stream size : 441 MiB (6%)
Title : Original
Language : English
Service kind : Complete Main
Default : No
Forced : No
Text #1
ID : 4
Format : UTF-8
Codec ID : S_TEXT/UTF8
Codec ID/Info : UTF-8 Plain Text
Duration : 1 h 27 min
Bit rate : 39 b/s
Count of elements : 995
Stream size : 25.3 KiB (0%)
Title : Full
Language : English
Default : No
Forced : No
Text #2
ID : 5
Format : UTF-8
Codec ID : S_TEXT/UTF8
Codec ID/Info : UTF-8 Plain Text
Duration : 1 h 35 min
Bit rate : 42 b/s
Count of elements : 1213
Stream size : 29.6 KiB (0%)
Title : SDH
Language : English
Default : No
Forced : No
Menu
00:00:00.000 : en:They're Here
00:09:03.918 : en:The Daltons
00:19:00.014 : en:Train Robbery
00:24:23.796 : en:Pearl
00:29:44.741 : en:Hell Of A Situation
00:37:32.750 : en:Make Yourselves At Home
00:46:36.711 : en:Witchcraft
00:54:09.163 : en:Bring The Boy To Me
01:05:45.150 : en:House Of God
01:14:52.905 : en:The Sun Ain't Coming Up
01:24:17.052 : en:Done Running
01:30:43.063 : en:Coda
Релиз:

Kon912

Post 18-Oct-2020 23:55

[Quote]

Девушка-невидимка / Возвышаясь над тенью / Above the Shadows- Год выхода: 2019
Страна: США
Студия: HIPZEE, BondIt Media Capital, Boundary Stone Films
Жанр: Фэнтези
Продолжительность: 01:50:57
Перевод: Дублированный | iTunes-Режиссер:
Клаудия Майерс-В ролях:
Меган Фокс, Оливия Тирлби, Алан Ричсон, Джастин Котсонас, Джим Гэффиган, Мария Диззия, Дэвид Джохансен, Павел Жайда, Оуэн Кэмпбелл, Тито Ортис-О фильме:
В юности Холли обнаружила, что стала невидимой для окружающих. Поначалу она не понимала, почему её никто не замечает, полагая, что все вокруг просто притворяются, но в конце концов девушка смирилась со своей вынужденной ролью невидимки и стала жить по новым правилам. Несколько лет Холли подглядывала за чужими жизнями, зарабатывая на этом неплохие деньги. Ей открылись многие тайны, которые ранее тщательно скрывались. Но однажды Холли выпадает шанс поставить всё на прежние места и вернуться в мир людей при помощи единственного мужчины, который может её видеть.- -Качество: BDRemux 1080p
Формат: MKV
Видео: MPEG-4 AVC, 1920x1080, 23.0 Mbit/s, 23.976 fps
Аудио #01: 48 kHz, AC3, 5.1, 384 Kbps | iTunes | RUS |
Аудио #02: 48 kHz, AC3, 5.1, 640 Kbps | Оригинал | ENG |
Субтитры: Английские-

Скриншоты

         

MI

General
Unique ID : 140316360106672831568725302954612573963 (0x698FF2AD9DF8D935C9F6369B8379470B)
Complete name : D:Video111Above.the.Shadows.2019.BDREMUX.1080p.seleZen.mkv
Format : Matroska
Format version : Version 4
File size : 18.6 GiB
Duration : 1 h 50 min
Overall bit rate mode : Variable
Overall bit rate : 24.0 Mb/s
Movie name : Above the Shadows 2019 from селезень
Encoded date : UTC 2020-10-18 20:35:24
Writing application : mkvmerge v40.0.0 ('Old Town Road + Pony') 64-bit
Writing library : libebml v1.3.9 + libmatroska v1.5.2
Video
ID : 1
Format : AVC
Format/Info : Advanced Video Codec
Format profile : [email protected]
Format settings : CABAC / 4 Ref Frames
Format settings, CABAC : Yes
Format settings, Reference : 4 frames
Format settings, GOP : M=3, N=18
Codec ID : V_MPEG4/ISO/AVC
Duration : 1 h 50 min
Bit rate mode : Variable
Bit rate : 23.0 Mb/s
Maximum bit rate : 35.0 Mb/s
Width : 1 920 pixels
Height : 1 080 pixels
Display aspect ratio : 16:9
Frame rate mode : Constant
Frame rate : 23.976 (24000/1001) FPS
Color space : YUV
Chroma subsampling : 4:2:0
Bit depth : 8 bits
Scan type : Progressive
Bits/(Pixel*Frame) : 0.463
Stream size : 17.8 GiB (96%)
Language : English
Default : Yes
Forced : No
Color range : Limited
Color primaries : BT.709
Transfer characteristics : BT.709
Matrix coefficients : BT.709
Audio #1
ID : 2
Format : AC-3
Format/Info : Audio Coding 3
Commercial name : Dolby Digital
Codec ID : A_AC3
Duration : 1 h 50 min
Bit rate mode : Constant
Bit rate : 384 kb/s
Channel(s) : 6 channels
Channel layout : L R C LFE Ls Rs
Sampling rate : 48.0 kHz
Frame rate : 31.250 FPS (1536 SPF)
Compression mode : Lossy
Stream size : 305 MiB (2%)
Title : iTunes
Language : Russian
Service kind : Complete Main
Default : Yes
Forced : Yes
Audio #2
ID : 3
Format : AC-3
Format/Info : Audio Coding 3
Commercial name : Dolby Digital
Codec ID : A_AC3
Duration : 1 h 50 min
Bit rate mode : Constant
Bit rate : 640 kb/s
Channel(s) : 6 channels
Channel layout : L R C LFE Ls Rs
Sampling rate : 48.0 kHz
Frame rate : 31.250 FPS (1536 SPF)
Compression mode : Lossy
Stream size : 508 MiB (3%)
Title : Original
Language : English
Service kind : Complete Main
Default : No
Forced : No
Text #1
ID : 4
Format : UTF-8
Codec ID : S_TEXT/UTF8
Codec ID/Info : UTF-8 Plain Text
Duration : 1 h 44 min
Bit rate : 46 b/s
Count of elements : 1059
Stream size : 35.7 KiB (0%)
Title : Full
Language : English
Default : No
Forced : No
Text #2
ID : 5
Format : UTF-8
Codec ID : S_TEXT/UTF8
Codec ID/Info : UTF-8 Plain Text
Duration : 1 h 50 min
Bit rate : 47 b/s
Count of elements : 1156
Stream size : 38.6 KiB (0%)
Title : SDH
Language : English
Default : No
Forced : No
Menu
00:00:00.000 : en:Chapter 01
00:01:12.238 : en:Chapter 02
00:14:48.554 : en:Chapter 03
00:29:59.380 : en:Chapter 04
00:44:19.281 : en:Chapter 05
00:59:12.090 : en:Chapter 06
01:16:38.802 : en:Chapter 07
01:29:46.005 : en:Chapter 08
01:44:56.290 : en:Chapter 09
Релиз:

Kon912

Post 18-Oct-2020 23:55

[Quote]

Девушка-невидимка / Возвышаясь над тенью / Above the Shadows- Год выхода: 2019
Страна: США
Студия: HIPZEE, BondIt Media Capital, Boundary Stone Films
Жанр: Фэнтези
Продолжительность: 01:50:57
Перевод: Дублированный | iTunes-Режиссер:
Клаудия Майерс-В ролях:
Меган Фокс, Оливия Тирлби, Алан Ричсон, Джастин Котсонас, Джим Гэффиган, Мария Диззия, Дэвид Джохансен, Павел Жайда, Оуэн Кэмпбелл, Тито Ортис-О фильме:
В юности Холли обнаружила, что стала невидимой для окружающих. Поначалу она не понимала, почему её никто не замечает, полагая, что все вокруг просто притворяются, но в конце концов девушка смирилась со своей вынужденной ролью невидимки и стала жить по новым правилам. Несколько лет Холли подглядывала за чужими жизнями, зарабатывая на этом неплохие деньги. Ей открылись многие тайны, которые ранее тщательно скрывались. Но однажды Холли выпадает шанс поставить всё на прежние места и вернуться в мир людей при помощи единственного мужчины, который может её видеть.- -Качество: BDRip 1080p
Формат: MKV
Видео: MPEG-4 AVC, 1920x804, 15.7 Mbit/s, 23.976 fps
Аудио #01: 48 kHz, AC3, 5.1, 384 Kbps | iTunes | RUS |
Аудио #02: 48 kHz, AC3, 5.1, 640 Kbps | Оригинал | ENG |
Субтитры: нет-

Скриншоты

         

MI

General
Unique ID : 249083300450060063808736363210152494476 (0xBB63B2DDE542847BE158FD3CD7CE458C)
Complete name : D:Video111Above.the.Shadows.2019.BDRip.1080p.seleZen.mkv
Format : Matroska
Format version : Version 4
File size : 13.0 GiB
Duration : 1 h 50 min
Overall bit rate : 16.7 Mb/s
Movie name : Above the Shadows (2019) from селезень
Encoded date : UTC 2020-10-18 19:17:24
Writing application : mkvmerge v40.0.0 ('Old Town Road + Pony') 64-bit
Writing library : libebml v1.3.9 + libmatroska v1.5.2
Video
ID : 1
Format : AVC
Format/Info : Advanced Video Codec
Format profile : [email protected]
Format settings : CABAC / 5 Ref Frames
Format settings, CABAC : Yes
Format settings, Reference : 5 frames
Codec ID : V_MPEG4/ISO/AVC
Duration : 1 h 50 min
Bit rate : 15.7 Mb/s
Width : 1 920 pixels
Height : 804 pixels
Display aspect ratio : 2.40:1
Frame rate mode : Constant
Frame rate : 23.976 (24000/1001) FPS
Color space : YUV
Chroma subsampling : 4:2:0
Bit depth : 8 bits
Scan type : Progressive
Bits/(Pixel*Frame) : 0.424
Stream size : 12.2 GiB (94%)
Title : -EA
Writing library : x264 core 159 r2991+49 524a90c t_mod_New [[email protected] X86_64]
Encoding settings : cabac=1 / ref=5 / deblock=1:-3:-3 / analyse=0x3:0x133 / me=umh / subme=10 / psy=1 / fade_compensate=0.00 / psy_rd=0.98:0.00 / mixed_ref=1 / me_range=32 / chroma_me=1 / trellis=2 / 8x8dct=1 / cqm=0 / deadzone=21,11 / fast_pskip=0 / chroma_qp_offset=-2 / threads=18 / lookahead_threads=4 / sliced_threads=0 / nr=0 / decimate=0 / interlaced=0 / bluray_compat=0 / constrained_intra=0 / fgo=0 / bframes=10 / b_pyramid=2 / b_adapt=2 / b_bias=0 / direct=3 / weightb=1 / open_gop=0 / weightp=2 / keyint=240 / keyint_min=23 / scenecut=40 / intra_refresh=0 / rc_lookahead=60 / rc=crf / mbtree=0 / crf=15.0500 / qcomp=0.65 / qpmin=0:0:0 / qpmax=69:69:69 / qpstep=4 / vbv_maxrate=62500 / vbv_bufsize=78125 / crf_max=0.0 / nal_hrd=none / filler=0 / ip_ratio=1.35 / pb_ratio=1.25 / aq=3:0.90 / aq-sensitivity=10.00 / aq-factor=1.00:1.00:1.00 / aq2=0 / aq3=0
Language : English
Default : Yes
Forced : No
Color range : Limited
Color primaries : BT.709
Transfer characteristics : BT.709
Matrix coefficients : BT.709
Audio #1
ID : 2
Format : AC-3
Format/Info : Audio Coding 3
Commercial name : Dolby Digital
Codec ID : A_AC3
Duration : 1 h 50 min
Bit rate mode : Constant
Bit rate : 384 kb/s
Channel(s) : 6 channels
Channel layout : L R C LFE Ls Rs
Sampling rate : 48.0 kHz
Frame rate : 31.250 FPS (1536 SPF)
Compression mode : Lossy
Stream size : 305 MiB (2%)
Title : iTunes
Language : Russian
Service kind : Complete Main
Default : Yes
Forced : Yes
Audio #2
ID : 3
Format : AC-3
Format/Info : Audio Coding 3
Commercial name : Dolby Digital
Codec ID : A_AC3
Duration : 1 h 50 min
Bit rate mode : Constant
Bit rate : 640 kb/s
Channel(s) : 6 channels
Channel layout : L R C LFE Ls Rs
Sampling rate : 48.0 kHz
Frame rate : 31.250 FPS (1536 SPF)
Compression mode : Lossy
Stream size : 508 MiB (4%)
Title : Original
Language : English
Service kind : Complete Main
Default : No
Forced : No
Menu
00:00:00.000 : :Chapter 01
00:01:12.239 : :Chapter 02
00:14:48.930 : :Chapter 03
00:29:59.715 : :Chapter 04
00:44:19.282 : :Chapter 05
00:59:12.090 : :Chapter 06
01:16:38.928 : :Chapter 07
01:29:46.256 : :Chapter 08
01:44:56.248 : :Chapter 09
Релиз:

Kon912

Post 18-Oct-2020 23:55

[Quote]

Девушка-невидимка / Возвышаясь над тенью / Above the Shadows- Год выхода: 2019
Страна: США
Студия: HIPZEE, BondIt Media Capital, Boundary Stone Films
Жанр: Фэнтези
Продолжительность: 01:50:57
Перевод: Дублированный | iTunes-Режиссер:
Клаудия Майерс-В ролях:
Меган Фокс, Оливия Тирлби, Алан Ричсон, Джастин Котсонас, Джим Гэффиган, Мария Диззия, Дэвид Джохансен, Павел Жайда, Оуэн Кэмпбелл, Тито Ортис-О фильме:
В юности Холли обнаружила, что стала невидимой для окружающих. Поначалу она не понимала, почему её никто не замечает, полагая, что все вокруг просто притворяются, но в конце концов девушка смирилась со своей вынужденной ролью невидимки и стала жить по новым правилам. Несколько лет Холли подглядывала за чужими жизнями, зарабатывая на этом неплохие деньги. Ей открылись многие тайны, которые ранее тщательно скрывались. Но однажды Холли выпадает шанс поставить всё на прежние места и вернуться в мир людей при помощи единственного мужчины, который может её видеть.- -Качество: BDRip 720p
Формат: MKV
Видео: MPEG-4 AVC, 1280x536, 6000 Kbit/s, 23.976 fps
Аудио #01: 48 kHz, AC3, 5.1, 384 Kbps | iTunes | RUS |
Аудио #02: 48 kHz, AC3, 5.1, 640 Kbps | Оригинал | ENG |
Субтитры: нет-

Скриншоты

         

MI

General
Unique ID : 33801174132672374583371271525261128058 (0x196DDE8D2E6B7D1E301E177164E4317A)
Complete name : D:Video111Above.the.Shadows.2019.BDRip.720p.seleZen.mkv
Format : Matroska
Format version : Version 4
File size : 5.44 GiB
Duration : 1 h 50 min
Overall bit rate : 7 022 kb/s
Movie name : Above the Shadows (2019) from селезень
Encoded date : UTC 2020-10-18 19:31:41
Writing application : mkvmerge v40.0.0 ('Old Town Road + Pony') 64-bit
Writing library : libebml v1.3.9 + libmatroska v1.5.2
Video
ID : 1
Format : AVC
Format/Info : Advanced Video Codec
Format profile : [email protected]
Format settings : CABAC / 12 Ref Frames
Format settings, CABAC : Yes
Format settings, Reference : 12 frames
Codec ID : V_MPEG4/ISO/AVC
Duration : 1 h 50 min
Bit rate : 6 000 kb/s
Width : 1 280 pixels
Height : 536 pixels
Display aspect ratio : 2.40:1
Frame rate mode : Constant
Frame rate : 23.976 (24000/1001) FPS
Color space : YUV
Chroma subsampling : 4:2:0
Bit depth : 8 bits
Scan type : Progressive
Bits/(Pixel*Frame) : 0.365
Stream size : 4.65 GiB (85%)
Title : LoRD
Writing library : x264 core 159 r2991+50 ~ LoRD
Encoding settings : cabac=1 / ref=12 / deblock=1:-3:-3 / analyse=0x3:0x133 / me=umh / subme=10 / psy=1 / fade_compensate=0.00 / psy_rd=1.00:0.00 / mixed_ref=1 / me_range=32 / chroma_me=1 / trellis=2 / 8x8dct=1 / cqm=0 / deadzone=21,11 / fast_pskip=0 / chroma_qp_offset=-2 / threads=12 / lookahead_threads=2 / sliced_threads=0 / nr=0 / decimate=0 / interlaced=0 / bluray_compat=0 / constrained_intra=0 / fgo=0 / bframes=8 / b_pyramid=2 / b_adapt=2 / b_bias=0 / direct=3 / weightb=1 / open_gop=0 / weightp=2 / keyint=250 / keyint_min=23 / scenecut=40 / intra_refresh=0 / rc_lookahead=60 / rc=2pass / mbtree=0 / bitrate=6000 / ratetol=1.0 / qcomp=0.60 / qpmin=0:0:0 / qpmax=69:69:69 / qpstep=4 / cplxblur=20.0 / qblur=0.5 / vbv_maxrate=50000 / vbv_bufsize=62500 / nal_hrd=none / filler=0 / ip_ratio=1.25 / pb_ratio=1.25 / aq=3:0.80 / aq-sensitivity=10.00 / aq-factor=1.00:1.00:1.00 / aq2=0 / aq3=0
Language : English
Default : Yes
Forced : No
Audio #1
ID : 2
Format : AC-3
Format/Info : Audio Coding 3
Commercial name : Dolby Digital
Codec ID : A_AC3
Duration : 1 h 50 min
Bit rate mode : Constant
Bit rate : 384 kb/s
Channel(s) : 6 channels
Channel layout : L R C LFE Ls Rs
Sampling rate : 48.0 kHz
Frame rate : 31.250 FPS (1536 SPF)
Compression mode : Lossy
Stream size : 305 MiB (5%)
Title : iTunes
Language : Russian
Service kind : Complete Main
Default : Yes
Forced : Yes
Audio #2
ID : 3
Format : AC-3
Format/Info : Audio Coding 3
Commercial name : Dolby Digital
Codec ID : A_AC3
Duration : 1 h 50 min
Bit rate mode : Constant
Bit rate : 640 kb/s
Channel(s) : 6 channels
Channel layout : L R C LFE Ls Rs
Sampling rate : 48.0 kHz
Frame rate : 31.250 FPS (1536 SPF)
Compression mode : Lossy
Stream size : 508 MiB (9%)
Title : Original
Language : English
Service kind : Complete Main
Default : No
Forced : No
Text #1
ID : 4
Format : UTF-8
Codec ID : S_TEXT/UTF8
Codec ID/Info : UTF-8 Plain Text
Duration : 1 h 44 min
Bit rate : 46 b/s
Count of elements : 1059
Stream size : 35.7 KiB (0%)
Title : Full
Language : English
Default : No
Forced : No
Text #2
ID : 5
Format : UTF-8
Codec ID : S_TEXT/UTF8
Codec ID/Info : UTF-8 Plain Text
Duration : 1 h 50 min
Bit rate : 47 b/s
Count of elements : 1156
Stream size : 38.6 KiB (0%)
Title : SDH
Language : English
Default : No
Forced : No
Menu
00:00:00.000 : en:Chapter 01
00:01:12.238 : en:Chapter 02
00:14:48.554 : en:Chapter 03
00:29:59.380 : en:Chapter 04
00:44:19.281 : en:Chapter 05
00:59:12.090 : en:Chapter 06
01:16:38.802 : en:Chapter 07
01:29:46.005 : en:Chapter 08
01:44:56.290 : en:Chapter 09
Релиз:

Kon912

Post 18-Oct-2020 23:29

[Quote]

Форпост / The Outpost- Год выхода: 2020
Жанр: Боевик, военный, драма, реальные события, экранизация
Студия: Millennium Media, York Films
Страна: США, Болгария
Продолжительность: 02:03:11
Перевод #1: : Дублированный | iTunes
Перевод #2: : Профессиональный многоголосый | HDRezka Studio-Режиссер:
Род Лури-В ролях:
Орландо Блум, Скотт Иствуд, Калеб Лэндри Джонс, Майло Гибсон, Бобби Локвуд, Джейкоб Скипио, Джек Кеси, Селина Синден, Тейлор Джон Смит, Александр Арнольд, Джеймс Джаггер-О фильме:
Действия фильма происходят 3 октября 2009 года в Афганистане. У подножия гор, недалеко от поселения Кадмеш, расположился американский Форпост. Тай Картер и сержант Ромеш Клинтон имеют в своем распоряжении пятьдесят три бойца. Никто из них не ожидал, что им предстоит отбивать прорыв многочисленной банды талибов. Четыреста человек готовятся к наступлению, и солдаты просто не могут отдать позиции. Несмотря на неравные силы, бойцы готовы дать отпор, действуя строго по уставу. Им не приходится ждать помощи, поскольку следующая база слишком далека от них. Смогут ли они выполнить свой долг и отбить нападение, и какую цену им предстоит заплатить?..- -Качество: BDRemux 1080p
Формат: MKV
Видео: MPEG-4 AVC, 1920x1080, 30.9 Mbit/s, 23.976 fps
Аудио #01: 48 kHz, AC3, 5.1, 384 Kbps | iTunes | RUS |
Аудио #02: 48 kHz, AC3, 5.1, 448 Kbps | HDRezka Studio (cens.) | RUS |
Аудио #03: 48 kHz, AC3, 5.1, 448 Kbps | HDRezka Studio (no cens.) | RUS |
Аудио #04: 48 kHz, DTS-HD MA, 5.1, 2139 Kbps | Оригинал | ENG |
Субтитры: Русские (Forced), английские-

Скриншоты

         

MI

General
Unique ID : 42516893540980790424646290922506190883 (0x1FFC74B203C85B2827017164ACEA8023)
Complete name : E:VideoHDDThe.Outpost.2020.BDREMUX.1080p.seleZen.mkv
Format : Matroska
Format version : Version 4
File size : 29.6 GiB
Duration : 2 h 3 min
Overall bit rate mode : Variable
Overall bit rate : 34.3 Mb/s
Movie name : The Outpost 2020 from селезень
Encoded date : UTC 2020-10-18 19:44:17
Writing application : mkvmerge v40.0.0 ('Old Town Road + Pony') 64-bit
Writing library : libebml v1.3.9 + libmatroska v1.5.2
Video
ID : 1
Format : AVC
Format/Info : Advanced Video Codec
Format profile : [email protected]
Format settings : CABAC / 4 Ref Frames
Format settings, CABAC : Yes
Format settings, Reference : 4 frames
Format settings, GOP : M=3, N=12
Codec ID : V_MPEG4/ISO/AVC
Duration : 2 h 3 min
Bit rate mode : Variable
Bit rate : 30.9 Mb/s
Maximum bit rate : 35.1 Mb/s
Width : 1 920 pixels
Height : 1 080 pixels
Display aspect ratio : 16:9
Frame rate mode : Constant
Frame rate : 23.976 (24000/1001) FPS
Standard : NTSC
Color space : YUV
Chroma subsampling : 4:2:0
Bit depth : 8 bits
Scan type : Progressive
Bits/(Pixel*Frame) : 0.622
Stream size : 26.6 GiB (90%)
Language : English
Default : No
Forced : No
Color range : Limited
Color primaries : BT.709
Transfer characteristics : BT.709
Matrix coefficients : BT.709
Audio #1
ID : 2
Format : AC-3
Format/Info : Audio Coding 3
Commercial name : Dolby Digital
Codec ID : A_AC3
Duration : 2 h 3 min
Bit rate mode : Constant
Bit rate : 384 kb/s
Channel(s) : 6 channels
Channel layout : L R C LFE Ls Rs
Sampling rate : 48.0 kHz
Frame rate : 31.250 FPS (1536 SPF)
Compression mode : Lossy
Stream size : 339 MiB (1%)
Title : iTunes
Language : Russian
Service kind : Complete Main
Default : Yes
Forced : Yes
Audio #2
ID : 3
Format : AC-3
Format/Info : Audio Coding 3
Commercial name : Dolby Digital
Codec ID : A_AC3
Duration : 2 h 3 min
Bit rate mode : Constant
Bit rate : 448 kb/s
Channel(s) : 6 channels
Channel layout : L R C LFE Ls Rs
Sampling rate : 48.0 kHz
Frame rate : 31.250 FPS (1536 SPF)
Compression mode : Lossy
Stream size : 395 MiB (1%)
Title : MVO (HDRezka Studio) Censored
Language : Russian
Service kind : Complete Main
Default : No
Forced : No
Audio #3
ID : 4
Format : AC-3
Format/Info : Audio Coding 3
Commercial name : Dolby Digital
Codec ID : A_AC3
Duration : 2 h 3 min
Bit rate mode : Constant
Bit rate : 448 kb/s
Channel(s) : 6 channels
Channel layout : L R C LFE Ls Rs
Sampling rate : 48.0 kHz
Frame rate : 31.250 FPS (1536 SPF)
Compression mode : Lossy
Stream size : 395 MiB (1%)
Title : MVO (HDRezka Studio) Uncensored
Language : Russian
Service kind : Complete Main
Default : No
Forced : No
Audio #4
ID : 5
Format : DTS XLL
Format/Info : Digital Theater Systems
Commercial name : DTS-HD Master Audio
Codec ID : A_DTS
Duration : 2 h 3 min
Bit rate mode : Variable
Bit rate : 2 139 kb/s
Channel(s) : 6 channels
Channel layout : C L R Ls Rs LFE
Sampling rate : 48.0 kHz
Frame rate : 93.750 FPS (512 SPF)
Bit depth : 16 bits
Compression mode : Lossless
Stream size : 1.84 GiB (6%)
Title : Original
Language : English
Default : No
Forced : No
Text #1
ID : 6
Format : UTF-8
Codec ID : S_TEXT/UTF8
Codec ID/Info : UTF-8 Plain Text
Duration : 1 h 59 min
Bit rate : 8 b/s
Count of elements : 114
Stream size : 7.13 KiB (0%)
Title : Forced [For HDRezka Studio]
Language : Russian
Default : No
Forced : No
Text #2
ID : 7
Format : UTF-8
Codec ID : S_TEXT/UTF8
Codec ID/Info : UTF-8 Plain Text
Duration : 2 h 1 min
Bit rate : 78 b/s
Count of elements : 2805
Stream size : 69.7 KiB (0%)
Title : Full
Language : English
Default : No
Forced : No
Text #3
ID : 8
Format : UTF-8
Codec ID : S_TEXT/UTF8
Codec ID/Info : UTF-8 Plain Text
Duration : 2 h 1 min
Bit rate : 82 b/s
Count of elements : 3041
Stream size : 73.8 KiB (0%)
Title : SDH
Language : English
Default : No
Forced : No
Menu
00:00:00.000 : :Chapter 01
00:10:37.554 : :Chapter 02
00:15:19.418 : :Chapter 03
00:24:02.983 : :Chapter 04
00:32:55.182 : :Chapter 05
00:41:56.180 : :Chapter 06
00:47:04.071 : :Chapter 07
00:55:31.119 : :Chapter 08
01:03:51.369 : :Chapter 09
01:12:44.193 : :Chapter 10
01:19:51.787 : :Chapter 11
01:29:15.016 : :Chapter 12
01:35:39.776 : :Chapter 13
01:42:10.374 : :Chapter 14
01:45:06.217 : :Chapter 15
01:54:08.383 : :Chapter 16
Релиз:

Kon912

Post 18-Oct-2020 23:28

[Quote]

Форпост / The Outpost- Год выхода: 2020
Жанр: Боевик, военный, драма, реальные события, экранизация
Студия: Millennium Media, York Films
Страна: США, Болгария
Продолжительность: 02:03:11
Перевод #1: : Дублированный | iTunes
Перевод #2: : Профессиональный многоголосый | HDRezka Studio-Режиссер:
Род Лури-В ролях:
Орландо Блум, Скотт Иствуд, Калеб Лэндри Джонс, Майло Гибсон, Бобби Локвуд, Джейкоб Скипио, Джек Кеси, Селина Синден, Тейлор Джон Смит, Александр Арнольд, Джеймс Джаггер-О фильме:
Действия фильма происходят 3 октября 2009 года в Афганистане. У подножия гор, недалеко от поселения Кадмеш, расположился американский Форпост. Тай Картер и сержант Ромеш Клинтон имеют в своем распоряжении пятьдесят три бойца. Никто из них не ожидал, что им предстоит отбивать прорыв многочисленной банды талибов. Четыреста человек готовятся к наступлению, и солдаты просто не могут отдать позиции. Несмотря на неравные силы, бойцы готовы дать отпор, действуя строго по уставу. Им не приходится ждать помощи, поскольку следующая база слишком далека от них. Смогут ли они выполнить свой долг и отбить нападение, и какую цену им предстоит заплатить?..- -Качество: BDRip 1080p
Формат: MKV
Видео: MPEG-4 AVC, 1920x1080, 27.9 Mbit/s, 23.976 fps
Аудио #01: 48 kHz, AC3, 5.1, 384 Kbps | iTunes | RUS |
Аудио #02: 48 kHz, AC3, 5.1, 448 Kbps | HDRezka Studio (cens.) | RUS |
Аудио #03: 48 kHz, AC3, 5.1, 448 Kbps | HDRezka Studio (no cens.) | RUS |
Аудио #04: 48 kHz, AC3, 5.1, 640 Kbps | Оригинал | ENG |
Субтитры: Русские (Forced), английские-

Скриншоты

         

MI

General
Unique ID : 214207830267423162554685441215260098529 (0xA126ED6E3E3612D5F143D342F4A57FE1)
Complete name : D:Video111The.Outpost.2020.BDRip.1080p.seleZen.mkv
Format : Matroska
Format version : Version 4
File size : 17.0 GiB
Duration : 2 h 3 min
Overall bit rate : 19.8 Mb/s
Movie name : The Outpost 2020 from селезень
Encoded date : UTC 2020-10-18 18:54:33
Writing application : mkvmerge v40.0.0 ('Old Town Road + Pony') 64-bit
Writing library : libebml v1.3.9 + libmatroska v1.5.2
Video
ID : 1
Format : AVC
Format/Info : Advanced Video Codec
Format profile : [email protected]
Format settings : CABAC / 4 Ref Frames
Format settings, CABAC : Yes
Format settings, Reference : 4 frames
Codec ID : V_MPEG4/ISO/AVC
Duration : 2 h 3 min
Bit rate : 17.8 Mb/s
Width : 1 920 pixels
Height : 1 040 pixels
Display aspect ratio : 1.85:1
Frame rate mode : Constant
Frame rate : 23.976 (24000/1001) FPS
Color space : YUV
Chroma subsampling : 4:2:0
Bit depth : 8 bits
Scan type : Progressive
Bits/(Pixel*Frame) : 0.373
Stream size : 15.3 GiB (90%)
Title : playHD
Writing library : x264 core 144 r2525 40bb568
Encoding settings : cabac=1 / ref=4 / deblock=1:-3:-3 / analyse=0x3:0x133 / me=umh / subme=10 / psy=1 / psy_rd=1.00:0.00 / mixed_ref=1 / me_range=32 / chroma_me=1 / trellis=2 / 8x8dct=1 / cqm=0 / deadzone=21,11 / fast_pskip=0 / chroma_qp_offset=-2 / threads=12 / lookahead_threads=2 / sliced_threads=0 / nr=0 / decimate=0 / interlaced=0 / bluray_compat=0 / constrained_intra=0 / bframes=9 / b_pyramid=2 / b_adapt=2 / b_bias=0 / direct=3 / weightb=1 / open_gop=0 / weightp=2 / keyint=250 / keyint_min=23 / scenecut=40 / intra_refresh=0 / rc=crf / mbtree=0 / crf=17.5 / qcomp=0.60 / qpmin=0 / qpmax=69 / qpstep=4 / ip_ratio=1.30 / pb_ratio=1.20 / aq=3:0.85
Language : English
Default : Yes
Forced : No
Audio #1
ID : 2
Format : AC-3
Format/Info : Audio Coding 3
Commercial name : Dolby Digital
Codec ID : A_AC3
Duration : 2 h 3 min
Bit rate mode : Constant
Bit rate : 384 kb/s
Channel(s) : 6 channels
Channel layout : L R C LFE Ls Rs
Sampling rate : 48.0 kHz
Frame rate : 31.250 FPS (1536 SPF)
Compression mode : Lossy
Stream size : 339 MiB (2%)
Title : iTunes
Language : Russian
Service kind : Complete Main
Default : Yes
Forced : Yes
Audio #2
ID : 3
Format : AC-3
Format/Info : Audio Coding 3
Commercial name : Dolby Digital
Codec ID : A_AC3
Duration : 2 h 3 min
Bit rate mode : Constant
Bit rate : 448 kb/s
Channel(s) : 6 channels
Channel layout : L R C LFE Ls Rs
Sampling rate : 48.0 kHz
Frame rate : 31.250 FPS (1536 SPF)
Compression mode : Lossy
Stream size : 395 MiB (2%)
Title : MVO (HDRezka Studio) Censored
Language : Russian
Service kind : Complete Main
Default : No
Forced : No
Audio #3
ID : 4
Format : AC-3
Format/Info : Audio Coding 3
Commercial name : Dolby Digital
Codec ID : A_AC3
Duration : 2 h 3 min
Bit rate mode : Constant
Bit rate : 448 kb/s
Channel(s) : 6 channels
Channel layout : L R C LFE Ls Rs
Sampling rate : 48.0 kHz
Frame rate : 31.250 FPS (1536 SPF)
Compression mode : Lossy
Stream size : 395 MiB (2%)
Title : MVO (HDRezka Studio) Uncensored
Language : Russian
Service kind : Complete Main
Default : No
Forced : No
Audio #4
ID : 5
Format : AC-3
Format/Info : Audio Coding 3
Commercial name : Dolby Digital
Codec ID : A_AC3
Duration : 2 h 3 min
Bit rate mode : Constant
Bit rate : 640 kb/s
Channel(s) : 6 channels
Channel layout : L R C LFE Ls Rs
Sampling rate : 48.0 kHz
Frame rate : 31.250 FPS (1536 SPF)
Compression mode : Lossy
Stream size : 564 MiB (3%)
Title : Original
Language : English
Service kind : Complete Main
Default : No
Forced : No
Text #1
ID : 6
Format : UTF-8
Codec ID : S_TEXT/UTF8
Codec ID/Info : UTF-8 Plain Text
Duration : 1 h 59 min
Bit rate : 8 b/s
Count of elements : 114
Stream size : 7.13 KiB (0%)
Title : Forced [For HDRezka Studio]
Language : Russian
Default : No
Forced : No
Text #2
ID : 7
Format : UTF-8
Codec ID : S_TEXT/UTF8
Codec ID/Info : UTF-8 Plain Text
Duration : 2 h 1 min
Bit rate : 78 b/s
Count of elements : 2805
Stream size : 69.7 KiB (0%)
Title : Full
Language : English
Default : No
Forced : No
Text #3
ID : 8
Format : UTF-8
Codec ID : S_TEXT/UTF8
Codec ID/Info : UTF-8 Plain Text
Duration : 2 h 1 min
Bit rate : 82 b/s
Count of elements : 3041
Stream size : 73.8 KiB (0%)
Title : SDH
Language : English
Default : No
Forced : No
Menu
00:00:00.000 : :Chapter 01
00:10:37.554 : :Chapter 02
00:15:19.418 : :Chapter 03
00:24:02.983 : :Chapter 04
00:32:55.182 : :Chapter 05
00:41:56.180 : :Chapter 06
00:47:04.071 : :Chapter 07
00:55:31.119 : :Chapter 08
01:03:51.369 : :Chapter 09
01:12:44.193 : :Chapter 10
01:19:51.787 : :Chapter 11
01:29:15.016 : :Chapter 12
01:35:39.776 : :Chapter 13
01:42:10.374 : :Chapter 14
01:45:06.217 : :Chapter 15
01:54:08.383 : :Chapter 16
Релиз:

Kon912

Post 18-Oct-2020 23:28

[Quote]

Форпост / The Outpost- Год выхода: 2020
Жанр: Боевик, военный, драма, реальные события, экранизация
Студия: Millennium Media, York Films
Страна: США, Болгария
Продолжительность: 02:03:11
Перевод #1: : Дублированный | iTunes
Перевод #2: : Профессиональный многоголосый | HDRezka Studio-Режиссер:
Род Лури-В ролях:
Орландо Блум, Скотт Иствуд, Калеб Лэндри Джонс, Майло Гибсон, Бобби Локвуд, Джейкоб Скипио, Джек Кеси, Селина Синден, Тейлор Джон Смит, Александр Арнольд, Джеймс Джаггер-О фильме:
Действия фильма происходят 3 октября 2009 года в Афганистане. У подножия гор, недалеко от поселения Кадмеш, расположился американский Форпост. Тай Картер и сержант Ромеш Клинтон имеют в своем распоряжении пятьдесят три бойца. Никто из них не ожидал, что им предстоит отбивать прорыв многочисленной банды талибов. Четыреста человек готовятся к наступлению, и солдаты просто не могут отдать позиции. Несмотря на неравные силы, бойцы готовы дать отпор, действуя строго по уставу. Им не приходится ждать помощи, поскольку следующая база слишком далека от них. Смогут ли они выполнить свой долг и отбить нападение, и какую цену им предстоит заплатить?..- -Качество: BDRip 720p
Формат: MKV
Видео: MPEG-4 AVC, 1280x692, 7699 Kbit/s, 23.976 fps
Аудио #01: 48 kHz, AC3, 5.1, 384 Kbps | iTunes | RUS |
Аудио #02: 48 kHz, AC3, 5.1, 448 Kbps | HDRezka Studio (cens.) | RUS |
Аудио #03: 48 kHz, AC3, 5.1, 448 Kbps | HDRezka Studio (no cens.) | RUS |
Аудио #04: 48 kHz, AC3, 5.1, 640 Kbps | Оригинал | ENG |
Субтитры: Русские (Forced), английские-

Скриншоты

         

MI

General
Unique ID : 136288731357720945487864538517502410196 (0x6688413FD82AA4905CEEF54AD23BBDD4)
Complete name : D:Video111The.Outpost.2020.BDRip.720p.seleZen.mkv
Format : Matroska
Format version : Version 4
File size : 8.28 GiB
Duration : 2 h 3 min
Overall bit rate : 9 619 kb/s
Movie name : The Outpost 2020 from селезень
Encoded date : UTC 2020-10-18 18:58:08
Writing application : mkvmerge v40.0.0 ('Old Town Road + Pony') 64-bit
Writing library : libebml v1.3.9 + libmatroska v1.5.2
Video
ID : 1
Format : AVC
Format/Info : Advanced Video Codec
Format profile : [email protected]
Format settings : CABAC / 9 Ref Frames
Format settings, CABAC : Yes
Format settings, Reference : 9 frames
Codec ID : V_MPEG4/ISO/AVC
Duration : 2 h 3 min
Bit rate : 7 699 kb/s
Width : 1 280 pixels
Height : 692 pixels
Display aspect ratio : 1.85:1
Frame rate mode : Constant
Frame rate : 23.976 (24000/1001) FPS
Color space : YUV
Chroma subsampling : 4:2:0
Bit depth : 8 bits
Scan type : Progressive
Bits/(Pixel*Frame) : 0.363
Stream size : 6.63 GiB (80%)
Title : playHD
Writing library : x264 core 160 r3000+53 e3e4c3e t_mod_New [(8 & 10)[email protected] X86_64]
Encoding settings : cabac=1 / ref=9 / deblock=1:-3:-3 / analyse=0x3:0x133 / me=umh / subme=10 / psy=1 / fade_compensate=0.00 / psy_rd=1.00:0.00 / mixed_ref=1 / me_range=32 / chroma_me=1 / trellis=2 / 8x8dct=1 / cqm=0 / deadzone=21,11 / fast_pskip=0 / chroma_qp_offset=-2 / threads=24 / lookahead_threads=4 / sliced_threads=0 / nr=0 / decimate=0 / interlaced=0 / bluray_compat=0 / constrained_intra=0 / fgo=0 / bframes=8 / b_pyramid=2 / b_adapt=2 / b_bias=0 / direct=3 / weightb=1 / open_gop=0 / weightp=2 / keyint=250 / keyint_min=23 / scenecut=40 / intra_refresh=0 / rc=crf / mbtree=0 / crf=16.7000 / qcomp=0.60 / qpmin=0:0:0 / qpmax=69:69:69 / qpstep=4 / ip_ratio=1.30 / pb_ratio=1.20 / aq=3:0.85 / aq-sensitivity=10.00 / aq-factor=1.00:1.00:1.00 / aq2=0 / aq3=0
Language : English
Default : Yes
Forced : No
Audio #1
ID : 2
Format : AC-3
Format/Info : Audio Coding 3
Commercial name : Dolby Digital
Codec ID : A_AC3
Duration : 2 h 3 min
Bit rate mode : Constant
Bit rate : 384 kb/s
Channel(s) : 6 channels
Channel layout : L R C LFE Ls Rs
Sampling rate : 48.0 kHz
Frame rate : 31.250 FPS (1536 SPF)
Compression mode : Lossy
Stream size : 339 MiB (4%)
Title : iTunes
Language : Russian
Service kind : Complete Main
Default : Yes
Forced : Yes
Audio #2
ID : 3
Format : AC-3
Format/Info : Audio Coding 3
Commercial name : Dolby Digital
Codec ID : A_AC3
Duration : 2 h 3 min
Bit rate mode : Constant
Bit rate : 448 kb/s
Channel(s) : 6 channels
Channel layout : L R C LFE Ls Rs
Sampling rate : 48.0 kHz
Frame rate : 31.250 FPS (1536 SPF)
Compression mode : Lossy
Stream size : 395 MiB (5%)
Title : MVO (HDRezka Studio) Censored
Language : Russian
Service kind : Complete Main
Default : No
Forced : No
Audio #3
ID : 4
Format : AC-3
Format/Info : Audio Coding 3
Commercial name : Dolby Digital
Codec ID : A_AC3
Duration : 2 h 3 min
Bit rate mode : Constant
Bit rate : 448 kb/s
Channel(s) : 6 channels
Channel layout : L R C LFE Ls Rs
Sampling rate : 48.0 kHz
Frame rate : 31.250 FPS (1536 SPF)
Compression mode : Lossy
Stream size : 395 MiB (5%)
Title : MVO (HDRezka Studio) Uncensored
Language : Russian
Service kind : Complete Main
Default : No
Forced : No
Audio #4
ID : 5
Format : AC-3
Format/Info : Audio Coding 3
Commercial name : Dolby Digital
Codec ID : A_AC3
Duration : 2 h 3 min
Bit rate mode : Constant
Bit rate : 640 kb/s
Channel(s) : 6 channels
Channel layout : L R C LFE Ls Rs
Sampling rate : 48.0 kHz
Frame rate : 31.250 FPS (1536 SPF)
Compression mode : Lossy
Stream size : 564 MiB (7%)
Title : Original
Language : English
Service kind : Complete Main
Default : No
Forced : No
Text #1
ID : 6
Format : UTF-8
Codec ID : S_TEXT/UTF8
Codec ID/Info : UTF-8 Plain Text
Duration : 1 h 59 min
Bit rate : 8 b/s
Count of elements : 114
Stream size : 7.13 KiB (0%)
Title : Forced [For HDRezka Studio]
Language : Russian
Default : No
Forced : No
Text #2
ID : 7
Format : UTF-8
Codec ID : S_TEXT/UTF8
Codec ID/Info : UTF-8 Plain Text
Duration : 2 h 1 min
Bit rate : 78 b/s
Count of elements : 2805
Stream size : 69.7 KiB (0%)
Title : Full
Language : English
Default : No
Forced : No
Text #3
ID : 8
Format : UTF-8
Codec ID : S_TEXT/UTF8
Codec ID/Info : UTF-8 Plain Text
Duration : 2 h 1 min
Bit rate : 82 b/s
Count of elements : 3041
Stream size : 73.8 KiB (0%)
Title : SDH
Language : English
Default : No
Forced : No
Menu
00:00:00.000 : :Chapter 01
00:10:37.554 : :Chapter 02
00:15:19.418 : :Chapter 03
00:24:02.983 : :Chapter 04
00:32:55.182 : :Chapter 05
00:41:56.180 : :Chapter 06
00:47:04.071 : :Chapter 07
00:55:31.119 : :Chapter 08
01:03:51.369 : :Chapter 09
01:12:44.193 : :Chapter 10
01:19:51.787 : :Chapter 11
01:29:15.016 : :Chapter 12
01:35:39.776 : :Chapter 13
01:42:10.374 : :Chapter 14
01:45:06.217 : :Chapter 15
01:54:08.383 : :Chapter 16
Релиз:

Kon912

Post 16-Oct-2020 23:58

[Quote]

Девушка с браслетом / La fille au bracelet- Год выхода: 2019
Страна: Франция, Бельгия
Студия: Petit Film, France 3 Cinéma, Frakas Productions
Жанр: Драма, криминал
Продолжительность: 01:35:34
Перевод: Дублированный | iTunes-Режиссер:
Стефан Демустье-В ролях:
Рошди Зем, Кьяра Мастроянни, Мелисса Герс, Анаис Демустье, Энни Мерсье, Паскаль Гарбарини, Поль Айссауи-Кувелье, Карло Ферранте, Энн Полицевич, Виктория Жадо-О фильме:
Лизе 18 лет, она живет в самом обычном районе и только что поступила в колледж. Но вот уже два года Лиза носит браслет, потому что ее обвиняют в убийстве лучшей подруги.- -Качество: BDRemux 1080p
Формат: MKV
Видео: MPEG-4 AVC, 1920x1080, 34.0 Mbit/s, 23.976 fps
Аудио #01: 48 kHz, AC3, 5.1, 384 Kbps | iTunes | RUS |
Аудио #02: 48 kHz, DTS-HD MA, 5.1, 3452 Kbps | Оригинал | FRE |
Субтитры: Нет-

Скриншоты

         

MI

General
Unique ID : 83239366277180752534633552213240611842 (0x3E9F519D4D9435AF4F2DF2C875768402)
Complete name : D:Video111La.Fille.Au.Bracelet.2019.BDRip.1080p.seleZen.mkv
Format : Matroska
Format version : Version 4
File size : 11.3 GiB
Duration : 1 h 35 min
Overall bit rate : 16.9 Mb/s
Movie name : La Fille Au Bracelet 2019 from селезень
Encoded date : UTC 2020-10-14 18:42:17
Writing application : mkvmerge v40.0.0 ('Old Town Road + Pony') 64-bit
Writing library : libebml v1.3.9 + libmatroska v1.5.2
Video
ID : 1
Format : AVC
Format/Info : Advanced Video Codec
Format profile : [email protected]
Format settings : CABAC / 4 Ref Frames
Format settings, CABAC : Yes
Format settings, Reference : 4 frames
Codec ID : V_MPEG4/ISO/AVC
Duration : 1 h 35 min
Bit rate : 15.0 Mb/s
Width : 1 800 pixels
Height : 1 080 pixels
Display aspect ratio : 5:3
Frame rate mode : Constant
Frame rate : 23.976 (24000/1001) FPS
Color space : YUV
Chroma subsampling : 4:2:0
Bit depth : 8 bits
Scan type : Progressive
Bits/(Pixel*Frame) : 0.323
Stream size : 10.0 GiB (89%)
Title : iFT
Writing library : x264 core 161 r3015+58M ~ Encoded by Mocunaman in Portugal
Encoding settings : cabac=1 / ref=4 / deblock=1:-3:-3 / analyse=0x3:0x113 / me=umh / subme=11 / psy=1 / fade_compensate=0.00 / psy_rd=1.00:0.00 / mixed_ref=1 / me_range=32 / chroma_me=1 / trellis=2 / 8x8dct=1 / cqm=0 / deadzone=21,11 / fast_pskip=0 / chroma_qp_offset=-2 / threads=34 / lookahead_threads=8 / sliced_threads=0 / nr=0 / decimate=0 / interlaced=0 / bluray_compat=0 / constrained_intra=0 / fgo=0 / bframes=10 / b_pyramid=2 / b_adapt=2 / b_bias=0 / direct=3 / weightb=1 / open_gop=0 / weightp=2 / keyint=250 / keyint_min=23 / scenecut=40 / intra_refresh=0 / rc_lookahead=60 / rc=crf / mbtree=0 / crf=17.9000 / qcomp=0.62 / qpmin=0:0:0 / qpmax=69:69:69 / qpstep=4 / vbv_maxrate=62500 / vbv_bufsize=78125 / crf_max=0.0 / nal_hrd=none / filler=0 / ip_ratio=1.30 / pb_ratio=1.20 / aq=3:0.80 / aq-sensitivity=10.00 / aq-factor=1.00:1.00:1.00 / aq2=0 / aq3=0 / zones=35771,47236,crf=16.9/64852,65766,crf=17.4
Language : English
Default : Yes
Forced : No
Color range : Limited
Color primaries : BT.709
Transfer characteristics : BT.709
Matrix coefficients : BT.709
Audio #1
ID : 2
Format : AC-3
Format/Info : Audio Coding 3
Commercial name : Dolby Digital
Codec ID : A_AC3
Duration : 1 h 35 min
Bit rate mode : Constant
Bit rate : 384 kb/s
Channel(s) : 6 channels
Channel layout : L R C LFE Ls Rs
Sampling rate : 48.0 kHz
Frame rate : 31.250 FPS (1536 SPF)
Compression mode : Lossy
Stream size : 262 MiB (2%)
Title : iTunes
Language : Russian
Service kind : Complete Main
Default : Yes
Forced : Yes
Audio #2
ID : 3
Format : DTS
Format/Info : Digital Theater Systems
Codec ID : A_DTS
Duration : 1 h 35 min
Bit rate mode : Constant
Bit rate : 1 509 kb/s
Channel(s) : 6 channels
Channel layout : C L R Ls Rs LFE
Sampling rate : 48.0 kHz
Frame rate : 93.750 FPS (512 SPF)
Bit depth : 24 bits
Compression mode : Lossy
Stream size : 1.01 GiB (9%)
Title : Original
Language : French
Default : No
Forced : No
Menu
00:00:00.000 : en:Chapter 01
00:08:52.532 : en:Chapter 02
00:15:53.995 : en:Chapter 03
00:24:08.447 : en:Chapter 04
00:32:50.177 : en:Chapter 05
00:40:44.275 : en:Chapter 06
00:51:06.063 : en:Chapter 07
01:01:33.106 : en:Chapter 08
01:10:08.037 : en:Chapter 09
01:20:31.035 : en:Chapter 10
01:30:38.642 : en:Chapter 11
Релиз:

Kon912

Post 16-Oct-2020 23:58

[Quote]

Девушка с браслетом / La fille au bracelet- Год выхода: 2019
Страна: Франция, Бельгия
Студия: Petit Film, France 3 Cinéma, Frakas Productions
Жанр: Драма, криминал
Продолжительность: 01:35:34
Перевод: Дублированный | iTunes-Режиссер:
Стефан Демустье-В ролях:
Рошди Зем, Кьяра Мастроянни, Мелисса Герс, Анаис Демустье, Энни Мерсье, Паскаль Гарбарини, Поль Айссауи-Кувелье, Карло Ферранте, Энн Полицевич, Виктория Жадо-О фильме:
Лизе 18 лет, она живет в самом обычном районе и только что поступила в колледж. Но вот уже два года Лиза носит браслет, потому что ее обвиняют в убийстве лучшей подруги.- -Качество: BDRip 1080p
Формат: MKV
Видео: MPEG-4 AVC, 1800x1080, 15.0 Mbit/s, 23.976 fps
Аудио #01: 48 kHz, AC3, 5.1, 384 Kbps | iTunes | RUS |
Аудио #02: 48 kHz, DTS, 5.1, 1510 Kbps | Оригинал | FRE |
Субтитры: Нет-

Скриншоты

         

MI

General
Unique ID : 83239366277180752534633552213240611842 (0x3E9F519D4D9435AF4F2DF2C875768402)
Complete name : D:Video111La.Fille.Au.Bracelet.2019.BDRip.1080p.seleZen.mkv
Format : Matroska
Format version : Version 4
File size : 11.3 GiB
Duration : 1 h 35 min
Overall bit rate : 16.9 Mb/s
Movie name : La Fille Au Bracelet 2019 from селезень
Encoded date : UTC 2020-10-14 18:42:17
Writing application : mkvmerge v40.0.0 ('Old Town Road + Pony') 64-bit
Writing library : libebml v1.3.9 + libmatroska v1.5.2
Video
ID : 1
Format : AVC
Format/Info : Advanced Video Codec
Format profile : [email protected]
Format settings : CABAC / 4 Ref Frames
Format settings, CABAC : Yes
Format settings, Reference : 4 frames
Codec ID : V_MPEG4/ISO/AVC
Duration : 1 h 35 min
Bit rate : 15.0 Mb/s
Width : 1 800 pixels
Height : 1 080 pixels
Display aspect ratio : 5:3
Frame rate mode : Constant
Frame rate : 23.976 (24000/1001) FPS
Color space : YUV
Chroma subsampling : 4:2:0
Bit depth : 8 bits
Scan type : Progressive
Bits/(Pixel*Frame) : 0.323
Stream size : 10.0 GiB (89%)
Title : iFT
Writing library : x264 core 161 r3015+58M ~ Encoded by Mocunaman in Portugal
Encoding settings : cabac=1 / ref=4 / deblock=1:-3:-3 / analyse=0x3:0x113 / me=umh / subme=11 / psy=1 / fade_compensate=0.00 / psy_rd=1.00:0.00 / mixed_ref=1 / me_range=32 / chroma_me=1 / trellis=2 / 8x8dct=1 / cqm=0 / deadzone=21,11 / fast_pskip=0 / chroma_qp_offset=-2 / threads=34 / lookahead_threads=8 / sliced_threads=0 / nr=0 / decimate=0 / interlaced=0 / bluray_compat=0 / constrained_intra=0 / fgo=0 / bframes=10 / b_pyramid=2 / b_adapt=2 / b_bias=0 / direct=3 / weightb=1 / open_gop=0 / weightp=2 / keyint=250 / keyint_min=23 / scenecut=40 / intra_refresh=0 / rc_lookahead=60 / rc=crf / mbtree=0 / crf=17.9000 / qcomp=0.62 / qpmin=0:0:0 / qpmax=69:69:69 / qpstep=4 / vbv_maxrate=62500 / vbv_bufsize=78125 / crf_max=0.0 / nal_hrd=none / filler=0 / ip_ratio=1.30 / pb_ratio=1.20 / aq=3:0.80 / aq-sensitivity=10.00 / aq-factor=1.00:1.00:1.00 / aq2=0 / aq3=0 / zones=35771,47236,crf=16.9/64852,65766,crf=17.4
Language : English
Default : Yes
Forced : No
Color range : Limited
Color primaries : BT.709
Transfer characteristics : BT.709
Matrix coefficients : BT.709
Audio #1
ID : 2
Format : AC-3
Format/Info : Audio Coding 3
Commercial name : Dolby Digital
Codec ID : A_AC3
Duration : 1 h 35 min
Bit rate mode : Constant
Bit rate : 384 kb/s
Channel(s) : 6 channels
Channel layout : L R C LFE Ls Rs
Sampling rate : 48.0 kHz
Frame rate : 31.250 FPS (1536 SPF)
Compression mode : Lossy
Stream size : 262 MiB (2%)
Title : iTunes
Language : Russian
Service kind : Complete Main
Default : Yes
Forced : Yes
Audio #2
ID : 3
Format : DTS
Format/Info : Digital Theater Systems
Codec ID : A_DTS
Duration : 1 h 35 min
Bit rate mode : Constant
Bit rate : 1 509 kb/s
Channel(s) : 6 channels
Channel layout : C L R Ls Rs LFE
Sampling rate : 48.0 kHz
Frame rate : 93.750 FPS (512 SPF)
Bit depth : 24 bits
Compression mode : Lossy
Stream size : 1.01 GiB (9%)
Title : Original
Language : French
Default : No
Forced : No
Menu
00:00:00.000 : en:Chapter 01
00:08:52.532 : en:Chapter 02
00:15:53.995 : en:Chapter 03
00:24:08.447 : en:Chapter 04
00:32:50.177 : en:Chapter 05
00:40:44.275 : en:Chapter 06
00:51:06.063 : en:Chapter 07
01:01:33.106 : en:Chapter 08
01:10:08.037 : en:Chapter 09
01:20:31.035 : en:Chapter 10
01:30:38.642 : en:Chapter 11
Релиз:

Kon912

Post 16-Oct-2020 23:57

[Quote]

Девушка с браслетом / La fille au bracelet- Год выхода: 2019
Страна: Франция, Бельгия
Студия: Petit Film, France 3 Cinéma, Frakas Productions
Жанр: Драма, криминал
Продолжительность: 01:35:34
Перевод: Дублированный | iTunes-Режиссер:
Стефан Демустье-В ролях:
Рошди Зем, Кьяра Мастроянни, Мелисса Герс, Анаис Демустье, Энни Мерсье, Паскаль Гарбарини, Поль Айссауи-Кувелье, Карло Ферранте, Энн Полицевич, Виктория Жадо-О фильме:
Лизе 18 лет, она живет в самом обычном районе и только что поступила в колледж. Но вот уже два года Лиза носит браслет, потому что ее обвиняют в убийстве лучшей подруги.- -Качество: BDRip 720p
Формат: MKV
Видео: MPEG-4 AVC, 1200x720, 6673 Kbit/s, 23.976 fps
Аудио #01: 48 kHz, AC3, 5.1, 384 Kbps | iTunes | RUS |
Аудио #02: 48 kHz, AC3, 5.1, 640 Kbps | Оригинал | FRE |
Субтитры: Нет-

Скриншоты

         

MI

General
Unique ID : 10835894607786745608257882920373675311 (0x826EADA111D16FCFD7910F4ADA3652F)
Complete name : D:Video111La.Fille.Au.Bracelet.2019.BDRip.720p.seleZen.mkv
Format : Matroska
Format version : Version 4
File size : 5.14 GiB
Duration : 1 h 35 min
Overall bit rate : 7 699 kb/s
Movie name : La Fille Au Bracelet 2019 from селезень
Encoded date : UTC 2020-10-14 18:51:46
Writing application : mkvmerge v40.0.0 ('Old Town Road + Pony') 64-bit
Writing library : libebml v1.3.9 + libmatroska v1.5.2
Video
ID : 1
Format : AVC
Format/Info : Advanced Video Codec
Format profile : [email protected]
Format settings : CABAC / 9 Ref Frames
Format settings, CABAC : Yes
Format settings, Reference : 9 frames
Codec ID : V_MPEG4/ISO/AVC
Duration : 1 h 35 min
Bit rate : 6 673 kb/s
Width : 1 200 pixels
Height : 720 pixels
Display aspect ratio : 5:3
Frame rate mode : Constant
Frame rate : 23.976 (24000/1001) FPS
Color space : YUV
Chroma subsampling : 4:2:0
Bit depth : 8 bits
Scan type : Progressive
Bits/(Pixel*Frame) : 0.322
Stream size : 4.45 GiB (87%)
Title : iFT
Writing library : x264 core 161 r3015+58M ~ Encoded by Mocunaman in Portugal
Encoding settings : cabac=1 / ref=9 / deblock=1:-3:-3 / analyse=0x3:0x113 / me=umh / subme=11 / psy=1 / fade_compensate=0.00 / psy_rd=1.00:0.00 / mixed_ref=1 / me_range=32 / chroma_me=1 / trellis=2 / 8x8dct=1 / cqm=0 / deadzone=21,11 / fast_pskip=0 / chroma_qp_offset=-2 / threads=22 / lookahead_threads=5 / sliced_threads=0 / nr=0 / decimate=0 / interlaced=0 / bluray_compat=0 / constrained_intra=0 / fgo=0 / bframes=10 / b_pyramid=2 / b_adapt=2 / b_bias=0 / direct=3 / weightb=1 / open_gop=0 / weightp=2 / keyint=250 / keyint_min=23 / scenecut=40 / intra_refresh=0 / rc_lookahead=60 / rc=crf / mbtree=0 / crf=16.7000 / qcomp=0.62 / qpmin=0:0:0 / qpmax=69:69:69 / qpstep=4 / vbv_maxrate=62500 / vbv_bufsize=78125 / crf_max=0.0 / nal_hrd=none / filler=0 / ip_ratio=1.30 / pb_ratio=1.20 / aq=3:0.80 / aq-sensitivity=10.00 / aq-factor=1.00:1.00:1.00 / aq2=0 / aq3=0 / zones=35771,47236,crf=15.7/64852,65766,crf=17.2
Language : English
Default : Yes
Forced : No
Color range : Limited
Color primaries : BT.709
Transfer characteristics : BT.709
Matrix coefficients : BT.709
Audio #1
ID : 2
Format : AC-3
Format/Info : Audio Coding 3
Commercial name : Dolby Digital
Codec ID : A_AC3
Duration : 1 h 35 min
Bit rate mode : Constant
Bit rate : 384 kb/s
Channel(s) : 6 channels
Channel layout : L R C LFE Ls Rs
Sampling rate : 48.0 kHz
Frame rate : 31.250 FPS (1536 SPF)
Compression mode : Lossy
Stream size : 262 MiB (5%)
Title : iTunes
Language : Russian
Service kind : Complete Main
Default : Yes
Forced : Yes
Audio #2
ID : 3
Format : AC-3
Format/Info : Audio Coding 3
Commercial name : Dolby Digital
Codec ID : A_AC3
Duration : 1 h 35 min
Bit rate mode : Constant
Bit rate : 640 kb/s
Channel(s) : 6 channels
Channel layout : L R C LFE Ls Rs
Sampling rate : 48.0 kHz
Frame rate : 31.250 FPS (1536 SPF)
Compression mode : Lossy
Stream size : 438 MiB (8%)
Title : Original
Language : French
Service kind : Complete Main
Default : No
Forced : No
Menu
00:00:00.000 : en:Chapter 01
00:08:52.532 : en:Chapter 02
00:15:53.995 : en:Chapter 03
00:24:08.447 : en:Chapter 04
00:32:50.177 : en:Chapter 05
00:40:44.275 : en:Chapter 06
00:51:06.063 : en:Chapter 07
01:01:33.106 : en:Chapter 08
01:10:08.037 : en:Chapter 09
01:20:31.035 : en:Chapter 10
01:30:38.642 : en:Chapter 11
Релиз:

Kon912

Post 16-Oct-2020 23:57

[Quote]

Думай как собака / Think Like a Dog- Год выхода: 2020
Страна: Китай, США, Великобритания
Студия: Arboretum Productions, M Star International, Mad Chance
Жанр: Фантастика, драма, комедия, семейный
Продолжительность: 01:30:54
Перевод: Дублированный | iTunes-Режиссер:
Джил Джангер-В ролях:
Гэбриел Бейтман, Джош Дюамель, Меган Фокс, Мэдисон Хорчер, Минхао Хоу, Исаак Ванг, Диллон Альф, Билли Джонстон, Кунал Найяр, Джанет Монтгомери-О фильме:
В ходе научного эксперимента 12-летний вундеркинд Оливер устанавливает телепатическую связь с любимым и, как оказалось, очень умным псом Генри. Благодаря подсказкам собаки парню удается решать проблемы в школе, дома и даже с девочками...- -Качество: BDRemux 1080p
Формат: MKV
Видео: MPEG-4 AVC, 1920x1080, 24.3 Мbit/s, 23.976 fps
Аудио #01: 48 kHz, AC3, 5.1, 384 Kbps | iTunes | RUS |
Аудио #02: 48 kHz, DTS-HD MA, 5.1, 3641 Kbps | Оригинал | ENG |
Субтитры: Английские-

Скриншоты

         

MI

General
Unique ID : 307302284440658921029606932756521148134 (0xE73044647C48FDE866DB5AA9D0F1DEE6)
Complete name : D:Video111Think.Like.a.Dog.2020.BDREMUX.1080p.seleZen.mkv
Format : Matroska
Format version : Version 4
File size : 18.0 GiB
Duration : 1 h 30 min
Overall bit rate mode : Variable
Overall bit rate : 28.3 Mb/s
Movie name : Think Like a Dog 2020 from селезень
Encoded date : UTC 2020-10-15 15:10:14
Writing application : mkvmerge v40.0.0 ('Old Town Road + Pony') 64-bit
Writing library : libebml v1.3.9 + libmatroska v1.5.2
Video
ID : 1
Format : AVC
Format/Info : Advanced Video Codec
Format profile : [email protected]
Format settings : CABAC / 4 Ref Frames
Format settings, CABAC : Yes
Format settings, Reference : 4 frames
Codec ID : V_MPEG4/ISO/AVC
Duration : 1 h 30 min
Bit rate mode : Variable
Bit rate : 24.3 Mb/s
Maximum bit rate : 37.0 Mb/s
Width : 1 920 pixels
Height : 1 080 pixels
Display aspect ratio : 16:9
Frame rate mode : Constant
Frame rate : 23.976 (24000/1001) FPS
Color space : YUV
Chroma subsampling : 4:2:0
Bit depth : 8 bits
Scan type : Progressive
Bits/(Pixel*Frame) : 0.489
Stream size : 15.4 GiB (86%)
Language : English
Default : Yes
Forced : No
Audio #1
ID : 2
Format : AC-3
Format/Info : Audio Coding 3
Commercial name : Dolby Digital
Codec ID : A_AC3
Duration : 1 h 30 min
Bit rate mode : Constant
Bit rate : 384 kb/s
Channel(s) : 6 channels
Channel layout : L R C LFE Ls Rs
Sampling rate : 48.0 kHz
Frame rate : 31.250 FPS (1536 SPF)
Compression mode : Lossy
Stream size : 250 MiB (1%)
Title : iTunes
Language : Russian
Service kind : Complete Main
Default : Yes
Forced : Yes
Audio #2
ID : 3
Format : DTS XLL
Format/Info : Digital Theater Systems
Commercial name : DTS-HD Master Audio
Codec ID : A_DTS
Duration : 1 h 30 min
Bit rate mode : Variable
Bit rate : 3 641 kb/s
Channel(s) : 6 channels
Channel layout : C L R Ls Rs LFE
Sampling rate : 48.0 kHz
Frame rate : 93.750 FPS (512 SPF)
Bit depth : 24 bits
Compression mode : Lossless
Stream size : 2.31 GiB (13%)
Title : Original
Language : English
Default : No
Forced : No
Text #1
ID : 4
Format : UTF-8
Codec ID : S_TEXT/UTF8
Codec ID/Info : UTF-8 Plain Text
Duration : 1 h 24 min
Bit rate : 86 b/s
Count of elements : 1416
Stream size : 53.0 KiB (0%)
Title : Full
Language : English
Default : No
Forced : No
Text #2
ID : 5
Format : UTF-8
Codec ID : S_TEXT/UTF8
Codec ID/Info : UTF-8 Plain Text
Duration : 1 h 25 min
Bit rate : 93 b/s
Count of elements : 1597
Stream size : 59.1 KiB (0%)
Title : SDH
Language : English
Default : No
Forced : No
Menu
00:00:00.000 : en:Chapter 01
00:06:29.222 : en:Chapter 02
00:11:26.102 : en:Chapter 03
00:15:10.493 : en:Chapter 04
00:20:36.277 : en:Chapter 05
00:24:44.942 : en:Chapter 06
00:30:44.259 : en:Chapter 07
00:39:13.560 : en:Chapter 08
00:45:20.718 : en:Chapter 09
00:51:45.602 : en:Chapter 10
00:57:39.581 : en:Chapter 11
00:59:33.779 : en:Chapter 12
01:06:02.458 : en:Chapter 13
01:10:47.410 : en:Chapter 14
01:13:45.630 : en:Chapter 15
01:21:52.741 : en:Chapter 16
Релиз:
 

The time now is: Today 23:00

All times are GMT + 3 Hours