Today is a free download without charge Download

Search found 500 matches

Author Message

Kon912

Post Yesterday 23:53

[Quote]

Эма: Танец страсти / Ema- Год выхода: 2019
Страна: Чили
Студия: FABULA
Продолжительность: 01:46:59
Жанр: Драма, музыка
Перевод: Профессиональный многоголосый | iTunes-Режиссер:
Пабло Ларраин-В ролях:
Мариана Ди Джироламо, Гаэль Гарсиа Берналь, Сантьяго Кабрера, Хосефина Фьебелькорн, Джаннина Фруттеро, Паола Джаннини, Антония Гизен, Сусана Идальго, Паула Хофманн, Мариана Лойола-О фильме:
После того, как шокирующий инцидент разрушает ее брак с хореографом Гастоном, танцовщица Эма погружается в мир реггетона — уличного танцевального и музыкального стиля. Новый творческий путь становится для нее одиссеей страсти, желания, освобождения и обретения себя.- -Качество: BDRemux 1080p
Формат: MKV
Видео: MPEG-4 AVC, 1920x1080, 33.2 Mbit/s, 24.000 fps
Аудио #01: 48 kHz, AC3, 5.1, 384 Kbps | iTunes | RUS |
Аудио #02: 48 kHz, DTS-HD MA, 5.1, 3546 Kbps | Оригинал | SPA |
Субтитры: Английские, французские-

Скриншоты

     

MI

General
Unique ID : 101296753303936672999790940899155917459 (0x4C350B881DDF4462D286FADABFC03A93)
Complete name : E:Video111BackupEma.2019.BDREMUX.1080p.seleZen.mkv
Format : Matroska
Format version : Version 4
File size : 27.8 GiB
Duration : 1 h 46 min
Overall bit rate mode : Variable
Overall bit rate : 37.2 Mb/s
Movie name : Ema 2019 from селезень
Encoded date : UTC 2020-07-03 16:17:07
Writing application : mkvmerge v40.0.0 ('Old Town Road + Pony') 64-bit
Writing library : libebml v1.3.9 + libmatroska v1.5.2
Video
ID : 1
Format : AVC
Format/Info : Advanced Video Codec
Format profile : [email protected]
Format settings : CABAC / 4 Ref Frames
Format settings, CABAC : Yes
Format settings, Reference frames : 4 frames
Format settings, GOP : M=3, N=24
Codec ID : V_MPEG4/ISO/AVC
Duration : 1 h 46 min
Bit rate mode : Constant
Bit rate : 33.2 Mb/s
Nominal bit rate : 35.0 Mb/s
Width : 1 920 pixels
Height : 1 080 pixels
Display aspect ratio : 16:9
Frame rate mode : Constant
Frame rate : 24.000 FPS
Standard : NTSC
Color space : YUV
Chroma subsampling : 4:2:0
Bit depth : 8 bits
Scan type : Progressive
Bits/(Pixel*Frame) : 0.668
Stream size : 24.8 GiB (89%)
Language : Spanish
Default : Yes
Forced : No
Color range : Limited
Color primaries : BT.709
Transfer characteristics : BT.709
Matrix coefficients : BT.709
Audio #1
ID : 2
Format : AC-3
Format/Info : Audio Coding 3
Commercial name : Dolby Digital
Codec ID : A_AC3
Duration : 1 h 46 min
Bit rate mode : Constant
Bit rate : 384 kb/s
Channel(s) : 6 channels
Channel layout : L R C LFE Ls Rs
Sampling rate : 48.0 kHz
Frame rate : 31.250 FPS (1536 SPF)
Compression mode : Lossy
Stream size : 294 MiB (1%)
Title : iTunes
Language : Russian
Service kind : Complete Main
Default : Yes
Forced : Yes
Audio #2
ID : 3
Format : DTS XLL
Format/Info : Digital Theater Systems
Commercial name : DTS-HD Master Audio
Codec ID : A_DTS
Duration : 1 h 46 min
Bit rate mode : Variable
Bit rate : 3 546 kb/s
Channel(s) : 6 channels
Channel layout : C L R Ls Rs LFE
Sampling rate : 48.0 kHz
Frame rate : 93.750 FPS (512 SPF)
Bit depth : 24 bits
Compression mode : Lossless
Stream size : 2.65 GiB (10%)
Title : Original
Language : Spanish
Default : No
Forced : No
Text #1
ID : 4
Format : UTF-8
Codec ID : S_TEXT/UTF8
Codec ID/Info : UTF-8 Plain Text
Duration : 1 h 37 min
Bit rate : 47 b/s
Count of elements : 1062
Stream size : 34.2 KiB (0%)
Title : Full
Language : English
Default : No
Forced : No
Text #2
ID : 5
Format : UTF-8
Codec ID : S_TEXT/UTF8
Codec ID/Info : UTF-8 Plain Text
Duration : 1 h 37 min
Bit rate : 50 b/s
Count of elements : 1056
Stream size : 36.0 KiB (0%)
Title : Full
Language : French
Default : No
Forced : No
Menu
00:00:00.000 : es:Глава 01
00:09:27.792 : es:Глава 02
00:19:21.750 : es:Глава 03
00:29:46.542 : es:Глава 04
00:38:21.042 : es:Глава 05
00:51:14.250 : es:Глава 06
00:59:43.625 : es:Глава 07
01:06:22.042 : es:Глава 08
01:14:13.167 : es:Глава 09
01:25:43.208 : es:Глава 10
01:34:45.708 : es:Глава 11
01:43:10.625 : es:Глава 12
Релиз от:

Kon912

Post Yesterday 23:53

[Quote]

Эма: Танец страсти / Ema- Год выхода: 2019
Страна: Чили
Студия: FABULA
Продолжительность: 01:46:59
Жанр: Драма, музыка
Перевод: Профессиональный многоголосый | iTunes-Режиссер:
Пабло Ларраин-В ролях:
Мариана Ди Джироламо, Гаэль Гарсиа Берналь, Сантьяго Кабрера, Хосефина Фьебелькорн, Джаннина Фруттеро, Паола Джаннини, Антония Гизен, Сусана Идальго, Паула Хофманн, Мариана Лойола-О фильме:
После того, как шокирующий инцидент разрушает ее брак с хореографом Гастоном, танцовщица Эма погружается в мир реггетона — уличного танцевального и музыкального стиля. Новый творческий путь становится для нее одиссеей страсти, желания, освобождения и обретения себя.- -Качество: BDRip 1080p
Формат: MKV
Видео: MPEG-4 AVC, 1920x806, 10.5 Mbit/s, 24.000 fps
Аудио #01: 48 kHz, AC3, 5.1, 384 Kbps | iTunes | RUS |
Аудио #02: 48 kHz, AC3, 5.1, 640 Kbps | Оригинал | SPA |
Субтитры: Английские, французские-

Скриншоты

     

MI

General
Unique ID : 134016561878896059583564660964797198847 (0x64D2A6A51823FAE544DE95D1D4E031FF)
Complete name : E:Video111Ema.2019.BDRip.1080p.seleZen.mkv
Format : Matroska
Format version : Version 4
File size : 8.58 GiB
Duration : 1 h 46 min
Overall bit rate : 11.5 Mb/s
Movie name : Ema 2019 from селезень
Encoded date : UTC 2020-07-03 18:46:35
Writing application : mkvmerge v40.0.0 ('Old Town Road + Pony') 64-bit
Writing library : libebml v1.3.9 + libmatroska v1.5.2
Video
ID : 1
Format : AVC
Format/Info : Advanced Video Codec
Format profile : [email protected]
Format settings : CABAC / 5 Ref Frames
Format settings, CABAC : Yes
Format settings, Reference frames : 5 frames
Codec ID : V_MPEG4/ISO/AVC
Duration : 1 h 46 min
Bit rate : 10.5 Mb/s
Width : 1 920 pixels
Height : 806 pixels
Display aspect ratio : 2.40:1
Frame rate mode : Constant
Frame rate : 24.000 FPS
Color space : YUV
Chroma subsampling : 4:2:0
Bit depth : 8 bits
Scan type : Progressive
Bits/(Pixel*Frame) : 0.281
Stream size : 7.81 GiB (91%)
Title : Encoded by seleZen
Writing library : x264 core 142 r2431+42 c69a006 tMod [[email protected] X86_64]
Encoding settings : cabac=1 / ref=5 / deblock=1:-2:-2 / analyse=0x3:0x133 / me=umh / subme=10 / psy=1 / fade_compensate=0.00 / psy_rd=1.00:0.00 / mixed_ref=1 / me_range=32 / chroma_me=1 / trellis=2 / 8x8dct=1 / cqm=0 / deadzone=21,11 / fast_pskip=0 / chroma_qp_offset=-2 / threads=24 / lookahead_threads=4 / sliced_threads=0 / nr=0 / decimate=0 / interlaced=0 / bluray_compat=0 / constrained_intra=0 / fgo=0 / bframes=9 / b_pyramid=2 / b_adapt=2 / b_bias=0 / direct=3 / weightb=1 / open_gop=0 / weightp=2 / keyint=240 / keyint_min=24 / scenecut=40 / intra_refresh=0 / rc_lookahead=50 / rc=crf / mbtree=0 / crf=16.8000 / qcomp=0.60 / qpmin=0:0:0 / qpmax=51:51:51 / qpstep=4 / vbv_maxrate=50000 / vbv_bufsize=62500 / crf_max=0.0 / nal_hrd=none / filler=0 / ip_ratio=1.40 / pb_ratio=1.30 / aq=3:0.80 / aq-sensitivity=10.00 / aq-factor=1.00:1.00:1.00 / aq2=0 / aq3=0
Language : English
Default : Yes
Forced : No
Audio #1
ID : 2
Format : AC-3
Format/Info : Audio Coding 3
Commercial name : Dolby Digital
Codec ID : A_AC3
Duration : 1 h 46 min
Bit rate mode : Constant
Bit rate : 384 kb/s
Channel(s) : 6 channels
Channel layout : L R C LFE Ls Rs
Sampling rate : 48.0 kHz
Frame rate : 31.250 FPS (1536 SPF)
Compression mode : Lossy
Stream size : 294 MiB (3%)
Title : iTunes
Language : Russian
Service kind : Complete Main
Default : Yes
Forced : Yes
Audio #2
ID : 3
Format : AC-3
Format/Info : Audio Coding 3
Commercial name : Dolby Digital
Codec ID : A_AC3
Duration : 1 h 46 min
Bit rate mode : Constant
Bit rate : 640 kb/s
Channel(s) : 6 channels
Channel layout : L R C LFE Ls Rs
Sampling rate : 48.0 kHz
Frame rate : 31.250 FPS (1536 SPF)
Compression mode : Lossy
Stream size : 490 MiB (6%)
Title : Original
Language : Spanish
Service kind : Complete Main
Default : No
Forced : No
Text #1
ID : 4
Format : UTF-8
Codec ID : S_TEXT/UTF8
Codec ID/Info : UTF-8 Plain Text
Duration : 1 h 37 min
Bit rate : 47 b/s
Count of elements : 1062
Stream size : 34.2 KiB (0%)
Title : Full
Language : English
Default : No
Forced : No
Text #2
ID : 5
Format : UTF-8
Codec ID : S_TEXT/UTF8
Codec ID/Info : UTF-8 Plain Text
Duration : 1 h 37 min
Bit rate : 50 b/s
Count of elements : 1056
Stream size : 36.0 KiB (0%)
Title : Full
Language : French
Default : No
Forced : No
Menu
00:00:00.000 : es:Глава 01
00:09:27.792 : es:Глава 02
00:19:21.750 : es:Глава 03
00:29:46.542 : es:Глава 04
00:38:21.042 : es:Глава 05
00:51:14.250 : es:Глава 06
00:59:43.625 : es:Глава 07
01:06:22.042 : es:Глава 08
01:14:13.167 : es:Глава 09
01:25:43.208 : es:Глава 10
01:34:45.708 : es:Глава 11
01:43:10.625 : es:Глава 12
Релиз от:

Kon912

Post Yesterday 23:52

[Quote]

Эма: Танец страсти / Ema- Год выхода: 2019
Страна: Чили
Студия: FABULA
Продолжительность: 01:46:59
Жанр: Драма, музыка
Перевод: Профессиональный многоголосый | iTunes-Режиссер:
Пабло Ларраин-В ролях:
Мариана Ди Джироламо, Гаэль Гарсиа Берналь, Сантьяго Кабрера, Хосефина Фьебелькорн, Джаннина Фруттеро, Паола Джаннини, Антония Гизен, Сусана Идальго, Паула Хофманн, Мариана Лойола-О фильме:
После того, как шокирующий инцидент разрушает ее брак с хореографом Гастоном, танцовщица Эма погружается в мир реггетона — уличного танцевального и музыкального стиля. Новый творческий путь становится для нее одиссеей страсти, желания, освобождения и обретения себя.- -Качество: BDRip 720p
Формат: MKV
Видео: MPEG-4 AVC, 1280x538, 3209 Кbit/s, 24.000 fps
Аудио #01: 48 kHz, AC3, 5.1, 384 Kbps | iTunes | RUS |
Аудио #02: 48 kHz, AC3, 5.1, 640 Kbps | Оригинал | SPA |
Субтитры: Английские, французские-

Скриншоты

     

MI

General
Unique ID : 80752132534831660903299742678416875130 (0x3CC04B85EB55542458DFE1C8B44BDE7A)
Complete name : E:Video111Ema.2019.BDRip.720p.seleZen.mkv
Format : Matroska
Format version : Version 4
File size : 3.17 GiB
Duration : 1 h 46 min
Overall bit rate : 4 236 kb/s
Movie name : Ema 2019 from селезень
Encoded date : UTC 2020-07-03 20:09:07
Writing application : mkvmerge v40.0.0 ('Old Town Road + Pony') 64-bit
Writing library : libebml v1.3.9 + libmatroska v1.5.2
Video
ID : 1
Format : AVC
Format/Info : Advanced Video Codec
Format profile : [email protected]
Format settings : CABAC / 12 Ref Frames
Format settings, CABAC : Yes
Format settings, Reference frames : 12 frames
Codec ID : V_MPEG4/ISO/AVC
Duration : 1 h 46 min
Bit rate : 3 209 kb/s
Width : 1 280 pixels
Height : 538 pixels
Display aspect ratio : 2.40:1
Frame rate mode : Constant
Frame rate : 24.000 FPS
Color space : YUV
Chroma subsampling : 4:2:0
Bit depth : 8 bits
Scan type : Progressive
Bits/(Pixel*Frame) : 0.194
Stream size : 2.40 GiB (76%)
Title : Encoded by seleZen
Writing library : x264 core 142 r2431+42 c69a006 tMod [[email protected] X86_64]
Encoding settings : cabac=1 / ref=12 / deblock=1:-2:-2 / analyse=0x3:0x133 / me=umh / subme=10 / psy=1 / fade_compensate=0.00 / psy_rd=1.00:0.00 / mixed_ref=1 / me_range=32 / chroma_me=1 / trellis=2 / 8x8dct=1 / cqm=0 / deadzone=21,11 / fast_pskip=0 / chroma_qp_offset=-2 / threads=24 / lookahead_threads=4 / sliced_threads=0 / nr=0 / decimate=0 / interlaced=0 / bluray_compat=0 / constrained_intra=0 / fgo=0 / bframes=9 / b_pyramid=2 / b_adapt=2 / b_bias=0 / direct=3 / weightb=1 / open_gop=0 / weightp=2 / keyint=240 / keyint_min=24 / scenecut=40 / intra_refresh=0 / rc_lookahead=50 / rc=crf / mbtree=0 / crf=16.8000 / qcomp=0.60 / qpmin=0:0:0 / qpmax=51:51:51 / qpstep=4 / vbv_maxrate=50000 / vbv_bufsize=62500 / crf_max=0.0 / nal_hrd=none / filler=0 / ip_ratio=1.40 / pb_ratio=1.30 / aq=3:0.80 / aq-sensitivity=10.00 / aq-factor=1.00:1.00:1.00 / aq2=0 / aq3=0
Language : English
Default : Yes
Forced : No
Audio #1
ID : 2
Format : AC-3
Format/Info : Audio Coding 3
Commercial name : Dolby Digital
Codec ID : A_AC3
Duration : 1 h 46 min
Bit rate mode : Constant
Bit rate : 384 kb/s
Channel(s) : 6 channels
Channel layout : L R C LFE Ls Rs
Sampling rate : 48.0 kHz
Frame rate : 31.250 FPS (1536 SPF)
Compression mode : Lossy
Stream size : 294 MiB (9%)
Title : iTunes
Language : Russian
Service kind : Complete Main
Default : Yes
Forced : Yes
Audio #2
ID : 3
Format : AC-3
Format/Info : Audio Coding 3
Commercial name : Dolby Digital
Codec ID : A_AC3
Duration : 1 h 46 min
Bit rate mode : Constant
Bit rate : 640 kb/s
Channel(s) : 6 channels
Channel layout : L R C LFE Ls Rs
Sampling rate : 48.0 kHz
Frame rate : 31.250 FPS (1536 SPF)
Compression mode : Lossy
Stream size : 490 MiB (15%)
Title : Original
Language : Spanish
Service kind : Complete Main
Default : No
Forced : No
Text #1
ID : 4
Format : UTF-8
Codec ID : S_TEXT/UTF8
Codec ID/Info : UTF-8 Plain Text
Duration : 1 h 37 min
Bit rate : 47 b/s
Count of elements : 1062
Stream size : 34.2 KiB (0%)
Title : Full
Language : English
Default : No
Forced : No
Text #2
ID : 5
Format : UTF-8
Codec ID : S_TEXT/UTF8
Codec ID/Info : UTF-8 Plain Text
Duration : 1 h 37 min
Bit rate : 50 b/s
Count of elements : 1056
Stream size : 36.0 KiB (0%)
Title : Full
Language : French
Default : No
Forced : No
Menu
00:00:00.000 : es:Глава 01
00:09:27.792 : es:Глава 02
00:19:21.750 : es:Глава 03
00:29:46.542 : es:Глава 04
00:38:21.042 : es:Глава 05
00:51:14.250 : es:Глава 06
00:59:43.625 : es:Глава 07
01:06:22.042 : es:Глава 08
01:14:13.167 : es:Глава 09
01:25:43.208 : es:Глава 10
01:34:45.708 : es:Глава 11
01:43:10.625 : es:Глава 12
Релиз от:

Kon912

Post 02-Jul-2020 19:34

[Quote]

Киллер / Killerman- Год выхода: 2019
Страна: США
Жанр: Боевик, триллер, драма, криминал, детектив
Продолжительность: 01:52:28
Перевод: Профессиональный (многоголосый закадровый) | Онлайн кинотеатр-Режиссер:
Малик Бейдер-В ролях:
Лиам Хемсворт, Эмори Коэн, Дайан Герреро, Златко Бурич, Сурадж Шарма, Никола Шкрели, Майк Мо, Джон Ченатьемпо, Сулейман Си Саване, Стиви Паскоски и др.-О фильме:
Двое друзей промышляют отмыванием денег. Однажды они проворачивают сделку с наркоторговцами, во время которой все идет не по плану: один из друзей теряет память. Пока он пытается всё вспомнить, за ним охотятся опасные преступники и продажные полицейские.- -Качество: BDRip 1080p | Killerman 2019 1080p Blu-ray Remux AVC TrueHD 5.1 - KRaLiMaRKo
Формат: MKV
Видео: x264, 1280x536, 7491 kbps, 23,976 fps
Звук#1: русский, AC3, 2.0 ch, 48 kHz, 192 kbps | Онлайн кинотеатр
Звук#2: английский, AC3, 5.1 ch, 48 kHz, 448 kbps | Оригинал
Субтитры: английские (SDH)-

Скриншоты

       

Kon912

Post 02-Jul-2020 19:31

[Quote]

Киллер / Killerman- Год выхода: 2019
Страна: США
Жанр: Боевик, триллер, драма, криминал, детектив
Продолжительность: 01:52:28
Перевод: Профессиональный (многоголосый закадровый) | Онлайн кинотеатр-Режиссер:
Малик Бейдер-В ролях:
Лиам Хемсворт, Эмори Коэн, Дайан Герреро, Златко Бурич, Сурадж Шарма, Никола Шкрели, Майк Мо, Джон Ченатьемпо, Сулейман Си Саване, Стиви Паскоски и др.-О фильме:
Двое друзей промышляют отмыванием денег. Однажды они проворачивают сделку с наркоторговцами, во время которой все идет не по плану: один из друзей теряет память. Пока он пытается всё вспомнить, за ним охотятся опасные преступники и продажные полицейские.- -Качество: BDRip 1080p | Killerman 2019 1080p Blu-ray Remux AVC TrueHD 5.1 - KRaLiMaRKo
Формат: MKV
Видео: x264, 1920x804, 16804 kbps, 23,976 fps
Звук#1: русский, AC3, 2.0 ch, 48 kHz, 192 kbps | Онлайн кинотеатр
Звук#2: английский, AC3, 5.1 ch, 48 kHz, 448 kbps | Оригинал
Субтитры: английские (SDH)-

MI

Общее
Уникальный идентификатор : 199080908706214303866538177388761558088 (0x95C5969DAAD3BA66A228A071F8EFAC48)
Полное имя : E:Torrent4KillerBDRip1080p.mkv
Формат : Matroska
Версия формата : Version 4 / Version 2
Размер файла : 13,7 Гбайт
Продолжительность : 1 ч. 52 м.
Общий поток : 17,4 Мбит/сек
Дата кодирования : UTC 2020-07-02 11:05:10
Программа кодирования : mkvmerge v9.5.0 ('Quiet Fire') 64bit
Библиотека кодирования : libebml v1.3.4 + libmatroska v1.4.5
Видео
Идентификатор : 1
Формат : AVC
Формат/Информация : Advanced Video Codec
Профиль формата : [email protected]
Настройки формата : CABAC / 5 Ref Frames
Параметр CABAC формата : Да
Параметр RefFrames формата : 5 кадров
Идентификатор кодека : V_MPEG4/ISO/AVC
Продолжительность : 1 ч. 52 м.
Битрейт : 16,8 Мбит/сек
Ширина : 1920 пикселей
Высота : 804 пикселя
Соотношение сторон : 2,40:1
Режим частоты кадров : Постоянный
Частота кадров : 23,976 (23976/1000) кадра/сек
Цветовое пространство : YUV
Субдискретизация насыщенности : 4:2:0
Битовая глубина : 8 бит
Тип развёртки : Прогрессивная
Бит/(Пиксели*Кадры) : 0.454
Размер потока : 13,2 Гбайт (96%)
Заголовок : Sisendrovich(R)
Библиотека кодирования : x264 core 159 r2991 1771b55
Настройки программы : cabac=1 / ref=5 / deblock=1:-1:-1 / analyse=0x3:0x133 / me=tesa / subme=11 / psy=1 / psy_rd=1.00:0.00 / mixed_ref=1 / me_range=32 / chroma_me=1 / trellis=2 / 8x8dct=1 / cqm=0 / deadzone=21,11 / fast_pskip=0 / chroma_qp_offset=-2 / threads=24 / lookahead_threads=6 / sliced_threads=0 / nr=0 / decimate=0 / interlaced=0 / bluray_compat=0 / constrained_intra=0 / bframes=12 / b_pyramid=2 / b_adapt=2 / b_bias=0 / direct=3 / weightb=1 / open_gop=0 / weightp=2 / keyint=240 / keyint_min=23 / scenecut=40 / intra_refresh=0 / rc_lookahead=60 / rc=2pass / mbtree=0 / bitrate=16804 / ratetol=1.0 / qcomp=0.70 / qpmin=0 / qpmax=69 / qpstep=4 / cplxblur=20.0 / qblur=0.5 / vbv_maxrate=50000 / vbv_bufsize=62500 / nal_hrd=none / filler=0 / ip_ratio=1.40 / pb_ratio=1.30 / aq=3:0.90
Язык : English
Default : Да
Forced : Нет
Аудио #1
Идентификатор : 2
Формат : AC-3
Формат/Информация : Audio Coding 3
Параметр Endianness формата : Big
Идентификатор кодека : A_AC3
Продолжительность : 1 ч. 52 м.
Вид битрейта : Постоянный
Битрейт : 192 Кбит/сек
Каналы : 2 канала
Расположение каналов : Front: L R
Частота : 48,0 КГц
Частота кадров : 31,250 кадров/сек (1536 SPF)
Битовая глубина : 16 бит
Метод сжатия : С потерями
Размер потока : 155 Мбайт (1%)
Заголовок : rus
Язык : Russian
Default : Да
Forced : Нет
Аудио #2
Идентификатор : 3
Формат : AC-3
Формат/Информация : Audio Coding 3
Параметр Endianness формата : Big
Идентификатор кодека : A_AC3
Продолжительность : 1 ч. 52 м.
Вид битрейта : Постоянный
Битрейт : 448 Кбит/сек
Каналы : 6 каналов
Расположение каналов : Front: L C R, Side: L R, LFE
Частота : 48,0 КГц
Частота кадров : 31,250 кадров/сек (1536 SPF)
Битовая глубина : 16 бит
Метод сжатия : С потерями
Размер потока : 360 Мбайт (3%)
Заголовок : eng
Язык : English
Default : Нет
Forced : Нет
Текст
Идентификатор : 4
Формат : UTF-8
Идентификатор кодека : S_TEXT/UTF8
Идентификатор кодека/Информация : UTF-8 Plain Text
Продолжительность : 1 ч. 46 м.
Битрейт : 44 бит/сек
ElementCount : 1358
Размер потока : 34,3 Кбайт (0%)
Заголовок : engSDH
Язык : English
Default : Нет
Forced : Нет
Меню
00:00:00.000 : :Chapter 01
00:15:39.689 : :Chapter 02
00:29:56.962 : :Chapter 03
00:44:29.876 : :Chapter 04
00:59:33.528 : :Chapter 05
01:13:39.665 : :Chapter 06
01:28:43.109 : :Chapter 07
01:46:18.038 : :Chapter 08

Скриншоты

       

Kon912

Post 01-Jul-2020 23:26

[Quote]

Ночной портье / Ночной клерк / The Night Clerk- Год выхода: 2020
Страна: США
Студия: Highland Film Group (HFG), WulfPak Productions
Жанр: Драма, криминал
Продолжительность: 01:30:12
Перевод: Дублированный | iTunes-Режиссер:
Майкл Кристофер-В ролях:
Тай Шеридан, Ана де Армас, Хелен Хант, Джон Легуизамо, Джонатон Шек, Жак Грэй, Джои Миясима, Остин Арчер, Уолтер Платц-О фильме:
Ночной клерк Барт Бромли — парень с аутическим расстройством личности. Это сказывается на его вербальных и социальных навыках, поэтому он каждую рабочую смену наблюдает за постояльцами отеля через скрытые камеры, установленные им в номерах. Он тщательно копирует мимику и запоминает шаблонные фразы, чтобы затем использовать их в общении с клиентами. Когда в отеле происходит убийство девушки, Барта берет в оборот жесткий полицейский, пытающийся выбить из него признание вины.- -Качество: BDRemux 1080p
Формат: MKV
Видео: MPEG-4 AVC, 1920x1080, 29.0 Mbit/s, 23.976 fps
Аудио #01: 48 kHz, AC3, 5.1, 384 Kbps | iTunes | RUS |
Аудио #02: 48 kHz, DTS-HD MA, 5.1, 1678 Kbps | Оригинал | ENG |
Субтитры: Русские (Full), английские-

Скриншоты

       

MI

General
Unique ID : 109439133777871774664734838685864805626 (0x525535E237C4B7609AC5DA21A84FC4FA)
Complete name : E:Video111The.Night.Clerk.2020.BDREMUX.1080p.seleZen.mkv
Format : Matroska
Format version : Version 4
File size : 19.6 GiB
Duration : 1 h 30 min
Overall bit rate mode : Variable
Overall bit rate : 31.0 Mb/s
Movie name : The Night Clerk 2020 from селезень
Encoded date : UTC 2020-07-01 20:04:07
Writing application : mkvmerge v40.0.0 ('Old Town Road + Pony') 64-bit
Writing library : libebml v1.3.9 + libmatroska v1.5.2
Video
ID : 1
Format : AVC
Format/Info : Advanced Video Codec
Format profile : [email protected]
Format settings : CABAC / 4 Ref Frames
Format settings, CABAC : Yes
Format settings, Reference frames : 4 frames
Codec ID : V_MPEG4/ISO/AVC
Duration : 1 h 30 min
Bit rate mode : Variable
Bit rate : 29.0 Mb/s
Maximum bit rate : 37.2 Mb/s
Width : 1 920 pixels
Height : 1 080 pixels
Display aspect ratio : 16:9
Frame rate mode : Constant
Frame rate : 23.976 (24000/1001) FPS
Standard : NTSC
Color space : YUV
Chroma subsampling : 4:2:0
Bit depth : 8 bits
Scan type : Progressive
Bits/(Pixel*Frame) : 0.583
Stream size : 18.3 GiB (93%)
Language : English
Default : No
Forced : No
Color range : Limited
Color primaries : BT.709
Transfer characteristics : BT.709
Matrix coefficients : BT.709
Audio #1
ID : 2
Format : AC-3
Format/Info : Audio Coding 3
Commercial name : Dolby Digital
Codec ID : A_AC3
Duration : 1 h 30 min
Bit rate mode : Constant
Bit rate : 384 kb/s
Channel(s) : 6 channels
Channel layout : L R C LFE Ls Rs
Sampling rate : 48.0 kHz
Frame rate : 31.250 FPS (1536 SPF)
Compression mode : Lossy
Stream size : 248 MiB (1%)
Title : iTunes
Language : Russian
Service kind : Complete Main
Default : Yes
Forced : Yes
Audio #2
ID : 3
Format : DTS XLL
Format/Info : Digital Theater Systems
Commercial name : DTS-HD Master Audio
Codec ID : A_DTS
Duration : 1 h 30 min
Bit rate mode : Variable
Bit rate : 1 678 kb/s
Channel(s) : 6 channels
Channel layout : C L R Ls Rs LFE
Sampling rate : 48.0 kHz
Frame rate : 93.750 FPS (512 SPF)
Bit depth : 16 bits
Compression mode : Lossless
Stream size : 1.06 GiB (5%)
Title : Original
Language : English
Default : No
Forced : No
Text #1
ID : 4
Format : UTF-8
Codec ID : S_TEXT/UTF8
Codec ID/Info : UTF-8 Plain Text
Duration : 1 h 24 min
Bit rate : 75 b/s
Count of elements : 1019
Stream size : 47.1 KiB (0%)
Title : Full
Language : Russian
Default : No
Forced : No
Text #2
ID : 5
Format : UTF-8
Codec ID : S_TEXT/UTF8
Codec ID/Info : UTF-8 Plain Text
Duration : 1 h 28 min
Bit rate : 44 b/s
Count of elements : 1082
Stream size : 28.5 KiB (0%)
Title : Full
Language : English
Default : No
Forced : No
Text #3
ID : 6
Format : UTF-8
Codec ID : S_TEXT/UTF8
Codec ID/Info : UTF-8 Plain Text
Duration : 1 h 29 min
Bit rate : 46 b/s
Count of elements : 1173
Stream size : 30.4 KiB (0%)
Title : SDH
Language : English
Default : No
Forced : No
Menu
00:00:00.000 : :Chapter 01
00:11:40.199 : :Chapter 02
00:23:18.272 : :Chapter 03
00:37:30.165 : :Chapter 04
00:50:22.102 : :Chapter 05
01:04:01.671 : :Chapter 06
01:17:13.879 : :Chapter 07
01:26:14.169 : :Chapter 08

Релиз от

Kon912

Post 01-Jul-2020 23:16

[Quote]

Ночной портье / Ночной клерк / The Night Clerk- Год выхода: 2020
Страна: США
Студия: Highland Film Group (HFG), WulfPak Productions
Жанр: Драма, криминал
Продолжительность: 01:30:12
Перевод: Дублированный | iTunes-Режиссер:
Майкл Кристофер-В ролях:
Тай Шеридан, Ана де Армас, Хелен Хант, Джон Легуизамо, Джонатон Шек, Жак Грэй, Джои Миясима, Остин Арчер, Уолтер Платц-О фильме:
Ночной клерк Барт Бромли — парень с аутическим расстройством личности. Это сказывается на его вербальных и социальных навыках, поэтому он каждую рабочую смену наблюдает за постояльцами отеля через скрытые камеры, установленные им в номерах. Он тщательно копирует мимику и запоминает шаблонные фразы, чтобы затем использовать их в общении с клиентами. Когда в отеле происходит убийство девушки, Барта берет в оборот жесткий полицейский, пытающийся выбить из него признание вины.- -Качество: BDRip 1080p
Формат: MKV
Видео: MPEG-4 AVC, 1920x1038, 16.5 Mbit/s, 23.976 fps
Аудио #01: 48 kHz, AC3, 5.1, 384 Kbps | iTunes | RUS |
Аудио #02: 48 kHz, AC3, 5.1, 640 Kbps | Оригинал | ENG |
Субтитры: Русские (Full), английские-

Скриншоты

       

MI

General
Unique ID : 193214577211989624914614056946629202279 (0x915BC6248063D70E426217E4DDB9D167)
Complete name : E:Video111The.Night.Clerk.2020.BDRip.1080p.seleZen.mkv
Format : Matroska
Format version : Version 4
File size : 11.0 GiB
Duration : 1 h 30 min
Overall bit rate : 17.5 Mb/s
Movie name : The Night Clerk 2020 from селезень
Encoded date : UTC 2020-07-01 19:05:09
Writing application : mkvmerge v40.0.0 ('Old Town Road + Pony') 64-bit
Writing library : libebml v1.3.9 + libmatroska v1.5.2
Video
ID : 1
Format : AVC
Format/Info : Advanced Video Codec
Format profile : [email protected]
Format settings : CABAC / 4 Ref Frames
Format settings, CABAC : Yes
Format settings, Reference frames : 4 frames
Codec ID : V_MPEG4/ISO/AVC
Duration : 1 h 30 min
Bit rate : 16.5 Mb/s
Width : 1 920 pixels
Height : 1 038 pixels
Display aspect ratio : 1.85:1
Frame rate mode : Constant
Frame rate : 23.976 (24000/1001) FPS
Color space : YUV
Chroma subsampling : 4:2:0
Bit depth : 8 bits
Scan type : Progressive
Bits/(Pixel*Frame) : 0.345
Stream size : 10.4 GiB (94%)
Title : playHD
Writing library : x264 core 144 r2525 40bb568
Encoding settings : cabac=1 / ref=4 / deblock=1:-3:-3 / analyse=0x3:0x133 / me=umh / subme=10 / psy=1 / psy_rd=1.00:0.00 / mixed_ref=1 / me_range=32 / chroma_me=1 / trellis=2 / 8x8dct=1 / cqm=0 / deadzone=21, 11 / fast_pskip=0 / chroma_qp_offset=-2 / threads=12 / lookahead_threads=2 / sliced_threads=0 / nr=0 / decimate=0 / interlaced=0 / bluray_compat=0 / constrained_intra=0 / bframes=8 / b_pyramid=2 / b_adapt=2 / b_bias=0 / direct=3 / weightb=1 / open_gop=0 / weightp=2 / keyint=250 / keyint_min=23 / scenecut=40 / intra_refresh=0 / rc=crf / mbtree=0 / crf=17.9 / qcomp=0.60 / qpmin=0 / qpmax=69 / qpstep=4 / ip_ratio=1.30 / pb_ratio=1.20 / aq=3:0.85
Language : English
Default : Yes
Forced : No
Audio #1
ID : 2
Format : AC-3
Format/Info : Audio Coding 3
Commercial name : Dolby Digital
Codec ID : A_AC3
Duration : 1 h 30 min
Bit rate mode : Constant
Bit rate : 384 kb/s
Channel(s) : 6 channels
Channel layout : L R C LFE Ls Rs
Sampling rate : 48.0 kHz
Frame rate : 31.250 FPS (1536 SPF)
Compression mode : Lossy
Stream size : 248 MiB (2%)
Title : iTunes
Language : Russian
Service kind : Complete Main
Default : Yes
Forced : Yes
Audio #2
ID : 3
Format : AC-3
Format/Info : Audio Coding 3
Commercial name : Dolby Digital
Codec ID : A_AC3
Duration : 1 h 30 min
Bit rate mode : Constant
Bit rate : 640 kb/s
Channel(s) : 6 channels
Channel layout : L R C LFE Ls Rs
Sampling rate : 48.0 kHz
Frame rate : 31.250 FPS (1536 SPF)
Compression mode : Lossy
Stream size : 413 MiB (4%)
Title : Original
Language : English
Service kind : Complete Main
Default : No
Forced : No
Text #1
ID : 4
Format : UTF-8
Codec ID : S_TEXT/UTF8
Codec ID/Info : UTF-8 Plain Text
Duration : 1 h 24 min
Bit rate : 75 b/s
Count of elements : 1019
Stream size : 47.1 KiB (0%)
Title : Full
Language : Russian
Default : No
Forced : No
Text #2
ID : 5
Format : UTF-8
Codec ID : S_TEXT/UTF8
Codec ID/Info : UTF-8 Plain Text
Duration : 1 h 28 min
Bit rate : 44 b/s
Count of elements : 1082
Stream size : 28.5 KiB (0%)
Title : Full
Language : English
Default : No
Forced : No
Text #3
ID : 6
Format : UTF-8
Codec ID : S_TEXT/UTF8
Codec ID/Info : UTF-8 Plain Text
Duration : 1 h 29 min
Bit rate : 46 b/s
Count of elements : 1173
Stream size : 30.4 KiB (0%)
Title : SDH
Language : English
Default : No
Forced : No
Menu
00:00:00.000 : :Chapter 01
00:11:40.199 : :Chapter 02
00:23:18.272 : :Chapter 03
00:37:30.165 : :Chapter 04
00:50:22.102 : :Chapter 05
01:04:01.671 : :Chapter 06
01:17:13.879 : :Chapter 07
01:26:14.169 : :Chapter 08

Релиз от

Kon912

Post 01-Jul-2020 23:14

[Quote]

Ночной портье / Ночной клерк / The Night Clerk- Год выхода: 2020
Страна: США
Студия: Highland Film Group (HFG), WulfPak Productions
Жанр: Драма, криминал
Продолжительность: 01:30:12
Перевод: Дублированный | iTunes-Режиссер:
Майкл Кристофер-В ролях:
Тай Шеридан, Ана де Армас, Хелен Хант, Джон Легуизамо, Джонатон Шек, Жак Грэй, Джои Миясима, Остин Арчер, Уолтер Платц-О фильме:
Ночной клерк Барт Бромли — парень с аутическим расстройством личности. Это сказывается на его вербальных и социальных навыках, поэтому он каждую рабочую смену наблюдает за постояльцами отеля через скрытые камеры, установленные им в номерах. Он тщательно копирует мимику и запоминает шаблонные фразы, чтобы затем использовать их в общении с клиентами. Когда в отеле происходит убийство девушки, Барта берет в оборот жесткий полицейский, пытающийся выбить из него признание вины.- -Качество: BDRip 720p
Формат: MKV
Видео: MPEG-4 AVC, 1280x692, 7210 Kbit/s, 23.976 fps
Аудио #01: 48 kHz, AC3, 5.1, 384 Kbps | iTunes | RUS |
Аудио #02: 48 kHz, AC3, 5.1, 640 Kbps | Оригинал | ENG |
Субтитры: Русские (Full), английские-

Скриншоты

       

MI

General
Unique ID : 219513977522599788831703734986022220342 (0xA524DAB04637A449986F9A686AFA7236)
Complete name : E:Video111The.Night.Clerk.2020.BDRip.720p.seleZen.mkv
Format : Matroska
Format version : Version 4
File size : 5.19 GiB
Duration : 1 h 30 min
Overall bit rate : 8 237 kb/s
Movie name : The Night Clerk 2020 from селезень
Encoded date : UTC 2020-07-01 19:17:13
Writing application : mkvmerge v40.0.0 ('Old Town Road + Pony') 64-bit
Writing library : libebml v1.3.9 + libmatroska v1.5.2
Video
ID : 1
Format : AVC
Format/Info : Advanced Video Codec
Format profile : [email protected]
Format settings : CABAC / 9 Ref Frames
Format settings, CABAC : Yes
Format settings, Reference frames : 9 frames
Codec ID : V_MPEG4/ISO/AVC
Duration : 1 h 30 min
Bit rate : 7 210 kb/s
Width : 1 280 pixels
Height : 692 pixels
Display aspect ratio : 1.85:1
Frame rate mode : Constant
Frame rate : 23.976 (24000/1001) FPS
Color space : YUV
Chroma subsampling : 4:2:0
Bit depth : 8 bits
Scan type : Progressive
Bits/(Pixel*Frame) : 0.340
Stream size : 4.54 GiB (88%)
Title : playHD
Writing library : x264 core 144 r2525 40bb568
Encoding settings : cabac=1 / ref=9 / deblock=1:-3:-3 / analyse=0x3:0x133 / me=umh / subme=10 / psy=1 / psy_rd=1.00:0.00 / mixed_ref=1 / me_range=32 / chroma_me=1 / trellis=2 / 8x8dct=1 / cqm=0 / deadzone=21, 11 / fast_pskip=0 / chroma_qp_offset=-2 / threads=12 / lookahead_threads=2 / sliced_threads=0 / nr=0 / decimate=0 / interlaced=0 / bluray_compat=0 / constrained_intra=0 / bframes=8 / b_pyramid=2 / b_adapt=2 / b_bias=0 / direct=3 / weightb=1 / open_gop=0 / weightp=2 / keyint=250 / keyint_min=23 / scenecut=40 / intra_refresh=0 / rc=crf / mbtree=0 / crf=16.5 / qcomp=0.60 / qpmin=0 / qpmax=69 / qpstep=4 / ip_ratio=1.30 / pb_ratio=1.20 / aq=3:0.85
Language : English
Default : Yes
Forced : No
Audio #1
ID : 2
Format : AC-3
Format/Info : Audio Coding 3
Commercial name : Dolby Digital
Codec ID : A_AC3
Duration : 1 h 30 min
Bit rate mode : Constant
Bit rate : 384 kb/s
Channel(s) : 6 channels
Channel layout : L R C LFE Ls Rs
Sampling rate : 48.0 kHz
Frame rate : 31.250 FPS (1536 SPF)
Compression mode : Lossy
Stream size : 248 MiB (5%)
Title : iTunes
Language : Russian
Service kind : Complete Main
Default : Yes
Forced : Yes
Audio #2
ID : 3
Format : AC-3
Format/Info : Audio Coding 3
Commercial name : Dolby Digital
Codec ID : A_AC3
Duration : 1 h 30 min
Bit rate mode : Constant
Bit rate : 640 kb/s
Channel(s) : 6 channels
Channel layout : L R C LFE Ls Rs
Sampling rate : 48.0 kHz
Frame rate : 31.250 FPS (1536 SPF)
Compression mode : Lossy
Stream size : 413 MiB (8%)
Title : Original
Language : English
Service kind : Complete Main
Default : No
Forced : No
Text #1
ID : 4
Format : UTF-8
Codec ID : S_TEXT/UTF8
Codec ID/Info : UTF-8 Plain Text
Duration : 1 h 24 min
Bit rate : 75 b/s
Count of elements : 1019
Stream size : 47.1 KiB (0%)
Title : Full
Language : Russian
Default : No
Forced : No
Text #2
ID : 5
Format : UTF-8
Codec ID : S_TEXT/UTF8
Codec ID/Info : UTF-8 Plain Text
Duration : 1 h 28 min
Bit rate : 44 b/s
Count of elements : 1082
Stream size : 28.5 KiB (0%)
Title : Full
Language : English
Default : No
Forced : No
Text #3
ID : 6
Format : UTF-8
Codec ID : S_TEXT/UTF8
Codec ID/Info : UTF-8 Plain Text
Duration : 1 h 29 min
Bit rate : 46 b/s
Count of elements : 1173
Stream size : 30.4 KiB (0%)
Title : SDH
Language : English
Default : No
Forced : No
Menu
00:00:00.000 : :Chapter 01
00:11:40.199 : :Chapter 02
00:23:18.272 : :Chapter 03
00:37:30.165 : :Chapter 04
00:50:22.102 : :Chapter 05
01:04:01.671 : :Chapter 06
01:17:13.879 : :Chapter 07
01:26:14.169 : :Chapter 08

Релиз от

Kon912

Post 30-Jun-2020 22:57

[Quote]

Бюро человечества / The Humanity Bureau- Год выхода: 2017
Страна: Канада
Студия: Bridgegate Pictures, Minds Eye Entertainment, VMI Worldwide
Жанр: фантастика, боевик
Продолжительность: 01:34:35
Озвучивание: Профессиональное (многоголосое) | iTunes-Режиссер:
Роб В. Кинг-В ролях:
Николас Кейдж, Сара Линд, Хью Диллон, Виселос Реон Шеннон, Джейкоб Дейвис, Лорни Кардинал, Джетт Клине, Дэвид Ловгрен, Лео Фафард, Курт Макс Рунте-О фильме: В отдалённом будущем американское правительство утвердило секретную программу, по которой бедных, необразованных и неугодных стране людей сначала высылают в колонию, а затем уничтожают. Одно из таких дел попадает в руки агента. Проникшись симпатией к одинокой матери и её сыну, он решает помочь им бежать.- -Качество: BDRip 1080p
Формат: MKV
Видео: MPEG-4 AVC, 11.0 Мb/s, 1920x804
Аудио #1: Russian: 48 kHz, AC3 Dolby Digital, 2/0 (L, R) ch, ~192 Kbps | iTunes
Аудио #2: English: 48 kHz, AC3 Dolby Digital, 3/2 (L, C, R, l, r) + LFE ch, ~640 Kbps | Original
Субтитры: Нет
Дополнительно: Сохранены оригинальные чаптеры.-

MediaInfo:

Complete name: Byuro.chelovechestva.2017.1080p.BluRay.ELEKTRI4KA.UNIONGANG.mkv
Format: Matroska
Format version: Version 4 / Version 2
File size: 7.81 GiB
Duration: 1 h 34 min
Overall bit rate: 11.8 Mb/s
Movie name: .ELEKTRI4KA.UNIONGANG.
Encoded date: UTC 2020-06-29 20:49:16
Writing application: mkvmerge v8.3.0 ('Over the Horizon') 64bit
Writing library: libebml v1.3.1 + libmatroska v1.4.2
Video
ID: 1
Format: AVC
Format/Info: Advanced Video Codec
Format profile: [email protected]
Format settings, CABAC: Yes
Format settings, Reference frames: 10 frames
Codec ID: V_MPEG4/ISO/AVC
Duration: 1 h 34 min
Bit rate: 11.0 Mb/s
Width: 1 920 pixels
Height: 804 pixels
Display aspect ratio: 2.40:1
Frame rate mode: Constant
Frame rate: 24.000 FPS
Color space: YUV
Chroma subsampling: 4:2:0
Bit depth: 8 bits
Scan type: Progressive
Bits/(Pixel*Frame): 0.297
Stream size: 7.26 GiB (93%)
Title: .ELEKTRI4KA.UNIONGANG.
Writing library: x264 core 142 r2431+42 c69a006 tMod [[email protected] X86_64]
Encoding settings: cabac=1 / ref=10 / deblock=1:-3:-3 / analyse=0x3:0x113 / me=umh / subme=11 / psy=1 / fade_compensate=0.00 / psy_rd=1.05:1.05 / mixed_ref=1 / me_range=48 / chroma_me=1 / trellis=2 / 8x8dct=1 / cqm=0 / deadzone=21, 11 / fast_pskip=0 / chroma_qp_offset=-4 / threads=16 / lookahead_threads=2 / sliced_threads=0 / nr=0 / decimate=0 / interlaced=0 / bluray_compat=0 / constrained_intra=0 / fgo=0 / bframes=8 / b_pyramid=2 / b_adapt=2 / b_bias=0 / direct=3 / weightb=1 / open_gop=0 / weightp=2 / keyint=240 / keyint_min=24 / scenecut=40 / intra_refresh=0 / rc_lookahead=150 / rc=2pass / mbtree=0 / bitrate=11000 / ratetol=1.0 / qcomp=0.60 / qpmin=0:0:0 / qpmax=69:69:69 / qpstep=4 / cplxblur=20.0 / qblur=0.5 / vbv_maxrate=300000 / vbv_bufsize=300000 / nal_hrd=none / filler=0 / ip_ratio=1.30 / pb_ratio=1.20 / aq=2:0.90 / aq-sensitivity=10.00 / aq-factor=1.00:1.00:1.00 / aq2=0 / aq3=0
Default: Yes
Forced: No
Color range: Limited
Color primaries: BT.709
Transfer characteristics: BT.709
Matrix coefficients: BT.709
Audio #1
ID: 2
Format: AC-3
Format/Info: Audio Coding 3
Mode extension: CM (complete main)
Format settings, Endianness: Big
Codec ID: A_AC3
Duration: 1 h 34 min
Bit rate mode: Constant
Bit rate: 192 kb/s
Channel(s): 2 channels
Channel positions: Front: L R
Sampling rate: 48.0 kHz
Frame rate: 31.250 FPS (1536 spf)
Bit depth: 16 bits
Compression mode: Lossy
Stream size: 130 MiB (2%)
Title: iTunes
Language: Russian
Default: Yes
Forced: No
Audio #2
ID: 3
Format: AC-3
Format/Info: Audio Coding 3
Mode extension: CM (complete main)
Format settings, Endianness: Big
Codec ID: A_AC3
Duration: 1 h 34 min
Bit rate mode: Constant
Bit rate: 640 kb/s
Channel(s): 6 channels
Channel positions: Front: L C R, Side: L R, LFE
Sampling rate: 48.0 kHz
Frame rate: 31.250 FPS (1536 spf)
Bit depth: 16 bits
Compression mode: Lossy
Stream size: 433 MiB (5%)
Language: English
Default: No
Forced: No
Menu
00:00:00.000: en:00:00:00.000
00:00:34.042: en:00:00:34.042
00:09:47.917: en:00:09:47.917
00:15:59.208: en:00:15:59.208
00:24:11.625: en:00:24:11.625
00:32:02.542: en:00:32:02.542
00:38:55.375: en:00:38:55.375
00:48:29.375: en:00:48:29.375
00:55:07.000: en:00:55:07.000
01:04:01.833: en:01:04:01.833
01:12:48.500: en:01:12:48.500
01:20:40.083: en:01:20:40.083
01:29:33.667: en:01:29:33.667

Скриншоты

       

Спасибо Релиз группе: ELEKTRI4KA

Kon912

Post 30-Jun-2020 22:56

[Quote]

Бюро человечества / The Humanity Bureau- Год выхода: 2017
Страна: Канада
Студия: Bridgegate Pictures, Minds Eye Entertainment, VMI Worldwide
Жанр: фантастика, боевик
Продолжительность: 01:34:35
Озвучивание: Профессиональное (многоголосое) | iTunes-Режиссер:
Роб В. Кинг-В ролях:
Николас Кейдж, Сара Линд, Хью Диллон, Виселос Реон Шеннон, Джейкоб Дейвис, Лорни Кардинал, Джетт Клине, Дэвид Ловгрен, Лео Фафард, Курт Макс Рунте-О фильме: В отдалённом будущем американское правительство утвердило секретную программу, по которой бедных, необразованных и неугодных стране людей сначала высылают в колонию, а затем уничтожают. Одно из таких дел попадает в руки агента. Проникшись симпатией к одинокой матери и её сыну, он решает помочь им бежать.- -Качество: BDRip 720p
Формат: MKV
Видео: MPEG-4 AVC, 5000 Kb/s, 1280x536
Аудио #1: Russian: 48 kHz, AC3 Dolby Digital, 2/0 (L, R) ch, ~192 Kbps | iTunes
Аудио #2: English: 48 kHz, AC3 Dolby Digital, 3/2 (L, C, R, l, r) + LFE ch, ~640 Kbps | Original
Субтитры: Нет
Дополнительно: Сохранены оригинальные чаптеры.-

MediaInfo:

Complete name: Byuro.chelovechestva.2017.720p.BluRay.ELEKTRI4KA.UNIONGANG.mkv
Format: Matroska
Format version: Version 4 / Version 2
File size: 3.85 GiB
Duration: 1 h 34 min
Overall bit rate: 5 829 kb/s
Movie name: .ELEKTRI4KA.UNIONGANG.
Encoded date: UTC 2020-06-29 20:54:18
Writing application: mkvmerge v8.3.0 ('Over the Horizon') 64bit
Writing library: libebml v1.3.1 + libmatroska v1.4.2
Video
ID: 1
Format: AVC
Format/Info: Advanced Video Codec
Format profile: [email protected]
Format settings, CABAC: Yes
Format settings, Reference frames: 10 frames
Codec ID: V_MPEG4/ISO/AVC
Duration: 1 h 34 min
Bit rate: 5 000 kb/s
Width: 1 280 pixels
Height: 536 pixels
Display aspect ratio: 2.40:1
Frame rate mode: Constant
Frame rate: 24.000 FPS
Color space: YUV
Chroma subsampling: 4:2:0
Bit depth: 8 bits
Scan type: Progressive
Bits/(Pixel*Frame): 0.304
Stream size: 3.30 GiB (86%)
Title: .ELEKTRI4KA.UNIONGANG.
Writing library: x264 core 142 r2431+42 c69a006 tMod [[email protected] X86_64]
Encoding settings: cabac=1 / ref=10 / deblock=1:-3:-3 / analyse=0x3:0x113 / me=umh / subme=11 / psy=1 / fade_compensate=0.00 / psy_rd=1.05:1.05 / mixed_ref=1 / me_range=48 / chroma_me=1 / trellis=2 / 8x8dct=1 / cqm=0 / deadzone=21, 11 / fast_pskip=0 / chroma_qp_offset=-4 / threads=16 / lookahead_threads=2 / sliced_threads=0 / nr=0 / decimate=0 / interlaced=0 / bluray_compat=0 / constrained_intra=0 / fgo=0 / bframes=8 / b_pyramid=2 / b_adapt=2 / b_bias=0 / direct=3 / weightb=1 / open_gop=0 / weightp=2 / keyint=240 / keyint_min=24 / scenecut=40 / intra_refresh=0 / rc_lookahead=150 / rc=2pass / mbtree=0 / bitrate=5000 / ratetol=1.0 / qcomp=0.60 / qpmin=0:0:0 / qpmax=69:69:69 / qpstep=4 / cplxblur=20.0 / qblur=0.5 / vbv_maxrate=300000 / vbv_bufsize=300000 / nal_hrd=none / filler=0 / ip_ratio=1.30 / pb_ratio=1.20 / aq=2:0.90 / aq-sensitivity=10.00 / aq-factor=1.00:1.00:1.00 / aq2=0 / aq3=0
Default: Yes
Forced: No
Color range: Limited
Color primaries: BT.709
Transfer characteristics: BT.709
Matrix coefficients: BT.709
Audio #1
ID: 2
Format: AC-3
Format/Info: Audio Coding 3
Mode extension: CM (complete main)
Format settings, Endianness: Big
Codec ID: A_AC3
Duration: 1 h 34 min
Bit rate mode: Constant
Bit rate: 192 kb/s
Channel(s): 2 channels
Channel positions: Front: L R
Sampling rate: 48.0 kHz
Frame rate: 31.250 FPS (1536 spf)
Bit depth: 16 bits
Compression mode: Lossy
Stream size: 130 MiB (3%)
Title: iTunes
Language: Russian
Default: Yes
Forced: No
Audio #2
ID: 3
Format: AC-3
Format/Info: Audio Coding 3
Mode extension: CM (complete main)
Format settings, Endianness: Big
Codec ID: A_AC3
Duration: 1 h 34 min
Bit rate mode: Constant
Bit rate: 640 kb/s
Channel(s): 6 channels
Channel positions: Front: L C R, Side: L R, LFE
Sampling rate: 48.0 kHz
Frame rate: 31.250 FPS (1536 spf)
Bit depth: 16 bits
Compression mode: Lossy
Stream size: 433 MiB (11%)
Language: English
Default: No
Forced: No
Menu
00:00:00.000: en:00:00:00.000
00:00:34.042: en:00:00:34.042
00:09:47.917: en:00:09:47.917
00:15:59.208: en:00:15:59.208
00:24:11.625: en:00:24:11.625
00:32:02.542: en:00:32:02.542
00:38:55.375: en:00:38:55.375
00:48:29.375: en:00:48:29.375
00:55:07.000: en:00:55:07.000
01:04:01.833: en:01:04:01.833
01:12:48.500: en:01:12:48.500
01:20:40.083: en:01:20:40.083
01:29:33.667: en:01:29:33.667

Скриншоты

       

Спасибо Релиз группе: ELEKTRI4KA

Kon912

Post 30-Jun-2020 22:56

[Quote]

Вооружённый ответ / Armed Response- Год выхода: 2017
Страна: США
Студия: Erebus Pictures, Maandi Films, Saban Films, WWE Studios
Жанр: ужасы, триллер, боевик
Продолжительность: 01:33:52
Озвучивание: Профессиональное (многоголосое) | iTunes-Режиссер:
Джон Стокуэлл-В ролях:
Уэсли Снайпс, Энн Хеч, Дэйв Эннэйбл, Колби Лопес, Кайл Расселл Клементс, Морган Робертс, Эйас Юнис, Мэтт Галлини, Майкл Сил, Джон Л. Армихо-О фильме:
Команда высокопрофессиональных оперативников оказывается в ловушке внутри воинской части. Без того удушающую атмосферу накаляет тот факт, что в этом самом здании уже погибла группа их предшественников.- -Качество: BDRip 1080p
Формат: MKV
Видео: MPEG-4 AVC, 12.0 Мb/s, 1920x1040
Аудио #1: Russian: 48 kHz, AC3 Dolby Digital, 2/0 (L, R) ch, ~192 Kbps | iTunes
Аудио #2: English: 48 kHz, AC3 Dolby Digital, 3/2 (L, C, R, l, r) + LFE ch, ~640 Kbps | Original
Субтитры: English
Дополнительно: Сохранены оригинальные чаптеры.-

MediaInfo:

Complete name: Vooruzhennyiy.otvet.2017.1080p.BluRay.ELEKTRI4KA.UNIONGANG.mkv
Format: Matroska
Format version: Version 4 / Version 2
File size: 8.41 GiB
Duration: 1 h 33 min
Overall bit rate mode: Variable
Overall bit rate: 12.8 Mb/s
Movie name: .ELEKTRI4KA.UNIONGANG.
Encoded date: UTC 2020-06-30 13:14:42
Writing application: mkvmerge v8.3.0 ('Over the Horizon') 64bit
Writing library: libebml v1.3.1 + libmatroska v1.4.2
Video
ID: 1
Format: AVC
Format/Info: Advanced Video Codec
Format profile: [email protected]
Format settings, CABAC: Yes
Format settings, Reference frames: 3 frames
Codec ID: V_MPEG4/ISO/AVC
Duration: 1 h 33 min
Bit rate mode: Variable
Bit rate: 12.0 Mb/s
Maximum bit rate: 62.5 Mb/s
Width: 1 920 pixels
Height: 1 040 pixels
Display aspect ratio: 1.85:1
Frame rate mode: Constant
Frame rate: 23.976 (24000/1001) FPS
Color space: YUV
Chroma subsampling: 4:2:0
Bit depth: 8 bits
Scan type: Progressive
Bits/(Pixel*Frame): 0.251
Stream size: 7.86 GiB (93%)
Title: .ELEKTRI4KA.UNIONGANG.
Writing library: x264 core 142 r2431+42 c69a006 tMod [[email protected] X86_64]
Encoding settings: cabac=1 / ref=4 / deblock=1:-3:-3 / analyse=0x3:0x133 / me=umh / subme=11 / psy=1 / fade_compensate=0.00 / psy_rd=1.05:1.05 / mixed_ref=1 / me_range=48 / chroma_me=1 / trellis=2 / 8x8dct=1 / cqm=0 / deadzone=21, 11 / fast_pskip=0 / chroma_qp_offset=-4 / threads=16 / lookahead_threads=2 / sliced_threads=0 / nr=0 / decimate=0 / interlaced=0 / bluray_compat=0 / constrained_intra=0 / fgo=0 / bframes=8 / b_pyramid=1 / b_adapt=2 / b_bias=0 / direct=3 / weightb=1 / open_gop=0 / weightp=2 / keyint=240 / keyint_min=23 / scenecut=40 / intra_refresh=0 / rc_lookahead=100 / rc=2pass / mbtree=0 / bitrate=12000 / ratetol=1.0 / qcomp=0.70 / qpmin=0:0:0 / qpmax=69:69:69 / qpstep=4 / cplxblur=20.0 / qblur=0.5 / vbv_maxrate=62500 / vbv_bufsize=78125 / nal_hrd=vbr / filler=0 / ip_ratio=1.30 / pb_ratio=1.20 / aq=2:0.80 / aq-sensitivity=10.00 / aq-factor=1.00:1.00:1.00 / aq2=0 / aq3=0
Default: Yes
Forced: No
Color range: Limited
Color primaries: BT.709
Transfer characteristics: BT.709
Matrix coefficients: BT.709
Audio #1
ID: 2
Format: AC-3
Format/Info: Audio Coding 3
Mode extension: CM (complete main)
Format settings, Endianness: Big
Codec ID: A_AC3
Duration: 1 h 33 min
Bit rate mode: Constant
Bit rate: 192 kb/s
Channel(s): 2 channels
Channel positions: Front: L R
Sampling rate: 48.0 kHz
Frame rate: 31.250 FPS (1536 spf)
Bit depth: 16 bits
Compression mode: Lossy
Stream size: 129 MiB (1%)
Title: iTunes
Language: Russian
Default: Yes
Forced: No
Audio #2
ID: 3
Format: AC-3
Format/Info: Audio Coding 3
Mode extension: CM (complete main)
Format settings, Endianness: Big
Codec ID: A_AC3
Duration: 1 h 33 min
Bit rate mode: Constant
Bit rate: 640 kb/s
Channel(s): 6 channels
Channel positions: Front: L C R, Side: L R, LFE
Sampling rate: 48.0 kHz
Frame rate: 31.250 FPS (1536 spf)
Bit depth: 16 bits
Compression mode: Lossy
Stream size: 430 MiB (5%)
Language: English
Default: No
Forced: No
Text
ID: 4
Format: PGS
Muxing mode: zlib
Codec ID: S_HDMV/PGS
Codec ID/Info: Picture based subtitle format used on BDs/HD-DVDs
Duration: 1 h 28 min
Bit rate: 11.0 kb/s
Count of elements: 2236
Stream size: 6.94 MiB (0%)
Language: English
Default: Yes
Forced: No
Menu
00:00:00.000: en:00:00:00.000
00:07:37.916: en:00:07:37.916
00:12:55.024: en:00:12:55.024
00:17:50.528: en:00:17:50.528
00:23:24.903: en:00:23:24.903
00:30:37.961: en:00:30:37.961
00:34:48.295: en:00:34:48.295
00:41:14.806: en:00:41:14.806
00:45:35.900: en:00:45:35.900
00:51:25.541: en:00:51:25.541
00:56:45.861: en:00:56:45.861
01:02:47.263: en:01:02:47.263
01:10:40.987: en:01:10:40.987
01:16:32.713: en:01:16:32.713
01:21:38.602: en:01:21:38.602
01:29:49.384: en:01:29:49.384

Скриншоты

       

Спасибо Релиз группе: ELEKTRI4KA

Kon912

Post 30-Jun-2020 22:56

[Quote]

Вооружённый ответ / Armed Response- Год выхода: 2017
Страна: США
Студия: Erebus Pictures, Maandi Films, Saban Films, WWE Studios
Жанр: ужасы, триллер, боевик
Продолжительность: 01:33:52
Озвучивание: Профессиональное (многоголосое) | iTunes-Режиссер:
Джон Стокуэлл-В ролях:
Уэсли Снайпс, Энн Хеч, Дэйв Эннэйбл, Колби Лопес, Кайл Расселл Клементс, Морган Робертс, Эйас Юнис, Мэтт Галлини, Майкл Сил, Джон Л. Армихо-О фильме:
Команда высокопрофессиональных оперативников оказывается в ловушке внутри воинской части. Без того удушающую атмосферу накаляет тот факт, что в этом самом здании уже погибла группа их предшественников.- -Качество: BDRip 720p
Формат: MKV
Видео: MPEG-4 AVC, 4350 Kb/s, 1280x694
Аудио #1: Russian: 48 kHz, AC3 Dolby Digital, 2/0 (L, R) ch, ~192 Kbps | iTunes
Аудио #2: English: 48 kHz, AC3 Dolby Digital, 3/2 (L, C, R, l, r) + LFE ch, ~640 Kbps | Original
Субтитры: English
Дополнительно: Сохранены оригинальные чаптеры.-

MediaInfo:

Complete name: D:\Vooruzhennyiy.otvet.2017.720p.BluRay.ELEKTRI4KA.UNIONGANG.mkv
Format: Matroska
Format version: Version 4 / Version 2
File size: 3.41 GiB
Duration: 1 h 33 min
Overall bit rate: 5 195 kb/s
Movie name: .ELEKTRI4KA.UNIONGANG.
Encoded date: UTC 2020-06-30 13:19:32
Writing application: mkvmerge v8.3.0 ('Over the Horizon') 64bit
Writing library: libebml v1.3.1 + libmatroska v1.4.2
Video
ID: 1
Format: AVC
Format/Info: Advanced Video Codec
Format profile: [email protected]
Format settings, CABAC: Yes
Format settings, Reference frames: 12 frames
Codec ID: V_MPEG4/ISO/AVC
Duration: 1 h 33 min
Bit rate: 4 350 kb/s
Width: 1 280 pixels
Height: 694 pixels
Display aspect ratio: 1.85:1
Frame rate mode: Constant
Frame rate: 23.976 (24000/1001) FPS
Color space: YUV
Chroma subsampling: 4:2:0
Bit depth: 8 bits
Scan type: Progressive
Bits/(Pixel*Frame): 0.204
Stream size: 2.85 GiB (84%)
Title: .ELEKTRI4KA.UNIONGANG.
Writing library: x264 core 148 r2692+46 0f71ed5 7mod [[email protected] X86_64]
Encoding settings: cabac=1 / ref=12 / deblock=1:-3:-3 / analyse=0x3:0x113 / me=umh / subme=11 / psy=1 / fade_compensate=0.00 / psy_rd=1.00:0.00 / mixed_ref=1 / me_range=32 / chroma_me=1 / trellis=2 / 8x8dct=1 / cqm=0 / deadzone=11, 6 / fast_pskip=0 / chroma_qp_offset=-2 / threads=22 / lookahead_threads=3 / sliced_threads=0 / nr=0 / decimate=0 / interlaced=0 / bluray_compat=0 / constrained_intra=0 / fgo=0 / bframes=8 / b_pyramid=2 / b_adapt=2 / b_bias=0 / direct=3 / weightb=1 / open_gop=0 / weightp=2 / keyint=250 / keyint_min=23 / scenecut=40 / intra_refresh=0 / rc_lookahead=60 / rc=crf / mbtree=0 / crf=17.0000 / qcomp=0.60 / qpmin=0:0:0 / qpmax=32:32:32 / qpstep=4 / vbv_maxrate=40000 / vbv_bufsize=30000 / crf_max=0.0 / nal_hrd=none / filler=0 / ip_ratio=1.30 / pb_ratio=1.20 / aq=4:0.80 / aq-sensitivity=10.00 / aq-factor=1.00:1.00:1.00 / aq2=0 / aq3=0
Language: English
Default: Yes
Forced: No
Color range: Limited
Color primaries: BT.709
Transfer characteristics: BT.709
Matrix coefficients: BT.709
Audio #1
ID: 2
Format: AC-3
Format/Info: Audio Coding 3
Mode extension: CM (complete main)
Format settings, Endianness: Big
Codec ID: A_AC3
Duration: 1 h 33 min
Bit rate mode: Constant
Bit rate: 192 kb/s
Channel(s): 2 channels
Channel positions: Front: L R
Sampling rate: 48.0 kHz
Frame rate: 31.250 FPS (1536 spf)
Bit depth: 16 bits
Compression mode: Lossy
Stream size: 129 MiB (4%)
Title: iTunes
Language: Russian
Default: Yes
Forced: No
Audio #2
ID: 3
Format: AC-3
Format/Info: Audio Coding 3
Mode extension: CM (complete main)
Format settings, Endianness: Big
Codec ID: A_AC3
Duration: 1 h 33 min
Bit rate mode: Constant
Bit rate: 640 kb/s
Channel(s): 6 channels
Channel positions: Front: L C R, Side: L R, LFE
Sampling rate: 48.0 kHz
Frame rate: 31.250 FPS (1536 spf)
Bit depth: 16 bits
Compression mode: Lossy
Stream size: 430 MiB (12%)
Language: English
Default: No
Forced: No
Text
ID: 4
Format: PGS
Muxing mode: zlib
Codec ID: S_HDMV/PGS
Codec ID/Info: Picture based subtitle format used on BDs/HD-DVDs
Duration: 1 h 28 min
Bit rate: 11.0 kb/s
Count of elements: 2236
Stream size: 6.94 MiB (0%)
Language: English
Default: Yes
Forced: No
Menu
00:00:00.000: en:00:00:00.000
00:07:37.916: en:00:07:37.916
00:12:55.024: en:00:12:55.024
00:17:50.528: en:00:17:50.528
00:23:24.903: en:00:23:24.903
00:30:37.961: en:00:30:37.961
00:34:48.295: en:00:34:48.295
00:41:14.806: en:00:41:14.806
00:45:35.900: en:00:45:35.900
00:51:25.541: en:00:51:25.541
00:56:45.861: en:00:56:45.861
01:02:47.263: en:01:02:47.263
01:10:40.987: en:01:10:40.987
01:16:32.713: en:01:16:32.713
01:21:38.602: en:01:21:38.602
01:29:49.384: en:01:29:49.384

Скриншоты

       

Спасибо Релиз группе: ELEKTRI4KA

Kon912

Post 30-Jun-2020 22:50

[Quote]

Восточный ветер 3: Наследие Оры / Ostwind 3: Aufbruch nach Ora - Год выхода: 2017
Страна: Германия
Студия: Constantin Film Produktion GmbH, SamFilm GmbH
Жанр: драма, мелодрама, приключения, семейный
Продолжительность: 01:50:07
Озвучивание: Дублированное | iTunes-Режиссер:
Катя фон Гарнье-В ролях:
Ханна Бинке, Лея ван Акен, Яннис Нивёнер, Николетт Кребиц, Амбер Бонгард, Марвин Линке, Тило Прюкнер, Корнелия Фробёсс, Томас Зарбахер, Мартин Файфель-О фильме:
Главную героиню фильма бунтарку Мику из-за плохих оценок в школе родители отправляет на целое лето на ранчо к строгой бабуле. Приехав в деревенскую глушь, девушка обнаруживает для себя кроме чтения книг довольно интересное занятие. В самом дальнем амбаре Мика встречает дикого норовистого жеребца по кличке Восточный ветер.
Мика внезапно чувствует в этом жеребце родственную душу и ночью приходит в амбар к Восточному ветру. Так начинается дружба двух неукротимых душ. Удастся ли Мике вопреки всему укротить жеребца?- -Качество: BDRip 1080p
Формат: MKV
Видео: AVC, 15.1 Mb/s, 1920x1040
Аудио #1: Russian: 48 kHz, AC-3, 3/2 (L, C, R, l, r) + LFE ch, ~384 Kbps | iTunes
Аудио #2: German: 48 kHz, AC-3, 3/2 (L, C, R, l, r) + LFE ch, ~640 Kbps | Original
Субтитры: Russian, English
Дополнительно: Сохранены оригинальные чаптеры.-

MediaInfo:

Complete name: Ostwind.3.2017.BDRip.1080p.ELEKTRI4KA.UNIONGANG.mkv
Format: Matroska
Format version: Version 4 / Version 2
File size: 11.1 GiB
Duration: 1 h 50 min
Overall bit rate: 14.5 Mb/s
Movie name: .ELEKTRI4KA.UNIONGANG.
Encoded date: UTC 2020-06-30 10:36:26
Writing application: mkvmerge v8.3.0 ('Over the Horizon') 64bit
Writing library: libebml v1.3.1 + libmatroska v1.4.2
Video
ID: 1
Format: AVC
Format/Info: Advanced Video Codec
Format profile: [email protected]
Format settings, CABAC: Yes
Format settings, Reference frames: 5 frames
Codec ID: V_MPEG4/ISO/AVC
Duration: 1 h 50 min
Bit rate: 13.4 Mb/s
Width: 1 920 pixels
Height: 804 pixels
Display aspect ratio: 2.40:1
Frame rate mode: Constant
Frame rate: 24.000 FPS
Color space: YUV
Chroma subsampling: 4:2:0
Bit depth: 8 bits
Scan type: Progressive
Bits/(Pixel*Frame): 0.363
Stream size: 10.3 GiB (93%)
Title: .ELEKTRI4KA.UNIONGANG.
Writing library: x264 core 152 r2851+58 429492e t_mod_Custom [[email protected] X86_64]
Encoding settings: cabac=1 / ref=5 / deblock=1:-3:-3 / analyse=0x3:0x133 / me=umh / subme=10 / psy=1 / fade_compensate=0.00 / psy_rd=1.02:0.00 / mixed_ref=1 / me_range=48 / chroma_me=1 / trellis=2 / 8x8dct=1 / cqm=0 / deadzone=21, 11 / fast_pskip=0 / chroma_qp_offset=-2 / threads=24 / lookahead_threads=4 / sliced_threads=0 / nr=0 / decimate=0 / interlaced=0 / bluray_compat=0 / constrained_intra=0 / fgo=0 / bframes=9 / b_pyramid=2 / b_adapt=2 / b_bias=0 / direct=3 / weightb=1 / open_gop=0 / weightp=2 / keyint=250 / keyint_min=24 / scenecut=40 / intra_refresh=0 / rc_lookahead=60 / rc=crf / mbtree=0 / crf=17.0000 / qcomp=0.60 / qpmin=0:0:0 / qpmax=69:69:69 / qpstep=4 / vbv_maxrate=62500 / vbv_bufsize=78125 / crf_max=0.0 / nal_hrd=none / filler=0 / ip_ratio=1.30 / pb_ratio=1.20 / aq=3:0.80 / aq-sensitivity=10.00 / aq-factor=1.00:1.00:1.00 / aq2=0 / aq3=0 / zones=24, 311, crf=13.5/682, 931, crf=14.5/4005, 4012, crf=13.5/14313, 14699, crf=14.5/15203, 15250, crf=13.5/17595, 17782, crf=15/18524, 18778, crf=14.5/18923, 19278, crf=14.5/19849, 21703, crf=14/21944, 23142, crf=13/21419, 21493, crf=14.5/24631, 25275, crf=15.5/28087, 28904, crf=14.5/41015, 41138, crf=14/41608, 41884, crf=14.5/43736, 43838, crf=14.5/44005, 44415, crf=14.5/44767, 45716, crf=12.5/46249, 47859, crf=14/48044, 48437, crf=14.5/48619, 49389, crf=14.5/49860, 50166, crf=15/65017, 66054, crf=14.5/68775, 68914, crf=14.5/86451, 86534, crf=14.5/90345, 90625, crf=14.5/90988, 91212, crf=13.5/91241, 93604, crf=14.5/94050, 94240, crf=14.5/94499, 94537, crf=14.5/94697, 94807, crf=14.5/95012, 95163, crf=14/101627, 101675, crf=14.5/105591, 105785, crf=14/107999, 108061, crf=14/112343, 112360, crf=13.5/113028, 113102, crf=12/113524, 113560, crf=13/113641, 113997, crf=14.5/114126, 114181, crf=14.5/137789, 138148, crf=14.5/138618, 138946, crf=13.5/142980, 143090, crf=14.5/144913, 145327, crf=13.5/145484, 145535, crf=14.5/145737, 145869, crf=14.5/145913, 146349, crf=14.5/146706, 146822, crf=14.5/147785, 147856, crf=13/147970, 148254, crf=14.5/148341, 148540, crf=13.5/148715, 148780, crf=13.5/148897, 150313, crf=13.5/150684, 150765, crf=14.5/151491, 151613, crf=13.5/153118, 157797, b=0.2
Default: Yes
Forced: No
Audio #1
ID: 2
Format: AC-3
Format/Info: Audio Coding 3
Mode extension: CM (complete main)
Format settings, Endianness: Big
Codec ID: A_AC3
Duration: 1 h 50 min
Bit rate mode: Constant
Bit rate: 384 kb/s
Channel(s): 6 channels
Channel positions: Front: L C R, Side: L R, LFE
Sampling rate: 48.0 kHz
Frame rate: 31.250 FPS (1536 spf)
Bit depth: 16 bits
Compression mode: Lossy
Stream size: 302 MiB (3%)
Title: iTunes
Language: Russian
Default: Yes
Forced: No
Audio #2
ID: 3
Format: AC-3
Format/Info: Audio Coding 3
Mode extension: CM (complete main)
Format settings, Endianness: Big
Codec ID: A_AC3
Duration: 1 h 50 min
Bit rate mode: Constant
Bit rate: 640 kb/s
Channel(s): 6 channels
Channel positions: Front: L C R, Side: L R, LFE
Sampling rate: 48.0 kHz
Frame rate: 31.250 FPS (1536 spf)
Bit depth: 16 bits
Compression mode: Lossy
Stream size: 504 MiB (4%)
Language: German
Default: No
Forced: No
Text #1
ID: 4
Format: UTF-8
Codec ID: S_TEXT/UTF8
Codec ID/Info: UTF-8 Plain Text
Duration: 1 h 45 min
Bit rate: 58 b/s
Count of elements: 767
Stream size: 45.6 KiB (0%)
Title: Full
Language: Russian
Default: Yes
Forced: No
Text #2
ID: 5
Format: UTF-8
Codec ID: S_TEXT/UTF8
Codec ID/Info: UTF-8 Plain Text
Duration: 1 h 42 min
Bit rate: 27 b/s
Count of elements: 728
Stream size: 20.9 KiB (0%)
Language: English
Default: No
Forced: No
Menu
00:00:00.000: en:00:00:00.000
00:06:00.000: en:00:06:00.000
00:12:51.833: en:00:12:51.833
00:20:39.708: en:00:20:39.708
00:25:51.417: en:00:25:51.417
00:32:33.792: en:00:32:33.792
00:38:32.417: en:00:38:32.417
00:45:09.042: en:00:45:09.042
00:50:19.167: en:00:50:19.167
00:58:57.042: en:00:58:57.042
01:05:14.792: en:01:05:14.792
01:11:37.458: en:01:11:37.458
01:18:17.500: en:01:18:17.500
01:22:58.542: en:01:22:58.542
01:31:03.250: en:01:31:03.250
01:39:15.000: en:01:39:15.000
01:44:23.083: en:01:44:23.083

Скриншоты

       

Спасибо Релиз группе: ELEKTRI4KA

Kon912

Post 30-Jun-2020 22:50

[Quote]

Восточный ветер 2 / Ostwind 2- Год выхода: 2015
Страна: Германия
Студия: Constantin Film Produktion, SamFilm Produktion
Жанр: драма, мелодрама, приключения, семейный
Продолжительность: 01:47:56
Озвучивание: Дублированное | iTunes-Режиссер:
Катя фон Гарнье-В ролях:
Ханна Бинке, Марвин Линке, Корнелия Фробёсс, Тило Прюкнер, Юрген Фогель, Нина Кронъегер, Детлев Бук, Марла Мен, Амбер Бонгард-О фильме:
Наступили летние каникулы, и Мика возвращается в Кальтенбах в тревоге за своего вороного друга Оствинда. В поместье бабушки тоже не все гладко: Кальтенбах на грани банкротства, и единственный шанс спасти его от разорения — принять участие в очередном турнире. Также Мике придется выяснить, откуда у Оствинда странные шрамы, узнать, кто такая Тридцать Третья, и пойти на сделку с незнакомцем, утверждающим, что он может помочь девушке выиграть турнир.- -Качество: BDRip 1080p
Формат: MKV
Видео: AVC, 13.7 Mb/s, 1920x802
Аудио #1: Russian: 48 kHz, AC3 Dolby Digital, 3/2 (L, C, R, l, r) + LFE ch, ~384 Kbps | iTunes
Аудио #2: German: 48 kHz, AC3 Dolby Digital, 3/2 (L, C, R, l, r) + LFE ch, ~640 Kbps | Original
Субтитры: Russian (Full), English, German
Дополнительно: Сохранены оригинальные чаптеры.-

MediaInfo:

Complete name: Ostwind.2.2015.BDRip.1080p.ELEKTRI4KA.UNIONGANG.mkv
Format: Matroska
Format version: Version 4 / Version 2
File size: 11.1 GiB
Duration: 1 h 47 min
Overall bit rate: 14.7 Mb/s
Movie name: .ELEKTRI4KA.UNIONGANG.
Encoded date: UTC 2020-06-14 18:42:28
Writing application: mkvmerge v8.3.0 ('Over the Horizon') 64bit
Writing library: libebml v1.3.1 + libmatroska v1.4.2
Video
ID: 1
Format: AVC
Format/Info: Advanced Video Codec
Format profile: [email protected]
Format settings, CABAC: Yes
Format settings, Reference frames: 5 frames
Codec ID: V_MPEG4/ISO/AVC
Duration: 1 h 47 min
Bit rate: 13.7 Mb/s
Width: 1 920 pixels
Height: 802 pixels
Display aspect ratio: 2.40:1
Frame rate mode: Constant
Frame rate: 24.000 FPS
Color space: YUV
Chroma subsampling: 4:2:0
Bit depth: 8 bits
Scan type: Progressive
Bits/(Pixel*Frame): 0.371
Stream size: 10.3 GiB (93%)
Writing library: x264 core 155 r2867+82 a249126 t_mod_Custom_2 [[email protected] X86_64]
Encoding settings: cabac=1 / ref=5 / deblock=1:-3:-3 / analyse=0x3:0x133 / me=umh / subme=10 / psy=1 / fade_compensate=0.00 / psy_rd=1.00:0.00 / mixed_ref=1 / me_range=48 / chroma_me=1 / trellis=2 / 8x8dct=1 / cqm=0 / deadzone=21, 11 / fast_pskip=0 / chroma_qp_offset=-2 / threads=24 / lookahead_threads=2 / sliced_threads=0 / nr=0 / decimate=0 / interlaced=0 / bluray_compat=0 / constrained_intra=0 / fgo=0 / bframes=6 / b_pyramid=2 / b_adapt=2 / b_bias=0 / direct=3 / weightb=1 / open_gop=0 / weightp=2 / keyint=250 / keyint_min=24 / scenecut=40 / intra_refresh=0 / rc_lookahead=60 / rc=crf / mbtree=0 / crf=16.5000 / qcomp=0.60 / qpmin=0:0:0 / qpmax=69:69:69 / qpstep=4 / vbv_maxrate=62500 / vbv_bufsize=78125 / crf_max=0.0 / nal_hrd=none / filler=0 / ip_ratio=1.30 / pb_ratio=1.20 / aq=1:0.85 / aq-sensitivity=10.00 / aq-factor=1.00:1.00:1.00 / aq2=0 / aq3=0 / zones=75515, 75578, crf=11
Default: Yes
Forced: No
Audio #1
ID: 2
Format: AC-3
Format/Info: Audio Coding 3
Mode extension: CM (complete main)
Format settings, Endianness: Big
Codec ID: A_AC3
Duration: 1 h 47 min
Bit rate mode: Constant
Bit rate: 384 kb/s
Channel(s): 6 channels
Channel positions: Front: L C R, Side: L R, LFE
Sampling rate: 48.0 kHz
Frame rate: 31.250 FPS (1536 spf)
Bit depth: 16 bits
Compression mode: Lossy
Stream size: 296 MiB (3%)
Title: iTunes
Language: Russian
Default: Yes
Forced: No
Audio #2
ID: 3
Format: AC-3
Format/Info: Audio Coding 3
Mode extension: CM (complete main)
Format settings, Endianness: Big
Codec ID: A_AC3
Duration: 1 h 47 min
Bit rate mode: Constant
Bit rate: 640 kb/s
Channel(s): 6 channels
Channel positions: Front: L C R, Side: L R, LFE
Sampling rate: 48.0 kHz
Frame rate: 31.250 FPS (1536 spf)
Bit depth: 16 bits
Compression mode: Lossy
Stream size: 494 MiB (4%)
Language: German
Default: No
Forced: No
Text #1
ID: 4
Format: UTF-8
Codec ID: S_TEXT/UTF8
Codec ID/Info: UTF-8 Plain Text
Duration: 1 h 42 min
Bit rate: 63 b/s
Count of elements: 689
Stream size: 47.9 KiB (0%)
Title: Full
Language: Russian
Default: Yes
Forced: No
Text #2
ID: 5
Format: UTF-8
Codec ID: S_TEXT/UTF8
Codec ID/Info: UTF-8 Plain Text
Duration: 1 h 40 min
Bit rate: 33 b/s
Count of elements: 758
Stream size: 24.7 KiB (0%)
Language: English
Default: No
Forced: No
Text #3
ID: 6
Format: UTF-8
Codec ID: S_TEXT/UTF8
Codec ID/Info: UTF-8 Plain Text
Duration: 1 h 46 min
Bit rate: 33 b/s
Count of elements: 694
Stream size: 26.2 KiB (0%)
Language: German
Default: No
Forced: No
Menu
00:00:00.000: en:00:00:00.000
00:05:16.375: en:00:05:16.375
00:11:31.375: en:00:11:31.375
00:16:41.542: en:00:16:41.542
00:22:25.750: en:00:22:25.750
00:28:07.625: en:00:28:07.625
00:32:59.500: en:00:32:59.500
00:37:17.708: en:00:37:17.708
00:42:52.333: en:00:42:52.333
00:49:01.917: en:00:49:01.917
00:56:16.292: en:00:56:16.292
01:05:14.208: en:01:05:14.208
01:12:54.917: en:01:12:54.917
01:20:40.208: en:01:20:40.208
01:28:01.375: en:01:28:01.375
01:35:25.542: en:01:35:25.542
01:41:54.958: en:01:41:54.958

Скриншоты

       

Спасибо Релиз группе: ELEKTRI4KA

Kon912

Post 30-Jun-2020 22:49

[Quote]

Восточный ветер / Ostwind - Zusammen sind wir frei- Год выхода: 2013
Страна Германия
Студия: Constantin Film Produktion GmbH, SamFilm GmbH
Жанр: драма, мелодрама, приключения, семейный
Продолжительность: 01:45:28
Озвучивание: Дублированное | iTunes-Режиссер:
Катя фон Гарнье-В ролях:
Детлев Бук, Корнелия Фробесс, Ханна Хёппнер, Нина Кронягер, Марвин Линке, Тило Прюкнер, Мартин Тон, Юрген Фогель-О фильме:
Главную героиню фильма бунтарку Мику из-за плохих оценок в школе родители отправляет на целое лето на ранчо к строгой бабуле. Приехав в деревенскую глушь, девушка обнаруживает для себя кроме чтения книг довольно интересное занятие. В самом дальнем амбаре Мика встречает дикого норовистого жеребца по кличке Восточный ветер.
Мика внезапно чувствует в этом жеребце родственную душу и ночью приходит в амбар к Восточному ветру. Так начинается дружба двух неукротимых душ. Удастся ли Мике вопреки всему укротить жеребца?- -Качество: BDRip 1080p
Формат: MKV
Видео: AVC, 15.1 Mb/s, 1920x1040
Аудио #1: Russian: 48 kHz, AC-3, 3/2 (L, C, R, l, r) + LFE ch, ~384 Kbps | iTunes
Аудио #2: German: 48 kHz, AC-3, 3/2 (L, C, R, l, r) + LFE ch, ~640 Kbps | Original
Субтитры: Russian, English
Дополнительно: Сохранены оригинальные чаптеры.-

MediaInfo:

Complete name : Ostwind.2013.1080p.BluRay.ELEKTRI4KA.UNIONGANG.mkv
Format : Matroska
Format version : Version 4 / Version 2
File size : 11.9 GiB
Duration : 1 h 45 min
Overall bit rate : 16.1 Mb/s
Movie name : .ELEKTRI4KA.UNIONGANG.
Encoded date : UTC 2020-06-02 22:00:48
Writing application : mkvmerge v8.3.0 ('Over the Horizon') 64bit
Writing library : libebml v1.3.1 + libmatroska v1.4.2
Video
ID : 1
Format : AVC
Format/Info : Advanced Video Codec
Format profile : [email protected]
Format settings, CABAC : Yes
Format settings, Reference frames : 4 frames
Codec ID : V_MPEG4/ISO/AVC
Duration : 1 h 45 min
Bit rate : 15.1 Mb/s
Width : 1 920 pixels
Height : 1 040 pixels
Display aspect ratio : 1.85:1
Frame rate mode : Constant
Frame rate : 24.000 FPS
Color space : YUV
Chroma subsampling : 4:2:0
Bit depth : 8 bits
Scan type : Progressive
Bits/(Pixel*Frame) : 0.315
Stream size : 11.1 GiB (94%)
Writing library : x264 core 155 r2867+82 a249126 t_mod_Custom_2 [[email protected] X86_64]
Encoding settings : cabac=1 / ref=4 / deblock=1:-3:-3 / analyse=0x3:0x133 / me=umh / subme=10 / psy=1 / fade_compensate=0.00 / psy_rd=1.00:0.00 / mixed_ref=1 / me_range=32 / chroma_me=1 / trellis=2 / 8x8dct=1 / cqm=0 / deadzone=21, 11 / fast_pskip=0 / chroma_qp_offset=-2 / threads=24 / lookahead_threads=2 / sliced_threads=0 / nr=0 / decimate=0 / interlaced=0 / bluray_compat=0 / constrained_intra=0 / fgo=0 / bframes=6 / b_pyramid=2 / b_adapt=2 / b_bias=0 / direct=3 / weightb=1 / open_gop=0 / weightp=2 / keyint=250 / keyint_min=24 / scenecut=40 / intra_refresh=0 / rc_lookahead=60 / rc=crf / mbtree=0 / crf=17.4000 / qcomp=0.60 / qpmin=0:0:0 / qpmax=69:69:69 / qpstep=4 / vbv_maxrate=62500 / vbv_bufsize=78125 / crf_max=0.0 / nal_hrd=none / filler=0 / ip_ratio=1.40 / pb_ratio=1.30 / aq=3:0.70 / aq-sensitivity=10.00 / aq-factor=1.00:1.00:1.00 / aq2=0 / aq3=0 / zones=34, 240, crf=14/441, 467, crf=14/2580, 2646, crf=15/9126, 9315, crf=14/10050, 10311, crf=15.5/18239, 18413, crf=15.5/19034, 19116, crf=13.5/20247, 20407, crf=14/21532, 21708, crf=13/39631, 39678, crf=14
Language : English
Default : Yes
Forced : No
Audio #1
ID : 2
Format : AC-3
Format/Info : Audio Coding 3
Mode extension : CM (complete main)
Format settings, Endianness : Big
Codec ID : A_AC3
Duration : 1 h 45 min
Bit rate mode : Constant
Bit rate : 384 kb/s
Channel(s) : 6 channels
Channel positions : Front: L C R, Side: L R, LFE
Sampling rate : 48.0 kHz
Frame rate : 31.250 FPS (1536 spf)
Bit depth : 16 bits
Compression mode : Lossy
Stream size : 290 MiB (2%)
Title : iTunes
Language : Russian
Default : Yes
Forced : No
Audio #2
ID : 3
Format : AC-3
Format/Info : Audio Coding 3
Mode extension : CM (complete main)
Format settings, Endianness : Big
Codec ID : A_AC3
Duration : 1 h 45 min
Bit rate mode : Constant
Bit rate : 640 kb/s
Channel(s) : 6 channels
Channel positions : Front: L C R, Side: L R, LFE
Sampling rate : 48.0 kHz
Frame rate : 31.250 FPS (1536 spf)
Bit depth : 16 bits
Compression mode : Lossy
Stream size : 483 MiB (4%)
Language : German
Default : No
Forced : No
Text #1
ID : 4
Format : UTF-8
Codec ID : S_TEXT/UTF8
Codec ID/Info : UTF-8 Plain Text
Duration : 1 h 38 min
Bit rate : 55 b/s
Count of elements : 647
Stream size : 40.0 KiB (0%)
Language : Russian
Default : No
Forced : No
Text #2
ID : 5
Format : UTF-8
Codec ID : S_TEXT/UTF8
Codec ID/Info : UTF-8 Plain Text
Duration : 1 h 38 min
Bit rate : 31 b/s
Count of elements : 720
Stream size : 23.1 KiB (0%)
Language : English
Default : No
Forced : No
Menu
00:00:00.000 : en:00:00:00.000
00:05:40.833 : en:00:05:40.833
00:11:08.292 : en:00:11:08.292
00:17:12.917 : en:00:17:12.917
00:22:34.958 : en:00:22:34.958
00:28:08.792 : en:00:28:08.792
00:34:10.625 : en:00:34:10.625
00:38:38.333 : en:00:38:38.333
00:44:53.333 : en:00:44:53.333
00:50:01.583 : en:00:50:01.583
00:56:06.125 : en:00:56:06.125
01:01:09.292 : en:01:01:09.292
01:06:29.250 : en:01:06:29.250
01:11:34.542 : en:01:11:34.542
01:17:01.167 : en:01:17:01.167
01:22:37.375 : en:01:22:37.375
01:27:42.750 : en:01:27:42.750
01:32:58.417 : en:01:32:58.417
01:37:51.458 : en:01:37:51.458
01:40:27.542 : en:01:40:27.542

Скриншоты

       

Спасибо Релиз группе: ELEKTRI4KA
 

The time now is: Today 19:19

All times are GMT + 3 Hours