Today is a free download without charge Download

Search found 12 matches

Author Message

Kon912

Post 25-Jul-2020 00:19

[Quote]

Верность- Год выхода: 2019
Страна: Россия
Студия: PREMIER Studios, Droog Drooga Films при поддержке Министерства культуры РФ
Жанр: Драма
Продолжительность: 01:21:46
Перевод: Не требуется | Лицензия Blu-ray GER-Режиссер:
Нигина Сайфуллаева-В ролях:
Александр Паль, Евгения Громова, Алексей Агранович, Марина Васильева, Павел Ворожцов, Анна Котова-Дерябина, Василий Рихтер, Анастасия Денисова, Кирилл Каганович, Михаил Тройник-О фильме:
Лена — талантливая акушер-гинеколог, её муж Серёжа — артист провинциального драмтеатра. Близость и нежность у них есть, секса — нет. Лена подозревает, что Серёжа завёл роман на стороне, но она мучается молча и не выдаёт свою ревность. Вместо того чтобы выяснить отношения с мужем, Лена сама начинает изменять ему со случайными мужчинами. Она, конечно, не думала, что её параллельная жизнь окажется не менее подлинной, чем основная. И не менее реальной. И настолько опасной.- -Качество: BDRemux 1080p
Формат: MKV
Видео: MPEG-4 AVC, 1920x1080, 34.4 Mbit/s, 24 fps
Аудио #01: 48 kHz, DTS-HD MA, 5.1, 3195 Kbps | RUS |
Аудио #02: 48 kHz, AC3, 5.1, 640 Kbps | RUS |
Субтитры: Отсутствуют-

Скриншоты

     

MI

General
Unique ID : 46371841439583691136606313423096382889 (0x22E2E44D0966B5D6E79ADFE7243605A9)
Complete name : E:Video111BackupVernost.2019.BDREMUX.1080p.mkv
Format : Matroska
Format version : Version 4
File size : 21.8 GiB
Duration : 1 h 21 min
Overall bit rate mode : Variable
Overall bit rate : 38.2 Mb/s
Encoded date : UTC 2020-07-23 20:14:06
Writing application : mkvmerge v40.0.0 ('Old Town Road + Pony') 64-bit
Writing library : libebml v1.3.9 + libmatroska v1.5.2
Video
ID : 1
Format : AVC
Format/Info : Advanced Video Codec
Format profile : [email protected]
Format settings : CABAC / 4 Ref Frames
Format settings, CABAC : Yes
Format settings, Reference : 4 frames
Codec ID : V_MPEG4/ISO/AVC
Duration : 1 h 21 min
Bit rate mode : Variable
Bit rate : 34.4 Mb/s
Maximum bit rate : 36.0 Mb/s
Width : 1 920 pixels
Height : 1 080 pixels
Display aspect ratio : 16:9
Frame rate mode : Constant
Frame rate : 24.000 FPS
Color space : YUV
Chroma subsampling : 4:2:0
Bit depth : 8 bits
Scan type : Progressive
Bits/(Pixel*Frame) : 0.691
Stream size : 19.6 GiB (90%)
Language : German
Default : Yes
Forced : No
Audio #1
ID : 2
Format : DTS XLL
Format/Info : Digital Theater Systems
Commercial name : DTS-HD Master Audio
Codec ID : A_DTS
Duration : 1 h 21 min
Bit rate mode : Variable
Bit rate : 3 195 kb/s
Channel(s) : 6 channels
Channel layout : C L R Ls Rs LFE
Sampling rate : 48.0 kHz
Frame rate : 93.750 FPS (512 SPF)
Bit depth : 24 bits
Compression mode : Lossless
Stream size : 1.83 GiB (8%)
Language : Russian
Default : Yes
Forced : Yes
Audio #2
ID : 3
Format : AC-3
Format/Info : Audio Coding 3
Commercial name : Dolby Digital
Codec ID : A_AC3
Duration : 1 h 21 min
Bit rate mode : Constant
Bit rate : 640 kb/s
Channel(s) : 6 channels
Channel layout : L R C LFE Ls Rs
Sampling rate : 48.0 kHz
Frame rate : 31.250 FPS (1536 SPF)
Compression mode : Lossy
Stream size : 374 MiB (2%)
Language : Russian
Service kind : Complete Main
Default : No
Forced : No
Menu
00:00:00.000 : ru:Глава 01
00:02:59.875 : ru:Глава 02
00:08:27.583 : ru:Глава 03
00:13:29.042 : ru:Глава 04
00:19:43.167 : ru:Глава 05
00:24:43.917 : ru:Глава 06
00:29:47.167 : ru:Глава 07
00:36:36.375 : ru:Глава 08
00:42:06.875 : ru:Глава 09
00:47:30.083 : ru:Глава 10
00:52:24.042 : ru:Глава 11
00:57:09.750 : ru:Глава 12
01:02:25.500 : ru:Глава 13
01:05:27.667 : ru:Глава 14
01:12:57.708 : ru:Глава 15
01:18:21.375 : ru:Глава 16

Kon912

Post 25-Jul-2020 00:19

[Quote]

Верность- Год выхода: 2019
Страна: Россия
Студия: PREMIER Studios, Droog Drooga Films при поддержке Министерства культуры РФ
Жанр: Драма
Продолжительность: 01:21:46
Перевод: Не требуется | Лицензия Blu-ray GER-Режиссер:
Нигина Сайфуллаева-В ролях:
Александр Паль, Евгения Громова, Алексей Агранович, Марина Васильева, Павел Ворожцов, Анна Котова-Дерябина, Василий Рихтер, Анастасия Денисова, Кирилл Каганович, Михаил Тройник-О фильме:
Лена — талантливая акушер-гинеколог, её муж Серёжа — артист провинциального драмтеатра. Близость и нежность у них есть, секса — нет. Лена подозревает, что Серёжа завёл роман на стороне, но она мучается молча и не выдаёт свою ревность. Вместо того чтобы выяснить отношения с мужем, Лена сама начинает изменять ему со случайными мужчинами. Она, конечно, не думала, что её параллельная жизнь окажется не менее подлинной, чем основная. И не менее реальной. И настолько опасной.- -Качество: BDRip 1080p
Формат: MKV
Видео: MPEG-4 AVC, 17 Mбит/с, 1920x804
Аудио #01: 48 kHz, DTS-HD MA, 5.1, 1509 Kbps | RUS |
Аудио #02: 48 kHz, AC3, 5.1, 640 Kbps | RUS |
Субтитры: Отсутствуют-

Скриншоты

     

Kon912

Post 25-Jul-2020 00:19

[Quote]

Верность- Год выхода: 2019
Страна: Россия
Студия: PREMIER Studios, Droog Drooga Films при поддержке Министерства культуры РФ
Жанр: Драма
Продолжительность: 01:21:46
Перевод: Не требуется | Лицензия Blu-ray GER-Режиссер:
Нигина Сайфуллаева-В ролях:
Александр Паль, Евгения Громова, Алексей Агранович, Марина Васильева, Павел Ворожцов, Анна Котова-Дерябина, Василий Рихтер, Анастасия Денисова, Кирилл Каганович, Михаил Тройник-О фильме:
Лена — талантливая акушер-гинеколог, её муж Серёжа — артист провинциального драмтеатра. Близость и нежность у них есть, секса — нет. Лена подозревает, что Серёжа завёл роман на стороне, но она мучается молча и не выдаёт свою ревность. Вместо того чтобы выяснить отношения с мужем, Лена сама начинает изменять ему со случайными мужчинами. Она, конечно, не думала, что её параллельная жизнь окажется не менее подлинной, чем основная. И не менее реальной. И настолько опасной.- -Качество: BDRip 720p
Формат: MKV
Видео: MPEG-4 AVC, 6280 Kбит/с, 1280x536
Аудио: AC3, 6 ch, 640 Кбит/с
Субтитры: Отсутствуют-

Скриншоты

     

Kon912

Post 06-Jul-2020 17:24

[Quote]

Ржев- Год выпуска: 2019
Страна: Россия
Студия: Триикс Медиа
Жанр: Военный, драма, история
Продолжительность: 01:58:12
Перевод: Не требуется | Лицензия BD RUS-Режиссер:
Игорь Копылов-В ролях:
Сергей Жарков, Иван Батарев, Олег Гаянов, Арсений Семёнов, Александр Горбатов, Александр Бухаров, Григорий Некрасов, Игорь Грабузов, Александр Аравушкин, Дан Розин-О фильме:
1942 год. Ржевская битва. После боев под селом Овсянниково от роты советских солдат осталась только треть. Бойцы пытаются продержаться до прихода подкрепления. Но из штаба поступает приказ удержать деревню любой ценой. Значит, отступать нельзя... Каждый из героев понимает, что живыми из этого переплета выбраться почти невозможно. В этот момент в Овсянниково, едва не погибнув под вражеским обстрелом, прибывает младший лейтенант - начальник особого отдела, который должен найти и разоблачить предателей среди своих. Лейтенант уверен, что только так можно приблизить победу. События приобретают непредсказуемый оборот.- -Качество: BDRip 1080p
Формат: MKV
Видео: MPEG-4 AVC, 1920x804, 12.1 Mbit/s, 24.000 fps
Аудио: 48 kHz, AC3, 5.1, 640 Kbps | RUS |
Субтитры: Нет-

Скриншоты

         

MI

General
Unique ID : 152601046657018577344132639198782944653 (0x72CDE47CDB41C86D59D8D81FF5BFF58D)
Complete name : E:Rjev.2019.BDRip.1080p.mkv
Format : Matroska
Format version : Version 4
File size : 10.5 GiB
Duration : 1 h 58 min
Overall bit rate : 12.7 Mb/s
Encoded date : UTC 2020-07-05 22:42:31
Writing application : mkvmerge v40.0.0 ('Old Town Road + Pony') 64-bit
Writing library : libebml v1.3.9 + libmatroska v1.5.2
Cover : Yes
Attachments : cover.jpg
Video
ID : 1
Format : AVC
Format/Info : Advanced Video Codec
Format profile : [email protected]
Format settings : CABAC / 5 Ref Frames
Format settings, CABAC : Yes
Format settings, Reference frames : 5 frames
Codec ID : V_MPEG4/ISO/AVC
Duration : 1 h 58 min
Bit rate : 12.1 Mb/s
Width : 1 920 pixels
Height : 804 pixels
Display aspect ratio : 2.40:1
Frame rate mode : Constant
Frame rate : 24.000 FPS
Color space : YUV
Chroma subsampling : 4:2:0
Bit depth : 8 bits
Scan type : Progressive
Bits/(Pixel*Frame) : 0.327
Stream size : 9.99 GiB (95%)
Writing library : x264 core 142 r2431+42 c69a006 tMod [[email protected] X86_64]
Encoding settings : cabac=1 / ref=5 / deblock=1:-2:-2 / analyse=0x3:0x133 / me=umh / subme=10 / psy=1 / fade_compensate=0.00 / psy_rd=1.00:0.00 / mixed_ref=1 / me_range=32 / chroma_me=1 / trellis=2 / 8x8dct=1 / cqm=0 / deadzone=21,11 / fast_pskip=0 / chroma_qp_offset=-2 / threads=24 / lookahead_threads=4 / sliced_threads=0 / nr=0 / decimate=0 / interlaced=0 / bluray_compat=0 / constrained_intra=0 / fgo=0 / bframes=9 / b_pyramid=2 / b_adapt=2 / b_bias=0 / direct=3 / weightb=1 / open_gop=0 / weightp=2 / keyint=240 / keyint_min=24 / scenecut=40 / intra_refresh=0 / rc_lookahead=50 / rc=crf / mbtree=0 / crf=16.8000 / qcomp=0.60 / qpmin=0:0:0 / qpmax=51:51:51 / qpstep=4 / vbv_maxrate=50000 / vbv_bufsize=62500 / crf_max=0.0 / nal_hrd=none / filler=0 / ip_ratio=1.40 / pb_ratio=1.30 / aq=3:0.80 / aq-sensitivity=10.00 / aq-factor=1.00:1.00:1.00 / aq2=0 / aq3=0
Language : Russian
Default : Yes
Forced : No
Audio
ID : 2
Format : AC-3
Format/Info : Audio Coding 3
Commercial name : Dolby Digital
Codec ID : A_AC3
Duration : 1 h 58 min
Bit rate mode : Constant
Bit rate : 640 kb/s
Channel(s) : 6 channels
Channel layout : L R C LFE Ls Rs
Sampling rate : 48.0 kHz
Frame rate : 31.250 FPS (1536 SPF)
Compression mode : Lossy
Stream size : 541 MiB (5%)
Language : Russian
Service kind : Complete Main
Default : Yes
Forced : Yes
Menu
00:00:00.000 : ru:Глава 01
00:00:05.417 : ru:Глава 02
00:11:06.208 : ru:Глава 03
00:22:02.250 : ru:Глава 04
00:33:41.792 : ru:Глава 05
00:46:58.292 : ru:Глава 06
01:00:38.500 : ru:Глава 07
01:11:20.500 : ru:Глава 08
01:21:43.167 : ru:Глава 09
01:33:59.042 : ru:Глава 10
01:45:19.250 : ru:Глава 11

Kon912

Post 06-Jul-2020 17:22

[Quote]

Ржев- Год выпуска: 2019
Страна: Россия
Студия: Триикс Медиа
Жанр: Военный, драма, история
Продолжительность: 01:58:12
Перевод: Не требуется | Лицензия BD RUS-Режиссер:
Игорь Копылов-В ролях:
Сергей Жарков, Иван Батарев, Олег Гаянов, Арсений Семёнов, Александр Горбатов, Александр Бухаров, Григорий Некрасов, Игорь Грабузов, Александр Аравушкин, Дан Розин-О фильме:
1942 год. Ржевская битва. После боев под селом Овсянниково от роты советских солдат осталась только треть. Бойцы пытаются продержаться до прихода подкрепления. Но из штаба поступает приказ удержать деревню любой ценой. Значит, отступать нельзя... Каждый из героев понимает, что живыми из этого переплета выбраться почти невозможно. В этот момент в Овсянниково, едва не погибнув под вражеским обстрелом, прибывает младший лейтенант - начальник особого отдела, который должен найти и разоблачить предателей среди своих. Лейтенант уверен, что только так можно приблизить победу. События приобретают непредсказуемый оборот.- -Качество: BDRip 720p
Формат: MKV
Видео: MPEG-4 AVC, 1280x536, 5130 Kbit/s, 24.000 fps
Аудио: 48 kHz, AC3, 5.1, 640 Kbps | RUS |
Субтитры: Нет-

Скриншоты

       

MI

General
Unique ID : 249875875520729608608092098574897030430 (0xBBFC57D5B2E535F5B878F1963B8EA51E)
Complete name : E:Rjev.2019.BDRip.720p.mkv
Format : Matroska
Format version : Version 4
File size : 4.77 GiB
Duration : 1 h 58 min
Overall bit rate : 5 773 kb/s
Encoded date : UTC 2020-07-06 00:44:44
Writing application : mkvmerge v40.0.0 ('Old Town Road + Pony') 64-bit
Writing library : libebml v1.3.9 + libmatroska v1.5.2
Cover : Yes
Attachments : cover.jpg
Video
ID : 1
Format : AVC
Format/Info : Advanced Video Codec
Format profile : [email protected]
Format settings : CABAC / 12 Ref Frames
Format settings, CABAC : Yes
Format settings, Reference frames : 12 frames
Codec ID : V_MPEG4/ISO/AVC
Duration : 1 h 58 min
Bit rate : 5 130 kb/s
Width : 1 280 pixels
Height : 536 pixels
Display aspect ratio : 2.40:1
Frame rate mode : Constant
Frame rate : 24.000 FPS
Color space : YUV
Chroma subsampling : 4:2:0
Bit depth : 8 bits
Scan type : Progressive
Bits/(Pixel*Frame) : 0.312
Stream size : 4.24 GiB (89%)
Writing library : x264 core 142 r2431+42 c69a006 tMod [[email protected] X86_64]
Encoding settings : cabac=1 / ref=12 / deblock=1:-2:-2 / analyse=0x3:0x133 / me=umh / subme=10 / psy=1 / fade_compensate=0.00 / psy_rd=1.00:0.00 / mixed_ref=1 / me_range=32 / chroma_me=1 / trellis=2 / 8x8dct=1 / cqm=0 / deadzone=21,11 / fast_pskip=0 / chroma_qp_offset=-2 / threads=24 / lookahead_threads=4 / sliced_threads=0 / nr=0 / decimate=0 / interlaced=0 / bluray_compat=0 / constrained_intra=0 / fgo=0 / bframes=9 / b_pyramid=2 / b_adapt=2 / b_bias=0 / direct=3 / weightb=1 / open_gop=0 / weightp=2 / keyint=240 / keyint_min=24 / scenecut=40 / intra_refresh=0 / rc_lookahead=50 / rc=crf / mbtree=0 / crf=16.4000 / qcomp=0.60 / qpmin=0:0:0 / qpmax=51:51:51 / qpstep=4 / vbv_maxrate=50000 / vbv_bufsize=62500 / crf_max=0.0 / nal_hrd=none / filler=0 / ip_ratio=1.40 / pb_ratio=1.30 / aq=3:0.80 / aq-sensitivity=10.00 / aq-factor=1.00:1.00:1.00 / aq2=0 / aq3=0
Language : English
Default : Yes
Forced : No
Audio
ID : 2
Format : AC-3
Format/Info : Audio Coding 3
Commercial name : Dolby Digital
Codec ID : A_AC3
Duration : 1 h 58 min
Bit rate mode : Constant
Bit rate : 640 kb/s
Channel(s) : 6 channels
Channel layout : L R C LFE Ls Rs
Sampling rate : 48.0 kHz
Frame rate : 31.250 FPS (1536 SPF)
Compression mode : Lossy
Stream size : 541 MiB (11%)
Language : Russian
Service kind : Complete Main
Default : Yes
Forced : Yes
Menu
00:00:00.000 : ru:Глава 01
00:00:05.417 : ru:Глава 02
00:11:06.208 : ru:Глава 03
00:22:02.250 : ru:Глава 04
00:33:41.792 : ru:Глава 05
00:46:58.292 : ru:Глава 06
01:00:38.500 : ru:Глава 07
01:11:20.500 : ru:Глава 08
01:21:43.167 : ru:Глава 09
01:33:59.042 : ru:Глава 10
01:45:19.250 : ru:Глава 11

Kon912

Post 13-Jun-2020 02:44

[Quote]

Яга. Кошмар тёмного леса- Год выпуска: 2020
Страна: Россия
Студия: Нон-стоп Продакшн, QS Films
Жанр: Ужасы
Продолжительность: 01:36:45
Перевод: Не требуется | Лицензия Blu-Ray GER-Режиссер:
Святослав Подгаевский-В ролях:
Олег Чугунов, Глаша Голубева, Артём Жигулин, Игорь Хрипунов, Светлана Устинова, Алексей Розин, Марьяна Спивак, Марта Тимофеева, Даниил Филиппов, Евгения Евстигнеева, Ольга Макеева-О фильме:
В центре сюжета — молодая семья, которая переехала в новую квартиру на окраине города. Нанятая ими для новорожденной дочери няня быстро вошла в доверие. Однако старший мальчик, Егор, рассказывает о пугающем поведении женщины, но родители ему не верят. Камеры наблюдения, установленные отцом для успокоения, лишь подтверждают — всё в порядке. И вот однажды Егор, вернувшись домой, не находит никаких следов ни няни, ни маленькой сестры, а родители пребывают в странном трансе и даже не помнят, что у них была дочь. Тогда Егор вместе с друзьями отправляется на поиски, в ходе которых выяснится, что няня — древний славянский демон.- -Качество: BDRip 720p
Формат: MKV
Видео: MPEG-4 AVC, 1280x536 (2.40:1), 24.000 fps, 4559 Kb/s
Аудио 1: 48 kHz, AC3, 5.1, 640 Kbps | Лицензия | RUS |
Аудио 2: 48 kHz, DTS, 5.1, 1509 Kbps | Лицензия | RUS |
Субтитры: Русские (Наталья Раевская)-

ОтчетМедиаИнфо

General
Unique ID : 227185948916345889525654896094355390050 (0xAAEA6C150CDFD8C780D0AE22A78BFE62)
Complete name : E:Baba.Yaga.2020.BDRip.720p.ExKinoRay.mkv
Format : Matroska
Format version : Version 2
File size : 4.63 GiB
Duration : 1 h 36 min
Overall bit rate : 6 844 kb/s
Movie name : Baba Yaga 2020 from ExKinoRay
Encoded date : UTC 2020-06-12 22:52:48
Writing application : mkvmerge v2.9.9 ('Tutu') built on Nov 25 2009 21:13:32
Writing library : libebml v0.7.9 + libmatroska v0.8.1
Cover : Yes
Attachments : cover.jpg
Video
ID : 1
Format : AVC
Format/Info : Advanced Video Codec
Format profile : [email protected]
Format settings : CABAC / 12 Ref Frames
Format settings, CABAC : Yes
Format settings, Reference : 12 frames
Codec ID : V_MPEG4/ISO/AVC
Duration : 1 h 36 min
Bit rate : 4 559 kb/s
Width : 1 280 pixels
Height : 536 pixels
Display aspect ratio : 2.40:1
Frame rate mode : Constant
Frame rate : 24.000 FPS
Color space : YUV
Chroma subsampling : 4:2:0
Bit depth : 8 bits
Scan type : Progressive
Bits/(Pixel*Frame) : 0.277
Stream size : 3.08 GiB (67%)
Writing library : x264 core 142 r2431+42 c69a006 tMod [[email protected] X86_64]
Encoding settings : cabac=1 / ref=12 / deblock=1:-3:-3 / analyse=0x3:0x133 / me=umh / subme=10 / psy=1 / fade_compensate=0.00 / psy_rd=1.00:0.00 / mixed_ref=1 / me_range=32 / chroma_me=1 / trellis=2 / 8x8dct=1 / cqm=0 / deadzone=21,11 / fast_pskip=0 / chroma_qp_offset=-2 / threads=24 / lookahead_threads=4 / sliced_threads=0 / nr=0 / decimate=0 / interlaced=0 / bluray_compat=0 / constrained_intra=0 / fgo=0 / bframes=8 / b_pyramid=2 / b_adapt=2 / b_bias=0 / direct=3 / weightb=1 / open_gop=0 / weightp=2 / keyint=240 / keyint_min=24 / scenecut=40 / intra_refresh=0 / rc_lookahead=50 / rc=crf / mbtree=0 / crf=17.0000 / qcomp=0.60 / qpmin=0:0:0 / qpmax=51:51:51 / qpstep=4 / vbv_maxrate=50000 / vbv_bufsize=62500 / crf_max=0.0 / nal_hrd=none / filler=0 / ip_ratio=1.40 / pb_ratio=1.30 / aq=3:0.80 / aq-sensitivity=10.00 / aq-factor=1.00:1.00:1.00 / aq2=0 / aq3=0
Language : German
Default : No
Forced : No
Duration_Source : General_Duration
Audio #1
ID : 2
Format : AC-3
Format/Info : Audio Coding 3
Commercial name : Dolby Digital
Codec ID : A_AC3
Duration : 1 h 36 min
Bit rate mode : Constant
Bit rate : 640 kb/s
Channel(s) : 6 channels
Channel layout : L R C LFE Ls Rs
Sampling rate : 48.0 kHz
Frame rate : 31.250 FPS (1536 SPF)
Compression mode : Lossy
Stream size : 443 MiB (9%)
Title : Surround 5.1
Language : Russian
Service kind : Complete Main
Default : Yes
Forced : No
Duration_Source : General_Duration
Audio #2
ID : 3
Format : DTS
Format/Info : Digital Theater Systems
Codec ID : A_DTS
Duration : 1 h 36 min
Bit rate mode : Constant
Bit rate : 1 509 kb/s
Channel(s) : 6 channels
Channel layout : C L R Ls Rs LFE
Sampling rate : 48.0 kHz
Frame rate : 93.750 FPS (512 SPF)
Bit depth : 24 bits
Compression mode : Lossy
Delay relative to video : 11 ms
Stream size : 1.02 GiB (22%)
Title : Surround 5.1
Language : Russian
Default : No
Forced : No
Duration_Source : General_Duration
Text
ID : 4
Format : UTF-8
Codec ID : S_TEXT/UTF8
Codec ID/Info : UTF-8 Plain Text
Title : Full (Enigma)
Language : Russian
Default : No
Forced : No
Menu
00:00:00.000 : en:Chapter 01
00:06:43.500 : en:Chapter 02
00:14:42.750 : en:Chapter 03
00:21:46.750 : en:Chapter 04
00:28:55.666 : en:Chapter 05
00:37:46.375 : en:Chapter 06
00:44:01.750 : en:Chapter 07
00:48:57.000 : en:Chapter 08
00:54:26.708 : en:Chapter 09
01:01:38.875 : en:Chapter 10
01:08:03.666 : en:Chapter 11
01:11:43.416 : en:Chapter 12
01:16:19.375 : en:Chapter 13
01:23:23.250 : en:Chapter 14
01:27:32.625 : en:Chapter 15
01:32:50.833 : en:Chapter 16

Скриншоты

         
-Релиз от

Kon912

Post 13-Jun-2020 00:29

[Quote]

Яга. Кошмар тёмного леса- Год выпуска: 2020
Страна: Россия
Студия: Нон-стоп Продакшн, QS Films
Жанр: Ужасы
Продолжительность: 01:36:45
Перевод: Не требуется | Лицензия Blu-Ray GER-Режиссер:
Святослав Подгаевский-В ролях:
Олег Чугунов, Глаша Голубева, Артём Жигулин, Игорь Хрипунов, Светлана Устинова, Алексей Розин, Марьяна Спивак, Марта Тимофеева, Даниил Филиппов, Евгения Евстигнеева, Ольга Макеева-О фильме:
В центре сюжета — молодая семья, которая переехала в новую квартиру на окраине города. Нанятая ими для новорожденной дочери няня быстро вошла в доверие. Однако старший мальчик, Егор, рассказывает о пугающем поведении женщины, но родители ему не верят. Камеры наблюдения, установленные отцом для успокоения, лишь подтверждают — всё в порядке. И вот однажды Егор, вернувшись домой, не находит никаких следов ни няни, ни маленькой сестры, а родители пребывают в странном трансе и даже не помнят, что у них была дочь. Тогда Егор вместе с друзьями отправляется на поиски, в ходе которых выяснится, что няня — древний славянский демон.- -Качество: BDRip 1080p
Формат: MKV
Видео: MPEG-4 AVC, 1920x804 (2.40:1), 24.000 fps, 13.1 Mb/s
Аудио 1: 48 kHz, AC3, 5.1, 640 Kbps | Лицензия | RUS |
Аудио 2: 48 kHz, DTS, 5.1, 1509 Kbps | Лицензия | RUS |
Субтитры: Русские (Наталья Раевская)-

ОтчетМедиаИнфо

General
Unique ID : 195792956333697231612216758247874964673 (0x934C5A0C4F0BE02B96E9B09E8D292CC1)
Complete name : E:Video1114kBaba.Yaga.2020.BDRip.1080p.ExKinoRay.mkv
Format : Matroska
Format version : Version 2
File size : 10.5 GiB
Duration : 1 h 36 min
Overall bit rate : 15.6 Mb/s
Movie name : Baba Yaga 2020 from ExKinoRay
Encoded date : UTC 2020-06-12 20:54:29
Writing application : mkvmerge v2.9.9 ('Tutu') built on Nov 25 2009 21:13:32
Writing library : libebml v0.7.9 + libmatroska v0.8.1
Cover : Yes
Attachments : cover.jpg
Video
ID : 1
Format : AVC
Format/Info : Advanced Video Codec
Format profile : [email protected]
Format settings : CABAC / 5 Ref Frames
Format settings, CABAC : Yes
Format settings, Reference : 5 frames
Codec ID : V_MPEG4/ISO/AVC
Duration : 1 h 36 min
Bit rate : 13.1 Mb/s
Width : 1 920 pixels
Height : 804 pixels
Display aspect ratio : 2.40:1
Frame rate mode : Constant
Frame rate : 24.000 FPS
Color space : YUV
Chroma subsampling : 4:2:0
Bit depth : 8 bits
Scan type : Progressive
Bits/(Pixel*Frame) : 0.355
Stream size : 8.88 GiB (84%)
Writing library : x264 core 142 r2431+42 c69a006 tMod [[email protected] X86_64]
Encoding settings : cabac=1 / ref=5 / deblock=1:-3:-3 / analyse=0x3:0x133 / me=umh / subme=10 / psy=1 / fade_compensate=0.00 / psy_rd=1.00:0.00 / mixed_ref=1 / me_range=32 / chroma_me=1 / trellis=2 / 8x8dct=1 / cqm=0 / deadzone=21,11 / fast_pskip=0 / chroma_qp_offset=-2 / threads=24 / lookahead_threads=4 / sliced_threads=0 / nr=0 / decimate=0 / interlaced=0 / bluray_compat=0 / constrained_intra=0 / fgo=0 / bframes=8 / b_pyramid=2 / b_adapt=2 / b_bias=0 / direct=3 / weightb=1 / open_gop=0 / weightp=2 / keyint=240 / keyint_min=24 / scenecut=40 / intra_refresh=0 / rc_lookahead=50 / rc=crf / mbtree=0 / crf=17.0000 / qcomp=0.60 / qpmin=0:0:0 / qpmax=51:51:51 / qpstep=4 / vbv_maxrate=50000 / vbv_bufsize=62500 / crf_max=0.0 / nal_hrd=none / filler=0 / ip_ratio=1.40 / pb_ratio=1.30 / aq=3:0.80 / aq-sensitivity=10.00 / aq-factor=1.00:1.00:1.00 / aq2=0 / aq3=0
Language : German
Default : No
Forced : No
Duration_Source : General_Duration
Audio #1
ID : 2
Format : AC-3
Format/Info : Audio Coding 3
Commercial name : Dolby Digital
Codec ID : A_AC3
Duration : 1 h 36 min
Bit rate mode : Constant
Bit rate : 640 kb/s
Channel(s) : 6 channels
Channel layout : L R C LFE Ls Rs
Sampling rate : 48.0 kHz
Frame rate : 31.250 FPS (1536 SPF)
Compression mode : Lossy
Stream size : 443 MiB (4%)
Title : Surround 5.1
Language : Russian
Service kind : Complete Main
Default : Yes
Forced : No
Duration_Source : General_Duration
Audio #2
ID : 3
Format : DTS
Format/Info : Digital Theater Systems
Codec ID : A_DTS
Duration : 1 h 36 min
Bit rate mode : Constant
Bit rate : 1 509 kb/s
Channel(s) : 6 channels
Channel layout : C L R Ls Rs LFE
Sampling rate : 48.0 kHz
Frame rate : 93.750 FPS (512 SPF)
Bit depth : 24 bits
Compression mode : Lossy
Delay relative to video : 11 ms
Stream size : 1.02 GiB (10%)
Title : Surround 5.1
Language : Russian
Default : No
Forced : No
Duration_Source : General_Duration
Text
ID : 4
Format : UTF-8
Codec ID : S_TEXT/UTF8
Codec ID/Info : UTF-8 Plain Text
Title : Full (Enigma)
Language : Russian
Default : No
Forced : No
Menu
00:00:00.000 : en:Chapter 01
00:06:43.500 : en:Chapter 02
00:14:42.750 : en:Chapter 03
00:21:46.750 : en:Chapter 04
00:28:55.666 : en:Chapter 05
00:37:46.375 : en:Chapter 06
00:44:01.750 : en:Chapter 07
00:48:57.000 : en:Chapter 08
00:54:26.708 : en:Chapter 09
01:01:38.875 : en:Chapter 10
01:08:03.666 : en:Chapter 11
01:11:43.416 : en:Chapter 12
01:16:19.375 : en:Chapter 13
01:23:23.250 : en:Chapter 14
01:27:32.625 : en:Chapter 15
01:32:50.833 : en:Chapter 16

Скриншоты

       
-Релиз от

Kon912

Post 12-Jun-2020 20:30

[Quote]

Яга. Кошмар тёмного леса- Год выпуска: 2020
Страна: Россия
Студия: Нон-стоп Продакшн, QS Films
Жанр: Ужасы
Продолжительность: 01:36:45
Перевод: Не требуется | Лицензия Blu-Ray GER-Режиссер:
Святослав Подгаевский-В ролях:
Олег Чугунов, Глаша Голубева, Артём Жигулин, Игорь Хрипунов, Светлана Устинова, Алексей Розин, Марьяна Спивак, Марта Тимофеева, Даниил Филиппов, Евгения Евстигнеева, Ольга Макеева-О фильме:
В центре сюжета — молодая семья, которая переехала в новую квартиру на окраине города. Нанятая ими для новорожденной дочери няня быстро вошла в доверие. Однако старший мальчик, Егор, рассказывает о пугающем поведении женщины, но родители ему не верят. Камеры наблюдения, установленные отцом для успокоения, лишь подтверждают — всё в порядке. И вот однажды Егор, вернувшись домой, не находит никаких следов ни няни, ни маленькой сестры, а родители пребывают в странном трансе и даже не помнят, что у них была дочь. Тогда Егор вместе с друзьями отправляется на поиски, в ходе которых выяснится, что няня — древний славянский демон.- -Качество: BDRemux 1080p
Формат: MKV
Видео: MPEG-4 AVC / 34298 kbps / 1080p / 24 fps / 16:9 / High Profile 4.1
Аудио 1: Russian: DTS-HD Master Audio / 5.1 / 48 kHz / 24 bit / 3788 kbps
Аудио 2: Russian: Dolby Digital Audio / 5.1 / 48 kHz / 16 bit / 640 kbps
Субтитры: Нет-

Скриншоты

         

MediaInfo

General
Unique ID : 7590153498516602299035162338628799310 (0x5B5CF75C0F278187336D408097D0B4E)
Complete name : Baba.Yaga.2020.BDREMUX.1880p.mkv
Format : Matroska
Format version : Version 4 / Version 2
File size : 26.0 GiB
Duration : 1 h 36 min
Overall bit rate mode : Variable
Overall bit rate : 38.4 Mb/s
Encoded date : UTC 2020-06-12 15:04:17
Writing application : mkvmerge v40.0.0 ('Old Town Road + Pony') 64-bit
Writing library : libebml v1.3.9 + libmatroska v1.5.2
Video
ID : 1
Format : AVC
Format/Info : Advanced Video Codec
Format profile : [email protected]
Format settings, CABAC : Yes
Format settings, RefFrames : 4 frames
Format settings, GOP : M=3, N=12
Codec ID : V_MPEG4/ISO/AVC
Duration : 1 h 36 min
Bit rate mode : Variable
Maximum bit rate : 36.0 Mb/s
Width : 1 920 pixels
Height : 1 080 pixels
Display aspect ratio : 16:9
Frame rate mode : Constant
Frame rate : 24.000 FPS
Color space : YUV
Chroma subsampling : 4:2:0
Bit depth : 8 bits
Scan type : Progressive
Language : German
Default : Yes
Forced : No
Audio #1
ID : 2
Format : DTS
Format/Info : Digital Theater Systems
Format profile : MA / Core
Mode : 16
Format settings, Endianness : Big
Codec ID : A_DTS
Duration : 1 h 36 min
Bit rate mode : Variable / Constant
Bit rate : Unknown / 1 509 kb/s
Channel(s) : 6 channels
Channel positions : Front: L C R, Side: L R, LFE
Sampling rate : 48.0 kHz
Frame rate : 93.750 FPS (512 SPF)
Bit depth : 24 bits
Compression mode : Lossless / Lossy
Language : Russian
Default : Yes
Forced : Yes
Audio #2
ID : 3
Format : AC-3
Format/Info : Audio Coding 3
Format settings, Endianness : Big
Codec ID : A_AC3
Duration : 1 h 36 min
Bit rate mode : Constant
Bit rate : 640 kb/s
Channel(s) : 6 channels
Channel positions : Front: L C R, Side: L R, LFE
Sampling rate : 48.0 kHz
Frame rate : 31.250 FPS (1536 SPF)
Bit depth : 16 bits
Compression mode : Lossy
Stream size : 443 MiB (2%)
Language : Russian
Service kind : Complete Main
Default : No
Forced : No
Menu
00:00:00.000 : de:
00:06:43.500 : de:
00:14:42.750 : de:
00:21:46.750 : de:
00:28:55.667 : de:
00:37:46.375 : de:
00:44:01.750 : de:
00:48:57.000 : de:
00:54:26.708 : de:
01:01:38.875 : de:
01:08:03.667 : de:
01:11:43.417 : de:
01:16:19.375 : de:
01:23:23.250 : de:
01:27:32.625 : de:
01:32:50.833 : de:

Kon912

Post 04-Jun-2020 00:35

[Quote]

Дылда- Год выхода: 2019
Страна: Россия
Студия: Нон-стоп Продакшн
Продолжительность: 02:17:31
Жанр: Драма, военный
Перевод: Не требуется | Лицензия Blu-ray US-Режиссер:
Кантемир Балагов-В ролях:
Виктория Мирошниченко, Василиса Перелыгина, Андрей Быков, Игорь Широков, Константин Балакирев, Ксения Кутепова, Ольга Драгунова, Тимофей Глазков, Филипп Жлоба, Наталия Кутанина-О фильме:
История двух молодых женщин-фронтовичек, которые возвращаются в послевоенный Ленинград и пытаются обрести новую мирную жизнь, когда и вокруг, и главное, внутри них — руины.- -Качество: BDRip 1080p
Формат: MKV
Кодек: MPEG-4 AVC
Видео: 1920x1040 (1,85:1), 23,976 fps, MPEG-4 AVC ~ 20,5 Мbps avg, 0.429 bit/pixel
Аудио: AC3, 48 kHz, 6 ch, ~640.00 kbps avg | русский | Blu-ray US
Аудио: DTS, 48 kHz, 6 ch, ~1510.00 kbps avg | русский | Blu-ray US
Субтитры: Английские (Forced)-

Инфо-файл

Общее
Уникальный идентификатор : 138477183745531784489297135921820874654 (0x682DBC4859EF2611C859838A5128379E)
Полное имя : Dylda.2020.1080p.BluRay.DTS.x264.mkv
Формат : Matroska
Версия формата : Version 4
Размер файла : 21,8 Гбайт
Продолжительность : 2 ч. 17 м.
Общий поток : 22,7 Мбит/сек
Название фильма : Дылда (2019)
Дата кодирования : UTC 2020-06-03 18:05:38
Программа кодирования : mkvmerge v47.0.0 ('Black Flag') 64-bit
Библиотека кодирования : libebml v1.3.10 + libmatroska v1.5.2
Обложка : Yes
Attachments : cover.jpg
Видео
Идентификатор : 1
Формат : AVC
Формат/Информация : Advanced Video Codec
Профиль формата : [email protected]
Настройки формата : CABAC / 4 Ref Frames
Параметр CABAC формата : Да
Параметр RefFrames формата : 4 кадра
Идентификатор кодека : V_MPEG4/ISO/AVC
Продолжительность : 2 ч. 17 м.
Битрейт : 20,5 Мбит/сек
Ширина : 1 920 пикселей
Высота : 1 040 пикселей
Соотношение сторон : 1,85:1
Режим частоты кадров : Постоянный
Частота кадров : 23,976 (24000/1001) кадра/сек
Цветовое пространство : YUV
Субдискретизация насыщенности : 4:2:0
Битовая глубина : 8 бит
Тип развёртки : Прогрессивная
Бит/(Пиксели*Кадры) : 0.429
Размер потока : 19,7 Гбайт (91%)
Библиотека кодирования : x264 core 160 r3000 33f9e14
Настройки программы : cabac=1 / ref=4 / deblock=1:-3:-3 / analyse=0x3:0x133 / me=umh / subme=9 / psy=1 / psy_rd=1.00:0.00 / mixed_ref=1 / me_range=32 / chroma_me=1 / trellis=2 / 8x8dct=1 / cqm=0 / deadzone=21,11 / fast_pskip=0 / chroma_qp_offset=-2 / threads=24 / lookahead_threads=4 / sliced_threads=0 / nr=0 / decimate=0 / interlaced=0 / bluray_compat=0 / constrained_intra=0 / bframes=9 / b_pyramid=2 / b_adapt=2 / b_bias=0 / direct=3 / weightb=1 / open_gop=0 / weightp=2 / keyint=250 / keyint_min=23 / scenecut=40 / intra_refresh=0 / rc=crf / mbtree=0 / crf=19.0 / qcomp=0.60 / qpmin=0 / qpmax=69 / qpstep=4 / ip_ratio=1.40 / pb_ratio=1.30 / aq=3:0.88
Default : Да
Forced : Нет
Цветовой диапазон : Limited
Основные цвета : BT.709
Характеристики трансфера : BT.709
Коэффициенты матрицы : BT.709
Аудио #1
Идентификатор : 2
Формат : AC-3
Формат/Информация : Audio Coding 3
Коммерческое название : Dolby Digital
Идентификатор кодека : A_AC3
Продолжительность : 2 ч. 17 м.
Вид битрейта : Постоянный
Битрейт : 640 Кбит/сек
Каналы : 6 каналов
Channel layout : L R C LFE Ls Rs
Частота : 48,0 КГц
Частота кадров : 31,250 кадров/сек (1536 SPF)
Метод сжатия : С потерями
Размер потока : 630 Мбайт (3%)
Заголовок : Blu-ray US
Язык : Russian
Default : Да
Forced : Да
Аудио #2
Идентификатор : 3
Формат : DTS
Формат/Информация : Digital Theater Systems
Идентификатор кодека : A_DTS
Продолжительность : 2 ч. 17 м.
Вид битрейта : Постоянный
Битрейт : 1 510 Кбит/сек
Каналы : 6 каналов
Channel layout : C L R Ls Rs LFE
Частота : 48,0 КГц
Частота кадров : 93,750 кадра/сек (512 SPF)
Битовая глубина : 24 бит
Метод сжатия : С потерями
Размер потока : 1,45 Гбайт (7%)
Заголовок : Blu-ray US
Язык : Russian
Default : Нет
Forced : Нет
Текст
Идентификатор : 4
Формат : UTF-8
Идентификатор кодека : S_TEXT/UTF8
Идентификатор кодека/Информация : UTF-8 Plain Text
Продолжительность : 2 ч. 11 м.
Битрейт : 20 бит/сек
Count of elements : 884
Размер потока : 20,1 Кбайт (0%)
Заголовок : Forced
Язык : English
Default : Нет
Forced : Нет
Меню
00:00:00.000 : en:Chapter 01
00:13:12.333 : en:Chapter 02
00:27:17.719 : en:Chapter 03
00:39:30.410 : en:Chapter 04
00:52:52.419 : en:Chapter 05
01:04:27.113 : en:Chapter 06
01:17:39.822 : en:Chapter 07
01:31:40.245 : en:Chapter 08
01:48:10.359 : en:Chapter 09
02:02:24.379 : en:Chapter 10

Скриншоты

         

Kon912

Post 04-Jun-2020 00:24

[Quote]

Дылда- Год выхода: 2019
Страна: Россия
Студия: Нон-стоп Продакшн
Продолжительность: 02:17:31
Жанр: Драма, военный
Перевод: Не требуется | Лицензия Blu-ray US-Режиссер:
Кантемир Балагов-В ролях:
Виктория Мирошниченко, Василиса Перелыгина, Андрей Быков, Игорь Широков, Константин Балакирев, Ксения Кутепова, Ольга Драгунова, Тимофей Глазков, Филипп Жлоба, Наталия Кутанина-О фильме:
История двух молодых женщин-фронтовичек, которые возвращаются в послевоенный Ленинград и пытаются обрести новую мирную жизнь, когда и вокруг, и главное, внутри них — руины.- -Качество: BDRip 720p
Формат: MKV
Кодек: MPEG-4 AVC
Видео: 1280x694 (1,85:1), 23,976 fps, MPEG-4 AVC ~ 9993 Кbps avg, 0.469 bit/pixel
Аудио: AC3, 48 kHz, 6 ch, ~640.00 kbps avg | русский | Blu-ray US
Аудио: DTS, 48 kHz, 6 ch, ~1510.00 kbps avg | русский | Blu-ray US
Субтитры: Английские (Forced)-

Инфо-файл

Общее
Уникальный идентификатор : 77979672848821834454077184899375283563 (0x3AAA56B4FF6D254A559CDE47C2E1BD6B)
Полное имя : Dylda.2020.720p.BluRay.DTS.x264.mkv
Формат : Matroska
Версия формата : Version 4
Размер файла : 11,7 Гбайт
Продолжительность : 2 ч. 17 м.
Общий поток : 12,1 Мбит/сек
Название фильма : Дылда (2019)
Дата кодирования : UTC 2020-06-03 17:54:55
Программа кодирования : mkvmerge v47.0.0 ('Black Flag') 64-bit
Библиотека кодирования : libebml v1.3.10 + libmatroska v1.5.2
Обложка : Yes
Attachments : cover.jpg
Видео
Идентификатор : 1
Формат : AVC
Формат/Информация : Advanced Video Codec
Профиль формата : [email protected]
Настройки формата : CABAC / 8 Ref Frames
Параметр CABAC формата : Да
Параметр RefFrames формата : 8 кадров
Идентификатор кодека : V_MPEG4/ISO/AVC
Продолжительность : 2 ч. 17 м.
Битрейт : 9 993 Кбит/сек
Ширина : 1 280 пикселей
Высота : 694 пикселя
Соотношение сторон : 1,85:1
Режим частоты кадров : Постоянный
Частота кадров : 23,976 (24000/1001) кадра/сек
Цветовое пространство : YUV
Субдискретизация насыщенности : 4:2:0
Битовая глубина : 8 бит
Тип развёртки : Прогрессивная
Бит/(Пиксели*Кадры) : 0.469
Размер потока : 9,60 Гбайт (82%)
Библиотека кодирования : x264 core 160 r3000 33f9e14
Настройки программы : cabac=1 / ref=8 / deblock=1:-3:-3 / analyse=0x3:0x133 / me=umh / subme=9 / psy=1 / psy_rd=1.00:0.00 / mixed_ref=1 / me_range=32 / chroma_me=1 / trellis=2 / 8x8dct=1 / cqm=0 / deadzone=21,11 / fast_pskip=0 / chroma_qp_offset=-2 / threads=22 / lookahead_threads=3 / sliced_threads=0 / nr=0 / decimate=0 / interlaced=0 / bluray_compat=0 / constrained_intra=0 / bframes=9 / b_pyramid=2 / b_adapt=2 / b_bias=0 / direct=3 / weightb=1 / open_gop=0 / weightp=2 / keyint=250 / keyint_min=23 / scenecut=40 / intra_refresh=0 / rc=crf / mbtree=0 / crf=18.0 / qcomp=0.60 / qpmin=0 / qpmax=69 / qpstep=4 / ip_ratio=1.40 / pb_ratio=1.30 / aq=3:0.88
Default : Да
Forced : Нет
Цветовой диапазон : Limited
Основные цвета : BT.709
Характеристики трансфера : BT.709
Коэффициенты матрицы : BT.709
Аудио #1
Идентификатор : 2
Формат : AC-3
Формат/Информация : Audio Coding 3
Коммерческое название : Dolby Digital
Идентификатор кодека : A_AC3
Продолжительность : 2 ч. 17 м.
Вид битрейта : Постоянный
Битрейт : 640 Кбит/сек
Каналы : 6 каналов
Channel layout : L R C LFE Ls Rs
Частота : 48,0 КГц
Частота кадров : 31,250 кадров/сек (1536 SPF)
Метод сжатия : С потерями
Размер потока : 630 Мбайт (5%)
Заголовок : Blu-ray US
Язык : Russian
Default : Да
Forced : Да
Аудио #2
Идентификатор : 3
Формат : DTS
Формат/Информация : Digital Theater Systems
Идентификатор кодека : A_DTS
Продолжительность : 2 ч. 17 м.
Вид битрейта : Постоянный
Битрейт : 1 510 Кбит/сек
Каналы : 6 каналов
Channel layout : C L R Ls Rs LFE
Частота : 48,0 КГц
Частота кадров : 93,750 кадра/сек (512 SPF)
Битовая глубина : 24 бит
Метод сжатия : С потерями
Размер потока : 1,45 Гбайт (12%)
Заголовок : Blu-ray US
Язык : Russian
Default : Нет
Forced : Нет
Текст
Идентификатор : 4
Формат : UTF-8
Идентификатор кодека : S_TEXT/UTF8
Идентификатор кодека/Информация : UTF-8 Plain Text
Продолжительность : 2 ч. 11 м.
Битрейт : 20 бит/сек
Count of elements : 884
Размер потока : 20,1 Кбайт (0%)
Заголовок : Forced
Язык : English
Default : Нет
Forced : Нет
Меню
00:00:00.000 : en:Chapter 01
00:13:12.333 : en:Chapter 02
00:27:17.719 : en:Chapter 03
00:39:30.410 : en:Chapter 04
00:52:52.419 : en:Chapter 05
01:04:27.113 : en:Chapter 06
01:17:39.822 : en:Chapter 07
01:31:40.245 : en:Chapter 08
01:48:10.359 : en:Chapter 09
02:02:24.379 : en:Chapter 10

Скриншоты

         

DED

Post 02-May-2020 13:34

[Quote]

--Шугалей-«Русских не сломить»-- Год выхода: 2020
Страна: Россия
Студия: «Триикс Медиа»
Жанр: детектив, приключения
Продолжительность: 01:40:52
Язык: Русский
Режиссер: Денис Нейманд
В ролях: Кирилл Полухин, Олег Абалян, Сергей Яценюк, Олег Метелев, Вячеслав Аркунов, Мохамед Али Бен Джема, Халед Хуисса, ...-Описание: Российские социологи, Максим Шугалей и его спутник и переводчик Самер Суэйфан, отправляются в страну, разрываемую на части воинствующими группировками, по официальному приглашению. Их задача — проведение исследования, которое должно было бы положить конец боевым действиям. Однако в ходе работы в их руки попадает информация, которая может дорого стоить «марионеточному» правительству и не должна просочиться за пределы Ливии. В результате похищения русские специалисты оказываются в частной тюрьме и больше года, переживая пытки и унижения, ждут хотя бы официального обвинения. Дипломатические попытки мирно решить вопрос заходят в тупик, и российская сторона начинает готовить спасательную операцию.- -Качество видео: HDTVRip 720p
Формат видео: MKV
Видеокодек: H.264
Аудиокодек: AC3
Видео: 1280х536 (2.40:1), 25.000 fps, MPEG-4 AVC, ~3500 kbps avg
Аудио: 48.0 kHz, AC3 Dolby Digital, 2/0 (L,R) ch, ~192.00 kbps avg
Cубтитры: нет
-

Скриншоты:

       
- -

DED

Post 02-May-2020 13:13

[Quote]

--Шугалей-«Русских не сломить»-- Год выхода: 2020
Страна: Россия
Студия: «Триикс Медиа»
Жанр: детектив, приключения
Продолжительность: 01:40:52
Язык: Русский
Режиссер: Денис Нейманд
В ролях: Кирилл Полухин, Олег Абалян, Сергей Яценюк, Олег Метелев, Вячеслав Аркунов, Мохамед Али Бен Джема, Халед Хуисса, ...-Описание: Российские социологи, Максим Шугалей и его спутник и переводчик Самер Суэйфан, отправляются в страну, разрываемую на части воинствующими группировками, по официальному приглашению. Их задача — проведение исследования, которое должно было бы положить конец боевым действиям. Однако в ходе работы в их руки попадает информация, которая может дорого стоить «марионеточному» правительству и не должна просочиться за пределы Ливии. В результате похищения русские специалисты оказываются в частной тюрьме и больше года, переживая пытки и унижения, ждут хотя бы официального обвинения. Дипломатические попытки мирно решить вопрос заходят в тупик, и российская сторона начинает готовить спасательную операцию.- -Качество видео: HDTV 1080p
Формат видео: MKV
Видеокодек: H.264
Аудиокодек: AAC
Видео: 1920x1080 (1.78:1), 25.000 fps, MPEG-4 AVC, ~3310 kbps avg
Аудио: 44.1 kHz, AAC LC, 2/0 (L,R) ch, ~128.00 kbps avg
Cубтитры: нет
-

MediaInfo:

Общее
Уникальный идентификатор : 233195309414912231333658626371162710784 (0xAF6FC86E0DAFEBD3999619688C4FA300)
Полное имя : E:\Downloads\Шугалей.2020.HDTV.1080p.mkv
Формат : Matroska
Версия формата : Version 4
Размер файла : 2,42 Гбайт
Продолжительность : 1 ч. 40 м.
Общий поток : 3 440 Кбит/сек
Название фильма : Шугалей.2020.HDTV.1080p
Дата кодирования : UTC 2020-05-01 20:22:28
Программа кодирования : mkvmerge v8.0.0 ('Til The Day That I Die') 64bit
Библиотека кодирования : libebml v1.3.1 + libmatroska v1.4.2
Видео
Идентификатор : 1
Формат : AVC
Формат/Информация : Advanced Video Codec
Профиль формата : [email protected]
Настройки формата : CABAC / 2 Ref Frames
Параметр CABAC формата : Да
Параметр RefFrames формата : 2 кадра
Идентификатор кодека : V_MPEG4/ISO/AVC
Продолжительность : 1 ч. 40 м.
Битрейт : 3 310 Кбит/сек
Ширина : 1 920 пикселей
Высота : 1 080 пикселей
Соотношение сторон : 16:9
Режим частоты кадров : Постоянный
Частота кадров : 25,000 кадров/сек
Цветовое пространство : YUV
Субдискретизация насыщенности : 4:2:0
Битовая глубина : 8 бит
Тип развёртки : Прогрессивная
Бит/(Пиксели*Кадры) : 0.064
Размер потока : 2,33 Гбайт (96%)
Заголовок : Шугалей.2020
Язык : Russian
Default : Нет
Forced : Нет
Аудио
Идентификатор : 2
Формат : AAC LC
Формат/Информация : Advanced Audio Codec Low Complexity
Идентификатор кодека : A_AAC-2
Продолжительность : 1 ч. 40 м.
Битрейт : 128 Кбит/сек
Каналы : 2 канала
Channel layout : L R
Частота : 44,1 КГц
Частота кадров : 43,066 кадра/сек (1024 SPF)
Метод сжатия : С потерями
Размер потока : 92,4 Мбайт (4%)
Заголовок : Шугалей.2020
Язык : Russian
Default : Да
Forced : Нет
-

Скриншоты:

       
- -
 

The time now is: Today 08:09

All times are GMT + 3 Hours