Today is a free download without charge Download

Search found 500 matches

Author Message

Soldat_5

Post 18-Mar-2020 14:25

[Quote]

Ходячие мертвецы / The Walking Dead (2019) WEB-DLRip
(сезон 10, серии 1-12 из 16) LostFilm

«Fight the dead. Fear the living»
- Производство: США
Жанр: ужасы, мистика, триллер
Режиссер: Эрнест Р. Дикерсон, Билл Джирхарт, Гай Ферленд
Актеры: Эндрю Линкольн, Сара Уэйн Кэллис, Лори Холден, Стивен Юн, Чендлер Риггз, Норман Ридус, Айрон Э. Синглтон, Мелисса Сюзанн МакБрайд, Лорен Коэн, Джон Бернтал и др.
Описание:
Сериал рассказывает историю жизни семьи шерифа после того, как «зомби» — эпидемия апокалипсических масштабов захлестнула земной шар. Шериф Рик Граймс путешествует со своей семьей и небольшой группой выживших в поисках безопасного места для жизни. Но постоянный страх смерти каждый день приносит тяжелые потери, заставляя героев почувствовать глубины человеческой жестокости. Рик пытается спасти свою семью, и открывает для себя, что всепоглощающий страх тех, кто выжил, может быть опаснее бессмысленных мертвецов, бродящих по земле. Сериал является экранизацией одноименной комикс-серии, которая начала выходить в 2003 году...

Возраст: 18+ (зрителям, достигшим 18 лет. запрещено для детей)
Продолжительность: ~00:44:00 серия
Качество видео: WEB-DLRip
Перевод: Многоголосый закадровый, профессиональный - LostFilm
Видео: AVC/H.264, 720x400 (16:9), ~2000 kbps
Аудио: AC3, 2 ch, 384 kbps - русский, многоголосый закадровый

MediaInfo

Полное имя                               : D:\The_Walking_Dead_s10_WEB-DLRip_x264_LostFilm_[NNM-CLUB]\The.Walking.Dead.S10E01.WEB-DLRip.rus.LostFilm.mkv
Формат : Matroska
Версия формата : Version 4 / Version 2
Размер файла : 882 Мбайт
Продолжительность : 51 м.
Общий поток : 2385 Кбит/сек
Дата кодирования : UTC 2019-10-09 15:59:37
Программа кодирования : mkvmerge v6.8.0 ('Theme for Great Cities') 64bit built on Mar 2 2014 21:34:26
Библиотека кодирования : libebml v1.3.0 + libmatroska v1.4.1
Видео
Идентификатор : 1
Формат : AVC
Формат/Информация : Advanced Video Codec
Профиль формата : [url=mailto:[email protected]][email protected][/url]
Параметр CABAC формата : Да
Параметр ReFrames формата : 5 кадров
Идентификатор кодека : V_MPEG4/ISO/AVC
Продолжительность : 51 м.
Битрейт : 2000 Кбит/сек
Ширина : 720 пикселей
Высота : 400 пикселей
Соотношение сторон : 16:9
Режим частоты кадров : Постоянный
Частота кадров : 23,976 кадра/сек
Цветовое пространство : YUV
Субдискретизация насыщенности : 4:2:0
Битовая глубина : 8 бит
Тип развёртки : Прогрессивная
Бит/(Пиксели*Кадры) : 0.290
Размер потока : 723 Мбайт (82%)
Библиотека кодирования : x264 core 146 r2538M 121396c
Настройки программы : cabac=1 / ref=5 / deblock=1:0:0 / analyse=0x3:0x133 / me=hex / subme=7 / psy=1 / psy_rd=1,00:0,20 / mixed_ref=1 / me_range=16 / chroma_me=1 / trellis=1 / 8x8dct=1 / cqm=0 / deadzone=21,11 / fast_pskip=1 / chroma_qp_offset=-3 / threads=20 / lookahead_threads=3 / sliced_threads=0 / nr=0 / decimate=1 / interlaced=0 / bluray_compat=0 / constrained_intra=0 / bframes=0 / weightp=2 / keyint=230 / keyint_min=23 / scenecut=0 / intra_refresh=0 / rc_lookahead=230 / rc=2pass / mbtree=1 / bitrate=2000 / ratetol=1,0 / qcomp=0,60 / qpmin=10 / qpmax=51 / qpstep=4 / cplxblur=20,0 / qblur=0,5 / ip_ratio=1,40 / aq=1:1,00
Default : Да
Forced : Нет
Аудио
Идентификатор : 2
Формат : AC-3
Формат/Информация : Audio Coding 3
Расширение режима : CM (complete main)
Параметр Endianness формата : Big
Идентификатор кодека : A_AC3
Продолжительность : 51 м.
Вид битрейта : Постоянный
Битрейт : 384 Кбит/сек
Каналы : 2 канала
Расположение каналов : Front: L R
Частота : 48,0 КГц
Битовая глубина : 16 бит
Метод сжатия : С потерями
Размер потока : 142 Мбайт (16%)
Заголовок : LostFilm.TV
Язык : Russian
Default : Да
Forced : Нет

Список серий

https://www.imdb.com/title/tt1520211/episodes?season=10&ref_=tt_eps_sn_10
01 - Границы, которые мы пересекли / Lines We Cross
02 - Мы — конец света / We Are the End of the World
03 - Призраки / Ghosts
04 - Заткните Шепчущих / Silence the Whisperers
05 - Как и всегда / What It Always Is
06 - Связи / Bonds
07 - Open Your Eyes / Открой глаза
08 - The World Before / Прежний мир
09 - Тиски / Squeeze
10 - Преследователь / Stalker
11 - Утренняя звезда / Morning Star
12 - Ходи с нами / Walk with Us

Внимание! Раздача ведётся путём добавления новых серий

Внимание! Раздача ведётся путём добавления новых серий; при каждом добавлении создаётся новый торрент.
Чтобы начать докачку новой серии, пользователям необходимо сделать следующее:
1. Остановить скачивание;
2. Удалить старый торрент у себя из клиента (старые серии удалять не надо);
3. Скачать новый торрент и запустить его у себя в клиенте вместо старого, при этом указать клиенту путь в старую папку куда и должно происходить скачивание новых серий. Ваш клиент при этом должен произвести хеширование (проверку) старой папки и будет докачивать только те серии, которых у вас ещё нет. Старые серии при этом не удаляются, а продолжают раздаваться! Eсли вы уже удалили старые серии, то предотвратить повторную закачку старых серий можно, отжав галочку в соответствующих местах при запуске нового торрента.
Скриншоты:
     

DED

Post 08-Mar-2020 13:03

[Quote]

--Касл-Рок / Castle Rock
Сезоны 1–2
-- Год выпуска: 2018–2019
Страна: США
Студия: «Bad Robot, Warner Bros. Pictures»
Жанр: ужасы, триллер, драма
Продолжительность: 20 x ~ 00:55:00
Перевод: Профессиональный многоголосый закадровый [LostFilm]
Режиссер: Эван Голдберг, Сет Роген, Майкл Словис, …
В ролях: Билл Скарсгард, Андре Холланд, Мелани Лински, Джейн Леви, Сисси Спейсек, Лиззи Каплан, Пол Спаркс, Баркхад Абди, Элси Фишер, Тим Роббинс, Терри О’Куинн, Сара Гадон, Ричард Шифф, Кэсседи МакКлинси, Джон Хугенэккер, Марк Харелик, …-Описание: Начальник тюрьмы Шоушенк совершает самоубийство, и после его смерти в закрытом крыле здания находят странного юношу. Никто не знает, кто это, а сам он называет только имя адвоката Генри Дивера, который вырос в Касл-Роке. Дивер возвращается в город, где когда-то трагически погиб его отец, и пытается выяснить историю загадочного заключенного.- -Качество видео: WEB–DLRip | чистый видеоряд |
Формат видео: AVI
Видеокодек: XviD
Аудиокодек: MP3
Видео: 704x352 (2.00:1), 23.976 fps, XviD MPEG-4, ~1500 kbps avg, 0.23 bit/pixel
Аудио #1: [RUS] 48.0 kHz, MPEG Audio Layer 3, 2 ch, ~128.00 kbps avg [MVO – LostFilm]
Аудио #2: [ENG] 48.0 kHz, MPEG Audio Layer 3, 2 ch, ~128.00 kbps avg [Оригинал]
Cубтитры: нет
-

Скриншоты:

       
       
- -

Орлов Владимир

Post 05-Mar-2020 18:12

[Quote]

-- ☦ ☠ Бойтесь ходячих мертвецов / Fear the Walking Dead ☠ ☦ --Сезон:1-5 / Серии: 1-69 из 69--
Информация о фильме
Название: Бойтесь ходячих мертвецов
Оригинальное название: Fear the Walking Dead
Год выхода: 2015-2019
Жанр: Ужасы, фантастика, триллер, драма
Режиссер: Эндрю Бернштейн, Адам Дэвидсон, Кари Скогланд, Дебора Чоу, Дэвид Баррет--В ролях: Ким Диккенс, Клифф Кёртис, Фрэнк Диллэйн, Алисия Дебнем-Кери, Ленни Джеймс, Мэгги Грэйс, Элизабет Родригес, Мерседес Масон, Лоренцо Джеймс Генри, Колман Доминго, Денай Гарсиа, Гаррет Диллахант, Эндрю Линкольн, Мелисса Сюзанн МакБрайд, Дэниэл Шарман, Карен Дэвид, Дюгрей Скотт--О фильме: Действия сериала происходят параллельно с событиями зомби-апокалипсиса, показанными в сериале «Ходячие мертвецы», но в совершенно другом месте — Лос-Анджелесе. Акцент будет сделан на семейные отношения, в частности, проблемы отцов и детей. История вращается вокруг Шона — разведённого школьного учителя и Нэнси руководительницы женского совета. А так же детей Нэнси: Ника, который борется с наркотической зависимостью и амбициозной дочери Эшли.-- --Страна: США
Продолжительность: ~ 00:45:00
Перевод: Профессиональный (многоголосый, закадровый) - LostFilm--Файл
Качество: WEB-DLRip | чистый видеоряд |
Формат: AVI
Видео: 720x400, XviD ~1500 kbps avg, 0.19 bit/pixel
Аудио Rus: 48 kHz, MPEG Layer 3, 2 ch, ~128.00 kbps avg
Аудио Eng: 48 kHz, MPEG Layer 3, 2 ch, ~128.00 kbps avg
Субтитры: нет--

Скриншоты

       

RazBoyNik

Post 28-Feb-2020 13:18

[Quote]

Одинокие родители / Single Parents (2018) WEB-DL [H.264/1080p]
(сезон 1, серии 1-23 из 23)
- Производство: США / Twentieth Century Fox Film Corporation
Жанр: Комедия
Режиссер: Эрин О’Мэлли, Джейсон Уайнер, Кэт Койро
Актеры: Таран Киллэм, Лейтон Мистер, Кимри Льюис-Дэвис, Джейк Чои, Марлоу Барклей, Тайлер Владис, Миа Аллан, Элла Аллан, Девин Трей Кэмпбелл, Брэд Гэррет и др.
Описание:
Уиллу немного за тридцать, и он в одиночку воспитывает прекрасную семилетнюю дочь. Он настолько глубоко погрузился в роль родителя, что совершенно забыл о том, какой он человек. Именно в это время он знакомится с другими героями сериала «Родители-одиночки»: с людьми, которые понимают его, готовы поддержать, помогут найти потерянную идентичность и наладить личную жизнь.

Возраст: 16+ (зрителям, достигшим 16 лет)
Релиз от: v.serij2013
Продолжительность: ~00:22:00 серия
Качество видео: WEB-DL
Перевод: Многоголосый профессиональный (FOX Life)
Субтитры: английские (SDH)
Видео: AVC/H.264, 1920x1080, ~7500 Kbps
Аудио 1: AC3, 2 ch, 192 Kbps - русский
Аудио 2: E-AC3, 6 ch, 640 Kbps - английский

MediaInfo:

General
Unique ID : 161193484894540758871124413255497465583 (0x7944BC668DDF7044002EBABEDA42BEEF)
Complete name : E:\Video\HD\Single.Parents.S01.1080p.AMZN.WEB-DL.Rus.Eng-v.serij2013\Single.Parents.S01E01.Pilot.1080p.AMZN.WEB-DL.Rus.Eng-v.serij2013.mkv
Format : Matroska
Format version : Version 4 / Version 2
File size : 1.28 GiB
Duration : 22mn 4s
Overall bit rate : 8 332 Kbps
Encoded date : UTC 2020-02-04 03:30:48
Writing application : mkvmerge v20.0.0 ('I Am The Sun') 32-bit
Writing library : libebml v1.3.5 + libmatroska v1.4.8
DURATION : 00:22:04.672000000
NUMBER_OF_FRAMES : 41396
NUMBER_OF_BYTES : 31792128
_STATISTICS_WRITING_APP : mkvmerge v20.0.0 ('I Am The Sun') 32-bit
_STATISTICS_WRITING_DATE_UTC : 2020-02-04 03:30:48
_STATISTICS_TAGS : BPS DURATION NUMBER_OF_FRAMES NUMBER_OF_BYTES
Video
ID : 1
Format : AVC
Format/Info : Advanced Video Codec
Format profile : [url=mailto:[email protected]][email protected][/url]
Format settings, CABAC : Yes
Format settings, ReFrames : 4 frames
Codec ID : V_MPEG4/ISO/AVC
Duration : 22mn 4s
Bit rate : 7 334 Kbps
Width : 1 920 pixels
Height : 1 080 pixels
Display aspect ratio : 16:9
Frame rate mode : Constant
Frame rate : 23.976 fps
Color space : YUV
Chroma subsampling : 4:2:0
Bit depth : 8 bits
Scan type : Progressive
Bits/(Pixel*Frame) : 0.148
Stream size : 1.13 GiB (88%)
Language : English
Default : Yes
Forced : No
Color primaries : BT.709
Transfer characteristics : BT.709
Matrix coefficients : BT.709
Color range : Limited
Audio #1
ID : 2
Format : AC-3
Format/Info : Audio Coding 3
Mode extension : CM (complete main)
Format settings, Endianness : Big
Codec ID : A_AC3
Duration : 22mn 4s
Bit rate mode : Constant
Bit rate : 192 Kbps
Channel(s) : 2 channels
Channel positions : Front: L R
Sampling rate : 48.0 KHz
Bit depth : 16 bits
Compression mode : Lossy
Stream size : 30.3 MiB (2%)
Title : MVO (FOX Life)
Language : Russian
Default : Yes
Forced : No
Audio #2
ID : 3
Format : E-AC-3
Format/Info : Audio Coding 3
Format settings, Endianness : Big
Codec ID : A_EAC3
Duration : 22mn 4s
Bit rate mode : Constant
Bit rate : 640 Kbps
Channel(s) : 6 channels
Channel positions : Front: L C R, Side: L R, LFE
Sampling rate : 48.0 KHz
Compression mode : Lossy
Stream size : 101 MiB (8%)
Title : Original
Language : English
Default : No
Forced : No
Text
ID : 4
Format : UTF-8
Codec ID : S_TEXT/UTF8
Codec ID/Info : UTF-8 Plain Text
Title : Full (SDH)
Language : English
Default : No
Forced : No
Скриншоты:
       

RazBoyNik

Post 28-Feb-2020 13:16

[Quote]

Одинокие родители / Single Parents (2018) WEB-DL [H.264/720p-LQ]
(сезон 1, серии 1-23 из 23)
- Производство: США / Twentieth Century Fox Film Corporation
Жанр: Комедия
Режиссер: Эрин О’Мэлли, Джейсон Уайнер, Кэт Койро
Актеры: Таран Киллэм, Лейтон Мистер, Кимри Льюис-Дэвис, Джейк Чои, Марлоу Барклей, Тайлер Владис, Миа Аллан, Элла Аллан, Девин Трей Кэмпбелл, Брэд Гэррет и др.
Описание:
Уиллу немного за тридцать, и он в одиночку воспитывает прекрасную семилетнюю дочь. Он настолько глубоко погрузился в роль родителя, что совершенно забыл о том, какой он человек. Именно в это время он знакомится с другими героями сериала «Родители-одиночки»: с людьми, которые понимают его, готовы поддержать, помогут найти потерянную идентичность и наладить личную жизнь.

Возраст: 16+ (зрителям, достигшим 16 лет)
Релиз от: v.serij2013
Продолжительность: ~00:22:00 серия
Качество видео: WEB-DL
Перевод: Многоголосый профессиональный (FOX Life)
Субтитры: английские (SDH)
Видео: AVC/H.264, 1280x720, ~2300 Kbps
Аудио 1: AC3, 2 ch, 192 Kbps - русский
Аудио 2: E-AC3, 6 ch, 640 Kbps - английский

MediaInfo:

General
Unique ID : 113773248165474866471413298426073061548 (0x5597EE389AA121D8C633FE0C448C18AC)
Complete name : E:\Video\HD\Single.Parents.S01.720p.AMZN.WEB-DL.Rus.Eng-v.serij2013\Single.Parents.S01E01.Pilot.720p.AMZN.WEB-DL.Rus.Eng-v.serij2013.mkv
Format : Matroska
Format version : Version 4 / Version 2
File size : 503 MiB
Duration : 22mn 4s
Overall bit rate : 3 188 Kbps
Encoded date : UTC 2020-02-04 06:46:43
Writing application : mkvmerge v20.0.0 ('I Am The Sun') 32-bit
Writing library : libebml v1.3.5 + libmatroska v1.4.8
DURATION : 00:22:04.672000000
NUMBER_OF_FRAMES : 41396
NUMBER_OF_BYTES : 31792128
_STATISTICS_WRITING_APP : mkvmerge v20.0.0 ('I Am The Sun') 32-bit
_STATISTICS_WRITING_DATE_UTC : 2020-02-04 06:46:43
_STATISTICS_TAGS : BPS DURATION NUMBER_OF_FRAMES NUMBER_OF_BYTES
Video
ID : 1
Format : AVC
Format/Info : Advanced Video Codec
Format profile : [url=mailto:[email protected]][email protected][/url]
Format settings, CABAC : Yes
Format settings, ReFrames : 5 frames
Codec ID : V_MPEG4/ISO/AVC
Duration : 22mn 4s
Bit rate : 2 292 Kbps
Width : 1 280 pixels
Height : 720 pixels
Display aspect ratio : 16:9
Frame rate mode : Constant
Frame rate : 23.976 fps
Color space : YUV
Chroma subsampling : 4:2:0
Bit depth : 8 bits
Scan type : Progressive
Bits/(Pixel*Frame) : 0.104
Stream size : 362 MiB (72%)
Language : English
Default : Yes
Forced : No
Color primaries : BT.709
Transfer characteristics : BT.709
Matrix coefficients : BT.709
Color range : Limited
Audio #1
ID : 2
Format : AC-3
Format/Info : Audio Coding 3
Mode extension : CM (complete main)
Format settings, Endianness : Big
Codec ID : A_AC3
Duration : 22mn 4s
Bit rate mode : Constant
Bit rate : 192 Kbps
Channel(s) : 2 channels
Channel positions : Front: L R
Sampling rate : 48.0 KHz
Bit depth : 16 bits
Compression mode : Lossy
Stream size : 30.3 MiB (6%)
Title : MVO (FOX Life)
Language : Russian
Default : Yes
Forced : No
Audio #2
ID : 3
Format : E-AC-3
Format/Info : Audio Coding 3
Format settings, Endianness : Big
Codec ID : A_EAC3
Duration : 22mn 4s
Bit rate mode : Constant
Bit rate : 640 Kbps
Channel(s) : 6 channels
Channel positions : Front: L C R, Side: L R, LFE
Sampling rate : 48.0 KHz
Compression mode : Lossy
Stream size : 101 MiB (20%)
Title : Original
Language : English
Default : No
Forced : No
Text
ID : 4
Format : UTF-8
Codec ID : S_TEXT/UTF8
Codec ID/Info : UTF-8 Plain Text
Title : Full (SDH)
Language : English
Default : No
Forced : No
Скриншоты:
       

RazBoyNik

Post 18-Feb-2020 14:22

[Quote]

Барри / Barry (2018-2019) WEB-DLRip (сезон 1-2, серии 1-16 из 16)- Год: 2018-2019
Производство: США | Alec Berg Productions, Hanarply
Жанр: боевик, драма, комедия, криминал
Режиссер: Билл Хейдер, Алек Берг, Хиро Мурай
Актеры: Билл Хейдер, Стивен Рут, Сара Голдберг, Гленн Флешлер, Генри Уинклер, Энтони Кэрриган, Даррел Бритт-Гибсон, Энди Кэри, Алехандро Ферт, Кирби Хауэлл-Баптисте и др.
Описание:
Барри — бывший морпех со Среднего Запада, а ныне никудышный киллер. Одинокий и неприкаянный однажды он отправляется на заказ в Лос-Анджелес, где по воле случая оказывается на курсах актерского мастерства. Вдохновившись творческой атмосферой, Барри немедленно решает стать актёром и начать новую жизнь.

Возраст: 18+ (зрителям, достигшим 18 лет. запрещено для детей)
Продолжительность: ~00:30:00 серия
Качество видео: WEB-DLRip
Перевод: Многоголосый профессиональный (Amedia)
Субтитры: Отсутствуют
Видео: Xvid, 720x400 (16:9), ~1500 kbps
Аудио 1: MP3, 2 ch, 128 kbps - русский
Аудио 2: MP3, 2 ch, 128 kbps - английский

MediaInfo:

General
Complete name : D:\Barry\Season 1\Barry.s01e07.avi
Format : AVI
Format/Info : Audio Video Interleave
File size : 428 MiB
Duration : 33 min 39 s
Overall bit rate : 1 778 kb/s
Writing application : VirtualDubMod 1.5.10.2 (build 2540/release)
Writing library : VirtualDubMod build 2540/release
Video
ID : 0
Format : MPEG-4 Visual
Format profile : Advanced [email protected]
Format settings : BVOP2 / Custom Matrix
Format settings, BVOP : 2
Format settings, QPel : No
Format settings, GMC : No warppoints
Format settings, Matrix : Custom
Codec ID : XVID
Codec ID/Hint : XviD
Duration : 33 min 39 s
Bit rate : 1 508 kb/s
Width : 720 pixels
Height : 400 pixels
Display aspect ratio : 16:9
Frame rate : 23.976 (24000/1001) FPS
Color space : YUV
Chroma subsampling : 4:2:0
Bit depth : 8 bits
Scan type : Progressive
Compression mode : Lossy
Bits/(Pixel*Frame) : 0.218
Stream size : 363 MiB (85%)
Writing library : XviD 73
Audio #1
ID : 1
Format : MPEG Audio
Format version : Version 1
Format profile : Layer 3
Format settings : Joint stereo
Codec ID : 55
Codec ID/Hint : MP3
Duration : 33 min 39 s
Bit rate mode : Constant
Bit rate : 128 kb/s
Channel(s) : 2 channels
Sampling rate : 48.0 kHz
Compression mode : Lossy
Stream size : 30.8 MiB (7%)
Alignment : Split accross interleaves
Interleave, duration : 42 ms (1.00 video frame)
Interleave, preload duratio : 500 ms
Audio #2
ID : 2
Format : MPEG Audio
Format version : Version 1
Format profile : Layer 3
Format settings : Joint stereo
Codec ID : 55
Codec ID/Hint : MP3
Duration : 33 min 39 s
Bit rate mode : Constant
Bit rate : 128 kb/s
Channel(s) : 2 channels
Sampling rate : 48.0 kHz
Compression mode : Lossy
Stream size : 30.8 MiB (7%)
Alignment : Split accross interleaves
Interleave, duration : 42 ms (1.00 video frame)
Interleave, preload duratio : 500 ms-General
Complete name : D:\Barry\Season 2\Barry.s02e07.avi
Format : AVI
Format/Info : Audio Video Interleave
File size : 364 MiB
Duration : 28 min 33 s
Overall bit rate : 1 784 kb/s
Writing application : VirtualDubMod 1.5.10.2 (build 2540/release)
Writing library : VirtualDubMod build 2540/release
Video
ID : 0
Format : MPEG-4 Visual
Format profile : Advanced [email protected]
Format settings : BVOP2 / Custom Matrix
Format settings, BVOP : 2
Format settings, QPel : No
Format settings, GMC : No warppoints
Format settings, Matrix : Custom
Codec ID : XVID
Codec ID/Hint : XviD
Duration : 28 min 33 s
Bit rate : 1 514 kb/s
Width : 720 pixels
Height : 400 pixels
Display aspect ratio : 16:9
Frame rate : 23.976 (24000/1001) FPS
Color space : YUV
Chroma subsampling : 4:2:0
Bit depth : 8 bits
Scan type : Progressive
Compression mode : Lossy
Bits/(Pixel*Frame) : 0.219
Stream size : 309 MiB (85%)
Writing library : XviD 73
Audio #1
ID : 1
Format : MPEG Audio
Format version : Version 1
Format profile : Layer 3
Format settings : Joint stereo / MS Stereo
Codec ID : 55
Codec ID/Hint : MP3
Duration : 28 min 33 s
Bit rate mode : Constant
Bit rate : 128 kb/s
Channel(s) : 2 channels
Sampling rate : 48.0 kHz
Compression mode : Lossy
Stream size : 26.1 MiB (7%)
Alignment : Split accross interleaves
Interleave, duration : 42 ms (1.00 video frame)
Interleave, preload duratio : 500 ms
Audio #2
ID : 2
Format : MPEG Audio
Format version : Version 1
Format profile : Layer 3
Format settings : Joint stereo / MS Stereo
Codec ID : 55
Codec ID/Hint : MP3
Duration : 28 min 33 s
Bit rate mode : Constant
Bit rate : 128 kb/s
Channel(s) : 2 channels
Sampling rate : 48.0 kHz
Compression mode : Lossy
Stream size : 26.1 MiB (7%)
Alignment : Split accross interleaves
Interleave, duration : 42 ms (1.00 video frame)
Interleave, preload duratio : 500 ms
Скриншоты:
       

RazBoyNik

Post 17-Feb-2020 13:31

[Quote]

Авеню 5 / Avenue 5 (2020) WEB-DL [H.264/1080p] «Новый уровень роскоши. Космос»- Год: 2020
Производство: США / HBO
Жанр: фантастика, комедия
Режиссер: Натали Бэйли, Армандо Ианнуччи, Бекки Мартин
Актеры: Хью Лори, Зак Вудс, Джош Гад, Пепе Бэлдеррама, Sacharissa Claxton, Раффаэлло Дегруттола, Theresa Godly, Келли Кофлин, Сьюзи Накамура, Ребекка Фронт
Описание:
В мире будущего главным туристическим направлением стал космос и наша Солнечная система. Один из пассажиров — начинающий комик, которому предоставляется шанс показать всем, что он «самый смешной человек во Вселенной». Он отправляется в восьминедельный полёт на борту роскошного космического лайнера «Галактика Джадда», хотя и понимает, что совершенно не готов к длительному путешествию.

Дата мировой премьеры: 19 января 2020
Дата премьеры в России: 20 января 2020
Продолжительность: ~00:30:00 серия
Качество видео: WEB-DL
Перевод: Многоголосый профессиональный (Кравец по заказу Amedia)
Субтитры: русские, английские
Видео: AVC/H.264, 1920x1080 (16:9), ~8970 Kbps
Аудио: AC3, 2 ch, 192 Kbps, AC3, 6 ch, 384 Kbps - русский
Аудио: E-AC-3, 6 ch, 640 Kbps - английский

MediaInfo:

Общее
Уникальный идентификатор : 198038622647572495756718183375309457378 (0x94FCD9F21678EA9759DAA202E79947E2)
Полное имя : G:\Avenue.5.S01.1080p\Avenue.5.S01E01.1080p.mkv
Формат : Matroska
Версия формата : Version 4
Размер файла : 1,95 Гбайт
Продолжительность : 28 м. 29 с.
Общий поток : 9804 Кбит/сек
Название фильма : Avenue 5 S01E01 - EniaHD
Дата кодирования : UTC 2020-01-20 05:03:01
Программа кодирования : mkvmerge v42.0.0 ('Overtime') 64-bit
Библиотека кодирования : libebml v1.3.10 + libmatroska v1.5.2
Видео
Идентификатор : 1
Формат : AVC
Формат/Информация : Advanced Video Codec
Профиль формата : [email protected]
Настройки формата : CABAC / 4 Ref Frames
Параметр CABAC формата : Да
Параметр RefFrames формата : 4 кадра
Идентификатор кодека : V_MPEG4/ISO/AVC
Продолжительность : 28 м. 29 с.
Вид битрейта : Постоянный
Битрейт : 8969 Кбит/сек
Номинальный битрейт : 10000 Кбит/сек
Ширина : 1920 пикселей
Высота : 1080 пикселей
Соотношение сторон : 16:9
Режим частоты кадров : Постоянный
Частота кадров : 23,976 (24000/1001) кадра/сек
Цветовое пространство : YUV
Субдискретизация насыщенности : 4:2:0
Битовая глубина : 8 бит
Тип развёртки : Прогрессивная
Бит/(Пиксели*Кадры) : 0.180
Размер потока : 1,79 Гбайт (91%)
Default : Да
Forced : Нет
Цветовой диапазон : Limited
Основные цвета : BT.709
Характеристики трансфера : BT.709
Коэффициенты матрицы : BT.709
Аудио #1
Идентификатор : 2
Формат : AC-3
Формат/Информация : Audio Coding 3
Коммерческое название : Dolby Digital
Идентификатор кодека : A_AC3
Продолжительность : 28 м. 29 с.
Вид битрейта : Постоянный
Битрейт : 192 Кбит/сек
Каналы : 2 канала
ChannelLayout : L R
Частота : 48,0 КГц
Частота кадров : 31,250 кадров/сек (1536 SPF)
Метод сжатия : С потерями
Размер потока : 39,1 Мбайт (2%)
Язык : Russian
ServiceKind/String : Complete Main
Default : Да
Forced : Нет
Аудио #2
Идентификатор : 3
Формат : E-AC-3
Формат/Информация : Enhanced AC-3
Коммерческое название : Dolby Digital Plus
Идентификатор кодека : A_EAC3
Продолжительность : 28 м. 29 с.
Вид битрейта : Постоянный
Битрейт : 640 Кбит/сек
Каналы : 6 каналов
ChannelLayout : L R C LFE Ls Rs
Частота : 48,0 КГц
Частота кадров : 31,250 кадров/сек (1536 SPF)
Метод сжатия : С потерями
Размер потока : 130 Мбайт (7%)
Язык : English
ServiceKind/String : Complete Main
Default : Нет
Forced : Нет
Текст #1
Идентификатор : 4
Формат : UTF-8
Идентификатор кодека : S_TEXT/UTF8
Идентификатор кодека/Информация : UTF-8 Plain Text
Продолжительность : 27 м. 6 с.
Битрейт : 179 бит/сек
ElementCount : 485
Размер потока : 35,7 Кбайт (0%)
Язык : Russian
Default : Нет
Forced : Нет
Текст #2
Идентификатор : 5
Формат : UTF-8
Идентификатор кодека : S_TEXT/UTF8
Идентификатор кодека/Информация : UTF-8 Plain Text
Продолжительность : 27 м. 23 с.
Битрейт : 124 бит/сек
ElementCount : 749
Размер потока : 24,9 Кбайт (0%)
Заголовок : SDH
Язык : English
Default : Нет
Forced : Нет
Скриншоты:
       

Орлов Владимир

Post 07-Feb-2020 18:00

[Quote]

--Замок и ключ / Ключи Локков / Locke & Key--
Информация о фильме
Название: Замок и ключ / Ключи Локков
Оригинальное название: Locke & Key
Год выхода: 2020
Жанр: ужасы, фэнтези, триллер, драма
Режиссер: Майкл Моррис, Винченцо Натали, Тим Соутэм--В ролях: Кевин Алвес, Томас Митчелл Барнет, Коби Бёрд, Ашанти Бромфилд, Лайсла Де Оливейра, Гриффин Глюк, Эрик Грэйз, Коннор Джессап--О фильме: Овдовевшая женщина с тремя детьми переезжает в фамильное имение Дом Ключей в городке Лавкрафт. Семья надеется начать жизнь заново, оставив в прошлом недавние трагические происшествия — отец семейства был жестоко убит. Но особняк скрывает в своих стенах некие ключи и чудовище, которое за ними охотится.-- --Страна: США
Студия: Take 5 Productions
Продолжительность: ~00:55:00 серия
Перевод: Профессиональный (дублированный) Пифагор по заказу Netflix--Файл
Качество: WEB-DL 1080p
Формат: Matroska
Видео: 1920х1080 at 23.976 fps, MPEG-4 AVC, ~5000 kbps avg
Аудио#1: Russian: 48 kHz, Е-AC3, 3/2 (L,C,R,l,r) + LFE ch, ~640 kbps avg |Дубляж, Пифагор по заказу Netflix|
Аудио#2: English: 48 kHz, E-АС3 JOC, 3/2 (L,C,R,l,r) + LFE ch, ~768 kbps avg
Субтитры: Russian (Forced, Full), English и другие--***Примечание: Без рекламы
***Релиз: [email protected]--

Список серий

01. Добро пожаловать в Мэтисон | Welcome to Matheson
02. Ловец / Хранитель | Trapper / Keeper
03. Игры разума | Head Games
04. Хранители Ключей | The Keepers of the Keys
05. Семейное древо | Family Tree
06. Чёрная дверь | The Black Door
07. Вскрытие | Dissection
08. Лучик чёртового солнечного света | Ray of F*ing Sunshine
09. Отголоски | Echoes
10. Корона Теней | Crown of Shadows

Скриншоты

       

Soldat_5

Post 25-Jan-2020 17:56

[Quote]

Половое воспитание / Sex Education (2020) WEBRip (сезон 2, серии 1-2 из 8)
«Experience is overrated»
- Производство: США, Великобритания
Жанр: драма, комедия
Режиссер: Кейт Херрон, Бен Тэйлор, Софи Гудхарт
Актеры: Эйса Баттерфилд, Джиллиан Андерсон, Ншути Гатва, Эмма Маккей, Коннор Суинделлс, Кедар Уильямс-Стирлинг, Алистэр Петри, Эйми Лу Вуд, Симон Эшли, Мими Кин и др.
Описание:
Продолжение популярной британской молодежной комедии.
В новом сезоне появляются темнокожая талантливая ученица Вив, которой катастрофически не везет в любви, парень-колясочник Айзек и француз Рахим, он производит настоящий фурор в школе.

Продолжительность: ~00:55:00 серия
Качество видео: WEBRip
Перевод: Многоголосый, профессиональный - LostFilm
Субтитры: русские, английские
Видео: XviD, 720x360, ~1469 kbps
Аудио 1: MP3, 2 ch, 128 kbps — русский
Аудио 2: MP3, 2 ch, 128 kbps — английский

MediaInfo

Общее
Полное имя : D:\Половое воспитание (сезон 2) Sex Education (2020) WEBRip - LostFilm\Sex.Education.S02E01.WEBRip.Rus.Eng.DV.LostFilm.avi
Формат : AVI
Формат/Информация : Audio Video Interleave
Размер файла : 638 Мбайт
Продолжительность : 51 м. 16 с.
Общий поток : 1739 Кбит/сек
Название фильма : Sex.Education.S02E01.WEBRip.Rus.Eng.DV.LostFilm / NNM-Club
Программа кодирования : VirtualDubModRus 1.5.10.2 (build 2542/release)
Библиотека кодирования : VirtualDubMod build 2542/release
Видео
Идентификатор : 0
Формат : MPEG-4 Visual
Профиль формата : Advanced [email protected]
Настройки формата : BVOP2
Параметр BVOP формата : 2
Параметр QPel формата : Нет
Параметр GMC формата : Без точки перехода
Параметр матрицы формата : Default (H.263)
Идентификатор кодека : XVID
Идентификатор кодека/Подсказка : XviD
Продолжительность : 51 м. 16 с.
Битрейт : 1469 Кбит/сек
Ширина : 720 пикселей
Высота : 360 пикселей
Соотношение сторон : 2,000
Частота кадров : 25,000 кадров/сек
Цветовое пространство : YUV
Субдискретизация насыщенности : 4:2:0
Битовая глубина : 8 бит
Тип развёртки : Прогрессивная
Метод сжатия : С потерями
Бит/(Пиксели*Кадры) : 0.227
Размер потока : 539 Мбайт (84%)
Заголовок : Rip from DriverV for NNM-Club
Библиотека кодирования : XviD 64
Аудио #1
Идентификатор : 1
Формат : MPEG Audio
Версия формата : Version 1
Профиль формата : Layer 3
Настройки формата : Joint stereo / MS Stereo
Идентификатор кодека : 55
Идентификатор кодека/Подсказка : MP3
Продолжительность : 51 м. 16 с.
Вид битрейта : Постоянный
Битрейт : 128 Кбит/сек
Каналы : 2 канала
Частота : 48,0 КГц
Метод сжатия : С потерями
Размер потока : 46,9 Мбайт (7%)
Выравнивание : Соединение по промежуткам
Продолжительность промежутка : 40 мс. (1,00 видеокадр)
Время предзагрузки промежутка : 504 мс.
Аудио #2
Идентификатор : 2
Формат : MPEG Audio
Версия формата : Version 1
Профиль формата : Layer 3
Настройки формата : Joint stereo / MS Stereo
Идентификатор кодека : 55
Идентификатор кодека/Подсказка : MP3
Продолжительность : 51 м. 16 с.
Вид битрейта : Постоянный
Битрейт : 128 Кбит/сек
Каналы : 2 канала
Частота : 48,0 КГц
Метод сжатия : С потерями
Размер потока : 46,9 Мбайт (7%)
Выравнивание : Соединение по промежуткам
Продолжительность промежутка : 40 мс. (1,00 видеокадр)
Время предзагрузки промежутка : 504 мс.

Дополнительная информация

"Чистый" кадр. Вступительная заставка и логотип LostFilm отсутствуют.
Скриншоты:
       

mayor

Post 13-Jan-2020 18:37

[Quote]

-Преступник: Испания / Criminal: Spain (сезон 1, серии 1-3 из 3)- Производство: Великобритания, Франция, Германия, Испания / Idiotlamp Productions
Жанр: драма, криминал
Режиссер: Мариано Барросо, Джим Филд Смит
Актеры: Эмма Суарес, Хорхе Бош, Альваро Сервантес, Мария Моралес, Хосе Анхель Эхидо, Дэниэл Чаморро, Хавьер Коль, Нурия Менсия, Мило Табоада, Инма Куэста и др.
Описание:
Сериал является антологией, сюжеты разных эпизодов не связаны между собой. Шоу разделено на четыре независимые части. Действие разворачивается в четырех европейских странах: Англии, Германии, Франции и Испании.
Сразу нужно оговориться, что "Преступник" — необычный сериал. Место действие здесь крайне ограничено. Все страсти кипят в полицейской комнате для допросов и соседнем помещении, откуда другие сыщики наблюдают за разговором через специальное стекло. Таким образом повествование сводится не столько к каким-то событиям, сколько к психологическому поединку между полицейским и подозреваемым. Сами создатели описывают это как своеобразную игру в кошки-мышки.

Дата мировой премьеры: 20 сентября 2019
Продолжительность: ~00:40:00 серия
Качество видео: WEBRip [http://sendfile.su/1540030]
Перевод: Многоголосый, профессиональный - LostFilm
Субтитры: русские, английские
Видео: XviD, 720x400 (16:9), ~1461 kbps
Аудио 1: MP3, 2 ch, 128 kbps — русский
Аудио 2: MP3, 2 ch, 128 kbps — испанский

Доп.Информация:

Общее
Полное имя : D:\Преступник (сезон 1) Criminal Spain (2019) WEBRip - LostFilm\Criminal.Spain.S01E01.WEBRip.Rus.Spa.DV.LostFilm.avi
Формат : AVI
Формат/Информация : Audio Video Interleave
Размер файла : 496 Мбайт
Продолжительность : 40 м. 2 с.
Общий поток : 1732 Кбит/сек
Название фильма : Criminal.Spain.S01E01.WEBRip.Rus.Spa.DV.LostFilm / NNM-Club
Программа кодирования : VirtualDubModRus 1.5.10.2 (build 2542/release)
Библиотека кодирования : VirtualDubMod build 2542/release
Видео
Идентификатор : 0
Формат : MPEG-4 Visual
Профиль формата : Advanced [email protected]
Настройки формата : BVOP2
Параметр BVOP формата : 2
Параметр QPel формата : Нет
Параметр GMC формата : Без точки перехода
Параметр матрицы формата : Default (H.263)
Идентификатор кодека : XVID
Идентификатор кодека/Подсказка : XviD
Продолжительность : 40 м. 2 с.
Битрейт : 1461 Кбит/сек
Ширина : 720 пикселей
Высота : 400 пикселей
Соотношение сторон : 16:9
Частота кадров : 25,000 кадров/сек
Цветовое пространство : YUV
Субдискретизация насыщенности : 4:2:0
Битовая глубина : 8 бит
Тип развёртки : Прогрессивная
Метод сжатия : С потерями
Бит/(Пиксели*Кадры) : 0.203
Размер потока : 418 Мбайт (84%)
Заголовок : Rip from DriverV for NNM-Club
Библиотека кодирования : XviD 64
Аудио #1
Идентификатор : 1
Формат : MPEG Audio
Версия формата : Version 1
Профиль формата : Layer 3
Настройки формата : Joint stereo / MS Stereo
Идентификатор кодека : 55
Идентификатор кодека/Подсказка : MP3
Продолжительность : 40 м. 2 с.
Вид битрейта : Постоянный
Битрейт : 128 Кбит/сек
Каналы : 2 канала
Частота : 48,0 КГц
Метод сжатия : С потерями
Размер потока : 36,7 Мбайт (7%)
Выравнивание : Соединение по промежуткам
Продолжительность промежутка : 40 мс. (1,00 видеокадр)
Время предзагрузки промежутка : 504 мс.
Аудио #2
Идентификатор : 2
Формат : MPEG Audio
Версия формата : Version 1
Профиль формата : Layer 3
Настройки формата : Joint stereo / MS Stereo
Идентификатор кодека : 55
Идентификатор кодека/Подсказка : MP3
Продолжительность : 40 м. 2 с.
Вид битрейта : Постоянный
Битрейт : 128 Кбит/сек
Каналы : 2 канала
Частота : 48,0 КГц
Метод сжатия : С потерями
Размер потока : 36,7 Мбайт (7%)
Выравнивание : Соединение по промежуткам
Продолжительность промежутка : 40 мс. (1,00 видеокадр)
Время предзагрузки промежутка : 504 мс.

Список серий

01. Isabel / Исабель
02. Carmen / Кармен
03. Carmelo / Кармело

Дополнительная информация

"Чистый" кадр. Вступительная заставка и логотип LostFilm отсутствуют.
Скриншоты:
       

mayor

Post 11-Jan-2020 09:02

[Quote]

- Политик / The Politician (сезон 1, серии 1-8 из 8) - Производство: США / Ryan Murphy Productions
Жанр: комедия
Режиссер: Брэд Фалчук, Гвинет Хердер-Пэйтон, Иэн Бреннан
Актеры: Бен Платт, Зои Дойч, Люси Бойнтон, Боб Бэлабан, Дэвид Коренсвет, Джулия Шлэпфер, Лора Дрейфус, Тео Джермейн, Ране Джонс, Бен Баррет
Описание:
Молодой амбициозный политик из Санта-Барбары мечтает пробиться на вершину политического Олимпа.

Продолжительность: ~00:46:00 серия, первая серия ~01:00:00
Качество видео: WEB-DLRip [thumb]http://sendfile.su/1540594[/thumb]
Перевод: Дублированный (Пифагор)
Субтитры: русские (форс., полные), английские (SDH)
Видео: AVC/H.264, 1920x1080 (16:9), ~4420 Kbps
Аудио #1: E-AC3, 6 ch, 640 Kbps - русский
Аудио #2: E-AC3, 6 ch, 640 Kbps - английский

Доп.Информация:

Общее
Уникальный идентификатор : 226023500307922374298432761985062518704 (0xAA0A8AF0DDB6AB3A8E94275AB219BFB0)
Полное имя : F:\The PoliticianS01 (2019)\ThePoliticianS01E01.mkv
Формат : Matroska
Версия формата : Version 4
Размер файла : 2,43 Гбайт
Продолжительность : 1 ч. 2 м.
Режим общего битрейта : Переменный
Общий поток : 5580 Кбит/сек
Дата кодирования : UTC 2019-09-27 10:46:49
Программа кодирования : mkvmerge v9.5.0 ('Quiet Fire') 64bit
Библиотека кодирования : libebml v1.3.4 + libmatroska v1.4.5
Видео
Идентификатор : 1
Формат : AVC
Формат/Информация : Advanced Video Codec
Профиль формата : [email protected]
Настройки формата : CABAC / 3 Ref Frames
Параметр CABAC формата : Да
Параметр RefFrames формата : 3 кадра
Идентификатор кодека : V_MPEG4/ISO/AVC
Продолжительность : 1 ч. 2 м.
Вид битрейта : Переменный
Битрейт : 4420 Кбит/сек
Максимальный битрейт : 6630 Кбит/сек
Ширина : 1920 пикселей
Высота : 1080 пикселей
Соотношение сторон : 16:9
Режим частоты кадров : Постоянный
Частота кадров : 23,976 (24000/1001) кадра/сек
Цветовое пространство : YUV
Субдискретизация насыщенности : 4:2:0
Битовая глубина : 8 бит
Тип развёртки : Прогрессивная
Бит/(Пиксели*Кадры) : 0.089
Размер потока : 1,87 Гбайт (77%)
Библиотека кодирования : x264 core 148 r2715 7e75228
Настройки программы : cabac=1 / ref=3 / deblock=1:0:0 / analyse=0x1:0x111 / me=umh / subme=10 / psy=1 / psy_rd=1.00:0.00 / mixed_ref=1 / me_range=24 / chroma_me=1 / trellis=2 / 8x8dct=0 / cqm=0 / deadzone=21,11 / fast_pskip=1 / chroma_qp_offset=-2 / threads=8 / lookahead_threads=1 / sliced_threads=0 / nr=0 / decimate=1 / interlaced=0 / bluray_compat=0 / stitchable=1 / constrained_intra=0 / bframes=2 / b_pyramid=0 / b_adapt=2 / b_bias=0 / direct=3 / weightb=1 / open_gop=0 / weightp=2 / keyint=48 / keyint_min=25 / scenecut=0 / intra_refresh=0 / rc_lookahead=48 / rc=2pass / mbtree=1 / bitrate=4420 / ratetol=1.0 / qcomp=0.50 / qpmin=6 / qpmax=51 / qpstep=4 / cplxblur=20.0 / qblur=0.5 / vbv_maxrate=6630 / vbv_bufsize=8840 / nal_hrd=vbr / filler=0 / ip_ratio=1.40 / aq=1:1.00
Язык : English
Default : Да
Forced : Нет
Аудио #1
Идентификатор : 2
Формат : E-AC-3
Формат/Информация : Enhanced AC-3
Коммерческое название : Dolby Digital Plus
Идентификатор кодека : A_EAC3
Продолжительность : 1 ч. 2 м.
Вид битрейта : Постоянный
Битрейт : 640 Кбит/сек
Каналы : 6 каналов
ChannelLayout : L R C LFE Ls Rs
Частота : 48,0 КГц
Частота кадров : 31,250 кадров/сек (1536 SPF)
Метод сжатия : С потерями
Размер потока : 286 Мбайт (11%)
Заголовок : rus
Язык : Russian
ServiceKind/String : Complete Main
Default : Да
Forced : Нет
Аудио #2
Идентификатор : 3
Формат : E-AC-3
Формат/Информация : Enhanced AC-3
Коммерческое название : Dolby Digital Plus
Идентификатор кодека : A_EAC3
Продолжительность : 1 ч. 2 м.
Вид битрейта : Постоянный
Битрейт : 640 Кбит/сек
Каналы : 6 каналов
ChannelLayout : L R C LFE Ls Rs
Частота : 48,0 КГц
Частота кадров : 31,250 кадров/сек (1536 SPF)
Метод сжатия : С потерями
Размер потока : 286 Мбайт (11%)
Заголовок : eng
Язык : English
ServiceKind/String : Complete Main
Default : Нет
Forced : Нет
Текст #1
Идентификатор : 4
Формат : UTF-8
Идентификатор кодека : S_TEXT/UTF8
Идентификатор кодека/Информация : UTF-8 Plain Text
Продолжительность : 50 м. 42 с.
Битрейт : 6 бит/сек
ElementCount : 44
Размер потока : 2,39 Кбайт (0%)
Заголовок : rusForced
Язык : Russian
Default : Да
Forced : Да
Текст #2
Идентификатор : 5
Формат : UTF-8
Идентификатор кодека : S_TEXT/UTF8
Идентификатор кодека/Информация : UTF-8 Plain Text
Продолжительность : 1 ч. 1 м.
Битрейт : 105 бит/сек
ElementCount : 865
Размер потока : 47,7 Кбайт (0%)
Заголовок : rusFull
Язык : Russian
Default : Нет
Forced : Нет
Текст #3
Идентификатор : 6
Формат : UTF-8
Идентификатор кодека : S_TEXT/UTF8
Идентификатор кодека/Информация : UTF-8 Plain Text
Продолжительность : 1 ч. 0 м.
Битрейт : 83 бит/сек
ElementCount : 954
Размер потока : 36,6 Кбайт (0%)
Заголовок : engSDH
Язык : English
Default : Нет
Forced : Нет
Скриншоты:
       

mayor

Post 08-Jan-2020 17:03

[Quote]

- Ведьмак / The Witcher (сезон 1, серии 1-8 из 8) - Производство: Польша, США / NetFlix, Pioneer Stilking Films, Platige Image, Sean Daniel Company
Жанр: фэнтези, боевик, драма, приключения
Режиссер: Алик Сахаров, Шарлотта Брандстром, Алекс Гарсиа Лопес
Актеры: Генри Кавилл, Фрейя Аллан, Джои Бэти, МайАнна Бёринг, Том Кэнтон, Аня Чалотра, Имон Фэррен, Бьерн Хлинур Харальдссон, Адам Леви, Джоди Мэй и др.
Описание:
Ведьмак Геральт, мутант и убийца чудовищ, изо всех сил старается найти свое место в мире, где люди часто оказываются намного хуже монстров.

Дата мировой премьеры: 20 декабря 2019
Релиз от: OlLanDGroup
Продолжительность: ~01:00:00 серия
Качество видео: WEB-DLRip [http://sendfile.su/1536738]
Перевод: Многоголосый, профессиональный - Lostfilm
Субтитры: русские (форс., полные), английские
Видео: Xvid, 704x352, ~1699 Kbps
Аудио 1: AC3, 2 ch, 192 Kbps - русский
Аудио 2: AC3, 2 ch, 192 Kbps - английский

Доп.Информация:

General
Complete name : D:\OlLanDGroup\The.Witcher.S01.WEB-DLRip.Lostfilm.OlLanDGroup\The.Witcher.S01.E01.WEB-DLRip.Lostfilm.OlLanDGroup.avi
Format : AVI
Format/Info : Audio Video Interleave
File size : 916 MiB
Duration : 1 h 1 min
Overall bit rate : 2 097 kb/s
Writing application : VirtualDubMod 1.5.10.2 (build 2540/release)
Writing library : VirtualDubMod build 2540/release
Video
ID : 0
Format : MPEG-4 Visual
Format profile : Advanced [email protected]
Format settings : BVOP1
Format settings, BVOP : 1
Format settings, QPel : No
Format settings, GMC : No warppoints
Format settings, Matrix : Default (MPEG)
Codec ID : XVID
Codec ID/Hint : XviD
Duration : 1 h 1 min
Bit rate : 1 699 kb/s
Width : 704 pixels
Height : 352 pixels
Display aspect ratio : 2.000
Frame rate : 24.000 FPS
Color space : YUV
Chroma subsampling : 4:2:0
Bit depth : 8 bits
Scan type : Progressive
Compression mode : Lossy
Bits/(Pixel*Frame) : 0.286
Stream size : 742 MiB (81%)
Writing library : XviD 73
Audio #1
ID : 1
Format : AC-3
Format/Info : Audio Coding 3
Commercial name : Dolby Digital
Codec ID : 2000
Duration : 1 h 1 min
Bit rate mode : Constant
Bit rate : 192 kb/s
Channel(s) : 2 channels
Channel layout : L R
Sampling rate : 48.0 kHz
Frame rate : 31.250 FPS (1536 SPF)
Bit depth : 16 bits
Compression mode : Lossy
Stream size : 83.9 MiB (9%)
Alignment : Split accross interleaves
Interleave, duration : 42 ms (1.00 video frame)
Interleave, preload duration : 500 ms
Service kind : Complete Main
Audio #2
ID : 2
Format : AC-3
Format/Info : Audio Coding 3
Commercial name : Dolby Digital
Codec ID : 2000
Duration : 1 h 1 min
Bit rate mode : Constant
Bit rate : 192 kb/s
Channel(s) : 2 channels
Channel layout : L R
Sampling rate : 48.0 kHz
Frame rate : 31.250 FPS (1536 SPF)
Bit depth : 16 bits
Compression mode : Lossy
Stream size : 83.9 MiB (9%)
Alignment : Split accross interleaves
Interleave, duration : 42 ms (1.00 video frame)
Interleave, preload duration : 500 ms
Service kind : Complete Main

Список серий:

01. Начало конца | The End’s Beginning
02.Четыре марки | Four Marks
03. Предательская луна | Betrayer Moon
04. Приемы, бастарды и погребения | Of Banquets, Bastards and Burials
05. Желания в бутылке | Bottled Appetites
06. Редкий вид | Rare Species
07. До падения | Before a Fall
08. Нечто большее | Much More

Дополнительная информация:

"Чистый" кадр. Вступительная заставка и логотип LostFilm отсутствуют.
Скриншоты:
       

Скриншоты:

     
     

mayor

Post 04-Jan-2020 20:20

[Quote]

- Дракула / Dracula (сезон 1, серии 1-3 из 3) - Производство: Великобритания \ Hartswood Films, British Broadcasting Corporation (BBC), Netflix
Жанр: ужасы, драма
Режиссер: Джонни Кэмпбелл, Пол МакГиган, Дэймон Томас
Актеры: Клас Банг, Долли Уэллс, Джон Хеффернан, Джоэнна Скэнлэн, Морфидд Кларк, Джонатан Арис, Юссеф Керкур, Нэйтан Стюарт-Джарретт, Катерина Шелл, Линдси Маршал
Описание:
История берет начало в 1897 году в Трансильвании, куда молодой английский юрист Джонатан Харкер (Джон Хеффернан) приезжает на встречу с новым клиентом. Мужчина и не подозревает, что его ожидает в мрачных стенах средневекового замка графа Дракулы (Клас Банг): интересы хозяина оказываются шире, чем вопросы недвижимости, и вот гость уже пускается в бега, чтобы спасти свою жизнь и защитить близких. Погоня за юристом приводит Дракулу в викторианский Лондон, разительно отличающийся от родной Румынии. Почуяв свежую кровь, вампир решает заселить британский остров своими последователями. В то время как потомки доктора Ван Хельсинга начинают охоту на монстра, внимание героя привлекает ничем не примечательная девушка...

Продолжительность: ~01:30:00 серия
Качество видео: WEB-DL (1080p) [http://sendfile.su/1539040]
Перевод: Дублированный (Невафильм)
Субтитры: русские (Forced, Full), английские, немецкие, французские, итальянские, испанские, турецкие, финские, польские
Реклама: Отсутствует
Видео: AVC/H.264, 1920x1080, ~3213 kbps
Аудио #1: E-AC3, 6 ch, ~640 Kbps (Русский, Невафильм)
Аудио #2: AC3, 6 ch, ~640.00 kbps (Русский, Невафильм)
Аудио #3: E-AC3, 6 ch, ~768.00 kbps (Английский)

Содержание

01. Правила зверя / The Rules of the Beast
02. Кровавое судно / Blood Vessel
03. Тёмный компас / The Dark Compass

Доп.Информация:

General
Complete name : Dracula.S01E01.WEB-DL.1080p.-Kyle.mkv
Format : Matroska
Format version : Version 4
File size : 3.29 GiB
Duration : 1 h 29 min
Overall bit rate mode : Variable
Overall bit rate : 5 265 kb/s
Encoded date : UTC 2020-01-04 08:39:20
Writing application : mkvmerge v41.0.0 ('Smarra') 64-bit
Writing library : libebml v1.3.9 + libmatroska v1.5.2
Video
ID : 1
Format : AVC
Format/Info : Advanced Video Codec
Format profile : [email protected]
Format settings : CABAC / 4 Ref Frames
Format settings, CABAC : Yes
Format settings, Reference : 4 frames
Codec ID : V_MPEG4/ISO/AVC
Duration : 1 h 29 min
Bit rate mode : Variable
Bit rate : 3 213 kb/s
Maximum bit rate : 20.0 Mb/s
Width : 1 920 pixels
Height : 1 080 pixels
Display aspect ratio : 16:9
Frame rate mode : Constant
Frame rate : 25.000 FPS
Color space : YUV
Chroma subsampling : 4:2:0
Bit depth : 8 bits
Scan type : Progressive
Bits/(Pixel*Frame) : 0.062
Stream size : 2.01 GiB (61%)
Title : English
Writing library : x264 core 148 r2715 7e75228
Encoding settings : cabac=1 / ref=4 / deblock=1:0:0 / analyse=0x3:0x111 / me=umh / subme=10 / psy=1 / psy_rd=1.00:0.00 / mixed_ref=1 / me_range=120 / chroma_me=1 / trellis=2 / 8x8dct=1 / cqm=0 / deadzone=21,11 / fast_pskip=1 / chroma_qp_offset=-2 / threads=8 / lookahead_threads=2 / sliced_threads=0 / nr=0 / decimate=1 / interlaced=0 / bluray_compat=0 / stitchable=1 / constrained_intra=0 / bframes=16 / b_pyramid=2 / b_adapt=2 / b_bias=0 / direct=3 / weightb=1 / open_gop=0 / weightp=2 / keyint=250 / keyint_min=126 / scenecut=0 / intra_refresh=0 / rc_lookahead=250 / rc=crf / mbtree=1 / crf=16.0 / qcomp=0.50 / qpmin=6 / qpmax=51 / qpstep=4 / vbv_maxrate=20000 / vbv_bufsize=25000 / crf_max=0.0 / nal_hrd=vbr / filler=0 / ip_ratio=1.40 / aq=1:0.80
Language : English
Default : Yes
Forced : No
Audio #1
ID : 2
Format : E-AC-3
Format/Info : Enhanced AC-3
Commercial name : Dolby Digital Plus
Codec ID : A_EAC3
Duration : 1 h 29 min
Bit rate mode : Constant
Bit rate : 640 kb/s
Channel(s) : 6 channels
Channel layout : L R C LFE Ls Rs
Sampling rate : 48.0 kHz
Frame rate : 31.250 FPS (1536 SPF)
Compression mode : Lossy
Stream size : 410 MiB (12%)
Title : Russian, E-AC3
Language : Russian
Service kind : Complete Main
Default : Yes
Forced : No
Audio #2
ID : 3
Format : AC-3
Format/Info : Audio Coding 3
Commercial name : Dolby Digital
Codec ID : A_AC3
Duration : 1 h 29 min
Bit rate mode : Constant
Bit rate : 640 kb/s
Channel(s) : 6 channels
Channel layout : L R C LFE Ls Rs
Sampling rate : 48.0 kHz
Frame rate : 31.250 FPS (1536 SPF)
Compression mode : Lossy
Stream size : 410 MiB (12%)
Title : Russian, AC3
Language : Russian
Service kind : Complete Main
Default : No
Forced : No
Audio #3
ID : 4
Format : E-AC-3 JOC
Format/Info : Enhanced AC-3 with Joint Object Coding
Commercial name : Dolby Digital Plus with Dolby Atmos
Codec ID : A_EAC3
Duration : 1 h 29 min
Bit rate mode : Constant
Bit rate : 768 kb/s
Channel(s) : 6 channels
Channel layout : L R C LFE Ls Rs
Sampling rate : 48.0 kHz
Frame rate : 31.250 FPS (1536 SPF)
Compression mode : Lossy
Stream size : 492 MiB (15%)
Title : English
Language : English
Service kind : Complete Main
Default : No
Forced : No
Complexity index : 16
Number of dynamic objects : 15
Bed channel count : 1 channel
Bed channel configuration : LFE
Text #1
ID : 5
Format : UTF-8
Codec ID : S_TEXT/UTF8
Codec ID/Info : UTF-8 Plain Text
Duration : 1 h 28 min
Bit rate : 0 b/s
Count of elements : 10
Stream size : 395 Bytes (0%)
Title : Forced
Language : Russian
Default : Yes
Forced : No
Text #2
ID : 6
Format : UTF-8
Codec ID : S_TEXT/UTF8
Codec ID/Info : UTF-8 Plain Text
Duration : 1 h 28 min
Bit rate : 85 b/s
Count of elements : 1072
Stream size : 55.4 KiB (0%)
Title : Russian
Language : Russian
Default : No
Forced : No
Text #3
ID : 7
Format : UTF-8
Codec ID : S_TEXT/UTF8
Codec ID/Info : UTF-8 Plain Text
Duration : 1 h 28 min
Bit rate : 60 b/s
Count of elements : 1395
Stream size : 39.1 KiB (0%)
Title : English
Language : English
Default : No
Forced : No
Text #4
ID : 8
Format : UTF-8
Codec ID : S_TEXT/UTF8
Codec ID/Info : UTF-8 Plain Text
Duration : 1 h 28 min
Bit rate : 52 b/s
Count of elements : 1051
Stream size : 34.0 KiB (0%)
Title : German
Language : German
Default : No
Forced : No
Text #5
ID : 9
Format : UTF-8
Codec ID : S_TEXT/UTF8
Codec ID/Info : UTF-8 Plain Text
Duration : 1 h 28 min
Bit rate : 54 b/s
Count of elements : 1104
Stream size : 35.3 KiB (0%)
Title : French
Language : French
Default : No
Forced : No
Text #6
ID : 10
Format : UTF-8
Codec ID : S_TEXT/UTF8
Codec ID/Info : UTF-8 Plain Text
Duration : 1 h 28 min
Bit rate : 48 b/s
Count of elements : 1085
Stream size : 31.5 KiB (0%)
Title : Italian
Language : Italian
Default : No
Forced : No
Text #7
ID : 11
Format : UTF-8
Codec ID : S_TEXT/UTF8
Codec ID/Info : UTF-8 Plain Text
Duration : 1 h 28 min
Bit rate : 49 b/s
Count of elements : 1044
Stream size : 32.0 KiB (0%)
Title : European Spanish
Language : Spanish
Default : No
Forced : No
Text #8
ID : 12
Format : UTF-8
Codec ID : S_TEXT/UTF8
Codec ID/Info : UTF-8 Plain Text
Duration : 1 h 28 min
Bit rate : 50 b/s
Count of elements : 1012
Stream size : 32.8 KiB (0%)
Title : Turkish
Language : Turkish
Default : No
Forced : No
Text #9
ID : 13
Format : UTF-8
Codec ID : S_TEXT/UTF8
Codec ID/Info : UTF-8 Plain Text
Duration : 1 h 28 min
Bit rate : 45 b/s
Count of elements : 1039
Stream size : 29.2 KiB (0%)
Title : Finnish
Language : Finnish
Default : No
Forced : No
Text #10
ID : 14
Format : UTF-8
Codec ID : S_TEXT/UTF8
Codec ID/Info : UTF-8 Plain Text
Duration : 1 h 28 min
Bit rate : 50 b/s
Count of elements : 1062
Stream size : 32.5 KiB (0%)
Title : Polish
Language : Polish
Default : No
Forced : No
Скриншоты:
       

Clavik

Post 28-Dec-2019 17:01

[Quote]

Затерянные в космосе / Lost in Space (2019) WEBRip (сезон 2, серии 1-10 из 10) JimmyJ [AD] - Производство: США / Applebox Pictures, Clickety-Clack Productions, Legendary Television, Synthesis Entertainment
Жанр: фантастика, драма, детектив, приключения, семейный
Режиссер: Тим Соутэм, Стивен Серджик, Нил Маршалл
Актеры: Молли Паркер, Тоби Стивенс, Макс Дженкинс, Тейлор Расселл, Мина Сандвол, Игнасио Серричио, Паркер Поузи, Брайан Стил, Раза Джеффри, Амелия Берстин
Описание:
Наступило современное будущее, позволившее учёным сделать инновационный прорыв. В этом новом мире путешествия в открытый космос стали привычным делом, и никто им уже не удивлялся. Межгалактические перелеты совершались ежедневно, были открыты необычные планеты и созвездия. Вот и семейство Робинсонов в полном составе однажды отправилось на космические просторы, чтобы довести до конца очень важную правительственную миссию. Их маршрут пролегал через огромное пространство, и преодолеть его можно было спустя миллионы световых лет. Но в пути произошла авария, вызвавшая экстренную посадку на неизвестную площадку. До нужной цели оставалось еще очень далеко, и вернуться на верную дорогу нельзя. Что делать? Пришлось командиру отряда принимать решение о высадке на поверхность, чтобы из подручных материалов они смогли починить летательный аппарат. Но астронавтам необходимо побороть собственный страх, выжить в тяжёлых условиях, и справиться с накатившим отчаянием. Всех героев ждет непростой период времени, заполненный испытаниями, опасностями и странными событиями. Справятся ли путешественники со всеми тяжелыми проблемами?

Релиз от: JimmyJ
Продолжительность: ~00:50:00 серия
Качество видео: WEBRip
Перевод: Двуголосый любительский (JimmyJ)
Реклама: присутствуют видео, аудио, текстовые вставки рекламы
Видео: XviD, 720х328, ~1440 kbps
Аудио #1: MP3, 2 ch, 192 Kbps - русский
Аудио #2: MP3, 2 ch, 192 Kbps - английский

MediaInfo:

General
Complete name : E:\Torrent\JimmyJ\Lost.in.Space.2018.S02.NF.WEBRip-JimmyJ\Lost.in.Space.2018.S02E02.Precipice.NF.WEBRip-JimmyJ.avi
Format : AVI
Format/Info : Audio Video Interleave
File size : 541 MiB
Duration : 41 min 4 s
Overall bit rate : 1 843 kb/s
Writing application : Lavf58.29.100
Video
ID : 0
Format : MPEG-4 Visual
Format profile : Advanced [email protected]
Format settings, BVOP : No
Format settings, QPel : No
Format settings, GMC : No warppoints
Format settings, Matrix : Default (H.263)
Codec ID : XVID
Codec ID/Hint : XviD
Duration : 41 min 3 s
Bit rate : 1 438 kb/s
Width : 720 pixels
Height : 328 pixels
Display aspect ratio : 2.2:1
Frame rate : 23.976 (24000/1001) FPS
Color space : YUV
Chroma subsampling : 4:2:0
Bit depth : 8 bits
Scan type : Progressive
Compression mode : Lossy
Bits/(Pixel*Frame) : 0.254
Stream size : 422 MiB (78%)
Writing library : XviD 67
Audio #1
ID : 1
Format : MPEG Audio
Format version : Version 1
Format profile : Layer 3
Format settings : Joint stereo
Codec ID : 55
Codec ID/Hint : MP3
Duration : 41 min 4 s
Bit rate mode : Constant
Bit rate : 192 kb/s
Channel(s) : 2 channels
Sampling rate : 48.0 kHz
Compression mode : Lossy
Stream size : 56.4 MiB (10%)
Alignment : Aligned on interleaves
Interleave, duration : 24 ms (0.58 video frame)
Title : JimmyJ DDP5.1 @ 768kbps
Writing library : LAMEªªª
Audio #2
ID : 2
Format : MPEG Audio
Format version : Version 1
Format profile : Layer 3
Format settings : Joint stereo
Codec ID : 55
Codec ID/Hint : MP3
Duration : 41 min 4 s
Bit rate mode : Constant
Bit rate : 192 kb/s
Channel(s) : 2 channels
Sampling rate : 48.0 kHz
Compression mode : Lossy
Stream size : 56.4 MiB (10%)
Alignment : Aligned on interleaves
Interleave, duration : 24 ms (0.58 video frame)
Title : Original DDP5.1 @ 768kbps
Writing library : LAMEªª
Скриншоты:
       

Clavik

Post 26-Dec-2019 11:29

[Quote]

Ведьмак / The Witcher (2019) WEB-DLRip «The Worst Monsters Are the Ones We Create»- Производство: Польша, США / NetFlix, Pioneer Stilking Films, Platige Image, Sean Daniel Company
Жанр: фэнтези, боевик, драма, приключения
Режиссер: Алик Сахаров, Шарлотта Брандстром, Алекс Гарсиа Лопес
Актеры: Генри Кавилл, Фрейя Аллан, Джои Бэти, МайАнна Бёринг, Том Кэнтон, Аня Чалотра, Имон Фэррен, Бьерн Хлинур Харальдссон, Адам Леви, Джоди Мэй и др.
Описание:
Ведьмак Геральт, мутант и убийца чудовищ, изо всех сил старается найти свое место в мире, где люди часто оказываются намного хуже монстров.

Дата мировой премьеры: 20 декабря 2019
Продолжительность: ~01:00:00 серия
Качество видео: WEB-DLRip
Перевод: Дублированный - Пифагор
Субтитры: русские (форсированные, полные), английские
Видео: XviD, 704x352, ~1800 Kbps
Аудио #1: AC3, 6 ch, 384 Kbps - русский
Аудио #2: AC3, 6 ch, 384 Kbps - английский

MediaInfo:

Общее
Полное имя : F:\The Witcher\The.Witcher.s01e01.avi
Формат : AVI
Формат/Информация : Audio Video Interleave
Размер файла : 1,10 Гбайт
Продолжительность : 1 ч. 1 м.
Общий поток : 2580 Кбит/сек
Программа кодирования : VirtualDubMod 1.5.10.2 (build 2540/release)
Библиотека кодирования : VirtualDubMod build 2540/release
Видео
Идентификатор : 0
Формат : MPEG-4 Visual
Профиль формата : Advanced [email protected]
Настройки формата : BVOP1 / Custom Matrix
Параметр BVOP формата : 1
Параметр QPel формата : Нет
Параметр GMC формата : Без точки перехода
Параметр матрицы формата : Выборочная
Идентификатор кодека : XVID
Идентификатор кодека/Подсказка : XviD
Продолжительность : 1 ч. 1 м.
Битрейт : 1798 Кбит/сек
Ширина : 704 пикселя
Высота : 352 пикселя
Соотношение сторон : 2,000
Частота кадров : 24,000 кадра/сек
Цветовое пространство : YUV
Субдискретизация насыщенности : 4:2:0
Битовая глубина : 8 бит
Тип развёртки : Прогрессивная
Метод сжатия : С потерями
Бит/(Пиксели*Кадры) : 0.302
Размер потока : 785 Мбайт (70%)
Библиотека кодирования : XviD 73
Аудио #1
Идентификатор : 1
Формат : AC-3
Формат/Информация : Audio Coding 3
Коммерческое название : Dolby Digital
Идентификатор кодека : 2000
Продолжительность : 1 ч. 1 м.
Вид битрейта : Постоянный
Битрейт : 384 Кбит/сек
Каналы : 6 каналов
ChannelLayout : L R C LFE Ls Rs
Частота : 48,0 КГц
Частота кадров : 31,250 кадров/сек (1536 SPF)
Метод сжатия : С потерями
Размер потока : 168 Мбайт (15%)
Выравнивание : Разделение по промежуткам
Продолжительность промежутка : 42 мс. (1,00 видеокадр)
Время предзагрузки промежутка : 500 мс.
ServiceKind/String : Complete Main
Аудио #2
Идентификатор : 2
Формат : AC-3
Формат/Информация : Audio Coding 3
Коммерческое название : Dolby Digital
Идентификатор кодека : 2000
Продолжительность : 1 ч. 1 м.
Вид битрейта : Постоянный
Битрейт : 384 Кбит/сек
Каналы : 6 каналов
ChannelLayout : L R C LFE Ls Rs
Частота : 48,0 КГц
Частота кадров : 31,250 кадров/сек (1536 SPF)
Метод сжатия : С потерями
Размер потока : 168 Мбайт (15%)
Выравнивание : Разделение по промежуткам
Продолжительность промежутка : 42 мс. (1,00 видеокадр)
Время предзагрузки промежутка : 500 мс.
ServiceKind/String : Complete Main

Список серий:

Начало конца / The End's Beginning
Четыре знака / Four Marks
Предательская луна / Betrayer Moon
Банкеты, ублюдки и похороны / Of Banquets, Bastards and Burials
Сдерживаемые аппетиты / Bottled Appetites
Редкие виды / Rare Species
Перед падением / Before A Fall
Нечто большее / Much More
Скриншоты:
       
 

The time now is: Today 03:44

All times are GMT + 3 Hours