Today is a free download without charge Download

Search found 500 matches

Author Message

Clavik

Post Yesterday 20:42

[Quote]

Проклятие: Начало / JU-ON: Origins / Ju-On: Noroi no Ie (2020) WEBRip
(сезон 1, серии 1-6 из 6)
- Производство: Япония / NetFlix
Жанр: ужасы, драма, детектив
Режиссер: Сё Миякэ
Актеры: Ёсиёси Аракав, Юина Куросима, Ририка, Кана Курасина, Сэико Иваидо, Каи Иноваки, Токио Эмото, Нобуко Сэндо, Рюсин Тэи, Юя Мацуура и другие.
Описание:
Девушка решает разобраться, что за странные звуки она слышит в своём доме по ночам, и для этого обращается к известному телеведущему, исследователю психоэнергии.

Дата мировой премьеры: 03 июля 2020
Релиз от: OmskBird
Продолжительность: ~00:28:00 серия
Качество видео: WEBRip
Перевод: Многоголосый закадровый (OmskBird)
Реклама: присутствуют видео, аудио вставки рекламы
Видео: AVC/H.264, 1920x1080, ~4999 kbps
Аудио: AC3, 2 ch, 192 kbps

MediaInfo:

Общее
Уникальный идентификатор : 53812611256529864662773827515679283729 (0x287BEE93A66E53630A5E5C7937149A11)
Полное имя : G:\JU.ON.Origins.S01.1080p.WEBRip.OmskBird\JU.ON.Origins.S01E01.1080p.WEBRip.OmskBird.mkv
Формат : Matroska
Версия формата : Version 4
Размер файла : 1,03 Гбайт
Продолжительность : 28 м. 24 с.
Режим общего битрейта : Постоянный
Общий поток : 5189 Кбит/сек
Дата кодирования : UTC 2020-07-03 15:28:47
Программа кодирования : mkvmerge v46.0.0 ('No Deeper Escape') 64-bit
Библиотека кодирования : libebml v1.3.10 + libmatroska v1.5.2
Видео
Идентификатор : 1
Формат : AVC
Формат/Информация : Advanced Video Codec
Профиль формата : [email protected]
Настройки формата : CABAC / 1 Ref Frames
Параметр CABAC формата : Да
Параметр RefFrames формата : 1 кадр
Параметр GOP формата : M=1, N=25
Идентификатор кодека : V_MPEG4/ISO/AVC
Продолжительность : 28 м. 24 с.
Вид битрейта : Постоянный
Битрейт : 4999 Кбит/сек
Ширина : 1920 пикселей
Высота : 1080 пикселей
Соотношение сторон : 16:9
Режим частоты кадров : Постоянный
Частота кадров : 24,000 кадра/сек
Цветовое пространство : YUV
Субдискретизация насыщенности : 4:2:0
Битовая глубина : 8 бит
Тип развёртки : Прогрессивная
Бит/(Пиксели*Кадры) : 0.100
Размер потока : 1015 Мбайт (96%)
Default : Да
Forced : Нет
Аудио
Идентификатор : 2
Формат : AC-3
Формат/Информация : Audio Coding 3
Коммерческое название : Dolby Digital
Идентификатор кодека : A_AC3
Продолжительность : 28 м. 24 с.
Вид битрейта : Постоянный
Битрейт : 192 Кбит/сек
Каналы : 2 канала
ChannelLayout : L R
Частота : 48,0 КГц
Частота кадров : 31,250 кадров/сек (1536 SPF)
Метод сжатия : С потерями
Размер потока : 39,0 Мбайт (4%)
Заголовок : OmskBird
Язык : Russian
ServiceKind/String : Complete Main
Default : Да
Forced : Нет
Скриншоты:
       

Clavik

Post Yesterday 20:28

[Quote]

Моя гениальная подруга / L'amica geniale (2018-2020) WEB-DLRip
(сезон 1-2, серии 1-16 из 16)
- Производство: Италия, США | Comune di Barano d'Ischia, Home Box Office (HBO)
Жанр: драма
Режиссер: Саверио Костанцо, Аличе Рорвахер
Актеры: Элиза дель Дженио, Маргерита Маццукко, Элизабетта Де Пало, Людовика Насти, Гая Джираче, Дора Романо, Томмазо Рушано, Дженнаро Де Стефано, Кристиян Ди Джакомо, Джованни Амура и др.
Описание:
Послевоенный Неаполь, 1950-е. Умные и талантливые девочки Елена и Лила, живущие по соседству, становятся лучшими подругами. Они проводят вместе множество счастливых дней, вместе радуются и негодуют и противостоят строгим порядкам сообщества, к которому принадлежат. Но однажды их пути расходятся: отец Лилы — простой сапожник, и он не может позволить себе отправить дочь в среднюю школу, а отец Елены — муниципальный служащий — разрешает девочке продолжить образование. Спустя годы судьбы девушек вновь пересекаются, и история их дружбы продолжается.

Возраст: 16+ (зрителям, достигшим 16 лет)
Продолжительность: ~00:57:00 серия
Качество видео: WEB-DLRip
Перевод: Многоголосый профессиональный (TVShows)
Субтитры: Русские (отдельными файлами), английские (hardsub)
Видео: Xvid, 720x400 (16:9), ~2000 kbps
Аудио: AC3, 6 ch, 384 kbps; 2 ch, 192 kbps

MediaInfo:

General
Complete name : D:\My Brilliant Friend\Season 1\My.Brilliant.Friend.s01e01.avi
Format : AVI
Format/Info : Audio Video Interleave
File size : 979 MiB
Duration : 56 min 53 s
Overall bit rate : 2 406 kb/s
Writing application : VirtualDubMod 1.5.10.2 (build 2540/release)
Writing library : VirtualDubMod build 2540/release
Video
ID : 0
Format : MPEG-4 Visual
Format profile : Advanced [email protected]
Format settings : BVOP1 / Custom Matrix
Format settings, BVOP : 1
Format settings, QPel : No
Format settings, GMC : No warppoints
Format settings, Matrix : Custom
Codec ID : XVID
Codec ID/Hint : XviD
Duration : 56 min 53 s
Bit rate : 2 013 kb/s
Width : 720 pixels
Height : 400 pixels
Display aspect ratio : 16:9
Frame rate : 23.976 (24000/1001) FPS
Color space : YUV
Chroma subsampling : 4:2:0
Bit depth : 8 bits
Scan type : Progressive
Compression mode : Lossy
Bits/(Pixel*Frame) : 0.292
Stream size : 819 MiB (84%)
Writing library : XviD 73
Audio
ID : 1
Format : AC-3
Format/Info : Audio Coding 3
Commercial name : Dolby Digital
Codec ID : 2000
Duration : 56 min 53 s
Bit rate mode : Constant
Bit rate : 384 kb/s
Channel(s) : 6 channels
Channel layout : L R C LFE Ls Rs
Sampling rate : 48.0 kHz
Frame rate : 31.250 FPS (1536 SPF)
Bit depth : 16 bits
Compression mode : Lossy
Stream size : 156 MiB (16%)
Alignment : Split accross interleaves
Interleave, duration : 42 ms (1.00 video frame)
Interleave, preload duratio : 500 ms
Service kind : Complete Main-General
Complete name : D:\My Brilliant Friend\Season 2\My.Brilliant.Friend.s02e01.avi
Format : AVI
Format/Info : Audio Video Interleave
File size : 944 MiB
Duration : 59 min 55 s
Overall bit rate : 2 201 kb/s
Writing application : VirtualDubMod 1.5.10.3 | www.virtualdub-fr.org || (build 2550/release)
Video
ID : 0
Format : MPEG-4 Visual
Format profile : Advanced [email protected]
Format settings : BVOP1
Format settings, BVOP : 1
Format settings, QPel : No
Format settings, GMC : No warppoints
Format settings, Matrix : Default (MPEG)
Codec ID : XVID
Codec ID/Hint : XviD
Duration : 59 min 55 s
Bit rate : 2 000 kb/s
Width : 720 pixels
Height : 400 pixels
Display aspect ratio : 16:9
Frame rate : 25.000 FPS
Color space : YUV
Chroma subsampling : 4:2:0
Bit depth : 8 bits
Scan type : Progressive
Compression mode : Lossy
Bits/(Pixel*Frame) : 0.278
Stream size : 857 MiB (91%)
Writing library : XviD 67
Audio
ID : 1
Format : AC-3
Format/Info : Audio Coding 3
Commercial name : Dolby Digital
Codec ID : 2000
Duration : 59 min 55 s
Bit rate mode : Constant
Bit rate : 192 kb/s
Channel(s) : 2 channels
Channel layout : L R
Sampling rate : 48.0 kHz
Frame rate : 31.250 FPS (1536 SPF)
Bit depth : 16 bits
Compression mode : Lossy
Stream size : 82.3 MiB (9%)
Alignment : Split accross interleaves
Interleave, duration : 40 ms (1.00 video frame)
Interleave, preload duratio : 500 ms
Service kind : Complete Main
Скриншоты:
       

Дополнительные скриншоты:

       

Clavik

Post 04-Jul-2020 21:16

[Quote]

Монахиня-воин / Warrior Nun (2020) WEBRip [H.264/1080p-LQ] (сезон 1, серии 1-10 из 10) - Производство: США / A Film Location Company, Reality Distortion Field
Жанр: Фэнтези, боевик, драма
Режиссер: Джет Уилкинсон, Саймон Бэрри, Матиас Хендл
Актеры: Тоя Тернер, Альба Баптиста, Лорена Андреа, Kristina Tonteri-Young, Текла Рютен, Жоаки де Алмейда, Сильвия Де Фанти, Dimitri Abold, Гийомар Алонсо и др.
Описание:
Обычная девушка Эйва неожиданно для себя оказывается втянута в древнюю войну таинственного ордена с силами зла. Проснувшись в морге, она обнаруживает у себя невероятные способности. Поиск ответов приводит Эйву к ордену Крестообразного Меча — секретному обществу монахинь-воинов, поклявшихся защищать мир ото зла. Теперь она должна найти баланс между новыми обязанностями спасительницы человечества и жизнью обычного подростка.

Дата мировой премьеры: 2 июля 2020
Продолжительность: ~ 00:52:00
Качество видео: WEBRip
Перевод: Двуголосый любительский (IdeaFilm)
Реклама: Видео, аудио вставки
Видео: AVC/H.264, 1920х960, ~5764 Kbps
Аудио 1: AC3, 6 ch, 384 Kbps, русский
Аудио 2: AC3, 6 ch, 640 Kbps, английский

MediaInfo:

Общее
Уникальный идентификатор : 192937212537598501546209332679430932069 (0x91265B0221B46B689E90AECDEDC48665)
Полное имя : E:\Downloads\Warrior.Nun.S01.WEBRip.1080p.IdeaFilm\Warrior.Nun.S01E01.WEBRip.1080p.IdeaFilm.mkv
Формат : Matroska
Версия формата : Version 4
Размер файла : 2,43 Гбайт
Продолжительность : 51 м. 22 с.
Режим общего битрейта : Переменный
Общий поток : 6 785 Кбит/сек
Дата кодирования : UTC 2020-07-02 14:51:19
Программа кодирования : mkvmerge v7.8.0 ('River Man') 32bit built on Apr 3 2015 12:11:22
Библиотека кодирования : libebml v1.3.1 + libmatroska v1.4.2
Видео
Идентификатор : 1
Формат : AVC
Формат/Информация : Advanced Video Codec
Профиль формата : [url=mailto:[email protected]][email protected][/url]
Настройки формата : CABAC / 2 Ref Frames
Параметр CABAC формата : Да
Параметр RefFrames формата : 2 кадра
Параметр GOP формата : M=3, N=23
Идентификатор кодека : V_MPEG4/ISO/AVC
Продолжительность : 51 м. 22 с.
Вид битрейта : Переменный
Битрейт : 5 764 Кбит/сек
Максимальный битрейт : 12,0 Мбит/сек
Ширина : 1 920 пикселей
Высота : 960 пикселей
Соотношение сторон : 2,000
Режим частоты кадров : Постоянный
Частота кадров : 23,976 (24000/1001) кадра/сек
Цветовое пространство : YUV
Субдискретизация насыщенности : 4:2:0
Битовая глубина : 8 бит
Тип развёртки : Прогрессивная
Бит/(Пиксели*Кадры) : 0.130
Размер потока : 2,07 Гбайт (85%)
Язык : English
Default : Да
Forced : Нет
Аудио #1
Идентификатор : 2
Формат : AC-3
Формат/Информация : Audio Coding 3
Коммерческое название : Dolby Digital
Идентификатор кодека : A_AC3
Продолжительность : 51 м. 22 с.
Вид битрейта : Постоянный
Битрейт : 384 Кбит/сек
Каналы : 6 каналов
Channel layout : L R C LFE Ls Rs
Частота : 48,0 КГц
Частота кадров : 31,250 кадров/сек (1536 SPF)
Метод сжатия : С потерями
Размер потока : 141 Мбайт (6%)
Язык : Russian
Service kind : Complete Main
Default : Да
Forced : Нет
Аудио #2
Идентификатор : 3
Формат : AC-3
Формат/Информация : Audio Coding 3
Коммерческое название : Dolby Digital
Идентификатор кодека : A_AC3
Продолжительность : 50 м. 57 с.
Вид битрейта : Постоянный
Битрейт : 640 Кбит/сек
Каналы : 6 каналов
Channel layout : L R C LFE Ls Rs
Частота : 48,0 КГц
Частота кадров : 31,250 кадров/сек (1536 SPF)
Метод сжатия : С потерями
Задержка видео : 25 с. 0 мс.
Размер потока : 233 Мбайт (9%)
Язык : English
Service kind : Complete Main
Default : Нет
Forced : Нет
Скриншоты:
       

kilmister777

Post 29-Jun-2020 14:11

[Quote]

Космические войска / Space Force- Год выпуска: 2020
Страна: США
Жанр: комедия
Продолжительность: ~00:36:00 серия
Перевод: Профессиональный (многоголосый закадровый) NewStudio-***Внимание! Присутствует ненормативная лексика!- -Режиссер: Пол Кинг, Том Маршалл, Ди Риис-В ролях: Стив Карелл, Джон Малкович, Бен Шварц, Диана Сильверс, Тоуни Ньюсом, Джимми О. Ян, Дон Лейк, Оуэн Дэниелс, Гектор Дюран, Дэн Баккедаль-Описание: Доблестный военный, бывший летчик Марк Нэйрд (Стив Карелл) получает четвертую звезду на погоны, становится генералом и ликует в надежде наконец-то сместить с поста главы ВВС США недалекого сексиста Кика Грабастона (Ноа Эммерих). Вместо этого его назначают на комичную должность директора Космических войск, новой отрасли, созданной по прихоти главы государства. Пока жутко довольный собой президент постит нелепые твиты, в которых путает слова “boots” и “boobs”, Марк нехотя уезжает на базу в Колорадо налаживать сферу, которая у коллег котируется даже меньше, чем береговая охрана. Задача генерала — к 2024 послать соотечественников на Луну, но в подчинение ему достались либо совсем зеленые бойцы, либо дожидающиеся пенсии вояки. Не облегчает работу Нэйрда и научный отдел во главе с отрицающим военную дисциплину и милитаризацию космоса доктором Эдрианом Мэллори (Джон Малкович). Двое руководителей почти ни в чем не могут договориться и вечно вставляют шпильки в адрес друг друга. А между тем по базе шастает наблюдатель от России Юрий Телатович (Алексей Воробьев), которому за вынюхивание информации «платит лично Путин». Да и вообще во все планы в сфере покорения космоса вероломно вмешиваются то китайцы, то индийцы. При этом порядочный и верный своей стране Марк должен еще и семейные неурядицы разрулить — уделить внимание дочери-бунтарке (Диана Сильверс) и помочь жене, угодившей за решетку (Лиза Кудроу). Облажаться хоть в чем-то Марку нельзя, ведь неумолимо приближается тот день, когда он должен будет сделать Америку снова великой. Теперь и на Луне…-Качество: WEBRip
Формат: AVI
Видео кодек: XviD
Аудио кодек: AC3
Видео: 704x320 (1.83:1), 24.000 fps, XviD build 67 ~1600 kbps avg, 0.24 bit/pixel
Аудио 1: 48 kHz, AC3 Dolby Digital, 2/0 (L,R) ch, ~192 kbps|RUS
Аудио 2: 48 kHz, AC3 Dolby Digital, 2/0 (L,R) ch, ~192 kbps|ENG-

Скриншоты

       

Kon912

Post 27-Jun-2020 18:18

[Quote]

Загрузка / Upload- Год выхода: 2020
Страна: США
Студия: Amazon Studios, Baral Waley Productions, RPE (Reunion Pacific Entertainment)
Жанр: фантастика, комедия, детектив
Продолжительность: ~00:45:00 серия
Перевод: Профессиональный (многоголосый, закадровый) AlexFilm (Внимание! Присутствует ненормативная лексика!)-Режиссер:
Джеффри Блитц-В ролях:
Робби Амелл, Энди Алло, Кевин Бигли, Аллегра Роуз Эдвардс, Оуэн Дэниелс, Андреа Розен, Джордан Джонсон-Хиндс, Джош Бандэй, Уильям Б. Дэвис, Элизабет Бауэн и другие-О фильме:
В будущем сознание умирающего человека можно будет переселить в цифровой мир. Именно по этому пути идет программист Нэйтан: после страшного ДТП он переносится в виртуальный мир, где влюбляется в реальную девушку Нору.- -Качество: WEBRip
Формат: AVI
Видео: 720x400 at 23.976 fps, XviD, ~1600 kbps avg
Аудио#1: Russian: 48 kHz, AC3, 2/0 (L,R) ch, ~192 kbps avg |Многоголосый закадровый, AlexFilm|
Аудио#2: English: 48 kHz, AC3, 2/0 (L,R) ch, ~192 kbps avg
Субтитры: Russian (Forced, Full), English (SDH)- -

Скриншоты

       
***Релиз: Бёдвар|

Kon912

Post 27-Jun-2020 18:16

[Quote]

Загрузка / Upload- Год выхода: 2020
Страна: США
Студия: Amazon Studios, Baral Waley Productions, RPE (Reunion Pacific Entertainment)
Жанр: фантастика, комедия, детектив
Продолжительность: ~00:45:00 серия
Перевод: Профессиональный (многоголосый, закадровый) NewStudio-Режиссер:
Джеффри Блитц-В ролях:
Робби Амелл, Энди Алло, Кевин Бигли, Аллегра Роуз Эдвардс, Оуэн Дэниелс, Андреа Розен, Джордан Джонсон-Хиндс, Джош Бандэй, Уильям Б. Дэвис, Элизабет Бауэн и другие-О фильме:
В будущем сознание умирающего человека можно будет переселить в цифровой мир. Именно по этому пути идет программист Нэйтан: после страшного ДТП он переносится в виртуальный мир, где влюбляется в реальную девушку Нору.- -Качество: WEBRip
Формат: AVI
Видео: 720x400, XviD ~1597 kbps avg, 0.23 bit/pixel
Аудио#1: Russian: 48 kHz, MPEG Layer 3, 2 ch, ~128.00 kbps avg |Многоголосый закадровый, NewStudio|
Аудио#2: English: 48 kHz, MPEG Layer 3, 2 ch, ~128.00 kbps avg
Субтитры: Russian (Forced, Full), English (SDH)- -

Скриншоты

       

Kon912

Post 27-Jun-2020 18:14

[Quote]

Загрузка / Upload- Год выхода: 2020
Страна: США
Студия: Amazon Studios, Baral Waley Productions, RPE (Reunion Pacific Entertainment)
Жанр: фантастика, комедия, детектив
Продолжительность: ~00:45:00 серия
Перевод: Профессиональный (многоголосый, закадровый) LostFilm-Режиссер:
Джеффри Блитц-В ролях:
Робби Амелл, Энди Алло, Кевин Бигли, Аллегра Роуз Эдвардс, Оуэн Дэниелс, Андреа Розен, Джордан Джонсон-Хиндс, Джош Бандэй, Уильям Б. Дэвис, Элизабет Бауэн и другие-О фильме:
В будущем сознание умирающего человека можно будет переселить в цифровой мир. Именно по этому пути идет программист Нэйтан: после страшного ДТП он переносится в виртуальный мир, где влюбляется в реальную девушку Нору.- -Качество: WEBRip
Формат: AVI
Видео: 720x400 at 23.976 fps, XviD, ~1600 kbps avg
Аудио#1: Russian: 48 kHz, MP3, 2/0 (L,R) ch, ~128 kbps avg |Многоголосый закадровый, LostFilm|
Аудио#2: English: 48 kHz, MP3, 2/0 (L,R) ch, ~128 kbps avg
Субтитры: Russian, English- -

Скриншоты

       

***Релиз: DriverV

Kon912

Post 18-Jun-2020 16:40

[Quote]

Я знаю, что это правда / I Know This Much Is True- Год выхода: 2020
Страна: США
Студия: HBO
Жанр: драма
Продолжительность: ~01:00:00 серия
Перевод: Профессиональный (многоголосый, закадровый) NewStudio-Режиссер:
Дерек Сиенфрэнс-В ролях:
Марк Руффало, Мелисса Лео, Рози О’Доннелл, Арчи Панджаби, Имоджен Путс, Джульетт Льюис, Кэтрин Хан, Эшлинг Франчози, Симон Коппо, Марчелло Фонте-О фильме:
Два Марка Руффало по цене одного. В новой драме от HBO актер исполнил роли братьев-близнецов: Доминика, который вспоминает тяжелое детство, переживает смерть первенца и пытается выяснить семейные секреты, а также Томаса, страдающего от параноидальной шизофрении. Бестселлер Уолли Лэмба, по которому поставлен сериал, исследует горе, личные неудачи, утрату и неразрывную связь личного и семейного — арсенал тем, с которыми режиссер Дерек Сиенфрэнс («Место под соснами») много работал в кино.- -Качество: WEB-DL 1080p
Формат: MKV
Видео: 1920x1080 at 23.976 fps, MPEG-4 AVC, ~9100 kbps avg
Аудио#1: Russian: 48 kHz, AC3, 3/2 (L,C,R,l,r) + LFE ch, ~384 kbps avg |Многоголосый закадровый, NewStudio|
Аудио#2: English: 48 kHz, E-AC3, 3/2 (L,C,R,l,r) + LFE ch, ~640 kbps avg
Субтитры: Russian (Full |PhysKids|), English (Full, SDH)-***Внимание! Присутствует ненормативная лексика!-

Скриншоты

       

Kon912

Post 18-Jun-2020 16:38

[Quote]

Я знаю, что это правда / I Know This Much Is True- Год выхода: 2020
Страна: США
Студия: HBO
Жанр: драма
Продолжительность: ~01:00:00 серия
Перевод: Профессиональный (многоголосый, закадровый) Novamedia по заказу Amedia-Режиссер:
Дерек Сиенфрэнс-В ролях:
Марк Руффало, Мелисса Лео, Рози О’Доннелл, Арчи Панджаби, Имоджен Путс, Джульетт Льюис, Кэтрин Хан, Эшлинг Франчози, Симон Коппо, Марчелло Фонте-О фильме:
Два Марка Руффало по цене одного. В новой драме от HBO актер исполнил роли братьев-близнецов: Доминика, который вспоминает тяжелое детство, переживает смерть первенца и пытается выяснить семейные секреты, а также Томаса, страдающего от параноидальной шизофрении. Бестселлер Уолли Лэмба, по которому поставлен сериал, исследует горе, личные неудачи, утрату и неразрывную связь личного и семейного — арсенал тем, с которыми режиссер Дерек Сиенфрэнс («Место под соснами») много работал в кино.- -Качество: WEB-DL 1080p
Формат: MKV
Видео: 1920x1080 at 23.976 fps, MPEG-4 AVC, ~9100 kbps avg
Аудио#1: Russian: 48 kHz, AC3, 3/2 (L,C,R,l,r) + LFE ch, ~384 kbps avg |Многоголосый закадровый, Novamedia по заказу Amedia|
Аудио#2: English: 48 kHz, E-AC3, 3/2 (L,C,R,l,r) + LFE ch, ~640 kbps avg
Субтитры: Russian (Full), English (SDH)-

Скриншоты

       

DED

Post 25-May-2020 14:02

[Quote]

--Мегрэ / Maigret
Сезоны 1–14
-- Год выпуска: 1991–2005
Страна: Франция, Бельгия, Швейцария, Чехословакия
Студия: «Èeská Televize, Antenne-2 (A2), Dune, …»
Жанр: драма, криминал, детектив
Продолжительность: 1 серия ~ 01:30:00
Перевод: Профессиональный (многоголосый) [Студия «Инис»]
Режиссер: Пьер Жоассен, Шарль Немес, Кристиан Де Шалонж
В ролях:: Бруно Кремер, Александр Брассе, Жан-Клод Фриссунг, Пьер Дио, Анна Беллек, Эрик Пра, Пьер Бэйот, Жан-Поль Боннер, Фабьен Беар, Марина Головин, …-Описание: Встречайте самого известного в мире полицейского с трубкой - Жюля Мегрэ. Вот уже много лет он раскрывает запутанные преступления - одно за другим - словно разгадывает головоломки. Да так, что оторваться просто невозможно. В предлагаемом вам французском сериале по произведениям Жоржа Сименона есть всё - фирменная атмосфера тайны, загадки, авторы которых совсем не против навсегда остаться в тени, и, конечно же, гениальный сыщик, великолепно воплощённый на экране Бруно Кремером, словно рождённым для этой роли... За свою долгую карьеру Мегрэ приходилось расследовать преступления во всех концах Европы, и его репутация известна далеко за пределами Франции.- -Качество видео: DVDRip
Формат видео: AVI
Видеокодек: XviD
Аудиокодек: AC3
Видео: 656x400 (1.64:1), 25.000 fps, XviD MPEG-4, ~2034 kbps avg (1, 3, 4, 7-12, 14-26, 29, 30, 32, 33, 35-41 серии)
Видео: 688x384 (1.79:1), 25.000 fps, XviD MPEG-4, ~2256 kbps avg (2, 5, 6, 13, 27, 28, 31, 34, 42-54 серии)
Аудио:: 48.0 kHz, AC3 Dolby Digital, 2/0 (L,R) ch, ~224.00 kbps avg
Cубтитры: нет
-

MediaInfo:

General
Complete name :s01e01_Maigret.et.La.Grande.Perche.avi
Format : AVI
Format/Info : Audio Video Interleave
File size : 1.51 GiB
Duration : 1 h 35 min
Overall bit rate : 2 268 kb/s
Writing application : VirtualDubMod 1.5.10.3 | www.virtualdub-fr.org || (build 2550/release)
Writing library : VirtualDubMod build 2550/release
Video
ID : 0
Format : MPEG-4 Visual
Format profile : Advanced [email protected]
Format settings : BVOP2 / Custom Matrix
Format settings, BVOP : 2
Format settings, QPel : No
Format settings, GMC : No warppoints
Format settings, Matrix : Custom
Codec ID : XVID
Codec ID/Hint : XviD
Duration : 1 h 35 min
Bit rate : 2 034 kb/s
Width : 656 pixels
Height : 400 pixels
Display aspect ratio : 16:10
Frame rate : 25.000 FPS
Color space : YUV
Chroma subsampling : 4:2:0
Bit depth : 8 bits
Scan type : Progressive
Compression mode : Lossy
Bits/(Pixel*Frame) : 0.310
Stream size : 1.35 GiB (90%)
Writing library : XviD 73
Audio
ID : 1
Format : AC-3
Format/Info : Audio Coding 3
Commercial name : Dolby Digital
Codec ID : 2000
Duration : 1 h 35 min
Bit rate mode : Constant
Bit rate : 224 kb/s
Channel(s) : 2 channels
Channel layout : L R
Sampling rate : 48.0 kHz
Frame rate : 31.250 FPS (1536 SPF)
Compression mode : Lossy
Stream size : 153 MiB (10%)
Alignment : Split across interleaves
Interleave, duration : 40 ms (1.00 video frame)
Interleave, preload duratio : 500 ms
Service kind : Complete Main
---------------------------------------------------------------
General
Complete name : s01e02_Maigret.chez.Les.Flamands.avi
Format : AVI
Format/Info : Audio Video Interleave
File size : 1.45 GiB
Duration : 1 h 23 min
Overall bit rate : 2 490 kb/s
Writing application : VirtualDubMod 1.5.10.3 | www.virtualdub-fr.org || (build 2550/release)
Writing library : VirtualDubMod build 2550/release
Video
ID : 0
Format : MPEG-4 Visual
Format profile : Advanced [email protected]
Format settings : BVOP2 / Custom Matrix
Format settings, BVOP : 2
Format settings, QPel : No
Format settings, GMC : No warppoints
Format settings, Matrix : Custom
Codec ID : XVID
Codec ID/Hint : XviD
Duration : 1 h 23 min
Bit rate : 2 256 kb/s
Width : 688 pixels
Height : 384 pixels
Display aspect ratio : 16:9
Frame rate : 25.000 FPS
Color space : YUV
Chroma subsampling : 4:2:0
Bit depth : 8 bits
Scan type : Progressive
Compression mode : Lossy
Bits/(Pixel*Frame) : 0.342
Stream size : 1.32 GiB (91%)
Writing library : XviD 73
Audio
ID : 1
Format : AC-3
Format/Info : Audio Coding 3
Commercial name : Dolby Digital
Codec ID : 2000
Duration : 1 h 23 min
Bit rate mode : Constant
Bit rate : 224 kb/s
Channel(s) : 2 channels
Channel layout : L R
Sampling rate : 48.0 kHz
Frame rate : 31.250 FPS (1536 SPF)
Compression mode : Lossy
Stream size : 134 MiB (9%)
Alignment : Split across interleaves
Interleave, duration : 40 ms (1.00 video frame)
Interleave, preload duratio : 500 ms
Service kind : Complete Main
-

Список серий:

01. Мегрэ и персик / Maigret et La Grande Perche
02. Мегрэ у фламандцев / Maigret chez Les Flamands
03. Мегрэ и дом судьи / Maigret et la maison du juge
04. Мегрэ и соблазны ночи / Maigret et Les Plaisirs de la Nuit
05. Мегрэ и труп без головы / Maigret et Le Corps sans Tête
06. Мегрэ и ночь на перекрестке / Maigret et La Nuit du Carrefour
07. Мегрэ в подвалах отеля "Мажестик" / Maigret et Les Caves du Majestic
08. Мегрэ защищается / Maigret se defend
09. Мегрэ и строптивые свидетели / Maigret et Les Temoins Recalcitrants
10. Мегрэ и человек на скамейке / Maigret et L'Homme du Banc
11. Терпение Мегрэ / La patience de Maigret
12. Мегрэ и призрак / Maigret et Le Fantome
13. Мегрэ и шлюз №1 / Maigret et l'ecluse №1
14. Мегрэ и смерть Сесиль / Cecile est morte
15. Мегрэ ошибается / Maigret se trompe
16. Мегрэ и старая дама / Maigret et la Vieille Dame
17. Мегрэ и аукцион свечей / Maigret et La vente a la bougie
18. Мегрэ в отпуске / Les vacances de Maigret
19. Мегрэ и дело Сен-Фиакр / Maigret et L'affaire Saint-Fiacre
20. Мегрэ и порт туманов / Maigret et Le port des brumes
21. Мегрэ и поединок разумов / Maigret et La tete d'un homme
22. Мегрэ в Финляндии / Maigret en Finlande
23. Мегрэ расставляет сети / Maigret tend un piege
24. Мегрэ боится / Maigret a peur
25. Мегрэ и неверный свидетель / Maigret et l'enfant de choeur
26. Мегрэ в баре Либерти / Maigret et le Liberty Bar
27. Мегрэ и невероятный господин Оуэн / Maigret et L'improbable Monsieur Owen
28. Мегрэ против инспектора Кадавра / Maigret et l'inspecteur Cadavre
29. Мегрэ, мадам Катр и ее дети / Madame Quatre et ses enfants
30. Мегрэ и убийство в саду / Meurtre dans un jardin potager
31. Мегрэ и убийство в первом классе / Un meurtre de premiere classe
32. Мегрэ и человек, живший двойной жизнью / Maigret voit double
33. Мегрэ у богачей / Maigret chez les riches
34. Мегрэ и охотница за бриллиантами / Maigret et la croqueuse de diamants
35. Мой друг Мегрэ / Mon Ami Maigret
36. Мегрэ и открытое окно / Maigret et la fenetre ouverte
37. Мегрэ и виноторговец / Maigret et le marchand de vin
38. Мегрэ и министр / Maigret chez le ministre
39. Мегрэ и сумасшедший из Сан Клотильда / Maigret et le fou de Sainte Clotilde
40. Мегрэ и дом Фелиции / La maison de Felicie
41. Мегрэ отправляется в школу / Maigret a l'ecole
42. Мегрэ и принцесса / Maigret et la princesse
43. Поражение Мегрэ / Un Echec de Maigret
44. Мегрэ и прорицательница / Signe Picpus
45. Мегрэ и друг детства / L'Ami d'enfance de Maigret
46. Сомнения Мегрэ / Les Scrupules de Maigret
47. Мегрэ и маленькие поросята без хвоста / Maigret et les petits cochons sans queue
48. Мегрэ и бродяга / Maigret et le clochard
49. Мегрэ и театр теней / Maigret et l'ombre chinoise
50. Мегрэ у доктора / Maigret chez le docteur
51. Мегрэ снимает комнату / Maigret en meuble
52. Мегрэ и компаньонка / Maigret et la demoiselle de compagnie
53. Мегрэ и семь крестиков / Maigret et les sept petites croix
54. Мегрэ и "Северная звезда" / Maigret et l'Etoile du Nord
-

Скриншоты:

       
- -

outventure2000

Post 10-May-2020 04:58

[Quote]

В 1-ом сезоне начиная со 2-ой серии жёсткий рассинхрон - задержка звука секунд 10-15. Как разрешили такую раздачу? Удаляю... Пока!

Soldat_5

Post 18-Mar-2020 14:33

[Quote]

Легендарный квест: Пир ворона/Мистический квест: Пир ворона / Mythic Quest: Raven's Banquet (2020) WEB-DLRip [H.264/1080p]- Производство: США / Arts Entertainment, Lions Gate Television, Ubisoft Motion Pictures
Жанр: комедия
Режиссер: Тодд Бирман, Дэвид Гордон Грин, Пит Чатмон
Актеры: Роб МакЭлхенни, Эшли Берч, Джесси Эннис, Имани Хаким, Дэвид Хорнсби, Шарлотта Никдао, Дэнни Пуди, Ф. Мюррэй Абрахам, Элиша Хениг, Апарна Нанчерла и др.
Описание:
Гениальный эгоистичный разработчик игр Иэн Гримм намерен создать величайшую видеоигру в истории с собой в главной роли. Поддерживать безумные планы начальника вынуждена команда программистов, давно привыкших к выходкам босса.

Дата мировой премьеры: 7 февраля 2020
Продолжительность: 00:25:00 серия
Качество видео: WEB-DLRip
Перевод: Многоголосый профессиональный (LostFilm)
Реклама: Заставка и логотип LostFilm
Видео: AVC/H.264, 1920х1080, ~6800 Kbps
Аудио 1: AC3, 6 ch, 384 Kbps - русский
Аудио 2: AC3, 6 ch, 384 Kbps - английский

MediaInfo:

Общее
Уникальный идентификатор : 181822712854311511431869067829032230663 (0x88C9C7DDA1C2A7ADA7433ECEBCEB9F07)
Полное имя : E:\Mythic.Quest.Ravens.Banquet.S01.1080p.rus.LostFilm.TV\Mythic.Quest.Ravens.Banquet.S01E01.1080p.rus.LostFilm.TV.mkv
Формат : Matroska
Версия формата : Version 4
Размер файла : 1,52 Гбайт
Продолжительность : 28 м. 49 с.
Общий поток : 7564 Кбит/сек
Дата кодирования : UTC 2020-02-17 19:40:02
Программа кодирования : mkvmerge v9.5.0 ('Quiet Fire') 64bit
Библиотека кодирования : libebml v1.3.4 + libmatroska v1.4.5
Видео
Идентификатор : 1
Формат : AVC
Формат/Информация : Advanced Video Codec
Профиль формата : [url=mailto:[email protected]][email protected][/url]
Настройки формата : CABAC / 4 Ref Frames
Параметр CABAC формата : Да
Параметр RefFrames формата : 4 кадра
Идентификатор кодека : V_MPEG4/ISO/AVC
Продолжительность : 28 м. 49 с.
Битрейт : 6800 Кбит/сек
Ширина : 1920 пикселей
Высота : 1080 пикселей
Соотношение сторон : 16:9
Режим частоты кадров : Постоянный
Частота кадров : 23,976 (24000/1001) кадра/сек
Частота кадров в оригинале : 23,976 (23976/1000) кадра/сек
Цветовое пространство : YUV
Субдискретизация насыщенности : 4:2:0
Битовая глубина : 8 бит
Тип развёртки : Прогрессивная
Бит/(Пиксели*Кадры) : 0.137
Размер потока : 1,37 Гбайт (90%)
Библиотека кодирования : x264 core 112 r1834 a51816a
Настройки программы : cabac=1 / ref=4 / deblock=1:-3:-2 / analyse=0x3:0x113 / me=hex / subme=7 / psy=1 / psy_rd=1.00:0.00 / mixed_ref=1 / me_range=16 / chroma_me=1 / trellis=1 / 8x8dct=1 / cqm=0 / deadzone=21,11 / fast_pskip=1 / chroma_qp_offset=-2 / threads=12 / sliced_threads=0 / nr=0 / decimate=1 / interlaced=0 / constrained_intra=0 / bframes=5 / b_pyramid=2 / b_adapt=1 / b_bias=0 / direct=1 / weightb=1 / open_gop=0 / weightp=2 / keyint=250 / keyint_min=25 / scenecut=40 / intra_refresh=0 / rc_lookahead=40 / rc=2pass / mbtree=1 / bitrate=6800 / ratetol=1.0 / qcomp=0.60 / qpmin=0 / qpmax=51 / qpstep=4 / cplxblur=20.0 / qblur=0.5 / vbv_maxrate=10000 / vbv_bufsize=256000 / ip_ratio=1.40 / aq=1:1.00 / nal_hrd=none
Default : Да
Forced : Нет
Аудио #1
Идентификатор : 2
Формат : AC-3
Формат/Информация : Audio Coding 3
Коммерческое название : Dolby Digital
Идентификатор кодека : A_AC3
Продолжительность : 28 м. 48 с.
Вид битрейта : Постоянный
Битрейт : 384 Кбит/сек
Каналы : 2 канала
ChannelLayout : L R
Частота : 48,0 КГц
Частота кадров : 31,250 кадров/сек (1536 SPF)
Метод сжатия : С потерями
Размер потока : 79,1 Мбайт (5%)
ServiceKind/String : Complete Main
Default : Да
Forced : Нет
Аудио #2
Идентификатор : 3
Формат : AC-3
Формат/Информация : Audio Coding 3
Коммерческое название : Dolby Digital
Идентификатор кодека : A_AC3
Продолжительность : 28 м. 49 с.
Вид битрейта : Постоянный
Битрейт : 384 Кбит/сек
Каналы : 2 канала
ChannelLayout : L R
Частота : 48,0 КГц
Частота кадров : 31,250 кадров/сек (1536 SPF)
Метод сжатия : С потерями
Размер потока : 79,2 Мбайт (5%)
ServiceKind/String : Complete Main
Default : Нет
Forced : Нет
Скриншоты:
       

Soldat_5

Post 18-Mar-2020 14:25

[Quote]

Ходячие мертвецы / The Walking Dead (2019) WEB-DLRip
(сезон 10, серии 1-12 из 16) LostFilm

«Fight the dead. Fear the living»
- Производство: США
Жанр: ужасы, мистика, триллер
Режиссер: Эрнест Р. Дикерсон, Билл Джирхарт, Гай Ферленд
Актеры: Эндрю Линкольн, Сара Уэйн Кэллис, Лори Холден, Стивен Юн, Чендлер Риггз, Норман Ридус, Айрон Э. Синглтон, Мелисса Сюзанн МакБрайд, Лорен Коэн, Джон Бернтал и др.
Описание:
Сериал рассказывает историю жизни семьи шерифа после того, как «зомби» — эпидемия апокалипсических масштабов захлестнула земной шар. Шериф Рик Граймс путешествует со своей семьей и небольшой группой выживших в поисках безопасного места для жизни. Но постоянный страх смерти каждый день приносит тяжелые потери, заставляя героев почувствовать глубины человеческой жестокости. Рик пытается спасти свою семью, и открывает для себя, что всепоглощающий страх тех, кто выжил, может быть опаснее бессмысленных мертвецов, бродящих по земле. Сериал является экранизацией одноименной комикс-серии, которая начала выходить в 2003 году...

Возраст: 18+ (зрителям, достигшим 18 лет. запрещено для детей)
Продолжительность: ~00:44:00 серия
Качество видео: WEB-DLRip
Перевод: Многоголосый закадровый, профессиональный - LostFilm
Видео: AVC/H.264, 720x400 (16:9), ~2000 kbps
Аудио: AC3, 2 ch, 384 kbps - русский, многоголосый закадровый

MediaInfo

Полное имя                               : D:\The_Walking_Dead_s10_WEB-DLRip_x264_LostFilm_[NNM-CLUB]\The.Walking.Dead.S10E01.WEB-DLRip.rus.LostFilm.mkv
Формат : Matroska
Версия формата : Version 4 / Version 2
Размер файла : 882 Мбайт
Продолжительность : 51 м.
Общий поток : 2385 Кбит/сек
Дата кодирования : UTC 2019-10-09 15:59:37
Программа кодирования : mkvmerge v6.8.0 ('Theme for Great Cities') 64bit built on Mar 2 2014 21:34:26
Библиотека кодирования : libebml v1.3.0 + libmatroska v1.4.1
Видео
Идентификатор : 1
Формат : AVC
Формат/Информация : Advanced Video Codec
Профиль формата : [url=mailto:[email protected]][email protected][/url]
Параметр CABAC формата : Да
Параметр ReFrames формата : 5 кадров
Идентификатор кодека : V_MPEG4/ISO/AVC
Продолжительность : 51 м.
Битрейт : 2000 Кбит/сек
Ширина : 720 пикселей
Высота : 400 пикселей
Соотношение сторон : 16:9
Режим частоты кадров : Постоянный
Частота кадров : 23,976 кадра/сек
Цветовое пространство : YUV
Субдискретизация насыщенности : 4:2:0
Битовая глубина : 8 бит
Тип развёртки : Прогрессивная
Бит/(Пиксели*Кадры) : 0.290
Размер потока : 723 Мбайт (82%)
Библиотека кодирования : x264 core 146 r2538M 121396c
Настройки программы : cabac=1 / ref=5 / deblock=1:0:0 / analyse=0x3:0x133 / me=hex / subme=7 / psy=1 / psy_rd=1,00:0,20 / mixed_ref=1 / me_range=16 / chroma_me=1 / trellis=1 / 8x8dct=1 / cqm=0 / deadzone=21,11 / fast_pskip=1 / chroma_qp_offset=-3 / threads=20 / lookahead_threads=3 / sliced_threads=0 / nr=0 / decimate=1 / interlaced=0 / bluray_compat=0 / constrained_intra=0 / bframes=0 / weightp=2 / keyint=230 / keyint_min=23 / scenecut=0 / intra_refresh=0 / rc_lookahead=230 / rc=2pass / mbtree=1 / bitrate=2000 / ratetol=1,0 / qcomp=0,60 / qpmin=10 / qpmax=51 / qpstep=4 / cplxblur=20,0 / qblur=0,5 / ip_ratio=1,40 / aq=1:1,00
Default : Да
Forced : Нет
Аудио
Идентификатор : 2
Формат : AC-3
Формат/Информация : Audio Coding 3
Расширение режима : CM (complete main)
Параметр Endianness формата : Big
Идентификатор кодека : A_AC3
Продолжительность : 51 м.
Вид битрейта : Постоянный
Битрейт : 384 Кбит/сек
Каналы : 2 канала
Расположение каналов : Front: L R
Частота : 48,0 КГц
Битовая глубина : 16 бит
Метод сжатия : С потерями
Размер потока : 142 Мбайт (16%)
Заголовок : LostFilm.TV
Язык : Russian
Default : Да
Forced : Нет

Список серий

https://www.imdb.com/title/tt1520211/episodes?season=10&ref_=tt_eps_sn_10
01 - Границы, которые мы пересекли / Lines We Cross
02 - Мы — конец света / We Are the End of the World
03 - Призраки / Ghosts
04 - Заткните Шепчущих / Silence the Whisperers
05 - Как и всегда / What It Always Is
06 - Связи / Bonds
07 - Open Your Eyes / Открой глаза
08 - The World Before / Прежний мир
09 - Тиски / Squeeze
10 - Преследователь / Stalker
11 - Утренняя звезда / Morning Star
12 - Ходи с нами / Walk with Us

Внимание! Раздача ведётся путём добавления новых серий

Внимание! Раздача ведётся путём добавления новых серий; при каждом добавлении создаётся новый торрент.
Чтобы начать докачку новой серии, пользователям необходимо сделать следующее:
1. Остановить скачивание;
2. Удалить старый торрент у себя из клиента (старые серии удалять не надо);
3. Скачать новый торрент и запустить его у себя в клиенте вместо старого, при этом указать клиенту путь в старую папку куда и должно происходить скачивание новых серий. Ваш клиент при этом должен произвести хеширование (проверку) старой папки и будет докачивать только те серии, которых у вас ещё нет. Старые серии при этом не удаляются, а продолжают раздаваться! Eсли вы уже удалили старые серии, то предотвратить повторную закачку старых серий можно, отжав галочку в соответствующих местах при запуске нового торрента.
Скриншоты:
     

DED

Post 08-Mar-2020 13:03

[Quote]

--Касл-Рок / Castle Rock
Сезоны 1–2
-- Год выпуска: 2018–2019
Страна: США
Студия: «Bad Robot, Warner Bros. Pictures»
Жанр: ужасы, триллер, драма
Продолжительность: 20 x ~ 00:55:00
Перевод: Профессиональный многоголосый закадровый [LostFilm]
Режиссер: Эван Голдберг, Сет Роген, Майкл Словис, …
В ролях: Билл Скарсгард, Андре Холланд, Мелани Лински, Джейн Леви, Сисси Спейсек, Лиззи Каплан, Пол Спаркс, Баркхад Абди, Элси Фишер, Тим Роббинс, Терри О’Куинн, Сара Гадон, Ричард Шифф, Кэсседи МакКлинси, Джон Хугенэккер, Марк Харелик, …-Описание: Начальник тюрьмы Шоушенк совершает самоубийство, и после его смерти в закрытом крыле здания находят странного юношу. Никто не знает, кто это, а сам он называет только имя адвоката Генри Дивера, который вырос в Касл-Роке. Дивер возвращается в город, где когда-то трагически погиб его отец, и пытается выяснить историю загадочного заключенного.- -Качество видео: WEB–DLRip | чистый видеоряд |
Формат видео: AVI
Видеокодек: XviD
Аудиокодек: MP3
Видео: 704x352 (2.00:1), 23.976 fps, XviD MPEG-4, ~1500 kbps avg, 0.23 bit/pixel
Аудио #1: [RUS] 48.0 kHz, MPEG Audio Layer 3, 2 ch, ~128.00 kbps avg [MVO – LostFilm]
Аудио #2: [ENG] 48.0 kHz, MPEG Audio Layer 3, 2 ch, ~128.00 kbps avg [Оригинал]
Cубтитры: нет
-

Скриншоты:

       
       
- -

Орлов Владимир

Post 05-Mar-2020 18:12

[Quote]

-- ☦ ☠ Бойтесь ходячих мертвецов / Fear the Walking Dead ☠ ☦ --Сезон:1-5 / Серии: 1-69 из 69--
Информация о фильме
Название: Бойтесь ходячих мертвецов
Оригинальное название: Fear the Walking Dead
Год выхода: 2015-2019
Жанр: Ужасы, фантастика, триллер, драма
Режиссер: Эндрю Бернштейн, Адам Дэвидсон, Кари Скогланд, Дебора Чоу, Дэвид Баррет--В ролях: Ким Диккенс, Клифф Кёртис, Фрэнк Диллэйн, Алисия Дебнем-Кери, Ленни Джеймс, Мэгги Грэйс, Элизабет Родригес, Мерседес Масон, Лоренцо Джеймс Генри, Колман Доминго, Денай Гарсиа, Гаррет Диллахант, Эндрю Линкольн, Мелисса Сюзанн МакБрайд, Дэниэл Шарман, Карен Дэвид, Дюгрей Скотт--О фильме: Действия сериала происходят параллельно с событиями зомби-апокалипсиса, показанными в сериале «Ходячие мертвецы», но в совершенно другом месте — Лос-Анджелесе. Акцент будет сделан на семейные отношения, в частности, проблемы отцов и детей. История вращается вокруг Шона — разведённого школьного учителя и Нэнси руководительницы женского совета. А так же детей Нэнси: Ника, который борется с наркотической зависимостью и амбициозной дочери Эшли.-- --Страна: США
Продолжительность: ~ 00:45:00
Перевод: Профессиональный (многоголосый, закадровый) - LostFilm--Файл
Качество: WEB-DLRip | чистый видеоряд |
Формат: AVI
Видео: 720x400, XviD ~1500 kbps avg, 0.19 bit/pixel
Аудио Rus: 48 kHz, MPEG Layer 3, 2 ch, ~128.00 kbps avg
Аудио Eng: 48 kHz, MPEG Layer 3, 2 ch, ~128.00 kbps avg
Субтитры: нет--

Скриншоты

       
 

The time now is: Today 01:19

All times are GMT + 3 Hours