Сегодня идет свободное скачивание без начисления Download

Результатов поиска: 477

Автор Сообщение

XP1971

Пост 25-Ноя-2018 11:53

[Цитировать]

Ну погоди ! все 20 выпусков ! / Ну погоди ! все выпуски. (2006) DVDRip- Год выпуска: 2006
Жанр: Детский, Рисованая анимация, Комедия
Режиссер: Вячеслав Котеночкин
Персонажи: Волк , Заяц
Описание:
Веселые приключения неразлучной парочки - хулигана Волка и смышленого Зайца. Любимые с детства сцены погонь, ссор и примирений, шутки и мелодии вновь порадуют вас, теперь уже в современном цифровом качестве. Прекрасно созданные образы принесли многолетнюю популярность мультипликационному сериалу, созданию которого замечательный мультипликатор Вячеслав Котеночкин посвятил почти 20 лет своей жизни.В конце 2005 года состоялась премьера 19 выпуска фильма, в постановке Алексея Котёночкина, сына Вячеслава Котёночкина, созданого на студии «Кристмас Филмз» В новом выпуске волка озвучил известный сатирик-пародист Игорь Христенко, чьим голосом говорили Ельцин, Зюганов и другие деятели в программе «Куклы». А Зайца озвучила актриса Ольга Зверева. При этом, как уточнил режиссёр, «цель сымитировать голоса Клары Румяновой и Анатолия Папанова не ставилась, новые актёры должны быть просто аутентичны своим персонажам». 16 сентября 2005 года в Москве прошел костюмированный парад в честь возрождения «Ну, погоди!» По словам Алексея Котёночкина, создавшего 20 выпуск, больше работ над фильмом он продолжать не будет. По его словам, «невозможно бесконечно плодить эти серии». При этом он оговорился, что «если и будет какое-то продолжение, то это будет совсем другое кино и другие волки и заяц». По словам художника, разработанный в 1970-е года образ волка-хулигана, поклонника Высоцкого и Beatles давно устарел.Котёночкин говорит, что в новом сериале о приключениях волка и зайца ему хотелось бы «уйти от старой стилистики», добавить новых персонажей и разработать принципиально новый сюжет. Он также не исключил, что в ближайшем будущем выйдет полнометражный мультфильм «Ну, погоди!». По словам художника, проект обсуждается с инвесторами.

Продолжительность: 20 x ~ 00:10:00
Перевод: Оригинальный
Качество видео: DVDRip
Видеокодек: Xvid
Аудиокодек: MPEG Audio
Битрейт аудио: 48 kHz, MPEG Layer 3, 2 ch, ~128.00 kbps avg

Доп. информация:

В 1-м (1969 г.) выпуске Волк позорно покатался на водных лыжах.
Во 2-м (1970 г.) выпуске Волк повстречал Зайца в парке культуры и отдыха, и они участвовали в разных аттракционах.
В 3-м (1971 г.) выпуске Волк катался на мотоцикле, а Заяц — на велосипеде.
В 4-м (1971 г.) — Волк показал себя в качестве спортсмена.
В 5-м (1972 г.) — выкурил Зайца из телефонной будки, а потом неудачно торговал арбузами и катался на троллейбусе с прищемленной дверью головой.
В 6-м (1973 г.) — Волк полетел с Зайцем на самолете и ему пришлось прыгнуть без парашюта, а на земле заняться сельским хозяйством.
В 7-м (1973 г.) выпуске Волк в тельняшке проникает на морской пароход вслед за Зайцем.
В 8-м (1974 г.) он катается на горных лыжах, коньках и ловит Зайца на лыжном курорте под Новый год.
В 9-м (1976 г.) выпуске Волк попадает на телецентр в Останкино.
В 10-м (1976 г.) ему приходится поработать на стройке с прорабом Бегемотом.
В 11-м (1977 г.) он приходит в цирк. И везде, ну абсолютно везде ему страшно не везет с Зайцем.
В 12-м (1978 г.) выпуске Заяц идет в Исторический музей, где его уже поджидает Волк, одевшийся в доспехи рыцаря.
В 13-м (1980 г.) выпуске, вышедшем в 1980, олимпийском году, Волк принимает участие в Олимпийских играх.
В 14-м (1984 г.) — имеет дело с роботами и прочими чудесами техники.
В 15-м выпуске (1986 г.) он попадает на концерт в дом культуры, где выступает хор мальчиков-зайчиков.
В 16-м (1987 г.) Волк просидел очень долго в бутылке, как обычно сидят джинны. Происходит все в мире сказок, но без Зайца и там не обходится.
В 17-м (1993 г.) день рожденья волка
В 18-м (1993 г.) волк в супермаркете
В 19-м (2005 г.) Волк поехал на курорт и как всегда .........
В 20-м (2005 г.) Действия фильма происходят на даче.

Техданные видео:

1- 720x544 (1.32:1), 25 fps, XviD build 47 ~1769 kbps avg, 0.18 bit/pixel
2- 720x544 (1.32:1), 25 fps, XviD build 47 ~1754 kbps avg, 0.18 bit/pixel
3- 720x544 (1.32:1), 25 fps, XviD build 47 ~1776 kbps avg, 0.18 bit/pixel
4- 720x544 (1.32:1), 25 fps, XviD build 47 ~1893 kbps avg, 0.19 bit/pixel
5- 720x544 (1.32:1), 25 fps, XviD build 47 ~1812 kbps avg, 0.19 bit/pixel
6- 720x544 (1.32:1), 25 fps, XviD build 47 ~1734 kbps avg, 0.18 bit/pixel
7- 720x544 (1.32:1), 25 fps, XviD build 47 ~1751 kbps avg, 0.18 bit/pixel
8- 720x544 (1.32:1), 25 fps, XviD build 47 ~1797 kbps avg, 0.18 bit/pixel
9- 720x544 (1.32:1), 25 fps, XviD build 47 ~1810 kbps avg, 0.19 bit/pixel
10- 720x544 (1.32:1), 25 fps, XviD build 47 ~1782 kbps avg, 0.18 bit/pixel
11- 720x544 (1.32:1), 25 fps, XviD build 47 ~1808 kbps avg, 0.18 bit/pixel
12- 720x544 (1.32:1), 25 fps, XviD build 47 ~1879 kbps avg, 0.19 bit/pixel
13- 720x544 (1.32:1), 25 fps, XviD build 47 ~1826 kbps avg, 0.19 bit/pixel
14- 720x544 (1.32:1), 25 fps, XviD build 47 ~1840 kbps avg, 0.19 bit/pixel
15- 720x544 (1.32:1), 25 fps, XviD build 47 ~1835 kbps avg, 0.19 bit/pixel
16- 720x544 (1.32:1), 25 fps, XviD build 47 ~1847 kbps avg, 0.19 bit/pixel
17- 640x480 (1.33:1), 25.030 fps, XviD build 50 ~1599 kbps avg, 0.21 bit/pixel
18- 640x480 (1.33:1), 25.020 fps, XviD build 50 ~1601 kbps avg, 0.21 bit/pixel
19- 640x480 (1.33:1), 25 fps, XviD build 47 ~1621 kbps avg, 0.21 bit/pixel
20- 640x480 (1.33:1), 25 fps, XviD build 47 ~1608 kbps avg, 0.21 bit/pixel
Скриншоты:
       
       

}{@R0N

Пост 20-Фев-2018 21:57

[Цитировать]

Приключения капитана Врунгеля - Производство: СССР, Киевнаучфильм
Жанр: Детский, Приключения, Комедия, Музыкальный
Режиссер: Давид Черкасский
Персонажи: Зиновий Гердт (Врунгель), Евгений Паперный (Лом, Шеф, директор зоопарка, репортёр, член яхт-клуба), Георгий Кишко (Фукс, таможенный чиновник, почтальон, репортёр, член яхт-клуба), Григорий Шпигель (Агент 00X), Семён Фарада (Джулико Бандитто), Александр Бурмистров (Де Ля Воро Гангстеритто, директор театра, член яхт-клуба), Эдуард Назаров (Капитан «Чёрной Каракатицы»), Вениамин Смехов (Адмирал)
Описание:
Веселая повесть о невероятных приключениях капитана Врунгеля, его старшего помощника Лома и матроса Фукса, совершивших кругосветное путешествие на яхте «Беда».

Возраст: 6+ (зрителям, достигшим 6 лет)
Дата выхода DVD: 15 февраля 2011, «Дивайс»
Релиз от: Bugman
Продолжительность: 02:13:14
Качество видео: BDRemux 1080p
Субтитры: Отсутствуют
Реклама: Отсутствует
Видео: AVC/H.264, 1920x1080, ~10.4 Mb/s
Аудио: AC3, 2 ch, 192 kb/s

Mediainfo:

General
Complete name : Приключения капитана Врунгеля (1976) BDRemux.mkv
Format : Matroska
Format version : Version 2
File size : 10.0 GiB
Duration : 2 h 13 min
Overall bit rate mode : Variable
Overall bit rate : 10.8 Mb/s
Movie name : Приключения капитана Врунгеля (1976) BDRemux by Bugman
Encoded date : UTC 2018-02-19 13:58:05
Writing application : mkvmerge v7.8.0 ('River Man') 32bit built on Apr 3 2015 12:11:22
Writing library : libebml v1.3.1 + libmatroska v1.4.2
Cover : Yes
Attachments : Cover.jpg
Video
ID : 1
Format : AVC
Format/Info : Advanced Video Codec
Format profile : [email protected]
Format settings : CABAC / 2 Ref Frames
Format settings, CABAC : Yes
Format settings, ReFrames : 2 frames
Format settings, GOP : M=2, N=13
Codec ID : V_MPEG4/ISO/AVC
Duration : 2 h 13 min
Bit rate mode : Variable
Bit rate : 10.4 Mb/s
Maximum bit rate : 12.0 Mb/s
Width : 1 920 pixels
Height : 1 080 pixels
Display aspect ratio : 16:9
Frame rate mode : Constant
Frame rate : 24.000 FPS
Color space : YUV
Chroma subsampling : 4:2:0
Bit depth : 8 bits
Scan type : Progressive
Bits/(Pixel*Frame) : 0.209
Stream size : 9.66 GiB (96%)
Language : Russian
Default : Yes
Forced : No
Audio
ID : 2
Format : AC-3
Format/Info : Audio Coding 3
Codec ID : A_AC3
Duration : 2 h 13 min
Bit rate mode : Constant
Bit rate : 192 kb/s
Channel(s) : 2 channels
Channel positions : Front: L R
Sampling rate : 48.0 kHz
Frame rate : 31.250 FPS (1536 SPF)
Bit depth : 16 bits
Compression mode : Lossy
Stream size : 183 MiB (2%)
Language : Russian
Service kind : Complete Main
Default : Yes
Forced : No
Menu
00:00:00.000 : en:Первая серия
00:10:09.760 : en:Вторая серия
00:20:11.904 : en:Третья серия
00:30:06.016 : en:Четвертая серия
00:40:41.120 : en:Пятая серия
00:50:18.304 : en:Шестая серия
01:00:33.472 : en:Седьмая серия
01:11:04.416 : en:Восьмая серия
01:21:32.480 : en:Девятая серия
01:31:43.296 : en:Десятая серия
01:42:18.528 : en:Одиннадцатая серия
01:52:20.128 : en:Двенадцатая серия
02:02:40.224 : en:Тринадцатая серия

Дополнительная информация:

Исходник от BLUEBIRD за что им большое спасибо
Созданы и добавлены главы для перехода к нужной серии

Отличия от книги:

Используя значительную часть комических сцен из книги, мультсериал имеет совершенно другой центральный сюжет, основанный на похищении Фуксом Венеры Милосской и преследовании «Беды» итальянскими мафиози. Действие происходит не в 1930-х годах, а в 1970-х, и Джулико Бандитто — уже не сержант армии Муссолини, а просто гангстер. В сюжете обыгрываются и пародируются многие реалии и стереотипы времён позднего «застоя».
Периодически появляющиеся руки Шефа с перстнями — явная перекличка с эпизодами из х/ф «Бриллиантовая рука», особенно в тот момент, когда Шеф гангстеров запирает двери на все замки и засовы.

Цитаты:

— Эй, на буксире, прими конец, чёрт побери!
Как вы яхту назовёте, так она и поплывёт.
— Недаром я назвал нашу яхту «Победа».
— Эй, на «Беде»! Счастливого плавания!
— Произвести измерения температуры забортной воды не представляется возможным из-за отсутствия таковой!
Я там и тут — куда пошлют.
А посылают часто.
— Фукс, какой же Вы, к дьяволу, матрос?!
— А я не матрос…
— Но позвольте! Лом сказал, что Вы в картах умеете разбираться…
— О, это сколько угодно: карты — мой хлеб. Только не морские, а игральные карты.
— О Боже! Что он делает?! Крэтино! (дальше следует непереводимая игра слов с использованием итальянских идиоматических выражений. Звучит это примерно так): Тенти остатенти! Дольварес дель культе, дер фрути де дьяволо! [редиска] апире! Пароле бова вита, дольче вита эль финита! Мама мия, квод ми терабе(н)тте…
— Ва бене…
— Разрешите доложить, Христофор Бонифатьич. По-моему, дело — табак!
— Совершенно справедливо. Закуривай, ребята!
— Шеф, это Вы? Это я — Фукс… Опять всё сорвалось!.. Пусть меня завтра ждут в пирамиде Хеопса у 8-й мумии, 3-й коридор налево… Шеф, у меня больше нет сил!..
— Советую поискать их, Фукс, если не хотите, чтобы из Вас тоже сделали мумию.
— Один крокодил. Два крокодила. Три крокодила… Пятьдесят крокодилов… Шестьдесят крокодилов…
— Бредит, бедняга. Похоже на тропическую лихорадку!
— Аврал! Всех крокодилов за борт!
— Чёрт подери, из-за Фукса мы ничего не можем сделать! … Головы раскалываются…
— Если вы не хотите лишиться ваших голов навсегда, берите товар любым способом!
— Отставить макать капитана!
— Есть оставить макать капитана!
— Спасите, спасите! Я тону! Ну тону же я, не видите, что ли?
А вот, понимаете… гулял по берегу, налетел лёгкий ветерок, и меня унесло в море. И вот я перед вами…
— Считаю своим долгом сообщить Вам, что произошла маленькая ошибка. Мы в некотором роде не совсем гавайцы. Скорее даже, совсем не гавайцы…
— Ой, что было, Шеф, что было! Это было так интересно!
— Мы преследовали «Беду» в Индийском, Атлантическом, эээ… и Тихом океане…
Наконец мы загнали проклятую «Беду» на необитаемый остров… И, чтобы замести следы, разнесли островок вдребезги!.. Ва бене!
— А ну-ка, покажите товар… Простите, вы кого хотели обмануть?
Да я вас измочалю, сотру в порошок, поджарю на медленном огне… Впрочем, я придумаю для вас кое-что похуже. Я вышвырну вас, и вам снова придётся стать честными людьми.
— Только не это! Только не это, Шеф!
Скриншоты:
       

Дополнительные скриншоты:

       
       
       
       

}{@R0N

Пост 26-Окт-2017 15:21

[Цитировать]

Утиные истории / DuckTales - Производство: США / Walt Disney Television Animation
Жанр: Мультфильм, комедия, приключения, семейный
Режиссер: Дана Террас
Персонажи: Тони Ансельмо, Эрик Бауза, Бек Беннетт, Джош Бренер, Кори Бёртон, Кит Фергюсон, Кимико Гленн, Эллисон Джэнни, Марго Мартиндейл, Кейт Микуччи
Описание:
«Утиные истории» перезапуск известного одноимённого мультсериала 1987 года.

Дата мировой премьеры: 12 августа 2017
Продолжительность: ~00:22:00 серия
Качество видео: WEB-DLRip Сэмпл
Перевод: Многоголосый закадровый, профессиональный - IdeaFilm
Субтитры: Отсутствуют
Видео: Xvid, 720x400 (16:9), ~1500 Kbps
Аудио: AC3, 2 ch, 192 Kbps

Mediainfo:

Общее
Полное имя : D:\Утиные истории (2017)\Серия 01-02.avi
Формат : AVI
Формат/Информация : Audio Video Interleave
Размер файла : 576 Мбайт
Продолжительность : 44 м. 43 с.
Общий поток : 1800 Кбит/сек
Программа кодирования : Lavf54.63.104
Видео
Идентификатор : 0
Формат : xvid
Идентификатор кодека : xvid
Продолжительность : 44 м. 43 с.
Битрейт : 1597 Кбит/сек
Ширина : 720 пикселей
Высота : 400 пикселей
Соотношение сторон : 16:9
Частота кадров : 23,976 (24000/1001) кадра/сек
Тип развёртки : Прогрессивная
Бит/(Пиксели*Кадры) : 0.231
Размер потока : 511 Мбайт (89%)
Аудио
Идентификатор : 1
Формат : AC-3
Формат/Информация : Audio Coding 3
Параметр Endianness формата : Big
Идентификатор кодека : 2000
Продолжительность : 44 м. 43 с.
Вид битрейта : Постоянный
Битрейт : 192 Кбит/сек
Каналы : 2 канала
Расположение каналов : Front: L R
Частота : 48,0 КГц
Частота кадров : 31,250 кадров/сек (1536 SPF)
Битовая глубина : 16 бит
Метод сжатия : С потерями
Размер потока : 61,4 Мбайт (11%)
Выравнивание : Соединение по промежуткам
Продолжительность промежутка : 32 мс. (0,77 видеокадр)
ServiceKind/String : Complete Main

Внимание! Раздача ведётся путём добавления новых серий

Внимание! Раздача ведётся путём добавления новых серий; при каждом добавлении создаётся новый торрент.
Чтобы начать докачку новой серии, пользователям необходимо сделать следующее:
1. Остановить скачивание;
2. Удалить старый торрент у себя из клиента (старые серии удалять не надо);
3. Скачать новый торрент и запустить его у себя в клиенте вместо старого, при этом указать клиенту путь в старую папку куда и должно происходить скачивание новых серий. Ваш клиент при этом должен произвести хеширование (проверку) старой папки и будет докачивать только те серии, которых у вас ещё нет. Старые серии при этом не удаляются, а продолжают раздаваться! Eсли вы уже удалили старые серии, то предотвратить повторную закачку старых серий можно, отжав галочку в соответствующих местах при запуске нового торрента.
Скриншоты:
       

Omen

Пост 09-Янв-2017 01:00

[Цитировать]

Шоу Тома и Джерри / The Tom and Jerry Show
Страна: США
Жанр: Мультипликация
Продолжительность серии: ~00:22:00
Год выпуска: 2016
Перевод: Профессиональный (дублированный)
Русские субтитры: нет-Режиссёр: Даррел Ван Киттерс / Darrell Van Citters
Роли озвучивали: Рик Зефф, Джейсон Александр, Джои Д’Аурия, Грэй ДеЛисл, Рене Мухика, Эрик Бауза, Рэйчел МакФарлейн, Alicyn Packard, Крис Парнелл, Кри Саммер-Описание: Новые истории соперничества кота Тома и мышонка Джерри. Том упорно гоняется за Джерри и каждая новая уловка хитрого кота изобретательней предыдущей, но мышонок дает достойный отпор своему сопернику, не теряя возможности сделать ему между прочим какую-нибудь пакость.--Качество: SATRip
Формат: AVI
Видео: MPEG4, XviD, 720x448 (16:10), 25.000 fps, 1 100 Kbps (0.136 bit/pixel)
Аудио: MP3, 48.0 KHz, 2 ch, 192 Kbps, CBR
Субтитры: отсутствуют
Семпл: Забираем тут

Список серий:

s02e01 - Dental Case / Picture Imperfect / One-Way Cricket
s02e02 - Slinging in the Rain / Squeaky Clean / Tough Luck Duck
s02e03 - The Paper Airplane Chase / Round Tripped / Smitten with the Kitten
s02e04 - Cheesy Ball Run / Say Uncle / Here Come's the Bribe
s02e05 - Slaphappy Birthday / Reward If Lost / Charity Case
s02e06 - X Marks the Thumpin / Dragon Down the Holidays / Baby Blues
s02e07 - Build-a-Beast / No Fly Zone / Big Top Tom
s02e08 - Duck, Duck, Loose / Tuffy's Big Adventure / Flea Bitten
s02e09 - Shadow Boxin / Dandy Do-gooders / The Art Of War
s02e10 - From Nuts To Soup / Toodle Boom! / Meanie Genie
s02e11 - To Kill A Mockingbird / Growing Pains / Bringing Down The House
s02e12 - Life's A Beach / Hiccup And Away / I Quit
s02e13 - You Can't Handle The Tooth / Pain For Sale / Jerry Rigged

Подробные технические данные

ОбщееПолное имя : 09 - Shadow Boxin_Dandy Do-gooders_The Art Of War.aviФормат : AVIФормат/Информация : Audio Video InterleaveРазмер файла : 193 МбайтПродолжительность : 20 м.Общий поток : 1301 Кбит/секПрограмма кодирования : VirtualDubMod 1.5.10.3 | www.virtualdub-fr.org || (build 2550/release)Библиотека кодирования : VirtualDubMod build 2550/release
ВидеоИдентификатор : 0Формат : MPEG-4 VisualПрофиль формата : Advanced [email protected]Параметр BVOP формата : 1Параметр QPel формата : НетПараметр GMC формата : Без точки переходаПараметр матрицы формата : Default (H.263)Идентификатор кодека : XVIDИдентификатор кодека/Подсказка : XviDПродолжительность : 20 м.Битрейт : 1100 Кбит/секШирина : 720 пикселейВысота : 448 пикселейСоотношение сторон : 16:10Частота кадров : 25,000 кадров/секЦветовое пространство : YUVСубдискретизация насыщенности : 4:2:0Битовая глубина : 8 битТип развёртки : ПрогрессивнаяМетод сжатия : С потерямиБит/(Пиксели*Кадры) : 0.136Размер потока : 163 Мбайт (84%)Библиотека кодирования : XviD 1.2.1 (UTC 2008-12-04)
АудиоИдентификатор : 1Формат : MPEG AudioВерсия формата : Version 1Профиль формата : Layer 3Идентификатор кодека : 55Идентификатор кодека/Подсказка : MP3Продолжительность : 20 м.Вид битрейта : ПостоянныйБитрейт : 192 Кбит/секКаналы : 2 каналаЧастота : 48,0 КГцМетод сжатия : С потерямиРазмер потока : 28,5 Мбайт (15%)Выравнивание : Соединение по промежуткамПродолжительность промежутка : 40 мс. (1,00 видеокадр)Время предзагрузки промежутка : 504 мс.Библиотека кодирования : LAME3.99rНастройки программы : -m s -V 4 -q 0 -lowpass 18.6 -b 192

Внимание! Раздача ведется путем добавления новых серий

Внимание! Раздача ведётся путём добавления новых серий; при каждом добавлении создётся новый торрент. Чтобы начать докачку новой серии, пользователям необходимо сделать следующее:
(1) остановить скачивание.
(2) удалить старый торрент у себя из клиента (старые серии удалять не надо),
(3) скачать новый торрент и запустить его у себя в клиенте вместо старого, при этом указать клиенту путь в старую папку куда и должно происходить скачивание новых серий.
Ваш клиент при этом должен произвести хеширование (проверку) старой папки (если не производит сам - помогите ему сделать это), и будет докачивать только те серии которых у вас ещё нет. Старые серии при этом не удаляются, а продолжают раздаваться!
Eсли вы уже удалили старые серии, то предотвратить повторную закачку старых серий можно, отжав галочку в соответсвующих местах при запуске нового торрента. По возможности, желательно не удалять старые серии как можно дольше чтобы релизёр не столько продолжал раздавать старые серии, а смог сконцентрироваться на новых.

Скриншоты


Omen

Пост 18-Дек-2016 01:00

[Цитировать]

Чип и Дейл спешат на помощь / Chip and Dale Rescue Rangers
Страна: США
Жанр: Приключения, комедия
Продолжительность серии: ~00:22:00
Год выпуска: 1989
Перевод: Профессиональный (дублированный) ТСК (Телевизионная Студия Кинопрограмм)
Русские субтитры: нет
Режиссёр: Джон Кимболл, Роб Замбони
Роли озвучивали: Кори Бертон, Питер Каллен, Джим Каммингс, Тресс МакНилл, Роб Полсен, Дэнни Гэнс и другие
Описание: Приключенческий мультсериал, созданный студией Уолта Диснея. Авторы идеи — Алан Заслов и Тэд Стоун. Главными героями мультсериала являются переработанные классические диснеевские персонажи — антропоморфные бурундуки Чип и Дейл, а также трое их друзей — мышка-изобретательница Гайка, крыса Рокфор и его друг, муха по имени Вжик — вместе образующие «Команду Спасателей» (англ. Rescue Rangers).
Впервые данная концепция была показана в США 27 августа 1988 года в превью-эпизоде «Catteries Not Included». Собственно сам мультсериал в США начал выходить в эфир с 4 марта 1989 года на канале «The Disney Channel» обычно в паре с «Утиными историями». Последняя серия была показана 19 ноября 1990 года. Начиная с 18 сентября 1990 года в США транслировался повтор шоу. Кроме того, повторы выходили до 3 сентября 1993 года в рамках программы «The Disney Afternoon».
В общей сложности было показано 65 серий, пять из которых представляют собой разделенный на несколько частей полнометражный мультфильм «Rescue Rangers: To The Rescue», которые выходили с порядковым номером серий с 14 по 18.
Список серий:
01. To The Rescue. Part 1
02. To The Rescue. Part 2
03. To The Rescue. Part 3
04. To The Rescue. Part 4
05. To The Rescue. Part 5
06. Catteries Not Included
07. Three Men and a Booby
08. The Carpetsnaggers
Доп. информация: Раздача ведётся путём добавления серий! (от БАТИ)
Семпл: http://multi-up.com/1131257
Качество: WEB-DLRip
Формат: AVI
Видео: 720x544 (1.32:1), 23.976 fps, XviD build 73, 2351 kbps avg, 0.25 bit/pixel
Аудио: 48 kHz, AC3 Dolby Digital, 2/0 (L,R) ch, 192 kbps
Субтитры: нет

Подробные технические данные

ОбщееПолное имя : D:\Чип и Дейл спешат на помощь\01. To The Rescue. Part 1.aviФормат : AVIФормат/Информация : Audio Video InterleaveРазмер файла : 417 МбайтПродолжительность : 22 м.Общий поток : 2553 Кбит/секПрограмма кодирования : VirtualDubMod 1.5.10.3 | www.virtualdub-fr.org || (build 2550/release)Библиотека кодирования : VirtualDubMod build 2550/release
ВидеоИдентификатор : 0Формат : MPEG-4 VisualПрофиль формата : Advanced [email protected]Параметр BVOP формата : 1Параметр QPel формата : НетПараметр GMC формата : Без точки переходаПараметр матрицы формата : ВыборочнаяИдентификатор кодека : XVIDИдентификатор кодека/Подсказка : XviDПродолжительность : 22 м.Битрейт : 2351 Кбит/секШирина : 720 пикселейВысота : 544 пикселяСоотношение сторон : 4:3Частота кадров : 23,976 (23976/1000) кадра/секЦветовое пространство : YUVСубдискретизация насыщенности : 4:2:0Битовая глубина : 8 битТип развёртки : ПрогрессивнаяМетод сжатия : С потерямиБит/(Пиксели*Кадры) : 0.250Размер потока : 384 Мбайт (92%)Библиотека кодирования : XviD 73
АудиоИдентификатор : 1Формат : AC-3Формат/Информация : Audio Coding 3Расширение режима : CM (complete main)Параметр Endianness формата : BigИдентификатор кодека : 2000Продолжительность : 22 м.Вид битрейта : ПостоянныйБитрейт : 192 Кбит/секКаналы : 2 каналаРасположение каналов : Front: L RЧастота : 48,0 КГцЧастота кадров : 31,250 кадров/сек (1536 spf)Метод сжатия : С потерямиРазмер потока : 31,3 Мбайт (8%)Выравнивание : Разделение по промежуткамПродолжительность промежутка : 42 мс. (1,00 видеокадр)Время предзагрузки промежутка : 500 мс.

Omen

Пост 21-Ноя-2016 01:00

[Цитировать]

Симпсоны / The Simpsons- Страна: США
Год выпуска: 2016
Жанр: Мультсериал, комедия, сатира
Перевод: Профессиональный (многоголосый закадровый)
Продолжительность: ~22 минуты
Русские субтитры: есть (1-4 серии) [отдельно]
-Режиссёр: Мэтт Гроунинг / Matt Groening-Роли озвучивали: Дэн Кастелланета, Джули Кавнер, Нэнси Картрайт, Ярдли Смит, Гарри Ширер, Хэнк Азария, Памела Хейден, Тресс МакНилл, Карл Видерготт, Мэгги Росвэлл и другие.-Описание: Симпсоны живут в вымышленном городе Спрингфилд, со своим обществом и историей. Гомер - отец семейства, который даёт плохие советы и работает инспектором по безопасности на атомной электростанции; Мардж - любящая мать и жена, старается сохранить спокойствие в семье; Барт - 10 летний хулиган; Лиза - философский 8-летний ребёнок; и Мэгги - младенец, который общается посредством соски.-Сэмпл-**Качество: WEB-DL 1080p
**Формат: MKV
**Видео:
**#AVC, 1916x1076, 23.976 fps, ~5000 kbps (1-3, 5 серии)
**#AVC, 1920x1080, 23.976 fps, ~5000 kbps (4 серия)
**Аудио Rus: AC3, 48 KHz, 2 ch, 256 kbps (VO-production)
**Аудио Eng: AC3, 48 KHz, 6 ch, 384 kbps
**Субтитры: русские (1-4 серии) [отдельно], английские

Подробные технические данные

GeneralUnique ID : 191916312701080181840856914703831121872 (0x9061BCC29FF5E8F9A32A4D054BE9BFD0)Complete name : C:\The Simpsons (Season 28) WEB-DL 1080p\01. Monty Burns' Fleeing Circus.mkvFormat : MatroskaFormat version : Version 4 / Version 2File size : 867 MiBDuration : 21mn 10sOverall bit rate : 5 729 KbpsEncoded date : UTC 2016-10-07 21:40:22Writing application : mkvmerge v9.1.0 ('Little Earthquakes') 64bitWriting library : libebml v1.3.3 + libmatroska v1.4.4Cover : YesAttachments : cover.png
VideoID : 1Format : AVCFormat/Info : Advanced Video CodecFormat profile : [email protected] settings, CABAC : YesFormat settings, ReFrames : 4 framesFormat settings, GOP : N=1Codec ID : V_MPEG4/ISO/AVCDuration : 21mn 10sBit rate : 5 054 KbpsWidth : 1 916 pixelsHeight : 1 076 pixelsDisplay aspect ratio : 16:9Frame rate mode : ConstantFrame rate : 23.976 (24000/1001) fpsColor space : YUVChroma subsampling : 4:2:0Bit depth : 8 bitsScan type : ProgressiveBits/(Pixel*Frame) : 0.102Stream size : 765 MiB (88%)Language : EnglishDefault : YesForced : NoColor range : LimitedColor primaries : BT.709Transfer characteristics : BT.709Matrix coefficients : BT.709
Audio #1ID : 2Format : AC-3Format/Info : Audio Coding 3Mode extension : CM (complete main)Format settings, Endianness : BigCodec ID : A_AC3Duration : 21mn 10sBit rate mode : ConstantBit rate : 256 KbpsChannel(s) : 2 channelsChannel positions : Front: L RSampling rate : 48.0 KHzFrame rate : 31.250 fps (1536 spf)Compression mode : LossyStream size : 38.8 MiB (4%)Title : VO-productionLanguage : RussianDefault : YesForced : No
Audio #2ID : 3Format : AC-3Format/Info : Audio Coding 3Mode extension : CM (complete main)Format settings, Endianness : BigCodec ID : A_AC3Duration : 21mn 10sBit rate mode : ConstantBit rate : 384 KbpsChannel(s) : 6 channelsChannel positions : Front: L C R, Side: L R, LFESampling rate : 48.0 KHzFrame rate : 31.250 fps (1536 spf)Compression mode : LossyStream size : 58.1 MiB (7%)Language : EnglishDefault : NoForced : No
TextID : 4Format : UTF-8Codec ID : S_TEXT/UTF8Codec ID/Info : UTF-8 Plain TextDuration : 21mn 1sBit rate : 86 bpsCount of elements : 498Stream size : 13.4 KiB (0%)Language : EnglishDefault : NoForced : No

Список серий

01. Пролетевший цирк Монти Бернса (Monty Burns' Fleeing Circus)
02. Друзья и семья (Friends and Family)
03. Город (The Town)
04. Домик ужасов на дереве XXVII (Treehouse of Horror XXVII)
05. Доверяй, но проверяй (Trust but Clarify)

Скриншоты

Внимание! Раздача ведётся путём добавления новых серий

Внимание! Раздача ведётся путём добавления новых серий; при каждом добавлении создаётся новый торрент. Чтобы начать докачку новой серии, пользователям необходимо сделать следующее:
(1) остановить скачивание,
(2) удалить старый торрент у себя из клиента (старые серии удалять не надо),
(3) скачать новый торрент и запустить его у себя в клиенте вместо старого, при этом указать клиенту путь в старую папку куда и должно происходить скачивание новых серий.
Ваш клиент при этом должен произвести хеширование (проверку) старой папки (если не производит сам - помогите ему сделать это), и будет докачивать только те серии, которых у вас ещё нет. Старые серии при этом не удаляются, а продолжают раздаваться!
Если вы уже удалили старые серии, то предотвратить повторную закачку старых серий можно, отжав галочку в соответствующих местах при запуске нового торрента. По возможности, желательно не удалять старые серии как можно дольше, чтобы релизёр не столько продолжал раздавать старые серии, а смог сконцентрироваться на новых.
Обновление будет после выхода какого-то количества серий!
(Обновление субтитров не гарантировано!)

Omen

Пост 21-Ноя-2016 01:00

[Цитировать]

Гриффины / Family Guy- Страна: США
Год выпуска: 2016
Жанр: Мультсериал, комедия, сатира, пародия, чёрный юмор, буффонада, ситком
Перевод: Профессиональный (многоголосый закадровый)
Продолжительность: ~22 минуты
Русские субтитры: нет
-Режиссёр: Сет МакФарлейн / Seth MacFarlane-Роли озвучивали: Сет МакФарлейн, Алекс Борштейн, Сет Грин, Мила Кунис, Майк Генри и другие.-Описание: "Гриффины" (Family Guy) - анимационное ТВ-Шоу, созданное Сетом МакФарлейном (Seth MacFarlane) для телеканала FOX. Как нетрудно догадаться, главными героями шоу является семейка Гриффинов: тупой, но полный сумашедших идей, составляющих львиную долю шуток сериала, отец семейства Питер; его любящя и терпеливая жена Лойс, всеми силами пытающаяся превратить Гриффинов в нормальную семью; их интеллектуально развитый не по годам, вынашивающий идею мирового господства младший сын Стьюи; дочь-ботаник, обречённая из-за этого на одиночество и непонимание как в школе так и дома, Мэг; и 13-ти летний отсталый в развитии лет на 10, сын Крис. Также полноценным членом семьи является пёс Брайн - склонный к меланхолии эстет, спокойно наблюдающий с бокалом вина в лапе над приключениями Питера и остальных членов семьи (и это при всём притом, что остальные собаки в сериале не являются очеловеченными).-Сэмпл-**Качество: WEB-DL 1080p
**Формат: MKV
**Видео: AVC, 1920x1080, 23.976 fps, ~5000 kbps
**Аудио Rus: AC3, 48 KHz, 6 ch, 384 kbps (Filiza)
**Аудио Eng: AC3, 48 KHz, 6 ch, 384 kbps
**Субтитры: русские (forced) [2c.], английские

Подробные технические данные

GeneralUnique ID : 231109832668428643184653161464330746792 (0xADDE227CDE6288138D86083B2E287BA8)Complete name : C:\Family Guy (Season 15) WEB-DL 1080p\01. The Boys in the Band.mkvFormat : MatroskaFormat version : Version 4 / Version 2File size : 871 MiBDuration : 21mn 35sOverall bit rate : 5 638 KbpsEncoded date : UTC 2016-11-19 15:17:03Writing application : mkvmerge v9.1.0 ('Little Earthquakes') 64bitWriting library : libebml v1.3.3 + libmatroska v1.4.4
VideoID : 1Format : AVCFormat/Info : Advanced Video CodecFormat profile : [email protected] settings, CABAC : YesFormat settings, ReFrames : 4 framesCodec ID : V_MPEG4/ISO/AVCDuration : 21mn 35sBit rate : 4 868 KbpsWidth : 1 920 pixelsHeight : 1 080 pixelsDisplay aspect ratio : 16:9Frame rate mode : ConstantFrame rate : 23.976 (24000/1001) fpsColor space : YUVChroma subsampling : 4:2:0Bit depth : 8 bitsScan type : ProgressiveBits/(Pixel*Frame) : 0.098Stream size : 752 MiB (86%)Language : EnglishDefault : YesForced : NoColor range : LimitedColor primaries : BT.709Transfer characteristics : BT.709Matrix coefficients : BT.709
Audio #1ID : 2Format : AC-3Format/Info : Audio Coding 3Mode extension : CM (complete main)Format settings, Endianness : BigCodec ID : A_AC3Duration : 21mn 35sBit rate mode : ConstantBit rate : 384 KbpsChannel(s) : 6 channelsChannel positions : Front: L C R, Side: L R, LFESampling rate : 48.0 KHzFrame rate : 31.250 fps (1536 spf)Compression mode : LossyStream size : 59.3 MiB (7%)Title : FilizaLanguage : RussianDefault : YesForced : No
Audio #2ID : 3Format : AC-3Format/Info : Audio Coding 3Mode extension : CM (complete main)Format settings, Endianness : BigCodec ID : A_AC3Duration : 21mn 35sBit rate mode : ConstantBit rate : 384 KbpsChannel(s) : 6 channelsChannel positions : Front: L C R, Side: L R, LFESampling rate : 48.0 KHzFrame rate : 31.250 fps (1536 spf)Compression mode : LossyStream size : 59.3 MiB (7%)Language : EnglishDefault : NoForced : No
TextID : 4Format : UTF-8Codec ID : S_TEXT/UTF8Codec ID/Info : UTF-8 Plain TextDuration : 20mn 53sBit rate : 122 bpsCount of elements : 570Stream size : 18.7 KiB (0%)Language : EnglishDefault : NoForced : No

Список серий

01. Оркестранты (The Boys in the Band)
02. Букмекер года (Bookie of the Year)
03. Американский ГИГ-оло (American Gigg-olo)
04. Внутри Гриффинов (Inside Family Guy)

Скриншоты

Внимание! Раздача ведётся путём добавления новых серий

Внимание! Раздача ведётся путём добавления новых серий; при каждом добавлении создаётся новый торрент. Чтобы начать докачку новой серии, пользователям необходимо сделать следующее:
(1) остановить скачивание,
(2) удалить старый торрент у себя из клиента (старые серии удалять не надо),
(3) скачать новый торрент и запустить его у себя в клиенте вместо старого, при этом указать клиенту путь в старую папку куда и должно происходить скачивание новых серий.
Ваш клиент при этом должен произвести хеширование (проверку) старой папки (если не производит сам - помогите ему сделать это), и будет докачивать только те серии, которых у вас ещё нет. Старые серии при этом не удаляются, а продолжают раздаваться!
Если вы уже удалили старые серии, то предотвратить повторную закачку старых серий можно, отжав галочку в соответствующих местах при запуске нового торрента. По возможности, желательно не удалять старые серии как можно дольше, чтобы релизёр не столько продолжал раздавать старые серии, а смог сконцентрироваться на новых.
Обновление будет неизвестно когда!

Omen

Пост 12-Ноя-2016 01:00

[Цитировать]

Симпсоны / The Simpsons Страна: США
Жанр: Комедия, мультсериал, семейный
Продолжительность: 00:22:00
Год выпуска: 2016
Перевод: Профессиональный (многоголосый закадровый) Jaskier
Русские субтитры: нет
Режиссёр: Марк Керклэнд, Джефф Линч, Сьюзи Диттер, Мэтт Гроенинг, Дэвид Сильверман, Стивен Дин Мур,
Роли озвучивали: Дэн Кастелланета, Джули Кавнер, Нэнси Картрайт, Ярдли Смит, Гарри Ширер, Хэнк Азария, Памела Хейден, Тресс МакНилл, Карл Видерготт, Мэгги Росвэл
Описание: «Симпсоны» - это пародия на всех и вся, и на типичный американский уклад жизни в целом. Главные герои этого мультсериала - показательная в своей типичности семья Симпсонов - обжора и лежебока, недалекий Гомер, его жена-умница домохозяйка Мардж, их дети сорванец Барт, одаренная умная девочка Лиза и совсем еще младенец Мэгги. Каждая серия не только богата юмором, но и высмеивает одну из волнующих современного человека тем, так что сериал с успехом пережил более 27 сезонов и продолжает успешное шествие по экранам. Отрезки, шутки, сами герои Симпсонов стали неотъемлемой частью современной поп-культуры, а их имена стали именами нарицательными.
Семпл: http://sendfile.su/1272488
Качество: WEB-DL 1080p
Формат: MKV
Видео: H264, 1916x1076 (16:9), 23.976 fps, ~5100 kbps
Аудио 1: AC3, 48 kHz, 6 ch, 384 kbps
Аудио 2: AC3, 48 kHz, 6 ch, 384 kbps
Субтитры: Английские

Релиз

Khoren2013
Перевод: Профессиональный (многоголосый закадровый) студия Jaskier
Релиз без рекламы

Подробные технические данные

GeneralUnique ID : 224063226687604791865919154817125241260 (0xA89101FD4DECD46FACA104381D9AD1AC)Complete name : D:\Torrent\The.Simpsons.S28.1080p.WEB-DL.DD5.1.H.264-Jaskier\The.Simpsons.S28E01.Monty.Burns.Fleeing.Circus.1080p.WEB-DL.DD5.1.H.264-Jaskier.mkvFormat : MatroskaFormat version : Version 4 / Version 2File size : 966 MiBDuration : 22 min 49 sOverall bit rate : 5 918 kb/sEncoded date : UTC 2016-10-08 10:45:48Writing application : mkvmerge v9.4.2 ('So High') 64bitWriting library : libebml v1.3.4 + libmatroska v1.4.5Cover : YesAttachments : cover.simpsons.jpg
VideoID : 1Format : AVCFormat/Info : Advanced Video CodecFormat profile : [email protected] settings, CABAC : YesFormat settings, ReFrames : 4 framesCodec ID : V_MPEG4/ISO/AVCDuration : 22 min 49 sBit rate : 5 147 kb/sWidth : 1 916 pixelsHeight : 1 076 pixelsDisplay aspect ratio : 16:9Frame rate mode : ConstantFrame rate : 23.976 (24000/1001) FPSColor space : YUVChroma subsampling : 4:2:0Bit depth : 8 bitsScan type : ProgressiveBits/(Pixel*Frame) : 0.104Stream size : 841 MiB (87%)Language : EnglishDefault : YesForced : NoColor range : LimitedColor primaries : BT.709Transfer characteristics : BT.709Matrix coefficients : BT.709
Audio #1ID : 2Format : AC-3Format/Info : Audio Coding 3Mode extension : CM (complete main)Format settings, Endianness : BigCodec ID : A_AC3Duration : 22 min 49 sBit rate mode : ConstantBit rate : 384 kb/sChannel(s) : 6 channelsChannel positions : Front: L C R, Side: L R, LFESampling rate : 48.0 kHzFrame rate : 31.250 FPS (1536 spf)Compression mode : LossyStream size : 62.7 MiB (6%)Language : RussianDefault : YesForced : No
Audio #2ID : 3Format : AC-3Format/Info : Audio Coding 3Mode extension : CM (complete main)Format settings, Endianness : BigCodec ID : A_AC3Duration : 22 min 49 sBit rate mode : ConstantBit rate : 384 kb/sChannel(s) : 6 channelsChannel positions : Front: L C R, Side: L R, LFESampling rate : 48.0 kHzFrame rate : 31.250 FPS (1536 spf)Compression mode : LossyStream size : 62.7 MiB (6%)Language : EnglishDefault : NoForced : No
TextID : 4Format : UTF-8Codec ID : S_TEXT/UTF8Codec ID/Info : UTF-8 Plain TextDuration : 22 min 44 sBit rate : 90 b/sCount of elements : 536Stream size : 15.0 KiB (0%)Language : EnglishDefault : NoForced : No

Скриншоты



Внимание! Раздача ведётся путём добавления новых серий

Внимание! Раздача ведётся путём добавления новых серий; при каждом добавлении создаётся новый торрент. Чтобы начать докачку новой серии, пользователям необходимо сделать следующее:
(1) остановить скачивание,
(2) удалить старый торрент у себя из клиента (старые серии удалять не надо),
(3) скачать новый торрент и запустить его у себя в клиенте вместо старого, при этом указать клиенту путь в старую папку куда и должно происходить скачивание новых серий.
Ваш клиент при этом должен произвести хеширование (проверку) старой папки (если не производит сам - помогите ему сделать это), и будет докачивать только те серии которых у вас ещё нет. Старые серии при этом не удаляются, а продолжают раздаваться!
Eсли вы уже удалили старые серии, то предотвратить повторную закачку старых серий можно, отжав галочку в соответствующих местах при запуске нового торрента. По возможности, желательно не удалять старые серии как можно дольше чтобы релизёр не столько продолжал раздавать старые серии, а смог сконцентрироваться на новых.

Omen

Пост 12-Ноя-2016 01:00

[Цитировать]

Симпсоны | The Simpsons- Год выпуска: 2016
Страна: США
Жанр: Комедия, сатира
Продолжительность: ~ 00:23:00-Перевод: Профессиональный (многоголосый закадровый) | VO-production-Режиссёр: Мэтт Гроунинг / Matt Groening-В ролях: Дэн Кастелланета, Джули Кавнер, Нэнси Картрайт, Ярдли Смит, Гарри Ширер, Хэнк Азария, Памела Хейден, Тресс МакНилл, Карл Видерготт, Мэгги Росвэлл и др.-Описание: Симпсоны живут в вымышленном городе Спрингфилд, со своим обществом и историей. Гомер - отец семейства, который дает плохие советы и работает инспектором безопасности на атомной электростанции; Мардж - любящая мать и жена, старается сохранить спокойствие в семье; Барт - 10 летний хулиган; Лиза - философский 8-летний ребенок; и Мэгги - младенец, который общается посредством соски.- --Качество: WEB-DLRip
Формат: AVI
Видео: XviD, 720x400 (16:9), 23,976 fps, ~ 1400 kbps
Аудио: MP3, 48 kHz, 2 ch, 128 kbps - Rus
Аудио: MP3, 48 kHz, 2 ch, 128 kbps - Eng
Субтитры: отсутствуют
Реклама: отсутствует-

MediaInfo

Код:
Общее
Формат                                   : AVI
Формат/Информация                        : Audio Video Interleave
Размер файла                             : 250 Мбайт
Продолжительность                        : 21 м.
Общий поток                              : 1654 Кбит/сек
Программа кодирования                    : VirtualDubMod 1.5.10.3 | www.virtualdub-fr.org || (build 2550/release)
Библиотека кодирования                   : VirtualDubMod build 2550/release
Видео
Идентификатор                            : 0
Формат                                   : MPEG-4 Visual
Профиль формата                          : Advanced [email protected]
Параметр BVOP формата                    : 1
Параметр QPel формата                    : Нет
Параметр GMC формата                     : Без точки перехода
Параметр матрицы формата                 : Default (MPEG)
Идентификатор кодека                     : XVID
Идентификатор кодека/Подсказка           : XviD
Продолжительность                        : 21 м.
Битрейт                                  : 1384 Кбит/сек
Ширина                                   : 720 пикселей
Высота                                   : 400 пикселей
Соотношение сторон                       : 16:9
Частота кадров                           : 23,976 кадра/сек
Цветовое пространство                    : YUV
Субдискретизация насыщенности            : 4:2:0
Битовая глубина                          : 8 бит
Тип развёртки                            : Прогрессивная
Метод сжатия                             : С потерями
Бит/(Пиксели*Кадры)                      : 0.200
Размер потока                            : 210 Мбайт (84%)
Библиотека кодирования                   : XviD 73
Аудио #1
Идентификатор                            : 1
Формат                                   : MPEG Audio
Версия формата                           : Version 1
Профиль формата                          : Layer 3
Режим                                    : Joint stereo
Расширение режима                        : MS Stereo
Идентификатор кодека                     : 55
Идентификатор кодека/Подсказка           : MP3
Продолжительность                        : 21 м.
Вид битрейта                             : Постоянный
Битрейт                                  : 128 Кбит/сек
Каналы                                   : 2 канала
Частота                                  : 48,0 КГц
Метод сжатия                             : С потерями
Размер потока                            : 19,4 Мбайт (8%)
Выравнивание                             : Соединение по промежуткам
Продолжительность промежутка             : 42  мс. (1,00 видеокадр)
Время предзагрузки промежутка            : 504  мс.
Аудио #2
Идентификатор                            : 2
Формат                                   : MPEG Audio
Версия формата                           : Version 1
Профиль формата                          : Layer 3
Режим                                    : Joint stereo
Расширение режима                        : MS Stereo
Идентификатор кодека                     : 55
Идентификатор кодека/Подсказка           : MP3
Продолжительность                        : 21 м.
Вид битрейта                             : Постоянный
Битрейт                                  : 128 Кбит/сек
Каналы                                   : 2 канала
Частота                                  : 48,0 КГц
Метод сжатия                             : С потерями
Размер потока                            : 19,4 Мбайт (8%)
Выравнивание                             : Соединение по промежуткам
Продолжительность промежутка             : 42  мс. (1,00 видеокадр)
Время предзагрузки промежутка            : 504  мс.

Скриншоты

Список серий

01. Monty Burns' Fleeing Circus - Сбежавший цирк Монти Бернса
02. Friends and Family - Друзья и семья
03. The Town - Город
04. Treehouse of Horror XXVII - Домик ужасов на дереве № 27
05. Trust but Clarify - Доверяй, но проверяй
06. There Will Be Buds - Да будут приятели

Раздача ведется путем добавления новых серий

Когда раздача ведётся путём добавления новых серий, при каждом добавлении создётся новый торрент. Чтобы начать докачку новой серии, пользователям необходимо сделать следующее:
(1) остановить скачивание,
(2) удалить старый торрент у себя из клиента (старые серии удалять не надо),
(3) скачать новый торрент и запустить его у себя в клиенте вместо старого, при этом указать клиенту путь в старую папку, куда и должно происходить скачивание новых серий.
Ваш клиент при этом должен произвести хеширование (проверку) старой папки (если не производит сам - помогите ему сделать это), и будет докачивать только те серии, которых у вас ещё нет. Старые серии при этом не удаляются, а продолжают раздаваться!
Eсли вы уже удалили старые серии, то предотвратить повторную закачку старых серий можно, отжав галочку в соответсвующих местах при запуске нового торрента. По возможности, желательно не удалять старые серии как можно дольше, чтобы релизёр не столько продолжал раздавать старые серии, а смог сконцентрироваться на новых.
-

Omen

Пост 12-Ноя-2016 01:00

[Цитировать]

Симпсоны / Simpsons
Страна: США
Жанр: ситком
Продолжительность серии: ~22мин
Год выпуска: 1989-1990
Перевод: Профессиональный (двухголосный закадровый) RenTV
Русские субтитры: нет
Режиссёр: Дэвид Сильверман
Описание: Мультфильм — пародия на американский уклад жизни. Симпсоны живут в вымышленном городе Спрингфилд, со своим обществом и историей. Cемейство Симпсонов состоит из пяти членов: Гомер - отец семейства, который дает плохие советы и работает инспектором безопасности на атомной электростанции; Мардж - любящая мать и жена, старается сохранить спокойствие в семье; Барт - 10 летний хулиган; Лиза - философский 8-летний ребенок; и Мэгги - младенец, который общается посредством соски.
Семпл: http://multi-up.com/1126507 http://multi-up.com/1126508
Качество: DVDRip
Формат: MKV
Видео: H.264 / 704 X 528 / 25 fps / 1200 Kbps
Аудио 1: AC3 / 48 KHz / 5.1 / 384 Kbps - русская
Аудио 2: AC3 / 48 KHz / 5.1 / 448 Kbps - английская
Аудио 3: AC3 / 48 KHz / 2.0 / 96 Kbps - комментарии
Субтитры: отсутствуют

Список серий:

01. Симпсоны жарятся на открытом огне (Simpsons Roasting on an Open Fire)
02. Барт - гений (Bart the Genius)
03. Одиссея Гомера (Homer's Odyssey)
04. Нет места хуже дома (There's no Disgrace Like Home)
05. Барт - генерал (Bart the General)
06. Стонущая Лиза (Moaning Lisa)
07. Зов Симпсонов (The Call of the Simpsons)
08. Говорящая голова (The Telltale Head)
09. Жизнь на быстрой дорожке (Life on the Fast Lane)
10. Вечеринка Гомера (Homer's Night Out)
11. Гроздья гнева (The Crepes of Wrath)
12. Красти арестован (Krusty Gets Busted)
13. В один из прекрасных вечеров (Some Enchanted Evening)

Подробные технические данные

GeneralUnique ID : 231738144707449741643190766758348356259 (0xAE5724A9BB027212B9C7035A109A7AA3)Complete name : M:\Torrent\Simpsons_DVDRip-AVC_FOX_RU\01\01 - Simpsons Roasting on an Open Fire.mkvFormat : MatroskaFormat version : Version 2File size : 339 MiBDuration : 22mn 15sOverall bit rate : 2 130 KbpsMovie name : 01 - Simpsons Roasting on an Open Fire / Симпсоны готовят на открытом огне / Симпсоны 1 сезон / Релиз - D2T/"Криволапый ювелир"Encoded date : UTC 2016-11-10 15:19:59Writing application : mkvmerge v4.0.0 ('The Stars were mine') сборка от Jun 6 2010 16:18:42Writing library : libebml v1.0.0 + libmatroska v1.0.0DURATION : 00:22:15.240000000NUMBER_OF_FRAMES : 33381NUMBER_OF_BYTES : 200291034_STATISTICS_WRITING_APP : mkvmerge v8.5.2 ('Crosses') 32bit_STATISTICS_WRITING_DATE_UT : 2016-11-10 00:59:02_STATISTICS_TAGS : BPS DURATION NUMBER_OF_FRAMES NUMBER_OF_BYTES
VideoID : 1Format : AVCFormat/Info : Advanced Video CodecFormat profile : [email protected] settings, CABAC : YesFormat settings, ReFrames : 4 framesCodec ID : V_MPEG4/ISO/AVCDuration : 22mn 15sBit rate : 1 200 KbpsWidth : 704 pixelsHeight : 528 pixelsDisplay aspect ratio : 4:3Frame rate mode : ConstantFrame rate : 25.000 fpsColor space : YUVChroma subsampling : 4:2:0Bit depth : 8 bitsScan type : ProgressiveBits/(Pixel*Frame) : 0.129Stream size : 185 MiB (54%)Writing library : x264 core 148 r2638 7599210Encoding settings : cabac=1 / ref=3 / deblock=1:0:0 / analyse=0x1:0x131 / me=esa / subme=9 / psy=1 / psy_rd=1.00:0.00 / mixed_ref=1 / me_range=16 / chroma_me=1 / trellis=2 / 8x8dct=0 / cqm=0 / deadzone=21,11 / fast_pskip=1 / chroma_qp_offset=-2 / threads=6 / lookahead_threads=1 / sliced_threads=0 / nr=0 / decimate=1 / interlaced=0 / bluray_compat=0 / constrained_intra=0 / bframes=3 / b_pyramid=2 / b_adapt=2 / b_bias=0 / direct=3 / weightb=1 / open_gop=0 / weightp=2 / keyint=150 / keyint_min=1 / scenecut=33 / intra_refresh=0 / rc_lookahead=40 / rc=2pass / mbtree=1 / bitrate=1200 / ratetol=1.0 / qcomp=0.60 / qpmin=10 / qpmax=28 / qpstep=4 / cplxblur=20.0 / qblur=0.5 / vbv_maxrate=14000 / vbv_bufsize=14000 / nal_hrd=none / filler=0 / ip_ratio=1.40 / aq=1:1.00Default : NoForced : No
Audio #1ID : 2Format : AC-3Format/Info : Audio Coding 3Mode extension : CM (complete main)Format settings, Endianness : BigCodec ID : A_AC3Duration : 22mn 15sBit rate mode : ConstantBit rate : 384 KbpsChannel(s) : 6 channelsChannel positions : Front: L C R, Side: L R, LFESampling rate : 48.0 KHzBit depth : 16 bitsCompression mode : LossyDelay relative to video : 24msStream size : 61.1 MiB (18%)Title : RenTVLanguage : RussianDefault : YesForced : No
Audio #2ID : 3Format : AC-3Format/Info : Audio Coding 3Mode extension : CM (complete main)Format settings, Endianness : BigCodec ID : A_AC3Duration : 22mn 15sBit rate mode : ConstantBit rate : 448 KbpsChannel(s) : 6 channelsChannel positions : Front: L C R, Side: L R, LFESampling rate : 48.0 KHzBit depth : 16 bitsCompression mode : LossyDelay relative to video : 24msStream size : 71.3 MiB (21%)Language : EnglishDefault : NoForced : No
Audio #3ID : 4Format : AC-3Format/Info : Audio Coding 3Mode extension : CM (complete main)Format settings, Endianness : BigCodec ID : A_AC3Duration : 22mn 15sBit rate mode : ConstantBit rate : 96.0 KbpsChannel(s) : 2 channelsChannel positions : Front: L RSampling rate : 48.0 KHzBit depth : 16 bitsCompression mode : LossyDelay relative to video : 8msStream size : 15.3 MiB (5%)Title : DCLanguage : EnglishDefault : NoForced : No

Скриншоты

Релиз

"D2T/Криволапый ювелир"

Omen

Пост 12-Окт-2016 01:00

[Цитировать]

Шоу Тома и Джерри / The Tom and Jerry Show
Страна: США
Жанр: Мультипликация
Продолжительность: ~00:22:00
Год выпуска: 2015
Перевод: Профессиональный (дублированный)
Русские субтитры: нет-Режиссёр: Даррел Ван Киттерс / Darrell Van Citters
Роли озвучивали: Рик Зефф, Джейсон Александр, Джои Д’Аурия, Грэй ДеЛисл, Рене Мухика, Эрик Бауза, Рэйчел МакФарлейн, Alicyn Packard, Крис Парнелл, Кри Саммер-Описание: Новые истории соперничества кота Тома и мышонка Джерри. Том упорно гоняется за Джерри и каждая новая уловка хитрого кота изобретательней предыдущей, но мышонок дает достойный отпор своему сопернику, не теряя возможности сделать ему между прочим какую-нибудь пакость.--Качество: HDTVRip 720p
Формат: MKV
Видео: AVC, 1280x720 (16:9), 23.976 fps, 1 453 Kbps (0.066 bit/pixel)
Аудио 1: AC-3, 48.0 KHz, 2 ch, 192 Kbps, CBR (Russian)
Аудио 2: AC-3, 48.0 KHz, 6 ch, 448 Kbps, CBR (English)
Субтитры: English
Семпл: Забираем тут

Список серий:

s01e01 - Dental Case / Picture Imperfect / One-Way Cricket
s01e02 - Slinging in the Rain / Squeaky Clean / Tough Luck Duck
s01e03 - The Paper Airplane Chase / Round Tripped / Smitten with the Kitten
s01e04 - Cheesy Ball Run / Say Uncle / Here Come's the Bribe
s01e05 - Slaphappy Birthday / Reward If Lost / Big Top Tom
s01e06 - X Marks the Thumpin / Dragon Down the Holidays / Baby Blues

Подробные технические данные

ОбщееУникальный идентификатор : 187428789333836451797578410765387102312 (0x8D0178C6B1A33750B25B8E08EF5CF868)Полное имя : the tom and jerry show s02e02 720p.mkvФормат : MatroskaВерсия формата : Version 4 / Version 2Размер файла : 323 МбайтПродолжительность : 21 м.Общий поток : 2136 Кбит/секДата кодирования : UTC 2016-10-07 09:49:49Программа кодирования : mkvmerge v8.8.0 ('Wind at my back') 64bitБиблиотека кодирования : libebml v1.3.3 + libmatroska v1.4.4
ВидеоИдентификатор : 1Формат : AVCФормат/Информация : Advanced Video CodecПрофиль формата : [email protected]Параметр CABAC формата : ДаПараметр ReFrames формата : 9 кадровИдентификатор кодека : V_MPEG4/ISO/AVCПродолжительность : 21 м.Битрейт : 1494 Кбит/секШирина : 1280 пикселейВысота : 720 пикселейСоотношение сторон : 16:9Режим частоты кадров : ПостоянныйЧастота кадров : 23,976 (24000/1001) кадра/секЦветовое пространство : YUVСубдискретизация насыщенности : 4:2:0Битовая глубина : 8 битТип развёртки : ПрогрессивнаяБит/(Пиксели*Кадры) : 0.068Размер потока : 226 Мбайт (70%)Библиотека кодирования : x264 core 148 r2665 a01e339Настройки программы : cabac=1 / ref=9 / deblock=1:1:1 / analyse=0x3:0x113 / me=umh / subme=8 / psy=1 / psy_rd=0.40:0.00 / mixed_ref=1 / me_range=16 / chroma_me=1 / trellis=1 / 8x8dct=1 / cqm=0 / deadzone=21,11 / fast_pskip=1 / chroma_qp_offset=-2 / threads=12 / lookahead_threads=3 / sliced_threads=0 / nr=0 / decimate=1 / interlaced=0 / bluray_compat=0 / constrained_intra=0 / bframes=5 / b_pyramid=2 / b_adapt=2 / b_bias=0 / direct=3 / weightb=1 / open_gop=0 / weightp=2 / keyint=250 / keyint_min=25 / scenecut=40 / intra_refresh=0 / rc_lookahead=50 / rc=crf / mbtree=1 / crf=18.0 / qcomp=0.60 / qpmin=0 / qpmax=69 / qpstep=4 / ip_ratio=1.40 / aq=1:0.60Язык : EnglishDefault : ДаForced : Нет
Аудио #1Идентификатор : 2Формат : AC-3Формат/Информация : Audio Coding 3Расширение режима : CM (complete main)Параметр Endianness формата : BigИдентификатор кодека : A_AC3Продолжительность : 21 м.Вид битрейта : ПостоянныйБитрейт : 192 Кбит/секКаналы : 2 каналаРасположение каналов : Front: L RЧастота : 48,0 КГцЧастота кадров : 31,250 кадров/сек (1536 spf)Метод сжатия : С потерямиРазмер потока : 29,0 Мбайт (9%)Язык : RussianDefault : ДаForced : Нет
Аудио #2Идентификатор : 3Формат : AC-3Формат/Информация : Audio Coding 3Расширение режима : CM (complete main)Параметр Endianness формата : BigИдентификатор кодека : A_AC3Продолжительность : 21 м.Вид битрейта : ПостоянныйБитрейт : 448 Кбит/секКаналы : 6 каналовРасположение каналов : Front: L C R, Side: L R, LFEЧастота : 48,0 КГцЧастота кадров : 31,250 кадров/сек (1536 spf)Метод сжатия : С потерямиРазмер потока : 67,8 Мбайт (21%)Язык : EnglishDefault : НетForced : Нет
ТекстИдентификатор : 4Формат : UTF-8Идентификатор кодека : S_TEXT/UTF8Идентификатор кодека/Информация : UTF-8 Plain TextПродолжительность : 21 м.Битрейт : 46 бит/секCount of elements : 206Размер потока : 7,20 Кбайт (0%)Язык : EnglishDefault : НетForced : Нет

Внимание! Раздача ведется путем добавления новых серий

Внимание! Раздача ведётся путём добавления новых серий; при каждом добавлении создётся новый торрент. Чтобы начать докачку новой серии, пользователям необходимо сделать следующее:
(1) остановить скачивание,
(2) удалить старый торрент у себя из клиента (старые серии удалять не надо),
(3) скачать новый торрент и запустить его у себя в клиенте вместо старого, при этом указать клиенту путь в старую папку куда и должно происходить скачивание новых серий.
Ваш клиент при этом должен произвести хеширование (проверку) старой папки (если не производит сам - помогите ему сделать это), и будет докачивать только те серии которых у вас ещё нет. Старые серии при этом не удаляются, а продолжают раздаваться!
Eсли вы уже удалили старые серии, то предотвратить повторную закачку старых серий можно, отжав галочку в соответсвующих местах при запуске нового торрента. По возможности, желательно не удалять старые серии как можно дольше чтобы релизёр не столько продолжал раздавать старые серии, а смог сконцентрироваться на новых.

Скриншоты


Omen

Пост 05-Окт-2016 01:01

[Цитировать]

Симпсоны | The Simpsons- Год выпуска: 2016
Страна: США
Жанр: Комедия, сатира
Продолжительность: ~ 00:23:00-Перевод: Любительский (многоголосый закадровый) | OMSKBIRD records-Режиссёр: Мэтт Гроунинг / Matt Groening-В ролях: Дэн Кастелланета, Джули Кавнер, Нэнси Картрайт, Ярдли Смит, Гарри Ширер, Хэнк Азария, Памела Хейден, Тресс МакНилл, Карл Видерготт, Мэгги Росвэлл и др.-Описание: Симпсоны живут в вымышленном городе Спрингфилд, со своим обществом и историей. Гомер - отец семейства, который дает плохие советы и работает инспектором безопасности на атомной электростанции; Мардж - любящая мать и жена, старается сохранить спокойствие в семье; Барт - 10 летний хулиган; Лиза - философский 8-летний ребенок; и Мэгги - младенец, который общается посредством соски.- --Качество: WEB-DLRip
Формат: AVI
Видео: XviD, 720x400 (16:9), 23,976 fps, ~ 1999 kbps
Аудио: AC3, 48 kHz, 6 ch, 384 kbps - Rus
Аудио: AC3, 48 kHz, 6 ch, 384 kbps - Eng
Субтитры: отсутствуют
Реклама: отсутствует-

Релиз

Переведено и озвучено студией OMSKBIRD
Роли озвучивали • Ольга Федорова, Павел Ярощик, Станислав Черсков, Артем Мустаев, Алена Соколова
Перевод • Дарья Жмура
Звукорежиссер • Павел Квентов

MediaInfo

Код:
Формат                                   : AVI
Формат/Информация                        : Audio Video Interleave
Размер файла                             : 454 Мбайт
Продолжительность                        : 22 м.
Общий поток                              : 2783 Кбит/сек
Программа кодирования                    : VirtualDubMod 1.5.10.3 | www.virtualdub-fr.org || (build 2550/release)
Библиотека кодирования                   : VirtualDubMod build 2550/release
Видео
Идентификатор                            : 0
Формат                                   : MPEG-4 Visual
Профиль формата                          : Advanced [email protected]
Параметр BVOP формата                    : 1
Параметр QPel формата                    : Нет
Параметр GMC формата                     : Без точки перехода
Параметр матрицы формата                 : Default (MPEG)
Идентификатор кодека                     : XVID
Идентификатор кодека/Подсказка           : XviD
Продолжительность                        : 22 м.
Битрейт                                  : 2001 Кбит/сек
Ширина                                   : 720 пикселей
Высота                                   : 400 пикселей
Соотношение сторон                       : 16:9
Частота кадров                           : 23,976 кадра/сек
Цветовое пространство                    : YUV
Субдискретизация насыщенности            : 4:2:0
Битовая глубина                          : 8 бит
Тип развёртки                            : Прогрессивная
Метод сжатия                             : С потерями
Бит/(Пиксели*Кадры)                      : 0.290
Размер потока                            : 327 Мбайт (72%)
Библиотека кодирования                   : XviD 73
Аудио #1
Идентификатор                            : 1
Формат                                   : AC-3
Формат/Информация                        : Audio Coding 3
Расширение режима                        : CM (complete main)
Параметр Endianness формата              : Big
Идентификатор кодека                     : 2000
Продолжительность                        : 22 м.
Вид битрейта                             : Постоянный
Битрейт                                  : 384 Кбит/сек
Каналы                                   : 6 каналов
Расположение каналов                     : Front: L C R, Side: L R, LFE
Частота                                  : 48,0 КГц
Битовая глубина                          : 16 бит
Метод сжатия                             : С потерями
Размер потока                            : 62,7 Мбайт (14%)
Выравнивание                             : Разделение по промежуткам
Продолжительность промежутка             : 42  мс. (1,00 видеокадр)
Время предзагрузки промежутка            : 500  мс.
Аудио #2
Идентификатор                            : 2
Формат                                   : AC-3
Формат/Информация                        : Audio Coding 3
Расширение режима                        : CM (complete main)
Параметр Endianness формата              : Big
Идентификатор кодека                     : 2000
Продолжительность                        : 22 м.
Вид битрейта                             : Постоянный
Битрейт                                  : 384 Кбит/сек
Каналы                                   : 6 каналов
Расположение каналов                     : Front: L C R, Side: L R, LFE
Частота                                  : 48,0 КГц
Битовая глубина                          : 16 бит
Метод сжатия                             : С потерями
Размер потока                            : 62,7 Мбайт (14%)
Выравнивание                             : Разделение по промежуткам
Продолжительность промежутка             : 42  мс. (1,00 видеокадр)
Время предзагрузки промежутка            : 500  мс.

Скриншоты

Список серий

01. Monty Burns' Fleeing Circus
02. Friends and Family

Раздача ведется путем добавления новых серий

Когда раздача ведётся путём добавления новых серий, при каждом добавлении создётся новый торрент. Чтобы начать докачку новой серии, пользователям необходимо сделать следующее:
(1) остановить скачивание,
(2) удалить старый торрент у себя из клиента (старые серии удалять не надо),
(3) скачать новый торрент и запустить его у себя в клиенте вместо старого, при этом указать клиенту путь в старую папку, куда и должно происходить скачивание новых серий.
Ваш клиент при этом должен произвести хеширование (проверку) старой папки (если не производит сам - помогите ему сделать это), и будет докачивать только те серии, которых у вас ещё нет. Старые серии при этом не удаляются, а продолжают раздаваться!
Eсли вы уже удалили старые серии, то предотвратить повторную закачку старых серий можно, отжав галочку в соответсвующих местах при запуске нового торрента. По возможности, желательно не удалять старые серии как можно дольше, чтобы релизёр не столько продолжал раздавать старые серии, а смог сконцентрироваться на новых.
-

Omen

Пост 05-Окт-2016 01:01

[Цитировать]

-Гриффины / Family Guy- Год выпуска • 2016
Страна • США
Жанр • Ситком, чёрный юмор, буффонада, комедия, пародия
Продолжительность • ~22 мин.
Перевод
• Профессиональный (многоголосый, закадровый) "OMSKBIRD records"-Режиссёр • Сет МакФарлейн / Seth MacFarlane
Роли озвучивали: • Сет МакФарлейн, Алекс Борштейн, Сет Грин, Мила Кунис, Майк Генри и другие.-Описание • "Гриффины" (Family Guy) - анимационное ТВ-Шоу, созданное Сетом МакФарлейном (Seth MacFarlane) для телеканала FOX. Как нетрудно догадаться, главными героями шоу является семейка Гриффинов: тупой, но полный сумашедших идей, составляющих львиную долю шуток сериала, отец семейства Питер; его любящя и терпеливая жена Лойс, всеми силами пытающаяся превратить Гриффинов в нормальную семью; их интеллектуально развитый не по годам, вынашивающий идею мирового господства младший сын Стьюи; дочь-ботаник, обречённая из-за этого на одиночество и непонимание как в школе так и дома, Мэг; и 13-ти летний отсталый в развитии лет на 10, сын Крис. Также полноценным членом семьи является пёс Брайн - склонный к меланхолии эстет, спокойно наблюдающий с бокалом вина в лапе над приключениями Питера и остальных членов семьи (и это при всём притом, что остальные собаки в сериале не являются очеловеченными).-ПереводДарья Жмура
Роли озвучивалиКонстантин Погодаев, Анна Тух, Станислав Черсков
ЗвукорежиссерПавел Квентов
ПостерКсения Просветова
Релиз подготовилGater-Внимание! Присутствуют голосовые вставки рекламы!-
Качество: WEB-DL 720p
Формат: MKV
Видео: MPEG-4 AVC / ~ 3200 kbps / 1280:720p / 23.976 fps / 16:9 / ~ 0.145 bit/pixel / High Level 3.1
Аудио:
Русский / Dolby Digital 2.0 / 48 kHz / 192 kbps
English / Dolby Digital 5.1 / 48 kHz / 384 kbps
Субтитры:Eng-

- -

Список серий

01.The Boys in the Band

MediaInfo


General
Unique ID : 195483023136668480356743108851233483525 (0x9310A92964131D6FA3411BEB72486B05)
Complete name : F:\Мои Документы\Видео\РАЗДАЧИ\Гриффины\Family Guy S15 WEB-DL 720p (OMSKBIRD)\Family Guy S15E01 WEB-DL 720p (OMSKBIRD).mkv
Format : Matroska
Format version : Version 2
File size : 595 MiB
Duration : 21mn 35s
Overall bit rate : 3 855 Kbps
Encoded date : UTC 2016-09-27 20:35:23
Writing application : mkvmerge v4.0.0 ('The Stars were mine') сборка от Jun 6 2010 16:18:42
Writing library : libebml v1.0.0 + libmatroska v1.0.0
Video
ID : 1
Format : AVC
Format/Info : Advanced Video Codec
Format profile : [email protected]
Format settings, CABAC : No
Format settings, ReFrames : 2 frames
Codec ID : V_MPEG4/ISO/AVC
Duration : 21mn 35s
Bit rate : 3 202 Kbps
Width : 1 280 pixels
Height : 720 pixels
Display aspect ratio : 16:9
Frame rate : 23.976 fps
Color space : YUV
Chroma subsampling : 4:2:0
Bit depth : 8 bits
Scan type : Progressive
Bits/(Pixel*Frame) : 0.145
Stream size : 495 MiB (83%)
Language : English
Default : No
Forced : No
Color primaries : BT.709-5, BT.1361, IEC 61966-2-4, SMPTE RP177
Transfer characteristics : BT.709-5, BT.1361
Matrix coefficients : BT.709-5, BT.1361, IEC 61966-2-4 709, SMPTE RP177
Audio #1
ID : 2
Format : AC-3
Format/Info : Audio Coding 3
Mode extension : CM (complete main)
Format settings, Endianness : Big
Codec ID : A_AC3
Duration : 21mn 35s
Bit rate mode : Constant
Bit rate : 192 Kbps
Channel(s) : 2 channels
Channel positions : Front: L R
Sampling rate : 48.0 KHz
Bit depth : 16 bits
Compression mode : Lossy
Stream size : 29.7 MiB (5%)
Language : Russian
Default : Yes
Forced : No
Audio #2
ID : 3
Format : AC-3
Format/Info : Audio Coding 3
Mode extension : CM (complete main)
Format settings, Endianness : Big
Codec ID : A_AC3
Duration : 21mn 35s
Bit rate mode : Constant
Bit rate : 384 Kbps
Channel(s) : 6 channels
Channel positions : Front: L C R, Side: L R, LFE
Sampling rate : 48.0 KHz
Bit depth : 16 bits
Compression mode : Lossy
Delay relative to video : 16ms
Stream size : 59.3 MiB (10%)
Language : English
Default : No
Forced : No
Text
ID : 4
Format : UTF-8
Codec ID : S_TEXT/UTF8
Codec ID/Info : UTF-8 Plain Text
Language : English
Default : No
Forced : No

Внимание! Раздача ведётся путём добавления новых серий.

Внимание! Раздача ведётся путём добавления новых серий; при каждом добавлении создётся новый торрент. Чтобы начать докачку новой серии, пользователям необходимо сделать следующее:
Остановить скачивание.
Удалить старый торрент у себя из клиента (старые серии удалять не надо).
Скачать новый торрент и запустить его у себя в клиенте вместо старого, при этом указать клиенту путь в старую папку куда и должно происходить скачивание новых серий.
Ваш клиент при этом должен произвести хеширование (проверку) старой папки (если не производит сам - помогите ему сделать это), и будет докачивать только те серии которых у вас ещё нет. Старые серии при этом не удаляются, а продолжают раздаваться!
Eсли вы уже удалили старые серии, то предотвратить повторную закачку старых серий можно, отжав галочку в соответсвующих местах при запуске нового торрента. По возможности, желательно не удалять старые серии как можно дольше чтобы релизёр не столько продолжал раздавать старые серии, а смог сконцентрироваться на новых.

Omen

Пост 28-Сен-2016 01:00

[Цитировать]

--Симпсоны | The Simpsons-- Страна: США
Жанр: Комедия, сатира
Продолжительность: ~ 00:22:00
Год выпуска: 2016
Перевод: Профессиональный (многоголосый закадровый) OMSKBIRD records-Режиссёр: Марк Керклэнд / Mark Kirkland
Роли озвучивали: Дэн Кастелланета, Джули Кавнер, Нэнси Картрайт, Ярдли Смит, Гарри Ширер, Хэнк Азария, Памела Хейден, Тресс МакНилл, Карл Видерготт, Мэгги Росвэлл и др.-Описание: «Симпсоны» - это пародия на всех и вся, и на типичный американский уклад жизни в целом. Главные герои этого мультсериала - показательная в своей типичности семья Симпсонов - обжора и лежебока, недалекий Гомер, его жена-умница домохозяйка Мардж, их дети сорванец Барт, одаренная умная девочка Лиза и совсем еще младенец Мэгги. Каждая серия не только богата юмором, но и высмеивает одну из волнующих современного человека тем, так что сериал с успехом пережил более 25 сезонов и продолжает успешное шествие по экранам. Отрезки, шутки, сами герои Симпсонов стали неотъемлемой частью современной поп-культуры, а их имена стали именами нарицательными.-Доп. информация:
Релиз-группа:
Роли озвучивалиОльга Федорова, Павел Ярощик, Станислав Черсков, Артем Мустаев, Алена Соколова
ПереводДарья Жмура
ЗвукорежиссерПавел Квентов- --Качество: HDTVRip 720p
Формат: MKV
Видео: H264, 1280x720 (16:9), 23.976 fps, ~3000 kbps
Аудио # 1: AC3, 48 kHz, 6 ch, 384 kbps | OMSKBIRD records
Аудио # 2: AC3, 48 kHz, 6 ch, 448kbps
Субтитры: отсутствуют

Список серий

01. Monty Burns' Fleeing Circus

Подробные технические данные

GeneralUnique ID : 173311878044831871963594771465044581381 (0x8262A74FFFFFA7FEBBE7E1B927115C05)Complete name : G:\Films\The.Simpsons.S28.720p.OmskBird\The.Simpsons.S28E01.720p.HDTVRip.OmskBird.mkvFormat : MatroskaFormat version : Version 4 / Version 2File size : 581 MiBDuration : 21mn 0sOverall bit rate : 3 870 KbpsEncoded date : UTC 2016-09-27 05:28:30Writing application : mkvmerge v9.4.2 ('So High') 64bitWriting library : libebml v1.3.4 + libmatroska v1.4.5
VideoID : 1Format : AVCFormat/Info : Advanced Video CodecFormat profile : [email protected] settings, CABAC : YesFormat settings, ReFrames : 5 framesCodec ID : V_MPEG4/ISO/AVCDuration : 21mn 0sBit rate : 3 036 KbpsWidth : 1 280 pixelsHeight : 720 pixelsDisplay aspect ratio : 16:9Frame rate mode : ConstantFrame rate : 23.976 (24000/1001) fpsColor space : YUVChroma subsampling : 4:2:0Bit depth : 8 bitsScan type : ProgressiveBits/(Pixel*Frame) : 0.137Stream size : 456 MiB (78%)Writing library : x264 core 148 r2705 3f5ed56Encoding settings : cabac=1 / ref=5 / deblock=1:-3:-3 / analyse=0x3:0x113 / me=umh / subme=8 / psy=1 / psy_rd=1.05:0.00 / mixed_ref=1 / me_range=16 / chroma_me=1 / trellis=1 / 8x8dct=1 / cqm=0 / deadzone=21,11 / fast_pskip=1 / chroma_qp_offset=-2 / threads=18 / lookahead_threads=3 / sliced_threads=0 / nr=0 / decimate=1 / interlaced=0 / bluray_compat=0 / constrained_intra=0 / bframes=3 / b_pyramid=2 / b_adapt=2 / b_bias=0 / direct=3 / weightb=1 / open_gop=0 / weightp=2 / keyint=250 / keyint_min=23 / scenecut=40 / intra_refresh=0 / rc_lookahead=50 / rc=crf / mbtree=1 / crf=18.0 / qcomp=0.60 / qpmin=0 / qpmax=69 / qpstep=4 / ip_ratio=1.40 / aq=3:0.80Language : EnglishDefault : YesForced : No
Audio #1ID : 2Format : AC-3Format/Info : Audio Coding 3Mode extension : CM (complete main)Format settings, Endianness : BigCodec ID : A_AC3Duration : 21mn 0sBit rate mode : ConstantBit rate : 384 KbpsChannel(s) : 6 channelsChannel positions : Front: L C R, Side: L R, LFESampling rate : 48.0 KHzFrame rate : 31.250 fps (1536 spf)Compression mode : LossyStream size : 57.7 MiB (10%)Title : OmskBird 5.1Language : RussianDefault : YesForced : No
Audio #2ID : 3Format : AC-3Format/Info : Audio Coding 3Mode extension : CM (complete main)Format settings, Endianness : BigCodec ID : A_AC3Duration : 21mn 0sBit rate mode : ConstantBit rate : 448 KbpsChannel(s) : 6 channelsChannel positions : Front: L C R, Side: L R, LFESampling rate : 48.0 KHzFrame rate : 31.250 fps (1536 spf)Compression mode : LossyStream size : 67.3 MiB (12%)Title : engLanguage : EnglishDefault : NoForced : No

Скриншоты

Внимание! Раздача ведётся путём добавления новых серий.


Внимание! Раздача ведётся путём добавления новых серий; при каждом добавлении создётся новый торрент. Чтобы начать докачку новой серии, пользователям необходимо сделать следующее:
Остановить скачивание.
Удалить старый торрент у себя из клиента (старые серии удалять не надо).
Скачать новый торрент и запустить его у себя в клиенте вместо старого, при этом указать клиенту путь в старую папку куда и должно происходить скачивание новых серий.
Ваш клиент при этом должен произвести хеширование (проверку) старой папки (если не производит сам - помогите ему сделать это), и будет докачивать только те серии которых у вас ещё нет. Старые серии при этом не удаляются, а продолжают раздаваться!
Eсли вы уже удалили старые серии, то предотвратить повторную закачку старых серий можно, отжав галочку в соответсвующих местах при запуске нового торрента. По возможности, желательно не удалять старые серии как можно дольше чтобы релизёр не столько продолжал раздавать старые серии, а смог сконцентрироваться на новых.

Varius

Пост 13-Сен-2016 19:55

[Цитировать]

Ми-ми-мишки (2015-2016) WEB-DLRip (серии 01-54)- Год выпуска: 2015-2016
Жанр: Детский, Компьютерная анимация
Производство: Россия (Анимационная Студия "Паровоз")
Режиссер: Алексей Миронов, Артур Толстобров
Персонажи: Полина Кутепова, Наталия Медведева, Дарья Мазанова
Описание:
Анимационный сериал о приключениях двух друзей — бурого медведя Иннокентия и белого медведя по имени Белая Тучка. Иннокентий любит гаджеты и технику, а Белая Тучка — дитя природы. Основной конфликт сюжета — поиск правильного баланса между прогрессом и любовью к природе. Давным-давно Белая Тучка приехал в гости и поселился в своем доме недалеко от дома Иннокентия. Сериал может помочь людям увидеть, что можно жить в гармонии с природой и при этом быть развитым, увлеченным, любящим науку и технику. Ну и что дружба преодолевает любые препятствия.

Продолжительность: серия по 00:05:30
Качество видео: WEB-DLRip
Перевод: Не требуется
Субтитры: Отсутствуют
Видео: AVC/H.264, 1280x720, ~2000 kbps
Аудио: Русский: AС3, 2 ch, 192 kbps

MediaInfo

Код:
General
Unique ID                   : 325256486158177297052395077596564487404 (0xF4B21EE1988E76B23D1DC9F162E0FCEC)
Complete name               : C:\009_Домовой.mkv
Format                      : Matroska
Format version              : Version 4 / Version 2
File size                   : 74.6 MiB
Duration                    : 5mn 30s
Overall bit rate            : 1 894 Kbps
Writing application         : Lavf56.36.100
Writing library             : Lavf56.36.100 / Lavf56.36.100
Video
ID                          : 1
Format                      : AVC
Format/Info                 : Advanced Video Codec
Format profile              : [url=mailto:[email protected]][email protected][/url]
Format settings, CABAC      : Yes
Format settings, ReFrames   : 4 frames
Codec ID                    : V_MPEG4/ISO/AVC
Duration                    : 5mn 30s
Bit rate                    : 1 665 Kbps
Width                       : 1 280 pixels
Height                      : 720 pixels
Display aspect ratio        : 16:9
Frame rate mode             : Constant
Frame rate                  : 25.000 fps
Color space                 : YUV
Chroma subsampling          : 4:2:0
Bit depth                   : 8 bits
Scan type                   : Progressive
Bits/(Pixel*Frame)          : 0.072
Stream size                 : 65.5 MiB (88%)
Writing library             : x264 core 146 r2538 121396c
Encoding settings           : cabac=1 / ref=3 / deblock=1:0:0 / analyse=0x3:0x133 / me=hex / subme=7 / psy=1 / psy_rd=1.00:0.00 / mixed_ref=1 / me_range=16 / chroma_me=1 / trellis=1 / 8x8dct=1 / cqm=0 / deadzone=21,11 / fast_pskip=1 / chroma_qp_offset=-2 / threads=3 / lookahead_threads=1 / sliced_threads=0 / nr=0 / decimate=1 / interlaced=0 / bluray_compat=0 / constrained_intra=0 / bframes=3 / b_pyramid=2 / b_adapt=1 / b_bias=0 / direct=1 / weightb=1 / open_gop=0 / weightp=2 / keyint=250 / keyint_min=25 / scenecut=40 / intra_refresh=0 / rc_lookahead=40 / rc=crf / mbtree=1 / crf=20.0 / qcomp=0.60 / qpmin=10 / qpmax=51 / qpstep=4 / ip_ratio=1.40 / aq=1:1.00
Default                     : Yes
Forced                      : No
Audio
ID                          : 2
Format                      : AC-3
Format/Info                 : Audio Coding 3
Mode extension              : CM (complete main)
Format settings, Endianness : Big
Codec ID                    : A_AC3
Duration                    : 5mn 30s
Bit rate mode               : Constant
Bit rate                    : 192 Kbps
Channel(s)                  : 2 channels
Channel positions           : Front: L R
Sampling rate               : 44.1 KHz
Frame rate                  : 28.711 fps (1536 spf)
Compression mode            : Lossy
Stream size                 : 7.56 MiB (10%)
Language                    : unknown
Default                     : Yes
Forced                      : No

Факты:

В серии «Нежданные гости» Кеша, Тучка, Лисичка и Цыпа хотели посмотреть мультсериал [url=/forum/viewtopic.php?t=1044319]«Бумажки»[/url], который есть на самом деле. Также в некоторых сериях есть фотография Аристотеля и Тюк-Тюка из [url=/forum/viewtopic.php?t=1044319]«Бумажек»[/url]. И ещё в серии «Нежданные гости» на платье Лисички была нарисована сойка Аглая из [url=/forum/viewtopic.php?t=1044319]«Бумажек»[/url].

Список серий

001. Звездная история
002. Грибы и листья
003. Фотоохота
004. Путешествие
005. Лучшая напоминалка
006. Несовременная еда
007. Борьба за урожай
008. Как лечить деревья
009. Домовой
010. Бессонница
011. Глобальное потепление
012. Огородники
013. Медовая история
014. Прогноз погоды
015. Змей на дереве
016. Финишная прямая
017. Пиратская история
018. Путешествие к звездам
019. Победители дракона
020. Экспедиция на север
021. Больше не надо
022. Лучшее место в мире
023. Цыпа и динозавры
024. Фокусы с разоблачением
025. Настоящий ниндзя
026. Нежданные гости
027. Необитаемый остров
028. Гол
029. Мишка-невидимка
030. Следствие ведут мишки
031. По своим правилам
032. Тучкина высота
033. Пещера, полная ловушек
034. Супермишки
035. В поход
036. Песня для Лисички
037. Умный дом
038. Новогодний маскарад
039. Неуловимый Джо
040. Сказка про репку
041. Мысли вслух
042. Маленькое приключение
043. Парк развлечений
044. Жемчужина севера
045. Зубная фея
046. Лучший друг Лисички
047. Богатый улов
.
049. Мой друг велосипед
050. Мишки в цирке
051. Баллада о рыцарях
052. Поиграем завтра
053. Кеша FM
054. Идеальные друзья
.
.
057. День рождения Лисички
Скриншоты:
       
 

Текущее время: Сегодня 13:29

Часовой пояс: GMT + 3