Today is a free download without charge Download

Search found 500 matches

Author Message

Орлов Владимир

Post 02-Nov-2019 17:40

[Quote]

--Рыцарь нашего времени--1-4 серия из 4--
Оригинальное название: Рыцарь нашего времени
Год выпуска: 2019
Жанр: Детектив, криминал, экранизация
Выпущено: Россия, Приор Продакшн
Режиссер: Вячеслав Лавров--В ролях: Евгений Пронин, Алексей Вакулов, Светлана Смирнова-Кацагаджиева, Дмитрий Могучев, Денис Пьянов, Софья Присс, Кира Кауфман, Мария Жиганова, Владимир Петров, Евгений Капитонов--О сериале: К Макару Илюшину и Сергею Бабкину обращается успешный бизнесмен Дмитрий Силотский, которого друзья с юности зовут Ланселотом. Он жалуется на эффект «жамэвю»: привычные вещи и места вдруг стали казаться ему изменившимися и чужими. Но поскольку сыщики не горят желанием расследовать психическое состояние клиента, он ставит перед ними другую задачу — найти его пропавшего помощника, Владимира Качкова. Детективы не очень хотят браться за этот заказ, особенно Бабкин, узнавший в супруге Ланселота свою первую жену. Но внезапно Силотский погибает, взорвавшись на своем мотоцикле прямо у подъезда Илюшина, и неизвестные люди угрожают сыщикам, требуя не соваться в это дело. Разумеется, после такого героев уже никто не остановит. Фильм снят по одноименному произведению Е. Михалковой-- --Качество: WEB-DLRip
Видео: XviD, ~ 1900 Кбит/с, 720x400
Аудио: AC3, 2 ch, 192 Кбит/с
Продолжительность: ~ 00:50:00
Язык: Русский--

Скриншоты

       

Орлов Владимир

Post 02-Nov-2019 11:20

[Quote]

--Миллионер из Балашихи--
Оригинальное название: Миллионер из Балашихи
Год выпуска: 2019
Жанр: Комедия
Выпущено: Россия, МодульБанк
Режиссер: Никита Тамаров--В ролях: Владимир Канухин, Ирина Чипиженко, Наталья Тетенова, Алексей Шуплецов, Илья Гавриленков, Евгений Казанцев, Сергей Климов, Руслан Рузметов, Виктор Пилипко, Кристина Фирсунина--О фильме: Ещё пару дней назад я был вынужден работать на дядю, который даже не был братом моей матери. А уже сегодня я вышел из зоны комфорта и стал владельцем бизнеса. Через два месяца или год я стану долларовым миллионером. А мне всего лишь двадцать два… Как я этого добился? Просто я понял, что нужно быть, а не казаться! Я могу тебя этому научить, но для этого тебе нужно выбрать, кто ты? Вип или эконом? Премиум или стандарт? Топ или нетоп? Выбери сейчас. Не выбирай не выбирать! Смотри Бизнес Блог Богдана Кандаурова! И прокачивайся!--Качество: WEBRip (720p)
Видео: MPEG-4 AVC, ~ 780 Кбит/с, 1280x720
Аудио: AAC, 2 ch, 128 Кбит/с
Продолжительность: 6 х ~ 00:20:00
Язык: Русский

Содержание

Шаг 1. Как создать бизнес-империю в 22 года
Шаг 2. Секретные приемы лидеров
Шаг 3. Песнь кнута и пряника
Шаг 4. Влияние рекламы на сознание
Шаг 5. Крушение империи
Шаг 6. Решающий. Быть, а не казаться

Скриншоты

       

Орлов Владимир

Post 31-Oct-2019 03:21

[Quote]

--Бывшие--2 сезон: 1-2 серия из 8--Информация о сериале
Оригинальное название: Бывшие
Год выпуска: 2019
Жанр: Драма, мелодрама
Режиссер: Иван Китаев--В ролях: Любовь Аксёнова, Денис Шведов, Григорий Чабан, Татьяна Волкова (III), Виталий Хаев, Наталья Рогожкина, Софья Лебедева (II), Владимир Жеребцов, Павел Ворожцов, Сергей Галахов, Софья Урицкая, Сергей Ланбамин, Константин Адаев, Леонид Громов, Виктория Полторак--О сериале: Яна — дочь влиятельного отца. Ей доступны все удовольствия. Но роскошной жизни приходит конец, когда отец Яны узнает о её зависимости. Он отправляет дочь в клинику, где героиня знакомится с психологом-консультантом Ильей, который сам из «бывших». Родители Яны пытаются сохранить свою семью. Но вместо этого, допустив роковую ошибку, вступают в борьбу за деньги семьи. В этот конфликт оказываются втянутыми Яна и Илья.-- --Страна: Россия
Студия: Yellow, Black and White
Продолжительность: 2 х ~ 00:51:00--Файл
Качество: WEBRip (AVC)
Видео: MPEG-4 AVC, ~ 1600 Кбит/с, 1024x488, 25 кадр/с
Аудио: AC3, 2 ch, 192 Кбит/с
Язык: Русский--Без рекламы.--

Скриншоты

       

Орлов Владимир

Post 31-Oct-2019 02:38

[Quote]

--Бывшие--2 сезон: 1-2 серия из 8--Информация о сериале
Оригинальное название: Бывшие
Год выпуска: 2019
Жанр: Драма, мелодрама
Режиссер: Иван Китаев--В ролях: Любовь Аксёнова, Денис Шведов, Григорий Чабан, Татьяна Волкова (III), Виталий Хаев, Наталья Рогожкина, Софья Лебедева (II), Владимир Жеребцов, Павел Ворожцов, Сергей Галахов, Софья Урицкая, Сергей Ланбамин, Константин Адаев, Леонид Громов, Виктория Полторак--О сериале: Яна — дочь влиятельного отца. Ей доступны все удовольствия. Но роскошной жизни приходит конец, когда отец Яны узнает о её зависимости. Он отправляет дочь в клинику, где героиня знакомится с психологом-консультантом Ильей, который сам из «бывших». Родители Яны пытаются сохранить свою семью. Но вместо этого, допустив роковую ошибку, вступают в борьбу за деньги семьи. В этот конфликт оказываются втянутыми Яна и Илья.-- --Страна: Россия
Студия: Yellow, Black and White
Продолжительность: 2 х ~ 00:51:00--Файл
Качество: WEB-DL (1080p)
Видео: MPEG-4 AVC, ~ 6433 Кбит/с, 1920x1080
Аудио: AC3, 2 ch, 192 Кбит/с
Язык: Русский--Без рекламы.--

Скриншоты

       

Орлов Владимир

Post 31-Oct-2019 02:32

[Quote]

--Бывшие--2 сезон: 1-2 серия из 8--Информация о сериале
Оригинальное название: Бывшие
Год выпуска: 2019
Жанр: Драма, мелодрама
Режиссер: Иван Китаев--В ролях: Любовь Аксёнова, Денис Шведов, Григорий Чабан, Татьяна Волкова (III), Виталий Хаев, Наталья Рогожкина, Софья Лебедева (II), Владимир Жеребцов, Павел Ворожцов, Сергей Галахов, Софья Урицкая, Сергей Ланбамин, Константин Адаев, Леонид Громов, Виктория Полторак--О сериале: Яна — дочь влиятельного отца. Ей доступны все удовольствия. Но роскошной жизни приходит конец, когда отец Яны узнает о её зависимости. Он отправляет дочь в клинику, где героиня знакомится с психологом-консультантом Ильей, который сам из «бывших». Родители Яны пытаются сохранить свою семью. Но вместо этого, допустив роковую ошибку, вступают в борьбу за деньги семьи. В этот конфликт оказываются втянутыми Яна и Илья.-- --Страна: Россия
Студия: Yellow, Black and White
Продолжительность: 2 х ~ 00:51:00--Файл
Качество: WEB-DLRip
Видео: XviD, ~ 1500 Кбит/с, 720x352
Аудио: AC3, 2 ch, 192 Кбит/с
Язык: Русский--Без рекламы.--

Скриншоты

       

Орлов Владимир

Post 29-Oct-2019 20:14

[Quote]

--Полярный--1-3 серии из 16
Информация о сериале
Оригинальное название: Полярный
Год выхода: 2019
Жанр: Комедия
Режиссер: Константин Статский, Михаил Старчак--В ролях: Михаил Пореченков, Иван Охлобыстин, Владимир Епифанцев, Катерина Шпица, Игорь Жижикин, Ян Цапник, Филипп Дьячков (II), Светлана Листова, Карина Зверева, Виктор Бычков, Александр Баширов, Сергей Чирков, Вера Строкова, Игорь Филиппов, Юрий Тузов, Александр Потапов (III), Юрий Назаров, Антон Богданов, Сергей Черданцев, Александр Мосолов (I)--О сериале: Эта история о Викторе Громове, бывшем бандите по кличке Витя Мясник. В середине 90-х одно его имя заставляло московских коммерсантов хвататься за сердце, а конкурентов по опасному бизнесу – за стволы. Но со временем Витя отошел от дел и переехал за город, подальше от столичных пробок и бесконечной погони за призрачным счастьем. Эта идиллия нарушается неожиданным визитом бывших подельников Вити во главе с авторитетом по имени Артур, в свое время возглавлявшим их преступную группировку. Артур рассказывает о сильном прессе со стороны правоохранительных органов и просит Витю передержать на его оффшорном банковском счете воровской общак. Витя совсем не в восторге от этой перспективы, но не в праве отказать Артуру, так как обязан ему тем, что не сел в тюрьму в начале 2000-х. Витя кладет общак на свой банковский счет и по настойчивой просьбе Артура ставит на счет пароль, который знает только он один. Спустя несколько месяцев Витя получает долгожданный звонок от Артура. Шумиха улеглась. Деньги можно возвращать. Но именно в этот момент прямо на голову Вити падает огромная подкова, висевшая при входе на ферму. После того, как Витя приходит в себя, он понимает, что окончательно и бесповоротно забыл пароль от банковского счета. Он понимает, что ему никто не поверит, и по этой причине пытается сбежать. Спустя несколько дней пути в почтовом вагоне Витя сходит на станции под названием «Полярный»…-- --Страна: Россия
Студия: ТНТ-PREMIER Studios
Продолжительность: ~ 00:25:00
Перевод: Не требуется--Файл
Качество: SATRip
Видео: XviD, ~ 1670 Кбит/с, 720x352
Аудио: MP3, 2 ch, 192 Кбит/с--

Скриншоты

       

Орлов Владимир

Post 29-Oct-2019 19:04

[Quote]

--Условный мент-- 1-12 серия из 24--Оригинальное название: Условный мент (Охта)
Год выхода: 2019
Жанр: Детектив, приключения
Выпущено: Россия, Триикс Медиа
Режиссер: Андрей Коршунов--В ролях: Денис Рожков, Анастасия Тюнина, Алексей Нилов, Егор Бакулин, Сергей Кошонин, Алексей Фокин, Кирилл Балобан, Ольга Богданова, Любовь Макеева, Александра Сыдорук, Сергей Фролов, Алексей Байдаков, Ольга Кирсанова-Миропольская, Евгений Карпов, Виталий Бисеров, Роман Притула, Олег Попов (II), Михаил Черняк, Евгений Антонов--О сериале: Одновременно в Петербург приезжают бывший опер Дмитрий Рыжов, отсидевший в колонии за превышение полномочий, и капитан полиции Арина Гордеева. Рыжов устраивается работать в Жилкомсервис, чтобы зарабатывать деньги, ездить на своей аварийной машине по родному району и больше не иметь ничего общего с полицией. Гордеева становится участковым этого же района. В нём всем заправляет бизнесмен Вениамин Воронов – он же Веня Ворон. Под его «покровительством» практически все злачные точки и многие предприятия, которые за долю немалую прикрывает местный участковый капитан Тельцов...- --Качество: SATRip
Видео: XviD, ~ 1597 Кбит/с, 720x400, 25 кадр/с
Аудио: AC3, 2 ch, 192 Кбит/с
Продолжительность: 12 x ~ 00:39:46
Язык: Русский--

Содержание:

1 серия "Возвращение"
2 серия "Беспокойный участок"
3 серия "Курьер поневоле"
4 серия "Обманутые мечты"
5 серия "Криптомания"
6 серия "Цугцванг"
7 серия "Эхо войны"
8 серия "На высоте"
9 серия "Сказка на ночь"
10 серия "Награда для героя"
11 серия "Холодный приём"
12 серия "Труба зовёт"
13 серия "Морской волк"
14 серия "Свидание со смертью"
15 серия "Фото на память"
16 серия "Крупный улов"
17 серия "Дороже денег"
18 серия "Рок"
19 серия "Боевая классика"
20 серия "Смертельный квест"
21 серия "Мнимый больной"
22 серия "Последняя роль"
23 серия "Лжедмитрий"
24 серия "Свадьба с приданным"

Скриншоты

           

Тех.данные видеофайла

General
Complete name: C:01.Условный мент (Охта).(2019).SATRip.by.Nicodem.Files-x.avi
Format: AVI
Format/Info: Audio Video Interleave
File size: 512 MiB
Duration: 39mn 46s
Overall bit rate: 1 798 Kbps
Writing application: VirtualDubMod 1.5.10.3 | www.virtualdub-fr.org || (build 2550/release)
Writing library: VirtualDubMod build 2550/release
Video
ID: 0
Format: MPEG-4 Visual
Format profile: Advanced [email protected]
Format settings, BVOP: 1
Format settings, QPel: No
Format settings, GMC: No warppoints
Format settings, Matrix: Custom
Codec ID: XVID
Codec ID/Hint: XviD
Duration: 39mn 46s
Bit rate: 1 597 Kbps
Width: 720 pixels
Height: 400 pixels
Display aspect ratio: 16:9
Frame rate: 25.000 fps
Color space: YUV
Chroma subsampling: 4:2:0
Bit depth: 8 bits
Scan type: Progressive
Compression mode: Lossy
Bits/(Pixel*Frame): 0.222
Stream size: 454 MiB (89%)
Writing library: XviD 73
Audio
ID: 1
Format: AC-3
Format/Info: Audio Coding 3
Mode extension: CM (complete main)
Codec ID: 2000
Duration: 39mn 46s
Bit rate mode: Constant
Bit rate: 192 Kbps
Channel(s): 2 channels
Channel positions: Front: L R
Sampling rate: 48.0 KHz
Bit depth: 16 bits
Compression mode: Lossy
Stream size: 54.6 MiB (11%)
Alignment: Split accross interleaves
Interleave, duration: 40 ms (1.00 video frame)
Interleave, preload duration: 500 ms

Орлов Владимир

Post 29-Oct-2019 18:17

[Quote]

--Пёс--5 сезон : 1-8 серия из 20--Оригинальное название: Пёс
Год выпуска: 2019
Жанр: Детектив
Выпущено: Украина, PRO-TV--Режиссер: Николай Каптан, Игорь Забара, Владимир Дощук--В ролях: Андрей Саминин, Никита Панфилов, Михаил Жонин, Ольга Олексий, Денис Роднянский, Светлана Зельбет, Ольга Морозова, Тарас Мельничук, Автандил Бежиашвили, Илья Прокопив--О фильме: В новом сезоне напарникам Максу Максимову и Псу в очередной раз представится возможность доказать и показать на что же способны напарники. Макс и Пес будут раскрывать самые запутанные преступления.Конечно, напарникам не обойтись без поддержки с тыла. Им всячески помогают бывшая супруга Максимова Лена и его (тоже бывший) лучший друг Леонидов, который стал новым мужем. Тут вырисовывается любовный треугольник! Лена очень трепетно относится к Максу и иногда проявляет к нему определенную заботу, а это выводит Леонидова.-- --Качество: SATRip
Видео: MPEG-4 AVC, ~ 1500 Кбит/с, 720x400
Аудио: AAC, 2 ch, 192 Кбит/с
Продолжительность: 8 x ~ 00:49:53
Язык: Русский
Субтитры: Украинские

Скриншоты

           

Тех.данные видеофайла

Общее
Уникальный идентификатор : 231238594375924836599790309275207074058 (0xADF6EEEE1A529B49AB856DCE5CE6010A)
Полное имя : G:Канцелярская крыса-21 серия_Канцелярская крыса-2_rip by_Aleksan55.mkv
Формат : Matroska
Версия формата : Version 2
Размер файла : 574 Мбайт
Продолжительность : 47 м. 20 с.
Общий поток : 1694 Кбит/сек
Дата кодирования : UTC 2019-10-14 14:07:10
Программа кодирования : mkvmerge v7.8.0 ('River Man') 32bit built on Apr 3 2015 12:11:22
Библиотека кодирования : libebml v1.3.1 + libmatroska v1.4.2
Видео
Идентификатор : 1
Формат : AVC
Формат/Информация : Advanced Video Codec
Профиль формата : [email protected]
Настройки формата : CABAC / 12 Ref Frames
Параметр CABAC формата : Да
Параметр RefFrames формата : 12 кадров
Идентификатор кодека : V_MPEG4/ISO/AVC
Продолжительность : 47 м. 20 с.
Номинальный битрейт : 1500 Кбит/сек
Ширина : 720 пикселей
Высота : 400 пикселей
Соотношение сторон : 16:9
Режим частоты кадров : Постоянный
Частота кадров : 25,000 кадров/сек
Цветовое пространство : YUV
Субдискретизация насыщенности : 4:2:0
Битовая глубина : 8 бит
Тип развёртки : Прогрессивная
Бит/(Пиксели*Кадры) : 0.208
Библиотека кодирования : x264 core 152 r2851kMod ba24899
Настройки программы : cabac=1 / ref=12 / deblock=1:-2:-2 / analyse=0x3:0x133 / me=umh / subme=9 / psy=1 / fade_compensate=0.00 / psy_rd=1.00:0.15 / mixed_ref=0 / me_range=24 / chroma_me=1 / trellis=2 / 8x8dct=1 / cqm=0 / deadzone=21,11 / fast_pskip=0 / chroma_qp_offset=-3 / threads=10 / lookahead_threads=5 / sliced_threads=0 / nr=0 / decimate=0 / interlaced=0 / bluray_compat=0 / constrained_intra=0 / bframes=12 / b_pyramid=2 / b_adapt=2 / b_bias=0 / direct=3 / weightb=1 / open_gop=0 / weightp=2 / keyint=250 / keyint_min=25 / scenecut=40 / intra_refresh=0 / rc_lookahead=40 / rc=2pass / mbtree=1 / bitrate=1500 / ratetol=1.0 / qcomp=0.60 / qpmin=0 / qpmax=69 / qpstep=4 / cplxblur=20.0 / qblur=0.5 / ip_ratio=1.40 / aq=1:1.00
Default : Да
Forced : Нет
Цветовой диапазон : Limited
Основные цвета : BT.601 PAL
Характеристики трансфера : BT.470 System B/G
Коэффициенты матрицы : BT.470 System B/G
Аудио
Идентификатор : 2
Формат : AAC LC
Формат/Информация : Advanced Audio Codec Low Complexity
Идентификатор кодека : A_AAC-2
Продолжительность : 47 м. 20 с.
Каналы : 2 канала
ChannelLayout : L R
Частота : 48,0 КГц
Частота кадров : 46,875 кадров/сек (1024 SPF)
Метод сжатия : С потерями
Задержка видео : 9 мс.
Default : Да
Forced : Нет

Орлов Владимир

Post 29-Oct-2019 18:05

[Quote]

--Екатерина. Самозванцы--3 сезон : 1-16 серия из 16--
Оригинальное название: Екатерина. Самозванцы
Год выпуска: 2019
Жанр: История, драма, биография
Выпущено: Россия, Cosmos Studios
Режиссер: Дмитрий Иосифов--В ролях: Марина Александрова, Владимир Яглыч, Павел Табаков, Алина Томников, Сергей Колтаков, Александр Ткачев, Станислав Стрелков, Михаил Горевой, Ангелина Стречина, Сергей Марин-О фильме: 1774 год, правление Екатерины оказалось под большой угрозой с четырех сторон. Идет война с Турцией, которая может обернуться для России либо удачным миром, либо сокрушительным поражением. Кроме того, в Париже в руках беглых поляков и французских авантюристов оказывается важный козырь против Екатерины — Елизавета Тараканова, самозваная дочь Елизаветы Петровны. На юге России разгорается крестьянское восстание Емельяна Пугачева — еще одного самозванца, объявившего себя Петром III. Наконец, опасность зреет и во дворце: Панин просчитывает варианты передачи власти от Екатерины Павлу. От решений императрицы зависит судьба России.--Качество: SATRip-AVC
Видео: MPEG-4 AVC, ~ 1500 Кбит/с, 720x400
Аудио: AAC, 2 ch, 192 Кбит/с
Продолжительность: ~ 00:48:00
Язык: Русский--

Скриншоты

       

Орлов Владимир

Post 29-Oct-2019 15:04

[Quote]

--Полярный--1-5 серии из 16--Оригинальное название: Полярный
Год выпуска: 2019
Жанр: Комедия
Выпущено: Россия, ТНТ-PREMIER Studios
Режиссер: Константин Статский, Михаил Старчак--В ролях: Михаил Пореченков, Иван Охлобыстин, Владимир Епифанцев, Катерина Шпица, Игорь Жижикин, Ян Цапник, Филипп Дьячков (II), Светлана Листова, Карина Зверева, Виктор Бычков, Александр Баширов, Сергей Чирков, Вера Строкова, Игорь Филиппов, Юрий Тузов, Александр Потапов (III), Юрий Назаров, Антон Богданов, Сергей Черданцев, Александр Мосолов (I)--О фильме: Эта история о Викторе Громове, бывшем бандите по кличке Витя Мясник. В середине 90-х одно его имя заставляло московских коммерсантов хвататься за сердце, а конкурентов по опасному бизнесу – за стволы. Но со временем Витя отошел от дел и переехал за город, подальше от столичных пробок и бесконечной погони за призрачным счастьем. Эта идиллия нарушается неожиданным визитом бывших подельников Вити во главе с авторитетом по имени Артур, в свое время возглавлявшим их преступную группировку. Артур рассказывает о сильном прессе со стороны правоохранительных органов и просит Витю передержать на его оффшорном банковском счете воровской общак. Витя совсем не в восторге от этой перспективы, но не в праве отказать Артуру, так как обязан ему тем, что не сел в тюрьму в начале 2000-х. Витя кладет общак на свой банковский счет и по настойчивой просьбе Артура ставит на счет пароль, который знает только он один. Спустя несколько месяцев Витя получает долгожданный звонок от Артура. Шумиха улеглась. Деньги можно возвращать. Но именно в этот момент прямо на голову Вити падает огромная подкова, висевшая при входе на ферму. После того, как Витя приходит в себя, он понимает, что окончательно и бесповоротно забыл пароль от банковского счета. Он понимает, что ему никто не поверит, и по этой причине пытается сбежать. Спустя несколько дней пути в почтовом вагоне Витя сходит на станции под названием «Полярный»…-- --Файл
Качество: WEB-DL (1080p)
Видео: MPEG-4 AVC, ~ 5000 Кбит/с, 1920x1080
Аудио: AC3, 2 ch, 192 Кбит/с
Продолжительность: 5 x ~ 00:25:00
Язык: Русский--Без рекламы, и всплывающих надписей--

Скриншоты

       

Орлов Владимир

Post 29-Oct-2019 15:00

[Quote]

--Полярный--1-5 серии из 16--Оригинальное название: Полярный
Год выпуска: 2019
Жанр: Комедия
Выпущено: Россия, ТНТ-PREMIER Studios
Режиссер: Константин Статский, Михаил Старчак--В ролях: Михаил Пореченков, Иван Охлобыстин, Владимир Епифанцев, Катерина Шпица, Игорь Жижикин, Ян Цапник, Филипп Дьячков (II), Светлана Листова, Карина Зверева, Виктор Бычков, Александр Баширов, Сергей Чирков, Вера Строкова, Игорь Филиппов, Юрий Тузов, Александр Потапов (III), Юрий Назаров, Антон Богданов, Сергей Черданцев, Александр Мосолов (I)--О фильме: Эта история о Викторе Громове, бывшем бандите по кличке Витя Мясник. В середине 90-х одно его имя заставляло московских коммерсантов хвататься за сердце, а конкурентов по опасному бизнесу – за стволы. Но со временем Витя отошел от дел и переехал за город, подальше от столичных пробок и бесконечной погони за призрачным счастьем. Эта идиллия нарушается неожиданным визитом бывших подельников Вити во главе с авторитетом по имени Артур, в свое время возглавлявшим их преступную группировку. Артур рассказывает о сильном прессе со стороны правоохранительных органов и просит Витю передержать на его оффшорном банковском счете воровской общак. Витя совсем не в восторге от этой перспективы, но не в праве отказать Артуру, так как обязан ему тем, что не сел в тюрьму в начале 2000-х. Витя кладет общак на свой банковский счет и по настойчивой просьбе Артура ставит на счет пароль, который знает только он один. Спустя несколько месяцев Витя получает долгожданный звонок от Артура. Шумиха улеглась. Деньги можно возвращать. Но именно в этот момент прямо на голову Вити падает огромная подкова, висевшая при входе на ферму. После того, как Витя приходит в себя, он понимает, что окончательно и бесповоротно забыл пароль от банковского счета. Он понимает, что ему никто не поверит, и по этой причине пытается сбежать. Спустя несколько дней пути в почтовом вагоне Витя сходит на станции под названием «Полярный»…-- --Файл
Качество: WEB-DL (720p)
Видео: MPEG-4 AVC, ~ 3500 Кбит/с, 1280x624
Аудио: AC3, 2 ch, 192 Кбит/с
Продолжительность: 5 x ~ 00:25:00
Язык: Русский--Без рекламы, и всплывающих надписей--

Скриншоты

       

Орлов Владимир

Post 29-Oct-2019 14:55

[Quote]

--Полярный--1-5 серии из 16--Оригинальное название: Полярный
Год выпуска: 2019
Жанр: Комедия
Выпущено: Россия, ТНТ-PREMIER Studios
Режиссер: Константин Статский, Михаил Старчак--В ролях: Михаил Пореченков, Иван Охлобыстин, Владимир Епифанцев, Катерина Шпица, Игорь Жижикин, Ян Цапник, Филипп Дьячков (II), Светлана Листова, Карина Зверева, Виктор Бычков, Александр Баширов, Сергей Чирков, Вера Строкова, Игорь Филиппов, Юрий Тузов, Александр Потапов (III), Юрий Назаров, Антон Богданов, Сергей Черданцев, Александр Мосолов (I)--О фильме: Эта история о Викторе Громове, бывшем бандите по кличке Витя Мясник. В середине 90-х одно его имя заставляло московских коммерсантов хвататься за сердце, а конкурентов по опасному бизнесу – за стволы. Но со временем Витя отошел от дел и переехал за город, подальше от столичных пробок и бесконечной погони за призрачным счастьем. Эта идиллия нарушается неожиданным визитом бывших подельников Вити во главе с авторитетом по имени Артур, в свое время возглавлявшим их преступную группировку. Артур рассказывает о сильном прессе со стороны правоохранительных органов и просит Витю передержать на его оффшорном банковском счете воровской общак. Витя совсем не в восторге от этой перспективы, но не в праве отказать Артуру, так как обязан ему тем, что не сел в тюрьму в начале 2000-х. Витя кладет общак на свой банковский счет и по настойчивой просьбе Артура ставит на счет пароль, который знает только он один. Спустя несколько месяцев Витя получает долгожданный звонок от Артура. Шумиха улеглась. Деньги можно возвращать. Но именно в этот момент прямо на голову Вити падает огромная подкова, висевшая при входе на ферму. После того, как Витя приходит в себя, он понимает, что окончательно и бесповоротно забыл пароль от банковского счета. Он понимает, что ему никто не поверит, и по этой причине пытается сбежать. Спустя несколько дней пути в почтовом вагоне Витя сходит на станции под названием «Полярный»…-- --Файл
Качество: WEB-DLRip (AVC)
Видео: MPEG-4 AVC, ~ 2000 Кбит/с, 1024x576, 25 кадр/с
Аудио: AC3, 2 ch, 192 Кбит/с
Продолжительность: 5 x ~ 00:25:00
Язык: Русский--Без рекламы, и всплывающих надписей--

Скриншоты

       

Орлов Владимир

Post 29-Oct-2019 14:50

[Quote]

--Полярный--1-5 серии из 16--Оригинальное название: Полярный
Год выпуска: 2019
Жанр: Комедия
Выпущено: Россия, ТНТ-PREMIER Studios
Режиссер: Константин Статский, Михаил Старчак--В ролях: Михаил Пореченков, Иван Охлобыстин, Владимир Епифанцев, Катерина Шпица, Игорь Жижикин, Ян Цапник, Филипп Дьячков (II), Светлана Листова, Карина Зверева, Виктор Бычков, Александр Баширов, Сергей Чирков, Вера Строкова, Игорь Филиппов, Юрий Тузов, Александр Потапов (III), Юрий Назаров, Антон Богданов, Сергей Черданцев, Александр Мосолов (I)--О фильме: Эта история о Викторе Громове, бывшем бандите по кличке Витя Мясник. В середине 90-х одно его имя заставляло московских коммерсантов хвататься за сердце, а конкурентов по опасному бизнесу – за стволы. Но со временем Витя отошел от дел и переехал за город, подальше от столичных пробок и бесконечной погони за призрачным счастьем. Эта идиллия нарушается неожиданным визитом бывших подельников Вити во главе с авторитетом по имени Артур, в свое время возглавлявшим их преступную группировку. Артур рассказывает о сильном прессе со стороны правоохранительных органов и просит Витю передержать на его оффшорном банковском счете воровской общак. Витя совсем не в восторге от этой перспективы, но не в праве отказать Артуру, так как обязан ему тем, что не сел в тюрьму в начале 2000-х. Витя кладет общак на свой банковский счет и по настойчивой просьбе Артура ставит на счет пароль, который знает только он один. Спустя несколько месяцев Витя получает долгожданный звонок от Артура. Шумиха улеглась. Деньги можно возвращать. Но именно в этот момент прямо на голову Вити падает огромная подкова, висевшая при входе на ферму. После того, как Витя приходит в себя, он понимает, что окончательно и бесповоротно забыл пароль от банковского счета. Он понимает, что ему никто не поверит, и по этой причине пытается сбежать. Спустя несколько дней пути в почтовом вагоне Витя сходит на станции под названием «Полярный»…-- --Файл
Качество: WEB-DLRip
Видео: XviD, ~ 1670 Кбит/с, 720x352
Аудио: AC3, 2 ch, 192 Кбит/с
Продолжительность: 5 x ~ 00:25:00
Язык: Русский--

Скриншоты

       

Clavik

Post 17-Oct-2019 22:39

[Quote]

Шторм (2019) WEBRip [H.264/1080p-LQ] «Выше правды есть любовь»- Производство: Россия / Start Studio, Марс Медиа
Жанр: драма, детектив
Режиссер: Борис Хлебников
Актеры: Александр Робак, Максим Лагашкин, Анна Михалкова, Анна Котова-Дерябина, Геннадий Смирнов, Илья Борисов, Дмитрий Лысенков, Дарья Жовнер, Сергей Уманов, Валерий Дьяченко
Описание:
В центре сюжета — двое друзей, Юрий Осокин и Сергей Градов. Первый работает в убойном отделе полиции, второй — в отделе по борьбе с коррупцией. Чтобы спасти жену от смертельной болезни и найти деньги на дорогостоящую операцию, Градов идет на должностные преступления и пытается скрыть улики. Изворотливый ум и талант выстраивать сложные многоходовые схемы делают его практически неуловимым. Расследующий череду преступлений Осокин начинает догадываться, что к делу причастен Градов, хотя достаточных доказательств у него пока нет. Для Юрия становится делом чести изобличить своего друга.

Возраст: 18+(зрителям, достигшим 18 лет. запрещено для детей)
Дата российской премьеры: 5 сентября 2019
Продолжительность: ~00:50:00 серия
Качество видео: WEBRip
Видео: AVC/H.264, 1920x1080 (16:9), ~6450 Kbps
Аудио: AC3, 2 ch, 192 Kbps

MediaInfo:

Общее
Уникальный идентификатор : 203035796307927922323068404309640433489 (0x98BF45A1157792D697B1969CA7A54F51)
Полное имя : D:\Шторм (2019)\Шторм.Серия 1.mkv
Формат : Matroska
Версия формата : Version 4
Размер файла : 2,84 Гбайт
Продолжительность : 1 ч. 1 м.
Общий поток : 6649 Кбит/сек
Название фильма : Shtorm.e01.2019.WEB-DL.(1080p).Getty
Дата кодирования : UTC 2019-09-04 20:51:22
Программа кодирования : mkvmerge v7.8.0 ('River Man') 32bit built on Mar 27 2015 16:18:02
Библиотека кодирования : libebml v1.3.1 + libmatroska v1.4.2
Видео
Идентификатор : 1
Формат : AVC
Формат/Информация : Advanced Video Codec
Профиль формата : [email protected]
Настройки формата : CABAC / 4 Ref Frames
Параметр CABAC формата : Да
Параметр RefFrames формата : 4 кадра
Идентификатор кодека : V_MPEG4/ISO/AVC
Продолжительность : 1 ч. 1 м.
Битрейт : 6455 Кбит/сек
Ширина : 1920 пикселей
Высота : 1080 пикселей
Соотношение сторон : 16:9
Режим частоты кадров : Постоянный
Частота кадров : 23,976 (24000/1001) кадра/сек
Цветовое пространство : YUV
Субдискретизация насыщенности : 4:2:0
Битовая глубина : 8 бит
Тип развёртки : Прогрессивная
Бит/(Пиксели*Кадры) : 0.130
Размер потока : 2,76 Гбайт (97%)
Default : Да
Forced : Нет
Аудио
Идентификатор : 2
Формат : AC-3
Формат/Информация : Audio Coding 3
Коммерческое название : Dolby Digital
Идентификатор кодека : A_AC3
Продолжительность : 1 ч. 1 м.
Вид битрейта : Постоянный
Битрейт : 192 Кбит/сек
Каналы : 2 канала
ChannelLayout : L R
Частота : 48,0 КГц
Частота кадров : 31,250 кадров/сек (1536 SPF)
Битовая глубина : 16 бит
Метод сжатия : С потерями
Размер потока : 84,1 Мбайт (3%)
ServiceKind/String : Complete Main
Default : Да
Forced : Нет
Скриншоты:
       

Clavik

Post 04-Oct-2019 10:23

[Quote]

Знахарь (2018) HDTVRip [H.264/720p-LQ] (сезон 1, серии 1-16 из 16)- Производство: Россия | Кинокомпания «Shark»,"ПРО-СИНЕМА продакшн"
Жанр: драма, мелодрама
Режиссер: Ярослав Мочалов
Актеры: Даниил Страхов, Екатерина Кузнецова, Николай Иванов, Владимир Матвеев, Сергей Колос, Павел Чинарёв, Светлана Смирнова-Марцинкевич, Андрей Ташков, Юрий Ицков, Валерий Гришко и др.
Описание:
Талантливый нейрохирург Павел Андреев возвращается в Петербург после учебы зарубежом и устраивается работать в отделение больницы, начальник которого — его бывший учитель. Не все в больнице рады внезапному появлению Павла — его главным конкурентом становится бывший однокурсник Сергей Стрельников. Вне работы жизнь Павла также складывается непросто. Начальник, Николай Семенов, просит его провести сложную операцию и удалить запущенную опухоль. В это же время у Андреева начинается роман с дочерью Семенова. Всю жизнь Андреева переворачивает несчастный случай, в результате которого он теряет память, но не способность помогать людям.

Возраст: 16+ (зрителям, достигшим 16 лет)
Дата российской премьеры: 23 сентября 2019
Продолжительность: ~00:50:00 серия
Качество видео: HDTVRip
Видео: AVC/H.264, 1280x720 (16:9), ~3500 Kbps
Аудио: AC3, 2 ch, 192 kbps

MediaInfo:

General
Unique ID : 203449359386900910133743063374448361475 (0x990EEBDD0059C40BB471C5E0A74D0003)
Complete name : D:\Знахарь_S01_2018_HDTVRip_720p\Знахарь_S01_2018_HDTVRip_720p_01.mkv
Format : Matroska
Format version : Version 2
File size : 1.31 GiB
Duration : 50 min 36 s
Overall bit rate : 3 693 kb/s
Encoded date : UTC 2019-09-23 16:53:19
Writing application : mkvmerge v7.8.0 ('River Man') 32bit built on Apr 3 2015 12:11:22
Writing library : libebml v1.3.1 + libmatroska v1.4.2
Video
ID : 1
Format : AVC
Format/Info : Advanced Video Codec
Format profile : [url=mailto:[email protected]][email protected][/url]
Format settings : CABAC / 9 Ref Frames
Format settings, CABAC : Yes
Format settings, ReFrames : 9 frames
Codec ID : V_MPEG4/ISO/AVC
Duration : 50 min 36 s
Bit rate : 3 500 kb/s
Width : 1 280 pixels
Height : 720 pixels
Display aspect ratio : 16:9
Frame rate mode : Constant
Frame rate : 25.000 FPS
Color space : YUV
Chroma subsampling : 4:2:0
Bit depth : 8 bits
Scan type : Progressive
Bits/(Pixel*Frame) : 0.152
Stream size : 1.21 GiB (93%)
Writing library : x264 core 146 r2538 121396c
Encoding settings : cabac=1 / ref=9 / deblock=1:-2:-1 / analyse=0x3:0x113 / me=umh / subme=9 / psy=1 / psy_rd=1.00:0.15 / mixed_ref=1 / me_range=32 / chroma_me=1 / trellis=2 / 8x8dct=1 / cqm=0 / deadzone=21,11 / fast_pskip=0 / chroma_qp_offset=-3 / threads=18 / lookahead_threads=3 / sliced_threads=0 / nr=0 / decimate=1 / interlaced=0 / bluray_compat=0 / constrained_intra=0 / bframes=9 / b_pyramid=2 / b_adapt=2 / b_bias=0 / direct=1 / weightb=1 / open_gop=0 / weightp=2 / keyint=250 / keyint_min=25 / scenecut=40 / intra_refresh=0 / rc_lookahead=40 / rc=2pass / mbtree=0 / bitrate=3500 / ratetol=1.0 / qcomp=0.60 / qpmin=0 / qpmax=69 / qpstep=4 / cplxblur=20.0 / qblur=0.5 / vbv_maxrate=14000 / vbv_bufsize=14000 / nal_hrd=none / filler=0 / ip_ratio=1.40 / pb_ratio=1.30 / aq=2:1.00
Default : Yes
Forced : No
Color range : Limited
Color primaries : BT.709
Transfer characteristics : BT.709
Matrix coefficients : BT.709
Audio
ID : 2
Format : AC-3
Format/Info : Audio Coding 3
Commercial name : Dolby Digital
Codec ID : A_AC3
Duration : 50 min 36 s
Bit rate mode : Constant
Bit rate : 192 kb/s
Channel(s) : 2 channels
Channel layout : L R
Sampling rate : 48.0 kHz
Frame rate : 31.250 FPS (1536 SPF)
Bit depth : 16 bits
Compression mode : Lossy
Stream size : 69.5 MiB (5%)
Service kind : Complete Main
Default : Yes
Forced : No
Скриншоты:
       
 

The time now is: Today 08:33

All times are GMT + 3 Hours