Today is a free download without charge Download

Search found 500 matches

Author Message

kilmister777

Post 21-Sep-2020 08:43

[Quote]

Рысь- Год выпуска: 2020
Страна: Россия, Украина
Жанр: мелодрама
Продолжительность: 4 x ~ 00:45:00
Перевод: Не требуется-Режиссер: Роман Ткаченко-В ролях: Анастасия Иванова (II), Влад Никитюк, Прохор Дубравин, Анастасия Цымбалару, Александр Попов (IV), Юлия Амелькина, Анатолий Борсюк, Евфросиния Мельник, Владимир Лилицкий, Галина Кобзарь-Слободюк, Юрий Гребельник, Вячеслав Василюк, Елизавета Зайцева, Виктор Шестаков, Тамара Морозова, Инна Мирошниченко-Описание: Эта тройка познакомились в летнем лагере, когда им было по 14: красавица Анька, долговязый Сашка и Рысь. Точнее - Марина Рысева, но из-за фамилии и рыжих волос Сашка сразу прозвал ее Рысью. Троица не разлучалась все лето. А потом Марина поняла, что любит Сашку. Вот только он к тому времени начал встречаться с Анькой. Лето закончилось, и вместе с ним закончилась и эта дружба...-Качество: WEBRip
Формат: AVI
Видео кодек: XviD
Аудио кодек: AC3
Видео: 720x400 (2.37:1), 24.000 fps, XviD build 73 ~1603 kbps avg, 0.30 bit/pixel
Аудио: 48 kHz, AC3 Dolby Digital, 2/0 (L,R) ch, ~192 kbps-

Скриншоты

       

kilmister777

Post 18-Sep-2020 07:45

[Quote]

Игра на выживание- Год выпуска: 2020
Страна: Россия
Жанр: приключения, триллер, драма
Продолжительность: 12 х ~ 00:50:00
Перевод: Не требуется- -Режиссер: Карен Оганесян-В ролях: Александра Бортич, Алексей Чадов, Игорь Верник, Линда Лапиньш, Владимир Верёвочкин, Беник Аракелян, Анастасия Тодореску, Валерий Скорокосов, Юлия Волкова, Мария Кулик, Михаил Кремер, Илья Хвостиков, Дмитрий Кривошеев, Кристина Поли, Ульяна Лукина, Ирина Воронова, Дэвид Пилия, Дарья Макарова, Юрий Архангельский, Сергей Жарков, Андрей Филиппак, Никита Кологривый, Александр Марушев, Сергей Дьяков, Глеб Бочков, Андрей Быков, Алдар Когаев, Эрдэм Шагдуров-Описание: Чем может обернуться обычное телевизионное реалити-шоу для его участников? 16 человек отправляются в дикую сибирскую тайгу, чтобы побороться за один миллион евро. Правила просты: никакой еды, личных вещей, электричества, связи и цивилизации на сотни километров вокруг. Победит тот, кто дойдет до конца. Но ТВ проект превращается в смертельно опасную игру, где главным призом становится ЖИЗНЬ… Что это? Больная фантазия телевизионщиков и сценарий? Кто за этим стоит? И кто из героев сможет выжить, не потеряв свою человечность?-Качество: SATRip
Формат: AVI
Видео кодек: XviD
Аудио кодек: MP3
Видео: 720x304 (2.37:1), 24.000 fps, XviD build 73 ~1650 kbps avg, 0.26 bit/pixel
Аудио: 48.0 kHz, MP3, 2/0 ch, 192 kbps-

Скриншоты

       

kilmister777

Post 18-Sep-2020 07:28

[Quote]

Агентство О.К.О.- Год выпуска: 2020
Страна: Россия
Жанр: детектив. мистика, криминал
Продолжительность: 16 х ~ 00:49:00
Перевод: Не требуется- -Режиссер: Илья Куликов, Анна Мирохина-В ролях: Рина Гришина, Игорь Стам, Виктория Тарасова, Артём Ешкин, Даниэла Стоянович, Евгений Венедиктов, Александр Сергеев (IV), Маргарита Силаева, Марина Кондратьева-Описание: Что будет, если бунтарь-полицейский и медиум с реальными способностями однажды встретятся? Бывший опер с Петровки в паре с девушкой-экстрасенсом занимаются поисками пропавших без вести, расследованием убийств, смертей и прочих дел, где оказалась бессильна полиция...-Качество: SATRip
Формат: AVI
Видео кодек: XviD
Аудио кодек: MP3
Видео: 704x288 (2.37:1), 24.000 fps, XviD build 73 ~1650 kbps avg, 0.30 bit/pixel
Аудио: 48.0 kHz, MP3, 2/0 ch, 192 kbps-

Скриншоты

     

kilmister777

Post 17-Sep-2020 09:57

[Quote]

Тайна Марии- Год выпуска: 2019
Страна: Россия, Украина
Жанр: мелодрама
Продолжительность: 8 x ~ 00:45:00
Перевод: Не требуется- -Режиссер: Николай Михайлов-В ролях: Мария Куликова, Анна Кошмал, Юлия Першута, Леся Самаева, Дарья Легейда, Алиса Дебабова-Лукшина, Алексей Зубков, Даниил Мирешкин, Алексей Яровенко, Тарас Цимбалюк, Мирослава Филиппович, Юрий Гребельник, Валерий Николаев, Влад Никитюк, Павел Баршак-Описание: У Марии есть боль, которую она скрывает всю свою жизнь. Более 20 лет назад, когда муж отбывал наказание в тюрьме и, пытаясь ее защитить, отказался от Марии, она от отчаяния бросилась в новые отношения. Итогом страстного романа стала дочь от возлюбленного Михаила. Создать семью с ним невозможно – мужчина женат. Но в браке у него нет и не будет детей. Чтобы сохранить свою нынешнюю семью и связанное с нею благополучие, Михаил идет на преступление – крадет у Марии дочь, которую с женой Ольгой они выдают за своего ребенка. Мария не только не может найти пропавшую малышку, но и теряет любимого…-Качество: WEBRip
Формат: AVI
Видео кодек: XviD
Аудио кодек: MP3
Видео: 720x400 (2.37:1), 24.000 fps, XviD build 73 ~1550 kbps avg, 0.22 bit/pixel
Аудио: 48.0 kHz, MP3, 2/0 ch, 192 kbps-

Скриншоты

       

kilmister777

Post 13-Sep-2020 13:26

[Quote]

Наказание без преступления- Год выпуска: 2019
Страна: Россия
Жанр: мелодрама
Продолжительность: 2 x ~ 01:30:00
Перевод: Не требуется- -Режиссер: Элина Суни-В ролях: Алла Юганова, Сергей Горобченко, Сергей Зотов, Тамара Миронова, Вера Александрова (II), Сергей Иванюк, Наталья Гриншпун, Анатолий Борискевич, Иван Жуковский, Елена Барсукова-Описание: Наталья в свои тридцать пять всё еще мечтает встретить принца. Однажды ночью на улице её агрессивного пьяного мужчины спасает финский бизнесмен Ларс. Любовь между ними вспыхивает мгновенно, и вскоре Наталья выходит за Ларса замуж. У них рождается сын Миша, но брак не приносит счастья - долгожданный принц оказывается игроманом. В очередной раз сильно проигравшись, Ларс с помощью сына решает свою тётю и стать наследником ее огромного состояния. Он подстраивает жене ловушку, похищает Мишу и вывозит его в Финляндию. Наталья теряет права на сына и остается одна. На помощь ей ​​неожиданно приходит тот самый мужчина с улицы...-Качество: SATRip
Формат: AVI
Видео кодек: XviD
Аудио кодек: MP3
Видео: 720x400 (2.37:1), 24.000 fps, XviD build 73 ~1700 kbps avg, 0.26 bit/pixel
Аудио: 48.0 kHz, MP3, 2/0 ch, 192 kbps-

Скриншоты

       

kilmister777

Post 12-Sep-2020 08:52

[Quote]

Спутники- Год выпуска: 2015
Страна: Россия
Жанр: военный, драма
Продолжительность: 8 x ~ 00:49:00
Перевод: Не требуется- -Режиссер: Иван Шурховецкий-В ролях: Сергей Угрюмов, Нелли Уварова, Виталий Коваленко, Александр Сирин, Дарья Мельникова, Оксана Базилевич, Яков Шамшин, Артур Ваха, Дмитрий Поднозов, Татьяна Рассказова, Маргарита Волкова (III), Мария Антонова, Мария Павловская (Павлова), Маргарита Адаева, Елена Калинина, Сергей Мардарь, Григорий Чабан, Нина Лощинина, Александр Марушев, Александр Карпухов, Дмитрий Гульнев, Илья Шорохов, Александр Маслов, Александр Галеев-Описание: Экранизация повести Веры Пановой «Спутники». 1941 год. Начало войны. Комиссар Данилов набирает медицинский персонал в санитарный поезд. К нему попадает доктор Белов, интеллигентный врач, оставивший свою семью в Ленинграде. Юлия, строгая операционная медсестра, старая дева. Красавица Фаина, испытывающая свои чары на Данилове и монтере Недзвецком. Эти люди проведут вместе бок о бок все четыре года войны, пройдя испытания на смелость, порядочность, стойкость и доброту.-Качество: HDTVRip
Формат: AVI
Видео кодек: XviD
Аудио кодек: AC3
Видео: 720x400 (2.37:1), 24.000 fps, XviD build 73 ~1750 kbps avg, 0.30 bit/pixel
Аудио: 48 kHz, AC3 Dolby Digital, 2/0 (L,R) ch, ~192 kbps-

Скриншоты

       

kilmister777

Post 10-Sep-2020 17:48

[Quote]

Давай найдём друг друга- Год выпуска: 2020
Страна: Россия
Жанр: детектив, мелодрама
Продолжительность: 16 x ~ 00:51:00
Перевод: Не требуется- -Режиссер: Дмитрий Черкасов-В ролях: Роман Маякин, Александра Никифорова, Артём Ткаченко, Иван Стебунов, Андрей Соколов, Татьяна Лютаева, Сергей Жарков, Роман Полянский, Анна Лутцева, Максим Битюков, Екатерина Никитина, Анна Глаубэ, Сергей Чирков, Анастасия Акатова, Иван Ивашкин, Сергей Галахов, Игорь Кистол, Юрий Сазонов, Мария Шумакова, Наталья Таченко, Антон Стреляев, Евгений Ганелин, Артём Карасёв, Евгений Данчевский, Наталья Ткаченко-Описание: Влюбленная и счастливая Анна Новикова приезжает вместе с женихом Максимом Вершининым в приморский город, чтобы познакомиться с его большой и дружной семьей. Аня быстро располагает к себе Бориса, отца Максима, и его братьев Сергея и Алекса. Только самоуверенная, властная мать Максима Нина строит планы, как разлучить сына с «неподходящей» невестой: Аня сирота, ее родителей убили много лет назад в этом городе, после чего бабушка сменила ей фамилию и увезла в Красноярск, где Аня и встретилась с Максимом. Возвращение в родной город через семнадцать лет становится для Ани настоящим испытанием. Будущая свекровь относится к ней неприязненно, Алекс двусмысленно навязчив, невеста Сергея Альбина ревнует его к Ане. Однажды Аня видит на новой приятельнице Кристине браслет, который отец Ани, ювелир Горский, перед смертью сделал специально для матери. Аня начинает расследовать судьбу браслета и обстоятельства смерти родителей и получает доказательства, что к убийству был причастен кто-то из Вершининых. В ходе Аниного расследования открываются множество давних семейных тайн, которые обостряют до предела отношения между Вершиниными. Но настоящей проблемой для Ани становится тот факт, что оказывается Алекс по-настоящему влюблен в нее… Как же быть? Ведь он ей тоже не безразличен…-Качество: SATRip
Формат: AVI
Видео кодек: XviD
Аудио кодек: MP3
Видео: 720x400 (2.37:1), 24.000 fps, XviD build 73 ~1650 kbps avg, 0.26 bit/pixel
Аудио: MP3, 2 ch, 192 Кбит/с-

Скриншоты

       

DED

Post 06-Sep-2020 22:15

[Quote]

или он Я писал(а):
просто отличный сериал,раза три точно пересматривали с мужем!
Thumbs up

или он Я

Post 06-Sep-2020 20:04

[Quote]

просто отличный сериал,раза три точно пересматривали с мужем!

DED

Post 06-Sep-2020 18:30

[Quote]

--Зона. Тюремный роман-- Год выпуска: 2006
Страна: Россия
Студия: «Всемирные Русские Студии»
Жанр: криминальная драма
Продолжительность: 50 x ~ 00:44:00
Язык: Русский
Режиссер: Петр Штейн
В ролях: Даниил Грецов, Александр Батрак, Александр Таранжин, Томас Москус, Федор Малышев, Андрей Филиппак, Игорь Арташонов, Олег Протасов, Игорь Филиппов, Виктор Коношенков, Олег Гераськин, Георгий Шахет, Павел Поймалов, …-Описание:
В фильме впервые вскрыта шокирующая, и в то же время притягательная, как все запретное, жестокая сущность зоны с ее порядками, чудовищной иерархией, скрытыми преступлениями, а также вымученным и страшным фольклором.- -Качество видео: DVDRip–AVC
Формат видео: MKV
Видеокодек: H.264
Аудиокодек: AC3
Видео: 702х468 (1.50:1), 25.000 fps, MPEG-4 AVC, ~2500 kbps avg
Аудио: 48.0 kHz, AC3 Dolby Digital, 2.0 ch, ~192.00 kbps avg
Cубтитры: нет
-

Дополнительная информация:

В основу сценария сериала легли реальные шокирующие истории, которые сценаристы записали в реальных зонах, тюрьмах и пересылочных пунктах всей страны. Началось все с рукописи, которую продюсерам предали анонимные рецидивисты.
В "Зоне" настоящий урка сыграл роль майора Шверника Мало кто знает, что роль самого главного "злого" мента в новом сериале канала НТВ "Зона" майора Шверника играет... бывший зэк Олег Протасов. Кроме того, актер инструктировал создателей проекта и режиссера фильма Петра Штейна по всем "зэковским" вопросам. На зону Олег попал еще в юности. Протасов был осужден за мошенничество и провел за решеткой целых восемь лет. Сейчас Протасов не только известный исполнитель шансона, но и замечательный актер. На его счету около тридцати ролей, но именно в "Зоне" он дебютировал в качестве главного героя. Кстати, Олег хотел сыграть именно злого мента, а не зэка. Говорит, что эта роль ему набила оскомину и в жизни, теперь хотелось попробовать себя в другой ипостаси - по другую сторону решетки. Протасов - единственный человек на проекте, который прошел суровые испытания на зоне и знает эту "кухню" лучше, чем кто бы то ни было. Кстати, именно благодаря его советам и подсказкам удалось избежать многих неточностей, которые по незнанию реальной зоны допустили сценаристы.
"Зону" для актеров строили с помощью заключенных
После начала показа сериала "Зона" (НТВ) у многих читателей возник вопрос: в какой тюрьме происходят съемки? Мы нашла таинственную "зону" в Москве. Попав на территорию неработающего завода недалеко от центра Москвы, сразу оказываешься в «зоне». Железные ворота, натянутые сетки, имитация колючей проволоки, надписи «Больше троих не входить» - декорации начинаются уже на улице.
- Когда мы приехали сюда за три недели до начала съемок, увидели страшную разруху: дыры в стенах, обвалившаяся кирпичная кладка, -рассказывает архитектор проекта Иван Феофанов. - Однако за столь короткий срок бьии построены и внутренние декорации, и тюремный дворик Уличные вышки, въездные железные ворота, камеры - все делалось с нуля.
"Сериал о тюрьме основан на реальных событиях"
В основе сценария - реальные шокирующие истории, записанные в тюрьмах, на зонах и в пересылочных пунктах страны. Начало проекту дала рукопись, переданная в производящую компанию Russian World Studios, миновавшая тюремную цензуру. - Кстати, никакой цензуры наш проект не проходил, - рассказал режиссер-постановщик сериала "Зона" Петр Штейн. - Мы толкались с этим сериалом на все центральные каналы, но только НТВ решился показать наш проект в эфире. Да еще в прайм-тайм. Это сериал о судьбах людей, так или иначе связанных с тюрьмой. Рядом со старыми матерыми уголовниками, особо опасными преступниками оказываются "цветочки", которые находятся под следствием или сели по недоразумению, по глупости или из-за подставы Кроме того, они тесно взаимодействуют с людьми, которые вроде бы находятся "по ту сторону решетки". Участь начальников и служащих тюрьмы - незавидная бюджетные зарплаты, не сложившаяся личная жизнь и в конечном счете неизбежная и призрачная свобода - ведь они ежедневно возвращаются к тем же сырым серым стенам, в которых проходит большая часть их жизни.
Сохранены оригинальные разделы
Рип сделан из лицензии от МОНОЛИТ 12 х DVD-9 88.23 ГБ

MediaInfo:

Код:
Общее
Уникальный идентификатор                 : 210633875486931524226285044271499180322 (0x9E769BDAFD422DBA1FD828325CBFF922)
Полное имя                               : Z:\Downloads\1\Zona\Zona-1.mkv
Формат                                   : Matroska
Версия формата                           : Version 2
Размер файла                             : 863 Мбайт
Продолжительность                        : 44 м. 44 с.
Общий поток                              : 2697 Кбит/сек
Программа кодирования                    : HandBrake 0.9.5
Библиотека кодирования                   : libmkv 0.6.4.1
Видео
Идентификатор                            : 1
Формат                                   : AVC
Формат/Информация                        : Advanced Video Codec
Профиль формата                          : [email protected]
Настройки формата                        : CABAC / 4 Ref Frames
Параметр CABAC формата                   : Да
Параметр RefFrames формата               : 4 кадра
Идентификатор кодека                     : V_MPEG4/ISO/AVC
Продолжительность                        : 44 м. 44 с.
Битрейт                                  : 2500 Кбит/сек
Ширина                                   : 702 пикселя
Высота                                   : 468 пикселей
Соотношение сторон                       : 16:10
Соотношение сторон в оригинале           : 16:10
Режим частоты кадров                     : Постоянный
Частота кадров                           : 25,000 кадров/сек
Цветовое пространство                    : YUV
Субдискретизация насыщенности            : 4:2:0
Битовая глубина                          : 8 бит
Тип развёртки                            : Прогрессивная
Бит/(Пиксели*Кадры)                      : 0.304
Размер потока                            : 784 Мбайт (91%)
Библиотека кодирования                   : x264 core 112
Настройки программы                      : cabac=1 / ref=2 / deblock=1:0:0 / analyse=0x1:0x111 / me=hex / subme=6 / psy=1 / psy_rd=1.00:0.00 / mixed_ref=0 / me_range=16 / chroma_me=1 / trellis=0 / 8x8dct=0 / cqm=0 / deadzone=21,11 / fast_pskip=1 / chroma_qp_offset=-2 / threads=6 / sliced_threads=0 / nr=0 / decimate=1 / interlaced=0 / constrained_intra=0 / bframes=2 / b_pyramid=2 / b_adapt=1 / b_bias=0 / direct=1 / weightb=0 / open_gop=0 / weightp=2 / keyint=250 / keyint_min=25 / scenecut=40 / intra_refresh=0 / rc_lookahead=40 / rc=2pass / mbtree=1 / bitrate=2500 / ratetol=1.0 / qcomp=0.60 / qpmin=3 / qpmax=51 / qpstep=4 / cplxblur=20.0 / qblur=0.5 / ip_ratio=1.40 / aq=1:1.00
Язык                                     : English
Default                                  : Да
Forced                                   : Нет
Цветовой диапазон                        : Limited
Основные цвета                           : BT.601 NTSC
Характеристики трансфера                 : BT.709
Коэффициенты матрицы                     : BT.601
Аудио
Идентификатор                            : 2
Формат                                   : AC-3
Формат/Информация                        : Audio Coding 3
Коммерческое название                    : Dolby Digital
Идентификатор кодека                     : A_AC3
Продолжительность                        : 44 м. 44 с.
Вид битрейта                             : Постоянный
Битрейт                                  : 192 Кбит/сек
Каналы                                   : 2 канала
ChannelLayout                            : L R
Частота                                  : 48,0 КГц
Частота кадров                           : 31,250 кадров/сек (1536 SPF)
Метод сжатия                             : С потерями
Размер потока                            : 61,4 Мбайт (7%)
Язык                                     : Russian
ServiceKind/String                       : Complete Main
Default                                  : Да
Forced                                   : Нет
Меню
00:00:00.000                             : Chapter 1
00:11:43.120                             : Chapter 2
00:22:57.520                             : Chapter 3
00:33:24.800                             : Chapter 4
-

Скриншоты:

       
- -

kilmister777

Post 05-Sep-2020 17:50

[Quote]

Яркие краски осени- Год выпуска: 2019
Страна: Россия
Жанр: мелодрама
Продолжительность: 2 x ~ 01:30:00
Перевод: Не требуется- -Режиссер: Сергей Артимович-В ролях: Пелагея Невзорова, Иван Колесников, Наталья Чернявская, Сергей Юшкевич, Яна Чечулина, Илья Ильиных, Евгения Шевченко, Максим Иванов (II), Евгения Каверау, Егор Губарев, Аиша Мещерякова-Описание: Жизнь студентки меда Риты складывалась как в доброй сказке, пока в тихую гавань не ворвалась первая любовь. Бросив институт и родителей, девушка сбегает в другой город с музыкантом Аликом. Как это часто бывает, любовь быстро остыла, но не забылась: Рита беременна. Со временем жизнь Риты налаживается - сын подрастает, отношения с родителями потеплели, и ей, наконец, удаётся устроиться медсестрой в больницу. Но неожиданно на ее семью сваливается новое испытание. Отца Риты Федора Николаевича увольняет с работы новый начальник Борис. Отец начинает выпивать, и мир в семье рушится. Вскоре Борис попадает в аварию и оказывается в больнице, где работает Рита. Между ними возникает симпатия, обещающая нечто большее, но Рита и не подозревает, что перед ней виновник всех бед ее семьи…-Качество: SATRip
Формат: AVI
Видео кодек: XviD
Аудио кодек: AC3
Видео: 720x400 (2.37:1), 24.000 fps, XviD build 73 ~1700 kbps avg, 0.26 bit/pixel
Аудио: 48.0 kHz, MP3, 2/0 ch, 192 kbps-

Скриншоты

       

DED

Post 05-Sep-2020 10:19

[Quote]

--Лихач-- Год выпуска: 2020
Страна: Россия
Студия: «КС КИТ»
Жанр: криминал, детектив
Продолжительность: 20 x ~ 00:49:00
Язык: Русский
Режиссер: Андрей Коршунов, Максим Демченко
В ролях: Никита Панфилов, Артур Мкртчян, Мария Сандлер, Иван Васильев, Игорь Качаев, Денис Пьянов, Ольга Павлюкова, Игорь Головин, Ульяна Никулина, Александра Камчатова, …-Описание: 37-летний Сергей Сотников – заместитель начальника уголовного розыска Сочи, в котором родился и прожил всю жизнь. Всему городу Сотников знаком под прозвищем «Лихач», которое он получил за свой суровый нрав.Упрямый, справедливый, уверенный в себе Лихач смог за годы работы добиться главного – установить контроль над преступностью. Сотников давно бы мог возглавить уголовный розыск и даже стать начальником полиции, но кабинетные должности не для него.- -Качество видео: WEBRip–AVC
Формат видео: MKV
Видеокодек: H.264
Аудиокодек: AC3
Видео: 1024x576 (1.78:1), 25.000 fps, MPEG-4 AVC, ~ 2000 kbps avg
Аудио: 48.0 kHz, AC3 Dolby Digital, 2/0 (L,R) ch, ~192.00 kbps avg
Cубтитры: нет
-

MediaInfo:

Код:
General
Unique ID                   : 224587305925767587584385848437417783039 (0xA8F5F117428EA7BFBF3AC7B3456D2EFF)
Complete name               : Лихач.(2020).WEBRip.(AVC).Files-x\01.Лихач.(2020).WEBRip.(AVC).by.Серый1779.Files-x.mkv.mkv
Format                      : Matroska
Format version              : Version 2
File size                   : 778 MiB
Duration                    : 49 min 35 s
Overall bit rate            : 2 193 kb/s
Encoded date                : UTC 2020-08-24 20:26:42
Writing application         : mkvmerge v7.8.0 ('River Man') 32bit built on Apr  3 2015 12:11:22
Writing library             : libebml v1.3.1 + libmatroska v1.4.2
Video
ID                          : 1
Format                      : AVC
Format/Info                 : Advanced Video Codec
Format profile              : [email protected]
Format settings             : CABAC / 9 Ref Frames
Format settings, CABAC      : Yes
Format settings, ReFrames   : 9 frames
Codec ID                    : V_MPEG4/ISO/AVC
Duration                    : 49 min 35 s
Bit rate                    : 2 000 kb/s
Width                       : 1 024 pixels
Height                      : 576 pixels
Display aspect ratio        : 16:9
Frame rate mode             : Constant
Frame rate                  : 25.000 FPS
Color space                 : YUV
Chroma subsampling          : 4:2:0
Bit depth                   : 8 bits
Scan type                   : Progressive
Bits/(Pixel*Frame)          : 0.136
Stream size                 : 694 MiB (89%)
Writing library             : x264 core 146 r2538 121396c
Encoding settings           : cabac=1 / ref=9 / deblock=1:-2:-1 / analyse=0x3:0x133 / me=umh / subme=9 / psy=1 / psy_rd=1.00:0.15 / mixed_ref=1 / me_range=32 / chroma_me=1 / trellis=2 / 8x8dct=1 / cqm=0 / deadzone=21,11 / fast_pskip=0 / chroma_qp_offset=-3 / threads=18 / lookahead_threads=3 / sliced_threads=0 / nr=0 / decimate=1 / interlaced=0 / bluray_compat=0 / constrained_intra=0 / bframes=9 / b_pyramid=2 / b_adapt=2 / b_bias=0 / direct=1 / weightb=1 / open_gop=0 / weightp=2 / keyint=250 / keyint_min=25 / scenecut=40 / intra_refresh=0 / rc=2pass / mbtree=0 / bitrate=2000 / ratetol=1.0 / qcomp=0.60 / qpmin=0 / qpmax=69 / qpstep=4 / cplxblur=20.0 / qblur=0.5 / ip_ratio=1.40 / pb_ratio=1.30 / aq=2:1.00
Default                     : Yes
Forced                      : No
Color range                 : Limited
Color primaries             : BT.709
Transfer characteristics    : BT.709
Matrix coefficients         : BT.709
Audio
ID                          : 2
Format                      : AC-3
Format/Info                 : Audio Coding 3
Commercial name             : Dolby Digital
Codec ID                    : A_AC3
Duration                    : 49 min 35 s
Bit rate mode               : Constant
Bit rate                    : 192 kb/s
Channel(s)                  : 2 channels
Channel layout              : L R
Sampling rate               : 48.0 kHz
Frame rate                  : 31.250 FPS (1536 SPF)
Bit depth                   : 16 bits
Compression mode            : Lossy
Stream size                 : 68.1 MiB (9%)
Service kind                : Complete Main
Default                     : Yes
Forced                      : No
-

Скриншоты:

       
- -

kilmister777

Post 05-Sep-2020 09:39

[Quote]

Лихач- Год выпуска: 2020
Страна: Россия
Жанр: детектив, приключения
Продолжительность: 20 x ~ 00:49:00
Перевод: Не требуется- -Режиссер: Андрей Коршунов, Максим Демченко-В ролях: Никита Панфилов, Артур Мкртчян, Мария Сандлер, Иван Васильев, Игорь Качаев, Денис Пьянов, Ольга Павлюкова, Игорь Головин, Ульяна Никулина, Александра Камчатова-Описание: 37-летний Сергей Сотников – заместитель начальника уголовного розыска Сочи, в котором родился и прожил всю жизнь. Всему городу Сотников знаком под прозвищем «Лихач», которое он получил за свой суровый нрав.Упрямый, справедливый, уверенный в себе Лихач смог за годы работы добиться главного – установить контроль над преступностью. Сотников давно бы мог возглавить уголовный розыск и даже стать начальником полиции, но кабинетные должности не для него. В курортном городе случаются и грабежи, и разбойные нападения, и драки, а иногда даже убийства. Но Лихач ни одно преступление не оставит безнаказанным. Сочи может спать спокойно – у этого города есть свой герой.-Качество: WEBRip
Формат: AVI
Видео кодек: XviD
Аудио кодек: MP3
Видео: 720x400 (2.37:1), 24.000 fps, XviD build 73 ~1400 kbps avg, 0.20 bit/pixel
Аудио: 48.0 kHz, MP3, 2/0 ch, 192 kbps-

Скриншоты

       

DED

Post 04-Sep-2020 18:45

[Quote]

--Лихач-- Год выпуска: 2020
Страна: Россия
Студия: «КС КИТ»
Жанр: криминал, детектив
Продолжительность: 20 x ~ 00:49:00
Язык: Русский
Режиссер: Андрей Коршунов, Максим Демченко
В ролях: Никита Панфилов, Артур Мкртчян, Мария Сандлер, Иван Васильев, Игорь Качаев, Денис Пьянов, Ольга Павлюкова, Игорь Головин, Ульяна Никулина, Александра Камчатова, …-Описание: 37-летний Сергей Сотников – заместитель начальника уголовного розыска Сочи, в котором родился и прожил всю жизнь. Всему городу Сотников знаком под прозвищем «Лихач», которое он получил за свой суровый нрав.Упрямый, справедливый, уверенный в себе Лихач смог за годы работы добиться главного – установить контроль над преступностью. Сотников давно бы мог возглавить уголовный розыск и даже стать начальником полиции, но кабинетные должности не для него.- -Качество видео: WEB-DLRip 1080p
Формат видео: MKV
Видеокодек: H.264
Аудиокодек: AC3
Видео: 1920x1080 (1.78:1), 25.000 fps, MPEG-4 AVC, ~ 6000 kbps avg
Аудио: 48.0 kHz, AC3 Dolby Digital, 2/0 (L,R) ch, ~192.00 kbps avg
Cубтитры: нет
-

MediaInfo:

Код:
Общее
Уникальный идентификатор                 : 229228845553879483771508144512120573937 (0xAC73DEA9B3D167E4819CBA0C348ECFF1)
Полное имя                               : F:\СЕРИАЛЫ\ЛИХАЧ\Lihach.S01.2020.WEB-DL.(1080p).ExKinoRay\Lihach.s01e01.2020.WEB-DL.(1080p).ExKinoRay.mkv
Формат                                   : Matroska
Версия формата                           : Version 4
Размер файла                             : 2,14 Гбайт
Продолжительность                        : 49 м. 35 с.
Режим общего битрейта                    : Постоянный
Общий поток                              : 6172 Кбит/сек
Дата кодирования                         : UTC 2020-08-24 19:28:23
Программа кодирования                    : mkvmerge v6.9.1 ('Blue Panther') 64bit built on Apr 18 2014 18:23:38
Библиотека кодирования                   : libebml v1.3.0 + libmatroska v1.4.1
Видео
Идентификатор                            : 1
Формат                                   : AVC / AVC
Формат/Информация                        : Advanced Video Codec
Профиль формата                          : [email protected] / [email protected]
Настройки формата                        : 2 Ref Frames / 16 Ref Frames
Параметр CABAC формата                   : Нет / Нет
Параметр RefFrames формата               : 2 кадра / 16 кадров
Идентификатор кодека                     : V_MPEG4/ISO/AVC
Продолжительность                        : 49 м. 35 с.
Вид битрейта                             : Постоянный
Битрейт                                  : 6000 Кбит/сек
Ширина                                   : 1920 пикселей
Ширина оригинала                         : 1920 пикселей / 1920 пикселей
Высота                                   : 1080 пикселей
Высота оригинала                         : 1080 пикселей / 1080 пикселей
Соотношение сторон                       : 16:9
Режим частоты кадров                     : Постоянный
Частота кадров                           : 25,000 кадров/сек
Стандарт вещания                         : PAL
Цветовое пространство                    : YUV
Субдискретизация насыщенности            : 4:2:0 / 4:2:0
Битовая глубина                          : 8 бит / 8 бит
Тип развёртки                            : Прогрессивная / Progressive
Бит/(Пиксели*Кадры)                      : 0.116
Размер потока                            : 2,03 Гбайт (95%)
Default                                  : Да
Forced                                   : Нет
Цветовой диапазон                        : Limited
Основные цвета                           : BT.709
Характеристики трансфера                 : BT.709
Коэффициенты матрицы                     : BT.709
Аудио
Идентификатор                            : 2
Формат                                   : AC-3
Формат/Информация                        : Audio Coding 3
Коммерческое название                    : Dolby Digital
Идентификатор кодека                     : A_AC3
Продолжительность                        : 49 м. 35 с.
Вид битрейта                             : Постоянный
Битрейт                                  : 192 Кбит/сек
Каналы                                   : 2 канала
ChannelLayout                            : L R
Частота                                  : 48,0 КГц
Частота кадров                           : 31,250 кадров/сек (1536 SPF)
Битовая глубина                          : 16 бит
Метод сжатия                             : С потерями
Размер потока                            : 68,1 Мбайт (3%)
Язык                                     : Russian
ServiceKind/String                       : Complete Main
Default                                  : Да
Forced                                   : Нет

Скриншоты:

       
- -

DED

Post 04-Sep-2020 18:42

[Quote]

--Лихач-- Год выпуска: 2020
Страна: Россия
Студия: «КС КИТ»
Жанр: криминал, детектив
Продолжительность: 20 x ~ 00:49:00
Язык: Русский
Режиссер: Андрей Коршунов, Максим Демченко
В ролях: Никита Панфилов, Артур Мкртчян, Мария Сандлер, Иван Васильев, Игорь Качаев, Денис Пьянов, Ольга Павлюкова, Игорь Головин, Ульяна Никулина, Александра Камчатова, …-Описание: 37-летний Сергей Сотников – заместитель начальника уголовного розыска Сочи, в котором родился и прожил всю жизнь. Всему городу Сотников знаком под прозвищем «Лихач», которое он получил за свой суровый нрав.Упрямый, справедливый, уверенный в себе Лихач смог за годы работы добиться главного – установить контроль над преступностью. Сотников давно бы мог возглавить уголовный розыск и даже стать начальником полиции, но кабинетные должности не для него.- -Качество видео: WEB-DLRip 720p
Формат видео: MKV
Видеокодек: H.264
Аудиокодек: AC3
Видео: 1280x720 (1.78:1), 25.000 fps, MPEG-4 AVC, ~ 3500 kbps avg
Аудио: 48.0 kHz, AC3 Dolby Digital, 2/0 (L,R) ch, ~192.00 kbps avg
Cубтитры: нет
-

MediaInfo:

Код:
Общее
Уникальный идентификатор                 : 254481369295406678124036165517522246789 (0xBF7354358213BEA88796CAC657381C85)
Полное имя                               : F:\СЕРИАЛЫ\ЛИХАЧ\Lihach.S01.2020.WEB-DLRip.(720p).ExKinoRay\Lihach.s01e01.2020.WEB-DLRip.(720p).ExKinoRay.mkv
Формат                                   : Matroska
Версия формата                           : Version 2
Размер файла                             : 1,28 Гбайт
Продолжительность                        : 49 м. 35 с.
Общий поток                              : 3685 Кбит/сек
Дата кодирования                         : UTC 2020-08-24 20:30:38
Программа кодирования                    : mkvmerge v7.8.0 ('River Man') 32bit built on Apr  3 2015 12:11:22
Библиотека кодирования                   : libebml v1.3.1 + libmatroska v1.4.2
Видео
Идентификатор                            : 1
Формат                                   : AVC
Формат/Информация                        : Advanced Video Codec
Профиль формата                          : [email protected]
Настройки формата                        : CABAC / 9 Ref Frames
Параметр CABAC формата                   : Да
Параметр RefFrames формата               : 9 кадров
Идентификатор кодека                     : V_MPEG4/ISO/AVC
Продолжительность                        : 49 м. 35 с.
Битрейт                                  : 3500 Кбит/сек
Ширина                                   : 1280 пикселей
Высота                                   : 720 пикселей
Соотношение сторон                       : 16:9
Режим частоты кадров                     : Постоянный
Частота кадров                           : 25,000 кадров/сек
Цветовое пространство                    : YUV
Субдискретизация насыщенности            : 4:2:0
Битовая глубина                          : 8 бит
Тип развёртки                            : Прогрессивная
Бит/(Пиксели*Кадры)                      : 0.152
Размер потока                            : 1,18 Гбайт (93%)
Библиотека кодирования                   : x264 core 146 r2538 121396c
Настройки программы                      : cabac=1 / ref=9 / deblock=1:-3:-3 / analyse=0x3:0x113 / me=umh / subme=11 / psy=1 / psy_rd=1.00:0.20 / mixed_ref=1 / me_range=32 / chroma_me=1 / trellis=2 / 8x8dct=1 / cqm=0 / deadzone=21,11 / fast_pskip=1 / chroma_qp_offset=-3 / threads=24 / lookahead_threads=10 / sliced_threads=0 / nr=0 / decimate=0 / interlaced=0 / bluray_compat=0 / constrained_intra=0 / bframes=10 / b_pyramid=2 / b_adapt=2 / b_bias=0 / direct=3 / weightb=1 / open_gop=0 / weightp=2 / keyint=250 / keyint_min=25 / scenecut=40 / intra_refresh=0 / rc_lookahead=60 / rc=2pass / mbtree=1 / bitrate=3500 / ratetol=1.0 / qcomp=0.60 / qpmin=0 / qpmax=69 / qpstep=4 / cplxblur=20.0 / qblur=0.5 / vbv_maxrate=14000 / vbv_bufsize=14000 / nal_hrd=none / filler=0 / ip_ratio=1.40 / aq=3:1.40
Default                                  : Да
Forced                                   : Нет
Цветовой диапазон                        : Limited
Основные цвета                           : BT.709
Характеристики трансфера                 : BT.709
Коэффициенты матрицы                     : BT.709
Аудио
Идентификатор                            : 2
Формат                                   : AC-3
Формат/Информация                        : Audio Coding 3
Коммерческое название                    : Dolby Digital
Идентификатор кодека                     : A_AC3
Продолжительность                        : 49 м. 35 с.
Вид битрейта                             : Постоянный
Битрейт                                  : 192 Кбит/сек
Каналы                                   : 2 канала
ChannelLayout                            : L R
Частота                                  : 48,0 КГц
Частота кадров                           : 31,250 кадров/сек (1536 SPF)
Битовая глубина                          : 16 бит
Метод сжатия                             : С потерями
Размер потока                            : 68,1 Мбайт (5%)
ServiceKind/String                       : Complete Main
Default                                  : Да
Forced                                   : Нет

Скриншоты:

       
- -
 

The time now is: Today 06:53

All times are GMT + 3 Hours