Сегодня идет свободное скачивание без начисления Download

Результатов поиска: 500

Автор Сообщение

ALexLeo117

Пост 24-Апр-2017 12:12

[Цитировать]

Наруто + Наруто: Ураганные хроники. Без филлеров! Без повторов! / Naruto + Naruto Shippuuden- Год выпуска: 2002
Страна: Япония
Жанр: приключения, комедия, боевые искусства, сёнэн
Продолжительность: 10-20 мин. серия
Перевод: Субтитры
Режиссер: Датэ Хаято, Юки Эри
PG-13


В ролях: Узумаки Наруто, Учиха Саске, Харуно Сакура, Хатаке Какаши и др.
Описание: Наруто Узумаки - шумный и непоседливый ниндзя-подросток, который мечтает достичь всеобщего признания и стать Хокаге — главой своего селения и сильнейшим ниндзя. Чтобы добиться уважения окружающих, ему предстоит пройти через тысячи препятствий: экзамены ниндзя, различные миссии и сражения.
Знакомо ли вам чувство, когда при просмотре анимэ, вам постоянно приходится совершать лишние телодвижения и перематывать уже поднадоевший и постоянно появляющийся когда не нужно опенинг?
А если это анимэ в жанре сёнэн и в нём просто огромное количество повторов, которые просто страшно достаёт проматывать, и всё это неслабо портит впечатление от просмотра….
Всем любителям анимэ про реактивного желтоволосого парня по имени Наруто эта проблема знакома не понаслышке. Но теперь эта проблема решена. Данная раздача содержит полную версию Наруто + Naruto Shippuuden без филлеров, а также без ненужных повторов и назойливых опенингов и эндингов ( вырезаны не все, но подавляющее их большинство ). «Наруто» очищено от вредных примесей и готово к употреблению. Приятного просмотра!
Доп. информация:
Полностью отредактированная версия. Нет филлеров. Вырезаны ненужные повторы и повторяющиеся опенинги/эндинги
Качество: HDTVRip
Формат: MKV
Видео кодек: Другой MPEG4
Аудио кодек: AC3
Видео: V_MPEG4/ISO/AVC, 720*536, 23 fps, 852 kbps
Аудио: A_AAC, 48,0 KHz, 320 kbps, 2ch.

Скриншоты

         

Clavik

Пост 29-Дек-2015 01:13

[Цитировать]

самое потрясное аниме этого месяца может даже этого года советую всем посмотреть не разочарует интересное и смешное тем кто не смотрит аниме тоже понравится

Clavik

Пост 29-Дек-2015 01:10

[Цитировать]

One-Punch Man / Ванпанчмен- Жанр: приключения
Тип: TВ-сериал
Количество серий: 12 из 12
Продолжительность: 12 серий по 25 минут
Период выхода: с 05.10.2015 по 21.12.2015
Производство: Madhouse Studios
Автор оригинала: ONE
Режиссер: Нацумэ Синго
Ссылки: World-Art, Ani-DB, Официальный сайт, ANN, MAL, Сетка вещания
-Описание:

Вы устали от запоминания супер-атак и бесконечных доспехов, но душа просит адреналина и драк? Тогда эта новая экшен-комедия от студии Madhouse для вас!
Главный герой не размахивает мечом, не выкрикивает боевой клич и вообще не отличается ничем особенно героическим. Всё в этом молодом человеке по имени Сайтама так и вопит: «заурядный» — и его лысая голова, и его хилое телосложение. Однако у этого среднестатистического, по всем параметрам, парня совсем не среднестатистические проблемы... Потому что на самом деле он — супергерой, жаждущий битвы с суперкрутыми противниками. Загвоздка в том, что, отыскав наконец перспективного кандидата на роль главного врага, Сайтама выносит его с одного удара. Сможет ли Сайтама заиметь себе могучего злодея, который смог бы достойно противостоять ему? Следуйте за Ванпанчменом в его уморительных приключениях, пока среди многочисленных плохих парней он наконец попытается найти «своего»!
-Качество видео: HDTV
Битрейт видео: ~2.334 Mbps
Размер кадра: 1280x720
Аудио: ААС, 2ch, 48KHz, ~211 Kbps | Звук: Японский
Субтитры: Русские
Перевод от: Anku & mutagenb

Media Info на первую серию

Код:
General
Complete name               : [Ohys-Raws] One-Punch Man - 01 (TX 1280x720 x264 AAC).mp4
Format                      : MPEG-4
Format profile              : Base Media
Codec ID                    : isom
File size                   : 450 MiB
Duration                    : 24mn 40s
Overall bit rate mode       : Variable
Overall bit rate            : 2 549 Kbps
Encoded date                : UTC 2015-10-04 16:57:00
Tagged date                 : UTC 2015-10-04 16:57:00
Video
ID                          : 1
Format                      : AVC
Format/Info                 : Advanced Video Codec
Format profile              : [url=mailto:[email protected]][email protected][/url]
Format settings, CABAC      : Yes
Format settings, ReFrames   : 4 frames
Codec ID                    : avc1
Codec ID/Info               : Advanced Video Coding
Duration                    : 24mn 39s
Bit rate                    : 2 334 Kbps
Maximum bit rate            : 12.5 Mbps
Width                       : 1 280 pixels
Height                      : 720 pixels
Display aspect ratio        : 16:9
Frame rate mode             : Constant
Frame rate                  : 23.976 fps
Color space                 : YUV
Chroma subsampling          : 4:2:0
Bit depth                   : 8 bits
Scan type                   : Progressive
Bits/(Pixel*Frame)          : 0.106
Stream size                 : 412 MiB (92%)
Writing library             : x264 core 148 r2597 e86f3a1
Encoding settings           : cabac=1 / ref=3 / deblock=1:0:0 / analyse=0x1:0x111 / me=hex / subme=7 / psy=1 / psy_rd=1.00:0.00 / mixed_ref=1 / me_range=16 / chroma_me=1 / trellis=1 / 8x8dct=0 / cqm=0 / deadzone=21,11 / fast_pskip=1 / chroma_qp_offset=-2 / threads=12 / lookahead_threads=2 / sliced_threads=0 / nr=0 / decimate=1 / interlaced=0 / bluray_compat=0 / constrained_intra=0 / bframes=3 / b_pyramid=2 / b_adapt=1 / b_bias=0 / direct=1 / weightb=1 / open_gop=0 / weightp=2 / keyint=240 / keyint_min=1 / scenecut=40 / intra_refresh=0 / rc_lookahead=40 / rc=crf / mbtree=1 / crf=20.0 / qcomp=0.60 / qpmin=0 / qpmax=69 / qpstep=4 / ip_ratio=1.40 / aq=1:1.50
Encoded date                : UTC 2015-10-04 16:57:00
Tagged date                 : UTC 2015-10-04 16:57:03
Color range                 : Limited
Color primaries             : BT.709
Transfer characteristics    : BT.709
Matrix coefficients         : BT.709
Audio
ID                          : 2
Format                      : AAC
Format/Info                 : Advanced Audio Codec
Format profile              : LC
Codec ID                    : 40
Duration                    : 24mn 40s
Bit rate mode               : Variable
Bit rate                    : 211 Kbps
Maximum bit rate            : 249 Kbps
Channel(s)                  : 2 channels
Channel positions           : Front: L R
Sampling rate               : 48.0 KHz
Compression mode            : Lossy
Stream size                 : 37.3 MiB (8%)
Language                    : Japanese
Encoded date                : UTC 2015-10-04 16:45:49
Tagged date                 : UTC 2015-10-04 16:57:03

Эпизоды:

01. The Strongest Man
02. The Lone Cyborg
03. The Obsessive Scientist
04. The Modern Ninja
05. The Ultimate Master
06. The Terrifying City
07. The Ultimate Disciple
08. The Deep Sea King
09. Unyielding Justice
10. Unparalleled Peril
11. The Dominator of the Universe
12. The Strongest Hero
Скриншоты:
       
       

Clavik

Пост 29-Дек-2015 01:08

[Цитировать]

Little Busters! Refrain / Маленькие проказники [ТВ-2]- Жанр: комедия, драма
Тип: TV-сериал
Продолжительность: 13 эпизодов и 8 спэшлов по 25 минут
Выпуск: c 05.10.2013 по 28.12.2013
Сценарий: Симада Митиру
Режиссер: Ямакава Ёсики
Производство: J.C. Staff-Информационные ссылки: AniDB || World Art || MAL || ANN-Перевод:
  • Русские субтитры от gorodoshnik & Nachtwandler [TV]
  • Русские субтитры от gorodoshnik [SP 1-5]
  • Русские субтитры от Sleepless Studios [SP 6-8]
-Описание:
Компания друзей детства, известная как «Маленькие проказники», живет и не тужит в старшей школе-интернате, постоянно придумывая новые забавы и приключения. Добрые дела не остаются безнаказанными, ряды «проказников» растут и пополняются незаурядными личностями. Не радует лишь, что заводила группы Кёсукэ Нацумэ на год старше остальных, а значит, неизбежно скорое расставание. Зная это, Нацумэ начал отдаляться от коллектива, оставив «на хозяйстве» Рики Наоэ – пусть не самого крепкого, зато умного и наблюдательного парня. И вот Наоэ, несмотря на пережитые с ребятами минуты счастья, смог заглянуть в себя и понял главное – с окружающим миром что-то не так. Все не так, как надо!
Могут ли счастливые дни течь тихо и безмятежно, будто неспешная река детства? Если да – откуда у нового лидера постоянные приступы дежа вю, страха и уверенности, что всё вокруг – зыбкая и неверная иллюзия? Таинственные силы, обещавшие Рики и его девушке Рин раскрыть секрет мира, не сдержали обещание, только больше все запутали. А причина проста – ответы не надо ждать на блюдечке, их надо выцарапывать у судьбы, получая синяки и шишки. Ничто не длится вечно, все имеет начало и конец, все могут ошибаться. Но при этом, что придумал один – обязательно поймет другой, а дружба и любовь помогут не только исправить ошибки, но и противостоять злому року. Что ни говори, а «Маленькие проказники» еще не сыграли свой лучший матч!© Hollow, World Art-Качество: BDRip | Энкод: Winter
Формат: MKV
Видео: x264 (10 bit) 1280x720, ~3000 Kbps, 23.976 fps
Аудио: Vorbis, 256 Kbps, 48.0 kHz, 2 ch
Аудио: AC-3, 192 Kbps, 48.0 kHz, 2 ch (внешними файлами)
Субтитры: ASS, Полные | Надписи (внешними файлами) -

Список озвучек:

  • двухголосая (муж./жен.) от Hell & Aska (SHIZA) [TV 1-13]
  • двухголосая (муж./жен.) от ProjectmaN & MezIdA (Anifilm) [TV 1-13 + SP 1-8]
  • трехголосая от Zendos & Eladiel & Lupin (Anilibria) [TV 1-13]

Список эпизодов:

01. It Struck Without Warning
02. It Was Raining Back Then, Too
03. I Wanted to Stay Here Forever
04. Riki and Rin
05. The Final Task
06. After the Escape
07. May 13
08. Proof of the Strongest
09. A Friend`s Tears
10. And Now, I Repeat It All
11. The End of the World
12. One Wish
13. The Little Busters
S1. Little Busters! EX 01: Secret Agent Tokido Saya
S2. Little Busters! EX 02: The Two in the Labyrinth
S3. Little Busters! EX 03: Darkness Executives
S4. Little Busters! EX 04: Sometime, Somewhere...
S5. Little Busters! EX 05: Sasami Turns into a Cat
S6. Little Busters! EX 06: A Small World Somebody Wished For
S7. Little Busters! EX 07: Kanata`s Secret
S8. Little Busters! EX 08: Our Bonds

Тех. параметры:

Код:
General
Unique ID                   : 173957189949338069271124654661497679582 (0x82DEEFA55488DA79B22D86EE20266EDE)
Complete name               : Little Busters! Refrain [BD] [720p]\[Winter] Little Busters! Refrain 01 [BDrip 1280x720 x264 Vorbis].mkv
Format                      : Matroska
Format version              : Version 2
File size                   : 568 MiB
Duration                    : 23mn 43s
Overall bit rate mode       : Variable
Overall bit rate            : 3 348 Kbps
Encoded date                : UTC 2014-04-10 17:18:37
Writing application         : mkvmerge v2.9.8 ('C'est le bon') built on Aug 13 2009 12:49:06
Writing library             : libebml v0.7.7 + libmatroska v0.8.1
Video
ID                          : 1
Format                      : AVC
Format/Info                 : Advanced Video Codec
Format profile              : High [url=mailto:[email protected]][email protected][/url]
Format settings, CABAC      : Yes
Format settings, ReFrames   : 9 frames
Codec ID                    : V_MPEG4/ISO/AVC
Duration                    : 23mn 43s
Bit rate                    : 3 026 Kbps
Width                       : 1 280 pixels
Height                      : 720 pixels
Display aspect ratio        : 16:9
Frame rate mode             : Constant
Frame rate                  : 23.976 (24000/1001) fps
Color space                 : YUV
Chroma subsampling          : 4:2:0
Bit depth                   : 10 bits
Scan type                   : Progressive
Bits/(Pixel*Frame)          : 0.137
Stream size                 : 513 MiB (90%)
Writing library             : x264 core 132 r2309 3b1f1f7
Encoding settings           : cabac=1 / ref=9 / deblock=1:-2:-2 / analyse=0x3:0x133 / me=umh / subme=9 / psy=1 / psy_rd=0.90:0.00 / mixed_ref=1 / me_range=24 / chroma_me=1 / trellis=2 / 8x8dct=1 / cqm=0 / deadzone=21,11 / fast_pskip=1 / chroma_qp_offset=-2 / threads=12 / lookahead_threads=2 / sliced_threads=0 / nr=0 / decimate=0 / interlaced=0 / bluray_compat=0 / constrained_intra=0 / bframes=8 / b_pyramid=2 / b_adapt=2 / b_bias=0 / direct=1 / weightb=1 / open_gop=0 / weightp=2 / keyint=250 / keyint_min=23 / scenecut=40 / intra_refresh=0 / rc=crf / mbtree=0 / crf=15.7 / qcomp=0.70 / qpmin=9 / qpmax=42 / qpstep=4 / ip_ratio=1.40 / pb_ratio=1.30 / aq=1:0.90
Default                     : No
Forced                      : No
Audio
ID                          : 2
Format                      : Vorbis
Format settings, Floor      : 1
Codec ID                    : A_VORBIS
Duration                    : 23mn 43s
Bit rate mode               : Variable
Bit rate                    : 256 Kbps
Channel(s)                  : 2 channels
Sampling rate               : 48.0 KHz
Detected bit depth          : 16 bits
Compression mode            : Lossy
Stream size                 : 43.4 MiB (8%)
Writing library             : libVorbis (Schaufenugget) (20101101 (Schaufenugget))
Language                    : Japanese
Default                     : Yes
Forced                      : No

Информация о релизе:

  • Выбор видео, перевода, озвучки, а также типа сборки материала осуществляется релизером и не подлежит обсуждению. Если вы считаете, что раздаваемый материал противоречит правилам раздела "Аниме", сообщите об этом одному из модераторов раздела.
  • В случае появления нового материала или же лучшего по качеству материала релизер оставляет за собой право обновить раздачу. В этом случае вам необходимо ознакомиться с изменениями (добавлениями) и перекачать торрент.
  • Данный релиз предназначен для просмотра на ПК. Воспроизведение на иных проигрывателях не гарантируется. Для просмотра рекомендуется Media Player Classic с установленным пакетом кодеков K-Lite.
  • Данный релиз содержит 10-битное видео (Hi10p). Для корректного воспроизведения обязательно используйте кодеки, поддерживающие 10-битное видео. .
  • Данный релиз предназначен для просмотра с внешними субтитрами и внешними звуковыми дорожками.
    • Для просмотра с внешней звуковой дорожкой нужно:
      перекинуть файлы .mka из папки "RUS Sound []" в одну папку с видео и переключить звуковую дорожку в плеере при просмотре.
    • Для просмотра с субтитрами нужно:
      перекинуть файлы .ass из папки "RUS Subtitles []" в одну папку с видео - плеер подгрузит их автоматически при открытии видео.
-            -

Clavik

Пост 29-Дек-2015 01:06

[Цитировать]

山田くんと7人の魔女 (2015) / Yamada-kun to 7-nin no Majo (2015) / Ямада и семь ведьм- Жанр: комедия, романтика
Тип: TV-сериал
Продолжительность: 12 эпизодов по 25 минут
Выпуск: c 12.04.2015 по 28.06.2015
Автор: Ёсикава Мики
Снято по манге: Yamada-kun to 7-nin no Majo
Режиссер: Такуно Сэйки
Производство: Liden Films-Информационные ссылки: AniDB || World Art || MAL || ANN-Перевод:
  • Русские субтитры от Timecraft & GMC & OpenDub
    Переводчик/Оформление: atom4ik, Редакторы: Jarly, kievbear
-Описание:
Всем известный хулиган Рю Ямада как-то столкнулся на лестнице с «заучкой» Урарой Сирайси – и случилось странное: ребята поменялись телами. Когда шок прошел, оба поняли, что в обмене есть свои плюсы, к тому же ради него не нужно исполнять жуткие кульбиты – достаточно просто поцеловаться. И вот хулиган с мозгом гения начал исправлять оценки, пугая учителей, а красавица-отличница с душой рубахи-парня быстро улучшила отношения с одноклассниками. Сладкую парочку вычислил местный умник Миямура – но не стал их сдавать, а наоборот прикрыл, предложив вместе восстановить забытый клуб оккультизма!
Вот так главные герои познакомились с легендой о семи ведьмах – девушках со сверхъестественными способностями, что встречаются в каждом поколении учеников школы Судзаку. Кто-то из девушек, как Урара, прячет свои способности, кто-то использует к своей выгоде, не забывая, конечно, о маскировке. Ямада же – личность уникальная, ибо через поцелуй может копировать любую способность, а хозяйки дара не могут причинить ему вред. Вскоре из надежных источников пришла весть, что собрав вместе семерых ведьм, можно провести ритуал и получить в итоге нечто невероятное – а иначе зачем было клуб возрождать?!© Hollow, World Art-Качество: BDRip | Энкод: Winter
Формат: MKV
Видео: x264 (10 bit) 1280x720, ~3200 Kbps, 23.976 fps
Аудио: Vorbis, 256 Kbps, 48.0 kHz, 2 ch
Аудио: AC-3, 192 Kbps, 48.0 kHz, 2 ch (внешними файлами)
Субтитры: ASS, Полные | Надписи (внешними файлами) -

Список озвучек:

  • двухголосая (муж./жен.) от JAM & NikaLenina (Anidub)
  • многоголосая от SHIZA
    участники: Shuuma, Gomer, Aska, Ruri, NesTea

Список эпизодов:

01. I`ve Turned Into Her!
02. Kiss Me, Okay?
03. Will You Accept? Or Won`t You?
04. It Looks Like I`ve Fallen For Yamada!
05. You Mustn`t Kiss Her, Okay?
06. Respond!
07. Anything But Tempura!
08. You`re So Annoying
09. Be Sure to Change the Future
10. Please Go Out with Me!
11. What Did You Do with Shiraishi?!
12. I Love You, Shiraishi!

Тех. параметры:

Код:
General
Unique ID                   : 241800708041572975053686564275767543840 (0xB5E91F56DC302367806F783CABAD0820)
Complete name               : Yamada-kun to 7-nin no Majo [BD] [720p]\[W] Yamada-kun to 7-nin no Majo 01 [BDrip 1280x720 x264 Vorbis].mkv
Format                      : Matroska
Format version              : Version 2
File size                   : 610 MiB
Duration                    : 24mn 7s
Overall bit rate mode       : Variable
Overall bit rate            : 3 537 Kbps
Encoded date                : UTC 2015-11-28 17:45:50
Writing application         : mkvmerge v2.9.8 ('C'est le bon') built on Aug 13 2009 12:49:06
Writing library             : libebml v0.7.7 + libmatroska v0.8.1
Video
ID                          : 1
Format                      : AVC
Format/Info                 : Advanced Video Codec
Format profile              : High [url=mailto:[email protected]][email protected][/url]
Format settings, CABAC      : Yes
Format settings, ReFrames   : 9 frames
Codec ID                    : V_MPEG4/ISO/AVC
Duration                    : 24mn 7s
Bit rate                    : 3 211 Kbps
Width                       : 1 280 pixels
Height                      : 720 pixels
Display aspect ratio        : 16:9
Frame rate mode             : Constant
Frame rate                  : 23.976 (24000/1001) fps
Color space                 : YUV
Chroma subsampling          : 4:2:0
Bit depth                   : 10 bits
Scan type                   : Progressive
Bits/(Pixel*Frame)          : 0.145
Stream size                 : 554 MiB (91%)
Writing library             : x264 core 132 r2309 3b1f1f7
Encoding settings           : cabac=1 / ref=9 / deblock=1:-2:-2 / analyse=0x3:0x133 / me=umh / subme=9 / psy=1 / psy_rd=0.90:0.00 / mixed_ref=1 / me_range=24 / chroma_me=1 / trellis=2 / 8x8dct=1 / cqm=0 / deadzone=21,11 / fast_pskip=1 / chroma_qp_offset=-2 / threads=12 / lookahead_threads=2 / sliced_threads=0 / nr=0 / decimate=0 / interlaced=0 / bluray_compat=0 / constrained_intra=0 / bframes=8 / b_pyramid=2 / b_adapt=2 / b_bias=0 / direct=1 / weightb=1 / open_gop=0 / weightp=2 / keyint=250 / keyint_min=23 / scenecut=40 / intra_refresh=0 / rc=crf / mbtree=0 / crf=15.7 / qcomp=0.70 / qpmin=9 / qpmax=40 / qpstep=4 / ip_ratio=1.40 / pb_ratio=1.30 / aq=1:0.90
Default                     : No
Forced                      : No
Audio
ID                          : 2
Format                      : Vorbis
Format settings, Floor      : 1
Codec ID                    : A_VORBIS
Duration                    : 24mn 7s
Bit rate mode               : Variable
Bit rate                    : 256 Kbps
Channel(s)                  : 2 channels
Sampling rate               : 48.0 KHz
Detected bit depth          : 16 bits
Compression mode            : Lossy
Stream size                 : 44.2 MiB (7%)
Writing library             : libVorbis (Schaufenugget) (20101101 (Schaufenugget))
Language                    : Japanese
Default                     : Yes
Forced                      : No

Информация о релизе:

  • Выбор видео, перевода, озвучки, а также типа сборки материала осуществляется релизером и не подлежит обсуждению. Если вы считаете, что раздаваемый материал противоречит правилам раздела "Аниме", сообщите об этом одному из модераторов раздела.
  • В случае появления нового материала или же лучшего по качеству материала релизер оставляет за собой право обновить раздачу. В этом случае вам необходимо ознакомиться с изменениями (добавлениями) и перекачать торрент.
  • Данный релиз предназначен для просмотра на ПК. Воспроизведение на иных проигрывателях не гарантируется. Для просмотра рекомендуется Media Player Classic с установленным пакетом кодеков K-Lite.
  • Данный релиз содержит 10-битное видео (Hi10p). Для корректного воспроизведения обязательно используйте кодеки, поддерживающие 10-битное видео.
  • Данный релиз предназначен для просмотра с внешними субтитрами и внешними звуковыми дорожками.
    • Для просмотра с внешней звуковой дорожкой нужно:
      перекинуть файлы .mka из папки "RUS Sound []" в одну папку с видео и переключить звуковую дорожку в плеере при просмотре.
    • Для просмотра с субтитрами нужно:
      перекинуть файлы .ass из папки "RUS Subtitles []" в одну папку с видео - плеер подгрузит их автоматически при открытии видео.
    /spoiler]-            -

Clavik

Пост 29-Дек-2015 01:04

[Цитировать]

うぽって!! / Upotte!! / Оружейная школа- Жанр: комедия, этти, школа
Тип: ONA
Продолжительность: 10 эпизодов и ова по 25 минут
Выпуск: c 07.04.2012 по 09.06.2012
Автор: Тэннодзи Кицунэ
Снято по манге: Upotte!!
Режиссер: Като Такао
Производство: Xebec-Информационные ссылки: AniDB || World Art || MAL || ANN-Перевод:
  • Русские субтитры от Uncle_Ho
-Описание:
Не думал, не гадал обычный учитель японского по имени Гэнкоку, что судьба пошлет его в академию Сэйсё, обитатели которой - настоящее одушевленное оружие! И это вовсе не оборот речи, а реальность, данная нам в ощущениях… ибо чистым разумом не поймешь, что у каждой ученицы цевье представляет грудь, приклад – то, что пониже спины, ударно-спусковой механизм – внутренние органы, а спусковой крючок… эй, там, взведите уже предохранитель! Классы сформированы по убойной силе: в старшей школе учатся автоматические винтовки, в средней – малокалиберные автоматы, а в младшей – пистолетики-пулеметики. Так что за вольности можно получить чем угодно – от пистолетной пули до классического натовского боеприпаса 7,62х51!
В центре сюжета – приключения симпатичной Функо и ее подружек из средней школы. Девчата прилежно учатся, занимаются боевой, огневой и общегражданской подготовкой, соперничают друг с другом, от души ссорятся и мирятся, а также снабжают зрителей морем разнообразной информации о мире стрелкового оружия. Впрочем, от нас никто не требует запоминать спецификации, плюсы и минусы каждой модели. Главное – понять: каждое оружие мечтает о «правильном» хозяине и хочет, чтобы его любили, а не ограничивались стрельбой и неполной разборкой!© Hollow, World Art-Качество: BDRip | Энкод: Winter
Формат: MKV
Видео: x264 (10 bit) 1280x720, ~4000 Kbps, 23.976 fps
Аудио: Vorbis, 256 Kbps, 48.0 kHz, 2 ch
Аудио: AC-3, 192 Kbps, 48.0 kHz, 2 ch (внешними файлами)
Субтитры: ASS, Полные | Надписи (внешними файлами) -

Список озвучек:

  • одноголосая (жен.) от Lizaveta (SHIZA) [ONA 1-10]

Список эпизодов:

01. Grip and Hold!
02. Go for It! Pass It!
03. Wash and Scrub!
04. Sing! Compete!
05. Graze It! Beat It!
06. Take It! Hurry!
07. Be Afraid! Visit!
08. Take a Look! Scold Someone!
09. Burn Up! Get Mad!
10. And Then, Upotte!!
OVA.

Тех. параметры:

Код:
General
Unique ID                   : 213187509332473486999923828870551952969 (0xA0626BB98051B919AEBFCB98027BDE49)
Complete name               : Upotte!! [BD] [720p]\[Winter] Upotte!! 01 [BDrip 1280x720 x264 Vorbis].mkv
Format                      : Matroska
Format version              : Version 2
File size                   : 728 MiB
Duration                    : 23mn 43s
Overall bit rate mode       : Variable
Overall bit rate            : 4 292 Kbps
Encoded date                : UTC 2012-09-11 15:34:59
Writing application         : mkvmerge v2.9.7 ('Tenderness') built on Jul  1 2009 18:43:35
Writing library             : libebml v0.7.7 + libmatroska v0.8.1
Video
ID                          : 1
Format                      : AVC
Format/Info                 : Advanced Video Codec
Format profile              : High [url=mailto:[email protected]][email protected][/url]
Format settings, CABAC      : Yes
Format settings, ReFrames   : 9 frames
Codec ID                    : V_MPEG4/ISO/AVC
Duration                    : 23mn 43s
Bit rate                    : 3 951 Kbps
Width                       : 1 280 pixels
Height                      : 720 pixels
Display aspect ratio        : 16:9
Frame rate mode             : Constant
Frame rate                  : 23.976 fps
Color space                 : YUV
Chroma subsampling          : 4:2:0
Bit depth                   : 10 bits
Scan type                   : Progressive
Bits/(Pixel*Frame)          : 0.179
Stream size                 : 670 MiB (92%)
Writing library             : x264 core 125 r2200 999b753
Encoding settings           : cabac=1 / ref=9 / deblock=1:-2:-2 / analyse=0x3:0x133 / me=umh / subme=9 / psy=1 / psy_rd=0.90:0.00 / mixed_ref=1 / me_range=24 / chroma_me=1 / trellis=2 / 8x8dct=1 / cqm=0 / deadzone=21,11 / fast_pskip=1 / chroma_qp_offset=-2 / threads=6 / lookahead_threads=1 / sliced_threads=0 / nr=0 / decimate=0 / interlaced=0 / bluray_compat=0 / constrained_intra=0 / bframes=8 / b_pyramid=2 / b_adapt=2 / b_bias=0 / direct=1 / weightb=1 / open_gop=0 / weightp=2 / keyint=250 / keyint_min=23 / scenecut=40 / intra_refresh=0 / rc=crf / mbtree=0 / crf=16.0 / qcomp=0.70 / qpmin=9 / qpmax=40 / qpstep=4 / ip_ratio=1.40 / pb_ratio=1.30 / aq=1:0.90
Default                     : Yes
Forced                      : No
Audio
ID                          : 2
Format                      : Vorbis
Format settings, Floor      : 1
Codec ID                    : A_VORBIS
Duration                    : 23mn 43s
Bit rate mode               : Variable
Bit rate                    : 256 Kbps
Channel(s)                  : 2 channels
Sampling rate               : 48.0 KHz
Compression mode            : Lossy
Stream size                 : 43.4 MiB (6%)
Writing library             : libVorbis (Schaufenugget) (20101101 (Schaufenugget))
Language                    : Japanese
Default                     : Yes
Forced                      : No

Информация о релизе:

  • Выбор видео, перевода, озвучки, а также типа сборки материала осуществляется релизером и не подлежит обсуждению. Если вы считаете, что раздаваемый материал противоречит правилам раздела "Аниме", сообщите об этом одному из модераторов раздела.
  • В случае появления нового материала или же лучшего по качеству материала релизер оставляет за собой право обновить раздачу. В этом случае вам необходимо ознакомиться с изменениями (добавлениями) и перекачать торрент.
  • Данный релиз предназначен для просмотра на ПК. Воспроизведение на иных проигрывателях не гарантируется. Для просмотра рекомендуется Media Player Classic с установленным пакетом кодеков K-Lite.
  • Данный релиз содержит 10-битное видео (Hi10p). Для корректного воспроизведения обязательно используйте кодеки, поддерживающие 10-битное видео.
  • Данный релиз предназначен для просмотра с внешними субтитрами и внешними звуковыми дорожками.
    • Для просмотра с внешней звуковой дорожкой нужно:
      перекинуть файлы .mka из папки "RUS Sound []" в одну папку с видео и переключить звуковую дорожку в плеере при просмотре.
    • Для просмотра с субтитрами нужно:
      перекинуть файлы .ass из папки "RUS Subtitles []" в одну папку с видео - плеер подгрузит их автоматически при открытии видео.
-            -

Clavik

Пост 29-Дек-2015 01:03

[Цитировать]

Shinmai Maou no Testament Burst / По велению адской сестры - Тип: TV
Жанр: Приключения, Этти
Продолжительность: 12 серий по 25 минут
Количество серий: 10
Дата выпуска: c 10.10.2015
Производство: Япония, Production IMS
Автор оригинала: Уэсу Тэцуто
Режиссер: Сайто Хисаси-Ссылки: World-Art, AniDB, MAL-Описание:
Золгир повержен. Басара, Юки, Мио и Мария продолжают свою временно мирную жизнь.
Но тот, кто стоит за Золгиром все еще жив. И новый владыка тьмы Леонард обращает на них свое внимание.
Возвращаются мама Марии и Зэст.
Грядет новая битва...-Качество видео: WEBRip
Видео: AVC/H264, 1280x720, 1775 kbps, 23.976 fps
Аудио 1: AAC, ~181 kbps, 48 kHz, 2 ch | Звук: Soer & MezIdA
Аудио 2: AAC, ~128 kbps, 44.1 kHz, 2 ch | Звук: Оригинал
Субтитры 1: Надписи, отключаемые (Встроенные)
Субтитры 2: Полные, отключаемые (Встроенные) Скриншоты:
       
-

Эпизоды:

01. Чем могу быть полезен
02. Среди тайн и усугубляющихся подозрений
03. Мои заветные чувства к тебе
04. Среди переплетения заговоров
05. Среди ветра на поле битвы
06. Между реальностью и собственной истиной
07. Среди сплетения заговоров и желаний
08. Претендующие на будущее
09. За пределами бесконечной мечты
10. Значение того, что необходимо сделать

Mediainfo:

Код:
Общее
Уникальный идентификатор                 : 249060174829847070364354395062008070874 (0xBB5F3EAF884D109E9254698DBE14C2DA)
Полное имя                               : S:\Films\HDTV 720p\Shinmai Maou no Testament Burst [WEBRip 720p]\[01] Shinmai Maou no Testament Burst [Soer & MezIdA].mkv
Формат                                   : Matroska
Версия формата                           : Version 4 / Version 2
Размер файла                             : 353 Мбайт
Продолжительность                        : 23 м.
Общий поток                              : 2087 Кбит/сек
Дата кодирования                         : UTC 2015-10-13 16:15:33
Программа кодирования                    : mkvmerge v7.5.0 ('Glass Culture') 64bit built on Jan  4 2015 16:48:44
Библиотека кодирования                   : libebml v1.3.1 + libmatroska v1.4.2
Attachements                             : OpenSans-Semibold.ttf
DURATION                                 : 00:22:11.200000000
NUMBER_OF_FRAMES                         : 270
NUMBER_OF_BYTES                          : 18423
_STATISTICS_WRITING_APP                  : mkvmerge v7.5.0 ('Glass Culture') 64bit built on Jan  4 2015 16:48:44
_STATISTICS_WRITING_DATE_UTC             : 2015-10-13 16:15:33
_STATISTICS_TAGS                         : BPS DURATION NUMBER_OF_FRAMES NUMBER_OF_BYTES
Видео
Идентификатор                            : 1
Формат                                   : AVC
Формат/Информация                        : Advanced Video Codec
Профиль формата                          : [email protected]
Параметр CABAC формата                   : Да
Параметр ReFrames формата                : 6 кадров
Идентификатор кодека                     : V_MPEG4/ISO/AVC
Продолжительность                        : 23 м.
Номинальный битрейт                      : 1776 Кбит/сек
Ширина                                   : 1280 пикселей
Высота                                   : 720 пикселей
Соотношение сторон                       : 16:9
Режим частоты кадров                     : Постоянный
Частота кадров                           : 23,976 кадра/сек
Цветовое пространство                    : YUV
Субдискретизация насыщенности            : 4:2:0
Битовая глубина                          : 8 бит
Тип развёртки                            : Прогрессивная
Бит/(Пиксели*Кадры)                      : 0.080
Библиотека кодирования                   : x264 core 120 r2120 0c7dab9
Настройки программы                      : cabac=1 / ref=6 / deblock=1:1:1 / analyse=0x3:0x113 / me=umh / subme=8 / psy=1 / psy_rd=0.40:0.00 / mixed_ref=1 / me_range=16 / chroma_me=1 / trellis=1 / 8x8dct=1 / cqm=0 / deadzone=21,11 / fast_pskip=1 / chroma_qp_offset=-2 / threads=4 / sliced_threads=0 / nr=0 / decimate=1 / interlaced=0 / bluray_compat=0 / constrained_intra=0 / bframes=3 / b_pyramid=2 / b_adapt=2 / b_bias=0 / direct=3 / weightb=1 / open_gop=0 / weightp=2 / keyint=250 / keyint_min=23 / scenecut=40 / intra_refresh=0 / rc_lookahead=50 / rc=2pass / mbtree=1 / bitrate=1776 / ratetol=1.0 / qcomp=0.60 / qpmin=0 / qpmax=69 / qpstep=4 / cplxblur=20.0 / qblur=0.5 / vbv_maxrate=3552 / vbv_bufsize=8880 / nal_hrd=none / ip_ratio=1.40 / aq=1:0.60
Default                                  : Да
Forced                                   : Нет
_STATISTICS_WRITING_APP                  : mkvmerge v7.5.0 ('Glass Culture') 64bit built on Jan  4 2015 16:48:44
_STATISTICS_WRITING_DATE_UTC             : 2015-10-13 16:15:33
_STATISTICS_TAGS                         : BPS DURATION NUMBER_OF_FRAMES NUMBER_OF_BYTES
DURATION                                 : 00:23:40.045000000
NUMBER_OF_FRAMES                         : 34047
NUMBER_OF_BYTES                          : 315014137
Аудио #1
Идентификатор                            : 2
Формат                                   : AAC
Формат/Информация                        : Advanced Audio Codec
Профиль формата                          : LC
Идентификатор кодека                     : A_AAC
Продолжительность                        : 23 м.
Каналы                                   : 2 канала
Расположение каналов                     : Front: L R
Частота                                  : 48,0 КГц
Метод сжатия                             : С потерями
Задержка видео                           : 20 мс.
Заголовок                                : [Soer & MezIdA] [AniFilm]
Язык                                     : Russian
Default                                  : Нет
Forced                                   : Нет
_STATISTICS_WRITING_APP                  : mkvmerge v7.5.0 ('Glass Culture') 64bit built on Jan  4 2015 16:48:44
_STATISTICS_WRITING_DATE_UTC             : 2015-10-13 16:15:33
_STATISTICS_TAGS                         : BPS DURATION NUMBER_OF_FRAMES NUMBER_OF_BYTES
DURATION                                 : 00:23:40.109000000
NUMBER_OF_FRAMES                         : 61159
NUMBER_OF_BYTES                          : 22721747
Аудио #2
Идентификатор                            : 3
Формат                                   : AAC
Формат/Информация                        : Advanced Audio Codec
Профиль формата                          : LC
Идентификатор кодека                     : A_AAC
Продолжительность                        : 23 м.
Каналы                                   : 2 канала
Расположение каналов                     : Front: L R
Частота                                  : 44,1 КГц
Метод сжатия                             : С потерями
Заголовок                                : Original
Язык                                     : Japanese
Default                                  : Нет
Forced                                   : Нет
Текст #1
Идентификатор                            : 4
Формат                                   : ASS
Идентификатор кодека                     : S_TEXT/ASS
Идентификатор кодека/Информация          : Advanced Sub Station Alpha
Метод сжатия                             : Без потерь
Заголовок                                : Надписи
Язык                                     : Russian
Default                                  : Да
Forced                                   : Нет
Текст #2
Идентификатор                            : 5
Формат                                   : ASS
Идентификатор кодека                     : S_TEXT/ASS
Идентификатор кодека/Информация          : Advanced Sub Station Alpha
Метод сжатия                             : Без потерь
Заголовок                                : Полные субтитры
Язык                                     : Russian
Default                                  : Нет
Forced                                   : Нет
-

Clavik

Пост 29-Дек-2015 01:01

[Цитировать]

Hoozuki no Reitetsu / Хладнокровный Ходзуки- Жанр: комедия, фэнтези
Тип: TV-сериал
Продолжительность: 13 эпизодов по 25 минут
Выпуск: c 10.01.2014 по 04.04.2014
Автор: Эгути Нацуми
Снято по манге: Hoozuki no Reitetsu
Режиссер: Кабураки Хиро
Производство: Wit Studio-Информационные ссылки: AniDB || World Art || MAL || ANN-Перевод:
  • Русские субтитры от Asca & Holydarkness & Kasandra & Stan WarHammer
-Описание:
Дальневосточный Ад, которым правит владыка Эмма-О, похож на гигантскую корпорацию с массой филиалов и подразделений. Как в любой подобной фирме, каждый день несет сюрпризы и неприятности – то дрова не завезли, то персонала не хватает, то сам европейский Сатана вдруг в гости пожалует. Да и клиент какой-то пошел беспокойный – всё права качает, нет, чтобы покорно страдать до следующего воплощения. Кто же решает бесконечные проблемы, не давая им раньше времени перерасти в Армагеддон? Конечно же, Хладнокровный Ходзуки, зам. главы по общим вопросам, красавец-демон в расцвете лет!
Буянят сказочные герои? Надо спасать Адские игры? Небесные смежники просят о помощи? Грешники упились и требуют свободы? Ходзуки тут как тут и всегда готов навести порядок добрым словом и верной железной дубиной. Выбить из колеи красавца в черном могут только встречи с Хакутаку, китайским всезнайкой, бабником и заклятым другом-соперником. После такого не грех подлечить нервы выращиванием золотых рыбок или посещением нашего мира. Да, адские работники любят у нас бывать – родину очень напоминает. Да и мы, как говорят, все там будем!© Hollow, World Art-Качество: BDRip | Энкод: Winter
Формат: MKV
Видео: x264 (10 bit) 1280x720, ~3900 Kbps, 23.976 fps
Аудио: Vorbis, 256 Kbps, 48.0 kHz, 2 ch
Аудио: AC-3, 192 Kbps, 48.0 kHz, 2 ch (внешними файлами)
Субтитры: ASS, Полные | Надписи (внешними файлами) -

Список озвучек:

  • двухголосая (муж./жен.) от Absurd & Eladiel (Onibaku)
  • двухголосая (муж./жен.) от Inspector Gadjet & Oriko (Anidub)

Список эпизодов:

01. Making or Breaking Hell / The Discovery of Hell`s Mysteries
02. Demons and Underwear and Crabs / The State of Hell, and This and That
03. Hakutaku / How Their Discord Came to Be
04. Pretty Boys Need Love Too / The Crackling Hell
05. The Instrumental Duo of the Mighty Rivals / Mental Sports Day
06. Hell Idol: Peach Maki / The Right Arm Blues
07. Man and Woman and Mortal Hell / Hell-Style Acupuncture and Moxibustion Techniques: How-To Use the Johari Mirror
08. The Trashy Battle / The 36 Views of Hell
09. The Ultimate Example of Ruin Through Wine and Women / Awash with Drunks Who Came Home
10. Dinner of the Ten Kings of the Afterlife / Diets Are Hell
11. The Samurai Who Was Once Inch-High / The Quagmire Sisters of the Mount
12. Lady Lilith and Her Husband / Why Monsters Are So Widely Spread Throughout Mundane China
13. Hell`s Bon Festival of Lights / Idle Chat with the Great King Enma

Тех. параметры:

Код:
General
Unique ID                   : 251625197447629228789059546247853143660 (0xBD4D40108F2A7B36A162247F51B2766C)
Complete name               : Hoozuki no Reitetsu [BD] [720p]\[W] Hoozuki no Reitetsu 01 [BDrip 1280x720 x264 Vorbis].mkv
Format                      : Matroska
Format version              : Version 2
File size                   : 747 MiB
Duration                    : 24mn 31s
Overall bit rate mode       : Variable
Overall bit rate            : 4 259 Kbps
Encoded date                : UTC 2014-09-14 12:39:46
Writing application         : mkvmerge v2.9.8 ('C'est le bon') built on Aug 13 2009 12:49:06
Writing library             : libebml v0.7.7 + libmatroska v0.8.1
Video
ID                          : 1
Format                      : AVC
Format/Info                 : Advanced Video Codec
Format profile              : High [url=mailto:[email protected]][email protected][/url]
Format settings, CABAC      : Yes
Format settings, ReFrames   : 9 frames
Codec ID                    : V_MPEG4/ISO/AVC
Duration                    : 24mn 31s
Bit rate                    : 3 918 Kbps
Width                       : 1 280 pixels
Height                      : 720 pixels
Display aspect ratio        : 16:9
Frame rate mode             : Constant
Frame rate                  : 23.976 (24000/1001) fps
Color space                 : YUV
Chroma subsampling          : 4:2:0
Bit depth                   : 10 bits
Scan type                   : Progressive
Bits/(Pixel*Frame)          : 0.177
Stream size                 : 687 MiB (92%)
Writing library             : x264 core 132 r2309 3b1f1f7
Encoding settings           : cabac=1 / ref=9 / deblock=1:-2:-2 / analyse=0x3:0x133 / me=umh / subme=9 / psy=1 / psy_rd=0.90:0.00 / mixed_ref=1 / me_range=24 / chroma_me=1 / trellis=2 / 8x8dct=1 / cqm=0 / deadzone=21,11 / fast_pskip=1 / chroma_qp_offset=-2 / threads=6 / lookahead_threads=1 / sliced_threads=0 / nr=0 / decimate=0 / interlaced=0 / bluray_compat=0 / constrained_intra=0 / bframes=8 / b_pyramid=2 / b_adapt=2 / b_bias=0 / direct=1 / weightb=1 / open_gop=0 / weightp=2 / keyint=250 / keyint_min=23 / scenecut=40 / intra_refresh=0 / rc=crf / mbtree=0 / crf=16.5 / qcomp=0.70 / qpmin=9 / qpmax=42 / qpstep=4 / ip_ratio=1.40 / pb_ratio=1.30 / aq=1:0.90
Default                     : No
Forced                      : No
Audio
ID                          : 2
Format                      : Vorbis
Format settings, Floor      : 1
Codec ID                    : A_VORBIS
Duration                    : 24mn 31s
Bit rate mode               : Variable
Bit rate                    : 256 Kbps
Channel(s)                  : 2 channels
Sampling rate               : 48.0 KHz
Detected bit depth          : 16 bits
Compression mode            : Lossy
Stream size                 : 44.9 MiB (6%)
Writing library             : libVorbis (Omnipresent) (20120203 (Omnipresent))
Language                    : Japanese
Default                     : Yes
Forced                      : No

Информация о релизе:

  • Выбор видео, перевода, озвучки, а также типа сборки материала осуществляется релизером и не подлежит обсуждению. Если вы считаете, что раздаваемый материал противоречит правилам раздела "Аниме", сообщите об этом одному из модераторов раздела.
  • В случае появления нового материала или же лучшего по качеству материала релизер оставляет за собой право обновить раздачу. В этом случае вам необходимо ознакомиться с изменениями (добавлениями) и перекачать торрент.
  • Данный релиз предназначен для просмотра на ПК. Воспроизведение на иных проигрывателях не гарантируется. Для просмотра рекомендуется Media Player Classic с установленным пакетом кодеков K-Lite.
  • Данный релиз содержит 10-битное видео (Hi10p). Для корректного воспроизведения обязательно используйте кодеки, поддерживающие 10-битное видео. ].
  • Данный релиз предназначен для просмотра с внешними субтитрами и внешними звуковыми дорожками.
    • Для просмотра с внешней звуковой дорожкой нужно:
      перекинуть файлы .mka из папки "RUS Sound []" в одну папку с видео и переключить звуковую дорожку в плеере при просмотре.
    • Для просмотра с субтитрами нужно:
      перекинуть файлы .ass из папки "RUS Subtitles []" в одну папку с видео - плеер подгрузит их автоматически при открытии видео.
-            -

Clavik

Пост 29-Дек-2015 01:00

[Цитировать]

Kindaichi Shounen no Jikenbo Returns / Kindaichi Case Files Returns
Дело ведёт юный детектив Киндаичи: Возвращение
- Тип: TV
Жанр: приключения, детектив
Продолжительность: 50 серий по 25 минут
Количество серий: 32
Дата выпуска: c 05.04.2014 по настоящее время
Производство: Toei Animation
Автор оригинала: Isao Murayama
Режиссер: Kaoru Wada
Ссылки: World-Art
Описание:
Спустя 20 с лишним лет юный детектив Киндачи снова вернулся на экраны и с новыми силами раскрывает очередные коварные преступления.
Продолжение сериала [url=/forum/viewtopic.php?t=795944]Дело ведёт юный детектив Киндаичи[/url]
Звук: Две дорожки: японский и русский (Saiko, Hell, Oni)
Язык субтитров: Отсутствуют
Качество видео: HDTVRip
Видео: AVC, 1280x720, 23,976 fps, ~1410 kbp
Аудио: (jp) A_AAC 2ch, 48 KHz, 192 kbps, (rus) A_AAC 2ch, 48 KHz, 227 kbpsСкриншоты:
       

Эпизоды:

01. Ковлунское сокровище Гонконга и дело об убийстве (Часть первая)
02. Ковлунское сокровище Гонконга и дело об убийстве (Часть вторая)
03. Ковлунское сокровище Гонконга и дело об убийстве (Часть третья)
04. Ковлунское сокровище Гонконга и дело об убийстве (Часть четвертая)
05. Хайами Рейка и загадочный гость
06. Кровавая жатва алхимика (Часть первая)
07. Кровавая жатва алхимика (Часть вторая)
08. Кровавая жатва алхимика (Часть третья)
09. Кровавая жатва алхимика (Часть четвёртая)
10. Ловушка в подготовительной школе и дело об убийстве (Часть первая)
11. Ловушка в подготовительной школе и дело об убийстве (Часть вторая)
12. Ловушка в подготовительной школе и дело об убийстве (Часть третья)
13. Ловушка в подготовительной школе и дело об убийстве (Часть четвертая)
14. Ловушка в подготовительной школе и дело об убийстве (Часть пятая)
15. Убийство в десяти тысячах метрах над землёй (Часть первая)
16. Убийство в десяти тысячах метрах над землёй (Часть вторая)
17. Загадочное дело духа палаточного лагеря.
18. Призрак школьного двора
19. Кровавый палач Кенмочи (Часть первая)
20. Кровавый палач Кенмочи (Часть вторая)
21. Кровавый палач Кенмочи (Часть третья)
22. Кровавый палач Кенмочи (Часть четвертая)
23. Игры в особняке и дело об убийстве (Часть первая)
24. Игры в особняке и дело об убийстве (Часть вторая)
25. Игры в особняке и дело об убийстве (Часть третья)
Сезон 2
01. (26) Марш смерти юного Киндаичи (Дело №1)
02. (27) Марш смерти юного Киндаичи (Дело №2)
03. (28) Марш смерти юного Киндаичи (Дело №3)
04. (29) Марш смерти юного Киндаичи (Дело №4)
05. (30) Убийство в кровавом бассейне (Дело №1)
06. (31) Убийство в кровавом бассейне (Дело №2)
07. (32) Убийство в поместье Розенкройтц (Дело №1)

Mediainfo:

Код:
Общее
Полное имя                               : [SHIZA Project] Kindaichi Shounen no Jikenbo Returns TV [HDTVRip]\[SHIZA Project] Kindaichi Shounen no Jikenbo Returns TV [01] [Saiko & Oni].mp4
Формат                                   : MPEG-4
Профиль формата                          : Base Media
Идентификатор кодека                     : isom
Размер файла                             : 326 Мбайт
Продолжительность                        : 24 м.
Режим общего битрейта                    : Переменный
Общий поток                              : 1884 Кбит/сек
Дата кодирования                         : UTC 2014-04-06 15:30:26
Дата пометки                             : UTC 2014-04-06 15:30:26
Программа кодирования                    : Yamb 2.1.0.0 [http://yamb.unite-video.com]
Видео
Идентификатор                            : 1
Формат                                   : AVC
Формат/Информация                        : Advanced Video Codec
Профиль формата                          : [url=mailto:[email protected]][email protected][/url]
Параметр CABAC формата                   : Да
Параметр ReFrames формата                : 4 кадра
Идентификатор кодека                     : avc1
Идентификатор кодека/Информация          : Advanced Video Coding
Продолжительность                        : 24 м.
Битрейт                                  : 1410 Кбит/сек
Максимальный битрейт                     : 17,2 Мбит/сек
Ширина                                   : 1280 пикселей
Высота                                   : 720 пикселей
Соотношение сторон                       : 16:9
Режим частоты кадров                     : Постоянный
Частота кадров                           : 23,976 кадра/сек
Цветовое пространство                    : YUV
Субдискретизация насыщенности            : 4:2:0
Битовая глубина                          : 8 бит
Тип развёртки                            : Прогрессивная
Бит/(Пиксели*Кадры)                      : 0.064
Размер потока                            : 244 Мбайт (75%)
Заголовок                                : [url=http://www.Shiza-Project.com]www.Shiza-Project.com[/url]
Библиотека кодирования                   : x264 core 129 r2245+729M 1a52e03
Настройки программы                      : cabac=1 / ref=4 / deblock=1:1:-1 / analyse=0x3:0x113 / me=umh / subme=9 / psy=1 / fade_compensate=0.00 / psy_rd=1.00:0.00 / mixed_ref=1 / me_range=24 / chroma_me=1 / trellis=2 / 8x8dct=1 / cqm=0 / deadzone=21,11 / fast_pskip=1 / chroma_qp_offset=-2 / threads=8 / lookahead_threads=1 / sliced_threads=0 / nr=0 / decimate=1 / interlaced=0 / bluray_compat=0 / constrained_intra=0 / fgo=0 / bframes=9 / b_pyramid=2 / b_adapt=2 / b_bias=0 / direct=1 / weightb=1 / open_gop=0 / weightp=2 / keyint=240 / keyint_min=24 / scenecut=40 / intra_refresh=0 / rc=crf / mbtree=0 / crf=19.0 / qcomp=0.72 / qpmin=0 / qpmax=69 / qpstep=4 / ip_ratio=1.40 / pb_ratio=1.30 / aq=1:0.85
Дата кодирования                         : UTC 2014-04-05 15:36:33
Дата пометки                             : UTC 2014-04-06 15:30:56
colour_range                             : Limited
Основные цвета                           : BT.709
Характеристики трансфера                 : BT.709
Коэффициенты матрицы                     : BT.709
Аудио #1
Идентификатор                            : 2
Формат                                   : AAC
Формат/Информация                        : Advanced Audio Codec
Профиль формата                          : LC
Идентификатор кодека                     : 67
Продолжительность                        : 24 м.
Вид битрейта                             : Переменный
Битрейт                                  : 277 Кбит/сек
Максимальный битрейт                     : 330 Кбит/сек
Каналы                                   : 2 канала
Расположение каналов                     : Front: L R
Частота                                  : 48,0 КГц
Метод сжатия                             : С потерями
Размер потока                            : 47,9 Мбайт (15%)
Заголовок                                : Saiko & Oni
Язык                                     : Russian
Дата кодирования                         : UTC 2014-04-06 15:30:52
Дата пометки                             : UTC 2014-04-06 15:30:56
Аудио #2
Идентификатор                            : 3
Формат                                   : AAC
Формат/Информация                        : Advanced Audio Codec
Профиль формата                          : LC
Идентификатор кодека                     : 40
Продолжительность                        : 24 м.
Вид битрейта                             : Переменный
Битрейт                                  : 192 Кбит/сек
Максимальный битрейт                     : 218 Кбит/сек
Каналы                                   : 2 канала
Расположение каналов                     : Front: L R
Частота                                  : 48,0 КГц
Метод сжатия                             : С потерями
Размер потока                            : 33,2 Мбайт (10%)
Заголовок                                : JAP Original
Язык                                     : Japanese
Дата кодирования                         : UTC 2014-04-06 15:30:55
Дата пометки                             : UTC 2014-04-06 15:30:56

Clavik

Пост 29-Дек-2015 00:58

[Цитировать]

ニセコイ: / Nisekoi: / Притворная любовь [ТВ-2]- Жанр: комедия, романтика
Тип: TV-сериал
Продолжительность: 12 эпизодов по 25 минут
Выпуск: c 10.04.2015 по 26.06.2015
Автор: Коми Наоси
Снято по манге: Nisekoi
Режиссер: Симбо Акиюки
Производство: SHAFT-Информационные ссылки: AniDB || World Art || MAL || ANN-Перевод:
  • Русские субтитры от GMC
    Переводчик: Seiya Loveless, Редакторы: Schum, Nerevar, Оформление: Schum
-Описание:
Достопочтенные якудза из Сюэй-гуми и залетные американские гангстеры из банды «Улей» уже несколько месяцев поддерживают мирное сосуществование в одном тихом уголке Японии. А почему? Потому что по приказу своих отцов наследники обоих кланов, 17-летние Раку Итидзё и Титогэ Кирисаки, самоотверженно имитируют романтические отношения, которые должны спаять обе мафиозные группы – иначе война на улицах неизбежна. Но можно ли почти год притворяться влюбленными и при этом ничего не почувствовать?
Конечно, без чувств тут не обошлось, но каких? Раку, сын старого мафиози, хорошо знаком с интригой и манипуляцией, но все равно страдает, что вынужденная игра отталкивает его прежнюю любовь, одноклассницу Косаки Онодэру. Излишне резкая Титогэ, фактически росшая без матери, мечется между самоутверждением и жаждой нормальных человеческих отношений, а есть еще хрупкая, но решительная Марика, у которой на Итидзё-младшего свои виды. В общем, карнавал продолжается – сцена прежняя, актеры те же, а вот актрис все больше!© Hollow, World Art-Качество: BDRip | Энкод: Winter
Формат: MKV
Видео: x264 (10 bit) 1280x720, ~2900 Kbps, 23.976 fps
Аудио: Vorbis, 256 Kbps, 48.0 kHz, 2 ch
Аудио: AC-3, 192 Kbps, 48.0 kHz, 2 ch (внешними файлами)
Субтитры: ASS, Полные | Надписи (внешними файлами) -

Список озвучек:

  • двухголосая (муж./жен.) от JAM & Oriko (AniDub)
  • двухголосая (муж./жен.) от Nazel & Freya (Animedia)
  • двухголосая (жен./муж.) от Lizaveta & NIKITOS [1-6] / Snowly [7-12] ((SHIZA)
  • трехголосая от Lupin & Silv & Mikrobelka (Anilibria)

Список эпизодов:

01. From Now On / Please Notice
02. Fate / Showdown
03. Need
04. Mother
05. Teach Me / Master Raku
06. Delicious
07. Little Sister
08. Magical Patissiere Kosaki! / Work!
09. Cleanup Day / Visiting the Sick
10. Support
11. I Want to Lose Weight / Good Morning
12. The Search / Just Testing

Тех. параметры:

Код:
General
Unique ID                   : 187453200266418809013711627179603075868 (0x8D062C53FAD9AE54A0ACA6403E75231C)
Complete name               : Nisekoi S2 [BD] [720p]\[W] Nisekoi S2 01 [BDrip 1280x720 x264 Vorbis].mkv
Format                      : Matroska
Format version              : Version 2
File size                   : 565 MiB
Duration                    : 24mn 12s
Overall bit rate mode       : Variable
Overall bit rate            : 3 263 Kbps
Encoded date                : UTC 2015-12-05 09:48:26
Writing application         : mkvmerge v2.9.8 ('C'est le bon') built on Aug 13 2009 12:49:06
Writing library             : libebml v0.7.7 + libmatroska v0.8.1
Video
ID                          : 1
Format                      : AVC
Format/Info                 : Advanced Video Codec
Format profile              : High [url=mailto:[email protected]][email protected][/url]
Format settings, CABAC      : Yes
Format settings, ReFrames   : 9 frames
Codec ID                    : V_MPEG4/ISO/AVC
Duration                    : 24mn 12s
Bit rate                    : 2 942 Kbps
Width                       : 1 280 pixels
Height                      : 720 pixels
Display aspect ratio        : 16:9
Frame rate mode             : Constant
Frame rate                  : 23.976 (24000/1001) fps
Color space                 : YUV
Chroma subsampling          : 4:2:0
Bit depth                   : 10 bits
Scan type                   : Progressive
Bits/(Pixel*Frame)          : 0.133
Stream size                 : 510 MiB (90%)
Writing library             : x264 core 132 r2309 3b1f1f7
Encoding settings           : cabac=1 / ref=9 / deblock=1:-2:-2 / analyse=0x3:0x133 / me=umh / subme=9 / psy=1 / psy_rd=0.90:0.00 / mixed_ref=1 / me_range=24 / chroma_me=1 / trellis=2 / 8x8dct=1 / cqm=0 / deadzone=21,11 / fast_pskip=1 / chroma_qp_offset=-2 / threads=12 / lookahead_threads=2 / sliced_threads=0 / nr=0 / decimate=0 / interlaced=0 / bluray_compat=0 / constrained_intra=0 / bframes=8 / b_pyramid=2 / b_adapt=2 / b_bias=0 / direct=1 / weightb=1 / open_gop=0 / weightp=2 / keyint=250 / keyint_min=23 / scenecut=40 / intra_refresh=0 / rc=crf / mbtree=0 / crf=15.6 / qcomp=0.70 / qpmin=9 / qpmax=40 / qpstep=4 / ip_ratio=1.40 / pb_ratio=1.30 / aq=1:0.90 / zones=984,3255,b=1.2/4775,4878,b=1.2/8783,8842,b=1.2
Default                     : No
Forced                      : No
Audio
ID                          : 2
Format                      : Vorbis
Format settings, Floor      : 1
Codec ID                    : A_VORBIS
Duration                    : 24mn 12s
Bit rate mode               : Variable
Bit rate                    : 256 Kbps
Channel(s)                  : 2 channels
Sampling rate               : 48.0 KHz
Detected bit depth          : 16 bits
Compression mode            : Lossy
Stream size                 : 44.3 MiB (8%)
Writing library             : libVorbis (Schaufenugget) (20101101 (Schaufenugget))
Language                    : Japanese
Default                     : Yes
Forced                      : No

Информация о релизе:

  • Выбор видео, перевода, озвучки, а также типа сборки материала осуществляется релизером и не подлежит обсуждению. Если вы считаете, что раздаваемый материал противоречит правилам раздела "Аниме", сообщите об этом одному из модераторов раздела.
  • В случае появления нового материала или же лучшего по качеству материала релизер оставляет за собой право обновить раздачу. В этом случае вам необходимо ознакомиться с изменениями (добавлениями) и перекачать торрент.
  • Данный релиз предназначен для просмотра на ПК. Воспроизведение на иных проигрывателях не гарантируется. Для просмотра рекомендуется Media Player Classic с установленным пакетом кодеков K-Lite.
  • Данный релиз содержит 10-битное видео (Hi10p). Для корректного воспроизведения обязательно используйте кодеки, поддерживающие 10-битное видео.
  • Данный релиз предназначен для просмотра с внешними субтитрами и внешними звуковыми дорожками.
    • Для просмотра с внешней звуковой дорожкой нужно:
      перекинуть файлы .mka из папки "RUS Sound []" в одну папку с видео и переключить звуковую дорожку в плеере при просмотре.
    • Для просмотра с субтитрами нужно:
      перекинуть файлы .ass из папки "RUS Subtitles []" в одну папку с видео - плеер подгрузит их автоматически при открытии видео.
-            -

Clavik

Пост 29-Дек-2015 00:57

[Цитировать]

Blade and Soul / Blade & Soul / Клинок и Душа- Жанр: приключения, фэнтези
Тип: TV-сериал
Продолжительность: 13 эпизодов и 7 спэшлов по 25 минут
Выпуск: c 04.04.2014 по 27.06.2014
Сценарий: Томиока Ацухиро
Режиссер: Такэути Хироси
Производство: Gonzo Digimation-Информационные ссылки: AniDB || World Art || MAL || ANN-Перевод:
  • Русские субтитры от Jenia aka Zub
-Описание:
Когда-то в этом мире распахнулись Темные Врата, откуда хлынули орды демонов. Небеса не остались в стороне, демонов победили, а Врата были запечатаны четырьмя Великими Мастерами. Столетия спустя отступница Цинь Валайлу подняла мятеж, чтобы сокрушить печати, но была уничтожена объединенной мощью Мастеров. Шли века, рождались и уходили народы, память о древних битвах изгладилась, и Посланница Хаоса явилась вновь. На этот раз Валайлу учла уроки прошлого, решив для начала захватить власть в агрессивной Паламской империи, искусно стравливая своих врагов между собой и уничтожая их поодиночке. Именно так Цинь убила главу Клана Мечей, обвинив во всем его лучшую ученицу Аньжусян.
Видя явное неравенство сил, Аньжусян бежала в пограничные земли, которыми правят местные вожди вместе с наемниками и бандитами. Вскоре девушка поняла, что скрыться ей не удастся, ибо паламцы принялись за поиски всерьез, а сумма награды за ее голову развяжет любые языки. Беглянке стало ясно: чтобы выжить и отомстить, надо искать надежных союзников. На землях пограничья хватает лихих людей, отважных рыцарей и простых воинов – к кому обратиться, кто поможет и не предаст? Аньжусян еще не знает, что на извилистых дорожках судьбы ее ждет встреча с тремя выдающимися женщинами. А ведь одна женщина – еще ничего, две женщины – майдан, а три – уже армия! Теперь Тьма точно не пройдет!© Hollow, World Art-Качество: BDRip | Энкод: Winter
Формат: MKV
Видео: x264 (10 bit) 1280x720, ~3800 Kbps, 23.976 fps
Аудио: Vorbis, 256 Kbps, 48.0 kHz, 2 ch
Аудио: AC-3, 192 Kbps, 48.0 kHz, 2 ch (внешними файлами)
Субтитры: ASS, Полные | Надписи (внешними файлами) -

Список озвучек:

  • одноголосая (муж.) от Cuba77 (AniDub) [TV 1-13]
  • одноголосая (муж.) от Sintop [TV 1-13]
  • двухголосая (жен./муж.) от NesTea & NIKITOS [1-5] / Мистас [6-13] (SHIZA) [TV 1-13]
  • двухголосая (муж./жен.) от [email protected] & Eva (Opendub) [TV 1-13 + SP 1-5]

Список эпизодов:

01. Road
02. Desire
03. Revenge
04. Sword
05. Flower
06. Dream
07. Time
08. Sky
09. Moon
10. Sin
11. Punishment
12. Soul
13. God
SP 1-7

Тех. параметры:

Код:
General
Unique ID                   : 192962704585880786795695150536904866763 (0x912B43DD0425CAA892E7BCF4E46EFBCB)
Complete name               : Blade & Soul [BD] [720p]\[Winter] Blade & Soul 01 [BDrip 1280x720 x264 Vorbis].mkv
Format                      : Matroska
Format version              : Version 2
File size                   : 736 MiB
Duration                    : 24mn 37s
Overall bit rate mode       : Variable
Overall bit rate            : 4 182 Kbps
Encoded date                : UTC 2014-07-02 08:43:03
Writing application         : mkvmerge v2.9.8 ('C'est le bon') built on Aug 13 2009 12:49:06
Writing library             : libebml v0.7.7 + libmatroska v0.8.1
Video
ID                          : 1
Format                      : AVC
Format/Info                 : Advanced Video Codec
Format profile              : High [url=mailto:[email protected]][email protected][/url]
Format settings, CABAC      : Yes
Format settings, ReFrames   : 9 frames
Codec ID                    : V_MPEG4/ISO/AVC
Duration                    : 24mn 37s
Bit rate                    : 3 842 Kbps
Width                       : 1 280 pixels
Height                      : 720 pixels
Display aspect ratio        : 16:9
Frame rate mode             : Constant
Frame rate                  : 23.976 fps
Color space                 : YUV
Chroma subsampling          : 4:2:0
Bit depth                   : 10 bits
Scan type                   : Progressive
Bits/(Pixel*Frame)          : 0.174
Stream size                 : 677 MiB (92%)
Writing library             : x264 core 132 r2309 3b1f1f7
Encoding settings           : cabac=1 / ref=9 / deblock=1:-2:-2 / analyse=0x3:0x133 / me=umh / subme=9 / psy=1 / psy_rd=0.90:0.00 / mixed_ref=1 / me_range=24 / chroma_me=1 / trellis=2 / 8x8dct=1 / cqm=0 / deadzone=21,11 / fast_pskip=1 / chroma_qp_offset=-2 / threads=12 / lookahead_threads=2 / sliced_threads=0 / nr=0 / decimate=0 / interlaced=0 / bluray_compat=0 / constrained_intra=0 / bframes=8 / b_pyramid=2 / b_adapt=2 / b_bias=0 / direct=1 / weightb=1 / open_gop=0 / weightp=2 / keyint=250 / keyint_min=23 / scenecut=40 / intra_refresh=0 / rc=crf / mbtree=0 / crf=15.6 / qcomp=0.70 / qpmin=9 / qpmax=40 / qpstep=4 / ip_ratio=1.40 / pb_ratio=1.30 / aq=1:0.90 / zones=2917,5040,b=1.2
Default                     : No
Forced                      : No
Audio
ID                          : 2
Format                      : Vorbis
Format settings, Floor      : 1
Codec ID                    : A_VORBIS
Duration                    : 24mn 37s
Bit rate mode               : Variable
Bit rate                    : 256 Kbps
Channel(s)                  : 2 channels
Sampling rate               : 48.0 KHz
Compression mode            : Lossy
Stream size                 : 45.1 MiB (6%)
Writing library             : libVorbis (Schaufenugget) (20101101 (Schaufenugget))
Language                    : Japanese
Default                     : Yes
Forced                      : No

Информация о релизе:

  • Выбор видео, перевода, озвучки, а также типа сборки материала осуществляется релизером и не подлежит обсуждению. Если вы считаете, что раздаваемый материал противоречит правилам раздела "Аниме", сообщите об этом одному из модераторов раздела.
  • В случае появления нового материала или же лучшего по качеству материала релизер оставляет за собой право обновить раздачу. В этом случае вам необходимо ознакомиться с изменениями (добавлениями) и перекачать торрент.
  • Данный релиз предназначен для просмотра на ПК. Воспроизведение на иных проигрывателях не гарантируется. Для просмотра рекомендуется Media Player Classic с установленным пакетом кодеков K-Lite.
  • Данный релиз содержит 10-битное видео (Hi10p). Для корректного воспроизведения обязательно используйте кодеки, поддерживающие 10-битное видео. \
  • Данный релиз предназначен для просмотра с внешними субтитрами и внешними звуковыми дорожками.
    • Для просмотра с внешней звуковой дорожкой нужно:
      перекинуть файлы .mka из папки "RUS Sound []" в одну папку с видео и переключить звуковую дорожку в плеере при просмотре.
    • Для просмотра с субтитрами нужно:
      перекинуть файлы .ass из папки "RUS Subtitles []" в одну папку с видео - плеер подгрузит их автоматически при открытии видео.
    \
-            -\

Clavik

Пост 29-Дек-2015 00:54

[Цитировать]

アブソリュート・デュオ / Absolute Duo / Абсолютный Дуэт- Жанр: приключения, фэнтези, романтика, этти
Тип: TV-сериал
Продолжительность: 12 эпизодов по 25 минут
Выпуск: c 04.01.2015 по 22.03.2015
Автор: Хиираги Такуми
Режиссер: Накаяма Ацуси
Производство: 8bit-Информационные ссылки: AniDB || World Art || MAL || ANN-Перевод:
  • Русские субтитры от Dreamers Team
    Переводчики: Empty, Veles, Редактор: Ryuji, Оформление: ximik
-Описание:
Не зря говорят, что продвинутая наука не отличается от магии. Введение наномашин позволило людям не только повысить силу, скорость и выносливость, но и силой воли вызывать Блейз – чудо-оружие, отражение души владельца. Учиться надо смолоду, и ребята, чей организм принимает наномашины, поступают в боевые спецшколы, где одной из лучших является академия Корё. Именно туда в старшую школу направился Тору Коконоэ – крепкий, но замкнутый парень, решивший стать сильнее, чтобы не допустить повторения трагедии, случившейся в детстве. А дальше начались сюрпризы.
Для начала директор, ехидная «готик лоли», назвавшаяся Сакуей, предложила собравшимся «смахнуться» между собой – поступят лишь победители. Выдержав испытание, парень узнал, что тактической единицей будущего является боевая двойка, а значит, ученики тоже делятся на пары и должны жить и тренироваться вместе. Распределение (якобы) случайное, и Тору в соседки и напарницы досталась среброволосая малышка Юлия из далекой Швеции, которая, кстати, очень обрадовалась сему факту. Вот тут наш герой и понял, что за дело надо браться всерьез, а то вместо смокинга на выпускной деревянный бушлат накинуть придется!© Hollow, World Art-Качество: BDRip | Энкод: Winter
Формат: MKV
Видео: x264 (10 bit) 1280x720, ~4200 Kbps, 23.976 fps
Аудио: Vorbis, 256 Kbps, 48.0 kHz, 2 ch
Аудио: AC-3, 192 Kbps, 48.0 kHz, 2 ch (внешними файлами)
Субтитры: ASS, Полные | Надписи (внешними файлами) -

Список озвучек:

  • двухголосая (муж./жен.) от ShadMG & Акварелька (Anifilm)
  • двухголосая (муж./жен.) от Snowly & Hekomi (SHIZA)
  • трехголосая от Lupin & Микробелка & Aemi (Anilibria)
  • многоголосая от RuDub
    участники: С. Черсков, Eladiel, Cleo-chan, Кошка Бестия, Siviel Fleym, Д. Рыбин

Список эпизодов:

01. Blaze
02. Duo
03. Avenger
04. Exception
05. Level Up
06. Survive
07. Silver Blonde, Yellow Topaz
08. Selection
09. Rebels
10. Reign Conference
11. Killing Game
12. Absolute Duo

Тех. параметры:

Код:
General
Unique ID                   : 204052651118726053098707465840920770505 (0x99831C7130311080960EDE9E8C3637C9)
Complete name               : Absolute Duo [BD] [720p]\[W] Absolute Duo 01 [BDrip 1280x720 x264 Vorbis].mkv
Format                      : Matroska
Format version              : Version 2
File size                   : 751 MiB
Duration                    : 23mn 41s
Overall bit rate mode       : Variable
Overall bit rate            : 4 430 Kbps
Encoded date                : UTC 2015-12-19 00:53:22
Writing application         : mkvmerge v2.9.8 ('C'est le bon') built on Aug 13 2009 12:49:06
Writing library             : libebml v0.7.7 + libmatroska v0.8.1
Video
ID                          : 1
Format                      : AVC
Format/Info                 : Advanced Video Codec
Format profile              : High [url=mailto:[email protected]][email protected][/url]
Format settings, CABAC      : Yes
Format settings, ReFrames   : 9 frames
Codec ID                    : V_MPEG4/ISO/AVC
Duration                    : 23mn 41s
Bit rate                    : 4 086 Kbps
Width                       : 1 280 pixels
Height                      : 720 pixels
Display aspect ratio        : 16:9
Frame rate mode             : Constant
Frame rate                  : 23.976 (24000/1001) fps
Color space                 : YUV
Chroma subsampling          : 4:2:0
Bit depth                   : 10 bits
Scan type                   : Progressive
Bits/(Pixel*Frame)          : 0.185
Stream size                 : 692 MiB (92%)
Writing library             : x264 core 132 r2309 3b1f1f7
Encoding settings           : cabac=1 / ref=9 / deblock=1:-2:-2 / analyse=0x3:0x133 / me=umh / subme=9 / psy=1 / psy_rd=0.90:0.00 / mixed_ref=1 / me_range=24 / chroma_me=1 / trellis=2 / 8x8dct=1 / cqm=0 / deadzone=21,11 / fast_pskip=1 / chroma_qp_offset=-2 / threads=12 / lookahead_threads=2 / sliced_threads=0 / nr=0 / decimate=0 / interlaced=0 / bluray_compat=0 / constrained_intra=0 / bframes=8 / b_pyramid=2 / b_adapt=2 / b_bias=0 / direct=1 / weightb=1 / open_gop=0 / weightp=2 / keyint=250 / keyint_min=23 / scenecut=40 / intra_refresh=0 / rc=crf / mbtree=0 / crf=15.8 / qcomp=0.70 / qpmin=9 / qpmax=40 / qpstep=4 / ip_ratio=1.40 / pb_ratio=1.30 / aq=1:0.90
Default                     : No
Forced                      : No
Audio
ID                          : 2
Format                      : Vorbis
Format settings, Floor      : 1
Codec ID                    : A_VORBIS
Duration                    : 23mn 41s
Bit rate mode               : Variable
Bit rate                    : 256 Kbps
Channel(s)                  : 2 channels
Sampling rate               : 48.0 KHz
Detected bit depth          : 16 bits
Compression mode            : Lossy
Stream size                 : 43.4 MiB (6%)
Writing library             : libVorbis (Schaufenugget) (20101101 (Schaufenugget))
Language                    : Japanese
Default                     : Yes
Forced                      : No

Информация о релизе:

  • Выбор видео, перевода, озвучки, а также типа сборки материала осуществляется релизером и не подлежит обсуждению. Если вы считаете, что раздаваемый материал противоречит правилам раздела "Аниме", сообщите об этом одному из модераторов раздела.
  • В случае появления нового материала или же лучшего по качеству материала релизер оставляет за собой право обновить раздачу. В этом случае вам необходимо ознакомиться с изменениями (добавлениями) и перекачать торрент.
  • Данный релиз предназначен для просмотра на ПК. Воспроизведение на иных проигрывателях не гарантируется. Для просмотра рекомендуется Media Player Classic с установленным пакетом кодеков K-Lite.
  • Данный релиз содержит 10-битное видео (Hi10p). Для корректного воспроизведения обязательно используйте кодеки, поддерживающие 10-битное видео.
  • Данный релиз предназначен для просмотра с внешними субтитрами и внешними звуковыми дорожками.
    • Для просмотра с внешней звуковой дорожкой нужно:
      перекинуть файлы .mka из папки "RUS Sound []" в одну папку с видео и переключить звуковую дорожку в плеере при просмотре.
    • Для просмотра с субтитрами нужно:
      перекинуть файлы .ass из папки "RUS Subtitles []" в одну папку с видео - плеер подгрузит их автоматически при открытии видео.
    ]
-            -

Clavik

Пост 29-Дек-2015 00:51

[Цитировать]

終物語 / Owarimonogatari / Истории финала - Тип: TV
Жанр: Приключения, Мистика
Продолжительность: 12 серий по 24 минуты
Количество серий: 12
Дата выпуска: c 04.10.2015
Производство: Япония, SHAFT
Автор оригинала: Нисио Исин
Режиссер: Симбо Акиюки-Ссылки: World-Art, AniDB, MAL-Описание:
Коёми Арараги, выпускник частной школы Наоэцу, оказался после уроков заперт в пустом классе вместе с юной особой. Думаете, очередная «дева в беде»? Как бы ни так, веселые времена прошли, теперь вихрастый полувампир должен помочь самому себе, ибо запертая комната – его прошлое, что держит и не отпускает. Ну а проводником Коёми по лабиринтам минувшего станет загадочная Оги Осино – самозваная племянница старого гуру, милая и симпатичная девушка, которую, правда, даже в страшном сне не назовешь «смутным объектом желания»!
Арараги, безусловно, герой – но герои тоже совершают ошибки, иногда не сознавая того. Перед выпуском из школы и выходом в новую, взрослую, жизнь, где и спрос другой, судьба дает парню шанс развязать узлы и отдать прошлые долги. Бередить старое тяжко и мучительно – а кто говорил, что будет легко? Сюжетные нити грандиозной саги стягиваются к финалу, любимые персонажи занимают места для последней партии, новые загадки вырастают из старых тайн – а нас зовет в зрительный зал черноглазый Вергилий, помахивая своими длинными рукавами!-Качество видео: HDTV
Видео: H.264, 1280х720, 23.976 fps, ~1000 kbps
Аудио: AAC, ~96 kbps, 44.1 kHz, 2 ch | Звук: AnimeVost Скриншоты:
       
-

Эпизоды:

01. Ougi Formula | Формула Оуги
02. Sodachi Riddle, Part 1 | Загадка Содачи, часть 1
03. Sodachi Riddle, Part 2 | Загадка Содачи, часть 2
04. Sodachi Lost, Part 1 | Забытая Содачи, часть 1
05. Sodachi Lost, Part 2 | Забытая Содачи, часть 2
06. Sodachi Lost, Part 3 | Забытая Содачи, часть 3
07. Shinobu Mail, Part 1 | Письмо Шинобы, часть 1
08. Shinobu Mail, Part 2 | Письмо Шинобы, часть 2

09. Shinobu Mail, Part 3 | Письмо Шинобы, часть 3
10. Shinobu Mail, Part 4 | Письмо Шинобы, часть 4
11. Shinobu Mail, Part 5 | Письмо Шинобы, часть 5
12. Shinobu Mail, Part 6 | Письмо Шинобы, часть 6

Mediainfo:

Код:
Общее
Полное имя                               : S:\Films\HDTV 720p\Owarimonogatari [HDTV 720p]\Owarimonogatari - 01.mp4
Формат                                   : MPEG-4
Профиль формата                          : Base Media
Идентификатор кодека                     : isom
Размер файла                             : 358 Мбайт
Продолжительность                        : 48 м.
Общий поток                              : 1026 Кбит/сек
Программа кодирования                    : Lavf56.33.101
Видео
Идентификатор                            : 1
Формат                                   : AVC
Формат/Информация                        : Advanced Video Codec
Профиль формата                          : [url=mailto:[email protected]][email protected][/url]
Параметр CABAC формата                   : Да
Параметр ReFrames формата                : 4 кадра
Идентификатор кодека                     : avc1
Идентификатор кодека/Информация          : Advanced Video Coding
Продолжительность                        : 48 м.
Битрейт                                  : 924 Кбит/сек
Ширина                                   : 1280 пикселей
Высота                                   : 720 пикселей
Соотношение сторон                       : 16:9
Режим частоты кадров                     : Постоянный
Частота кадров                           : 23,976 кадра/сек
Цветовое пространство                    : YUV
Субдискретизация насыщенности            : 4:2:0
Битовая глубина                          : 8 бит
Тип развёртки                            : Прогрессивная
Бит/(Пиксели*Кадры)                      : 0.042
Размер потока                            : 322 Мбайт (90%)
Библиотека кодирования                   : x264 core 146 r2 121396c
Настройки программы                      : cabac=1 / ref=2 / deblock=1:0:0 / analyse=0x3:0x113 / me=hex / subme=6 / psy=1 / psy_rd=1.00:0.00 / mixed_ref=1 / me_range=16 / chroma_me=1 / trellis=1 / 8x8dct=1 / cqm=0 / deadzone=21,11 / fast_pskip=1 / chroma_qp_offset=-2 / threads=18 / lookahead_threads=3 / sliced_threads=0 / nr=0 / decimate=1 / interlaced=0 / bluray_compat=0 / constrained_intra=0 / bframes=3 / b_pyramid=2 / b_adapt=1 / b_bias=0 / direct=1 / weightb=1 / open_gop=0 / weightp=1 / keyint=250 / keyint_min=23 / scenecut=40 / intra_refresh=0 / rc_lookahead=30 / rc=crf / mbtree=1 / crf=23.0 / qcomp=0.60 / qpmin=0 / qpmax=69 / qpstep=4 / ip_ratio=1.40 / aq=1:1.00
Аудио
Идентификатор                            : 2
Формат                                   : AAC
Формат/Информация                        : Advanced Audio Codec
Профиль формата                          : LC
Идентификатор кодека                     : 40
Продолжительность                        : 48 м.
Duration_LastFrame                       : 46 мс.
Вид битрейта                             : Постоянный
Битрейт                                  : 96,0 Кбит/сек
Каналы                                   : 2 канала
Расположение каналов                     : Front: L R
Частота                                  : 44,1 КГц
Метод сжатия                             : С потерями
Размер потока                            : 33,5 Мбайт (9%)
-

Clavik

Пост 29-Дек-2015 00:50

[Цитировать]

Gakusen Toshi Asterisk / The Asterisk War / Боевая академия города Астериск - Тип: TV
Жанр: Этти, Фантастика, Приключения
Продолжительность: 12 серий по 25 минут
Количество серий: 12
Дата выпуска: c 03.10.2015
Производство: Япония, A-1 Pictures
Автор оригинала: Миядзаки Ю
Режиссер: Оно Манабу-Ссылки: World-Art, AniDB, MAL-Описание:
Когда-то давно на Землю обрушился сокрушительный метеоритный дождь. «Инверсия» – так позже он был назван людьми. Все вокруг было разрушено. Но вскоре из пепла старого мира возник новый. И вместе с ним стали появляться могущественные личности, «Генестелла», способные использовать силу «Маны», что высвободилась после катастрофы.
Технологически продвинутый академический город Рикка, возведенный посреди огромного кратерного озера, стал сценой для боевых действий. И вскоре прославился крупнейшим в мире боевым мероприятием под названием «Феста». Иначе – «Фестиваль Звездных Войн».
С тех пор множество юношей и молодых девушек из поколения «Звездного Импульса», представляющие одну из шести академий, расположенных в пределах города, стали состязаться друг с другом в силе и умениях. В стремлении осуществить свои желания, с сияющим оружием наперевес, они раз за разом ввязывались в новые сражения.
Среди них оказался Аято Амагири, прибывший в город по приглашению президента студенческого совета академии Сэйдокан, Клаудии Энфилд. Как это часто бывает, по прибытии парень тут же влип в неприятности... И вот перед ним стоит разгневанная «Ведьма Сверкающей Розы», Джулис Алексия, искренне жаждущая дуэли. Неужели парень окажется в замешательстве? Ведь соперница, похоже, очень сильна. А вот и нет! Аято не против помахать кулаками.-Качество видео: HDTV
Видео: AVC/x264, 1280x720, ~3358 kbps, 23.976 fps
Аудио 1: AAC, ~192 kbps, 48 kHz, 2 ch | Звук: SHIZA-Project MVO
Аудио 2: AAC, ~192 kbps, 48 kHz, 2 ch | Звук: Оригинал Скриншоты:
       
-

Эпизоды:

01. Ведьма Петалблэйз.
02. Сер-Верста.

Mediainfo:

Код:
Общее
Уникальный идентификатор                 : 180840650618934133925000178640878746725 (0x880CA4759172000E8913F4418592BC65)
Полное имя                               : S:\Films\HDTV 720p\Gakusen Toshi Asterisk [HDTV 720p]\[01] Gakusen Toshi Asterisk TV [MVO].mkv
Формат                                   : Matroska
Версия формата                           : Version 2
Размер файла                             : 643 Мбайт
Продолжительность                        : 23 м.
Общий поток                              : 3745 Кбит/сек
Дата кодирования                         : UTC 2015-10-11 20:40:02
Программа кодирования                    : mkvmerge v3.4.0 ('Rapunzel') сборка от May 15 2010 09:38:20
Библиотека кодирования                   : libebml v0.8.0 + libmatroska v0.9.0
Видео
Идентификатор                            : 1
Формат                                   : AVC
Формат/Информация                        : Advanced Video Codec
Профиль формата                          : [url=mailto:[email protected]][email protected][/url]
Параметр CABAC формата                   : Да
Параметр ReFrames формата                : 4 кадра
Идентификатор кодека                     : V_MPEG4/ISO/AVC
Продолжительность                        : 23 м.
Ширина                                   : 1280 пикселей
Высота                                   : 720 пикселей
Соотношение сторон                       : 16:9
Режим частоты кадров                     : Постоянный
Частота кадров                           : 23,976 кадра/сек
Цветовое пространство                    : YUV
Субдискретизация насыщенности            : 4:2:0
Битовая глубина                          : 8 бит
Тип развёртки                            : Прогрессивная
Заголовок                                : [url=http://www.SHIZA-Project.com]www.SHIZA-Project.com[/url]
Библиотека кодирования                   : x264 core 129 r2245+729M 1a52e03
Настройки программы                      : cabac=1 / ref=4 / deblock=1:1:-1 / analyse=0x3:0x113 / me=umh / subme=9 / psy=1 / fade_compensate=0.00 / psy_rd=1.00:0.00 / mixed_ref=1 / me_range=24 / chroma_me=1 / trellis=2 / 8x8dct=1 / cqm=0 / deadzone=21,11 / fast_pskip=1 / chroma_qp_offset=-2 / threads=8 / lookahead_threads=1 / sliced_threads=0 / nr=0 / decimate=1 / interlaced=0 / bluray_compat=0 / constrained_intra=0 / fgo=0 / bframes=9 / b_pyramid=2 / b_adapt=2 / b_bias=0 / direct=1 / weightb=1 / open_gop=0 / weightp=2 / keyint=240 / keyint_min=24 / scenecut=40 / intra_refresh=0 / rc=crf / mbtree=0 / crf=17.5 / qcomp=0.72 / qpmin=0 / qpmax=69 / qpstep=4 / ip_ratio=1.40 / pb_ratio=1.30 / aq=1:0.85
Язык                                     : Japanese
Default                                  : Да
Forced                                   : Нет
Цветовой диапазон                        : Limited
Основные цвета                           : BT.709
Характеристики трансфера                 : BT.709
Коэффициенты матрицы                     : BT.709
Аудио #1
Идентификатор                            : 2
Формат                                   : AAC
Формат/Информация                        : Advanced Audio Codec
Профиль формата                          : LC
Идентификатор кодека                     : A_AAC
Продолжительность                        : 23 м.
Каналы                                   : 2 канала
Расположение каналов                     : Front: L R
Частота                                  : 48,0 КГц
Метод сжатия                             : С потерями
Заголовок                                : Snowly, NesTea, Hekomi
Язык                                     : Russian
Default                                  : Да
Forced                                   : Нет
Аудио #2
Идентификатор                            : 3
Формат                                   : AAC
Формат/Информация                        : Advanced Audio Codec
Профиль формата                          : LC
Идентификатор кодека                     : A_AAC
Продолжительность                        : 23 м.
Каналы                                   : 2 канала
Расположение каналов                     : Front: L R
Частота                                  : 48,0 КГц
Метод сжатия                             : С потерями
Заголовок                                : Original
Язык                                     : Japanese
Default                                  : Нет
Forced                                   : Нет
-

Clavik

Пост 29-Дек-2015 00:49

[Цитировать]

Bishoujo Senshi Sailor Moon Crystal / Pretty Guardian Sailor Moon Crystal / Прекрасная воительница Сейлор Мун: Кристалл- Жанр: приключения, махо-сёдзё
Тип: TV-сериал
Продолжительность: 26 эпизодов по 25 минут
Выпуск: c 05.07.2014 по 18.07.2015
Автор: Такэути Наоко
Снято по манге: Bishoujo Senshi Sailor Moon
Режиссер: Сакай Мунэхиса
Производство: Toei Animation-Информационные ссылки: AniDB || World Art || MAL || ANN-Перевод:
  • Русские субтитры от Timecraft
    Переводчик: Seiya Loveless, Редакторы: Adelheid, Bel-chan, Оформление: Surokune, Перевод песен: Zool
-Описание:
Давным-давно Солнечной системой правила мудрая и прекрасная Лунная королева Сирэнити, а ее покой охраняли воительницы, владеющие силами планет. Увы, этого не хватило, чтобы остановить врага, явившегося из глубин космоса. Хрустальный Город пал, и в последнем бою королева пожертвовала собой, чтобы погрузить сильнейших противников в сон, а собственную дочь и воинов планет отправить в далекое будущее на перерождение. Сирэнити знала, что с пробуждением «светлых» в мир явятся и «темные», потому смогла послать в грядущее вестников, чтобы те защитили и направили Лунную Принцессу и ее подруг. А дальше наступила Тьма…
В 1990-е годы уже иной эры в Токио живет-поживает ученица средней школы Усаги Цукино, обожающая укладывать свои золотые косы в виде булочек-данго. Все началось, когда Усаги нашла говорящую черную кошку с полумесяцем на лбу. Как истинная блондинка, Цукино пропустила ее слова мимо ушей, но стоило подруге попасть в беду – не думая, воспользовалась дотоле спящими силами. Вот так воительница Луны начала борьбу со злом и постепенно собрала свой ближний круг – умницу Ами, красавицу Минако, пламенную Рэй и томбойку Макото. Хотите знать, что дальше – смотрите! Знаете, что будет – тоже смотрите, чтобы еще раз пережить эту чудесную историю! И да поможет нам всем Лунная Призма!© Hollow, World Art-Качество: BDRip | Энкод: Winter
Формат: MKV
Видео: x264 (10 bit) 1280x720, ~3600 Kbps, 23.976 fps
Аудио: Vorbis, 256 Kbps, 48.0 kHz, 2 ch
Аудио: AC-3, 192 Kbps, 48.0 kHz, 2 ch (внешними файлами)
Субтитры: ASS, Полные | Надписи (внешними файлами) -

Список озвучек:

  • многоголосая от AniDub
    участники: Nika Lenina, Гамлетка Цезаревна, Oriko, 9й Неизвестный, Cuba77, SpasmSound

Список эпизодов:

01. Usagi: Sailor Moon
02. Ami: Sailor Mercury
03. Rei: Sailor Mars
04. Masquerade Dance Party
05. Makoto: Sailor Jupiter
06. Tuxedo Mask
07. Mamoru Chiba: Tuxedo Mask
08. Minako: Sailor V
09. Serenity: Princess
10. Moon
11. Reunion: Endymion
12. Enemy: Queen Metalia
13. Final Battle: Reincarnation
14. Conclusion and Commencement: Petite Etrangere
15. Infiltration: Sailor Mars
16. Abduction: Sailor Mercury
17. Secret: Sailor Jupiter
18. Invasion: Sailor Venus
19. Time Warp: Sailor Pluto
20. Crystal Tokyo: King Endymion
21. Complication: Nemesis
22. Hidden Agenda: Nemesis
23. Covert Maneuvers: Wiseman
24. Attack: Black Lady
25. Showdown: Death Phantom
26. Replay: Never Ending

Тех. параметры:

Код:
General
Unique ID                   : 196911658989814565567943630686735425773 (0x9423CE58F2CBB606AA7CEC88F5A1E0ED)
Complete name               : Sailor Moon Crystal [BD] [720p]\[Winter] Bishoujo Senshi Sailor Moon Crystal 01 [BDrip 1280x720 x264 Vorbis].mkv
Format                      : Matroska
Format version              : Version 2
File size                   : 686 MiB
Duration                    : 24mn 32s
Overall bit rate mode       : Variable
Overall bit rate            : 3 906 Kbps
Encoded date                : UTC 2014-10-19 10:18:37
Writing application         : mkvmerge v2.9.8 ('C'est le bon') built on Aug 13 2009 12:49:06
Writing library             : libebml v0.7.7 + libmatroska v0.8.1
Video
ID                          : 1
Format                      : AVC
Format/Info                 : Advanced Video Codec
Format profile              : High [url=mailto:[email protected]][email protected][/url]
Format settings, CABAC      : Yes
Format settings, ReFrames   : 9 frames
Codec ID                    : V_MPEG4/ISO/AVC
Duration                    : 24mn 32s
Bit rate                    : 3 573 Kbps
Width                       : 1 280 pixels
Height                      : 720 pixels
Display aspect ratio        : 16:9
Frame rate mode             : Constant
Frame rate                  : 23.976 (24000/1001) fps
Color space                 : YUV
Chroma subsampling          : 4:2:0
Bit depth                   : 10 bits
Scan type                   : Progressive
Bits/(Pixel*Frame)          : 0.162
Stream size                 : 627 MiB (91%)
Writing library             : x264 core 132 r2309 3b1f1f7
Encoding settings           : cabac=1 / ref=9 / deblock=1:-2:-2 / analyse=0x3:0x133 / me=umh / subme=9 / psy=1 / psy_rd=0.90:0.00 / mixed_ref=1 / me_range=24 / chroma_me=1 / trellis=2 / 8x8dct=1 / cqm=0 / deadzone=21,11 / fast_pskip=1 / chroma_qp_offset=-2 / threads=12 / lookahead_threads=2 / sliced_threads=0 / nr=0 / decimate=0 / interlaced=0 / bluray_compat=0 / constrained_intra=0 / bframes=8 / b_pyramid=2 / b_adapt=2 / b_bias=0 / direct=1 / weightb=1 / open_gop=0 / weightp=2 / keyint=250 / keyint_min=23 / scenecut=40 / intra_refresh=0 / rc=crf / mbtree=0 / crf=15.7 / qcomp=0.70 / qpmin=9 / qpmax=42 / qpstep=4 / ip_ratio=1.40 / pb_ratio=1.30 / aq=1:0.90 / zones=3741,5900,b=1.2/24622,24968,b=1.2
Default                     : No
Forced                      : No
Audio
ID                          : 2
Format                      : Vorbis
Format settings, Floor      : 1
Codec ID                    : A_VORBIS
Duration                    : 24mn 32s
Bit rate mode               : Variable
Bit rate                    : 256 Kbps
Channel(s)                  : 2 channels
Sampling rate               : 48.0 KHz
Detected bit depth          : 16 bits
Compression mode            : Lossy
Stream size                 : 44.9 MiB (7%)
Writing library             : libVorbis (Schaufenugget) (20101101 (Schaufenugget))
Language                    : Japanese
Default                     : Yes
Forced                      : No

Информация о релизе:

  • Выбор видео, перевода, озвучки, а также типа сборки материала осуществляется релизером и не подлежит обсуждению. Если вы считаете, что раздаваемый материал противоречит правилам раздела "Аниме", сообщите об этом одному из модераторов раздела.
  • В случае появления нового материала или же лучшего по качеству материала релизер оставляет за собой право обновить раздачу. В этом случае вам необходимо ознакомиться с изменениями (добавлениями) и перекачать торрент.
  • Данный релиз предназначен для просмотра на ПК. Воспроизведение на иных проигрывателях не гарантируется. Для просмотра рекомендуется Media Player Classic с установленным пакетом кодеков K-Lite.
  • Данный релиз содержит 10-битное видео (Hi10p). Для корректного воспроизведения обязательно используйте кодеки, поддерживающие 10-битное видео.
  • Данный релиз предназначен для просмотра с внешними субтитрами и внешними звуковыми дорожками.
    • Для просмотра с внешней звуковой дорожкой нужно:
      перекинуть файлы .mka из папки "RUS Sound []" в одну папку с видео и переключить звуковую дорожку в плеере при просмотре.
    • Для просмотра с субтитрами нужно:
      перекинуть файлы .ass из папки "RUS Subtitles []" в одну папку с видео - плеер подгрузит их автоматически при открытии видео.
    ЛС Ampho_DnB[/url].
-            -
 

Текущее время: Сегодня 18:40

Часовой пояс: GMT + 3