Сегодня идет свободное скачивание без начисления Download

Результатов поиска: 30

Автор Сообщение

Russian Mafia

Пост 18-Сен-2016 18:39

[Цитировать]

Формула 1. Гран-При Сингапура. Гонка (2016) HDTVRip [H.264/720p] [hand made 50fps]- Телекомпания: МАТЧ! Арена
Жанр: Спорт, авто
Комментатор: Алексей Попов
Описание:
В личном зачете чемпионата продолжает лидировать британец Льюис Хэмилтон из "Мерседеса" (250 очков), его вплотную преследует напарник немец Нико Росберг (248), на третьем месте идет австралиец Дэниел Риккьярдо из "Ред Булл" (161). Квят идет 14-м с 23 очками. В Кубке конструкторов уверенно лидирует "Мерседес" (498 очков), вторым идет "Ред Булл" (290), а на третьем месте – "Феррари" (279).
Росберг все-таки вернулся в борьбу за чемпионство, одержав победы на двух последних этапах, где Хэмилтон испытывал определенные проблемы с болидом. Ближайший этап станет для немца 200-м в карьере. "В 2008 году в Сингапуре я завоевал свой второй подиум, но потом меня преследовали неудачи. Трасса отлично подходит "Ред Булл", год назад мы не были сильны здесь, но мы верим, что сможем переломить эту неудачную тенденцию", - заявил Росберг командной пресс-службе. (С)
Продолжительность: 02:09:37
Качество видео: HDTVRip
Видео: AVC/H.264, 4000 kb/s, 1280x720, 50fps
Аудио: AC3, 2 ch, 192 kb/s

MI

Общее
Уникальный идентификатор : 189532465671869974116600190215473144384 (0x8E96A00704D7185D8B01C66CEA012240)
Полное имя : D:\F1.Round.15.Singapore.Grand.Prix.2016.Race.HDTVRip.720p.mkv
Формат : Matroska
Версия формата : Version 4 / Version 2
Размер файла : 3,80 Гбайт
Продолжительность : 2 ч. 9 м.
Общий поток : 4202 Кбит/сек
Дата кодирования : UTC 2016-09-18 14:33:01
Программа кодирования : mkvmerge v7.3.0 ('Nouages') 32bit built on Oct 22 2014 18:44:01
Библиотека кодирования : libebml v1.3.0 + libmatroska v1.4.1
Видео
Идентификатор : 1
Формат : AVC
Формат/Информация : Advanced Video Codec
Профиль формата : [url=mailto:[email protected]][email protected][/url]
Параметр CABAC формата : Да
Параметр ReFrames формата : 4 кадра
Идентификатор кодека : V_MPEG4/ISO/AVC
Продолжительность : 2 ч. 9 м.
Битрейт : 4000 Кбит/сек
Ширина : 1280 пикселей
Высота : 720 пикселей
Соотношение сторон : 16:9
Режим частоты кадров : Постоянный
Частота кадров : 50,000 кадров/сек
Цветовое пространство : YUV
Субдискретизация насыщенности : 4:2:0
Битовая глубина : 8 бит
Тип развёртки : Прогрессивная
Бит/(Пиксели*Кадры) : 0.085
Размер потока : 3,55 Гбайт (93%)
Default : Нет
Forced : Нет
Цветовой диапазон : Limited
Основные цвета : BT.709
Характеристики трансфера : BT.709
Коэффициенты матрицы : BT.709
Аудио
Идентификатор : 2
Формат : AC-3
Формат/Информация : Audio Coding 3
Расширение режима : CM (complete main)
Параметр Endianness формата : Big
Идентификатор кодека : A_AC3
Продолжительность : 2 ч. 9 м.
Вид битрейта : Постоянный
Битрейт : 192 Кбит/сек
Каналы : 2 канала
Расположение каналов : Front: L R
Частота : 48,0 КГц
Метод сжатия : С потерями
Размер потока : 178 Мбайт (5%)
Язык : Russian
Default : Да
Forced : Нет

Скриншоты

       

SmartSoft

Пост 14-Фев-2015 13:38

[Цитировать]

Формула 1 / Formula 1 (Весь сезон 2013)-
Русское название: Формула 1
Оригинальное название: Formula 1
Телекомпания: Спорт 1 HD и SkySports F1HD
Год выпуска: 2013
Жанр: Спорт
Официальный сайт: www.formula1.com
Язык комментариев: Русский (Алексей Попов и Наталья Фабричнова)
Продолжительность:
квалификация ~ 01:30:00 (Live-трансляция, включает пресс-конференцию. Русский комментарий может не соответствовать изображению в паузах между сессиями) гонка ~ 02:30:00 (Live-трансляция)
Описание:
Весь сезон Формулы 1 2013 года. Квалификация + Гонка.
Доп. информация:
Исходник: HDTVRemux [TS/H.264/MP2(AC3), 1920х1080i (16:9), 25.000 fps]
Рип: деинтерлейсер [25i -> 50p]: QTGMC( Preset="Slow" )
Качество видео: HDTVRip
Формат: MKV
Видеокодек: H.264
Битрейт видео: ~7000 Kbps
Размер кадра: 1280x720p (16:9); 50 fps
Аудиокодек: AC3
Битрейт аудио: 192 kbps

MediaInfo

Код:
Общее
Уникальный идентификатор                 : 221424181982223659578594088733428917919 (0xA694BF0A2E5CD722AFE9332AA5BFA69F)
Полное имя                               : I:\Formula 1\Formula 1 2013 Season\06 Гран-при Монако\Монако (гонка) 50fps.mkv
Формат                                   : Matroska
Версия формата                           : Version 4 / Version 2
Размер файла                             : 8,45 Гбайт
Продолжительность                        : 2 ч. 58 м.
Общий поток                              : 6785 Кбит/сек
Дата кодирования                         : UTC 2013-05-29 17:54:53
Программа кодирования                    : mkvmerge v6.1.0 ('Old Devil') built on Mar  2 2013 14:32:37
Библиотека кодирования                   : libebml v1.3.0 + libmatroska v1.4.0
Видео
Идентификатор                            : 1
Формат                                   : AVC
Формат/Информация                        : Advanced Video Codec
Профиль формата                          : [url=mailto:[email protected]][email protected][/url]
Параметр CABAC формата                   : Да
Параметр ReFrames формата                : 4 кадра
Идентификатор кодека                     : V_MPEG4/ISO/AVC
Продолжительность                        : 2 ч. 58 м.
Битрейт                                  : 6458 Кбит/сек
Ширина                                   : 1280 пикселей
Высота                                   : 720 пикселей
Соотношение сторон                       : 16:9
Режим частоты кадров                     : Постоянный
Частота кадров                           : 50,000 кадров/сек
Цветовое пространство                    : YUV
Субдискретизация насыщенности            : 4:2:0
Битовая глубина                          : 8 бит
Тип развёртки                            : Прогрессивная
Бит/(Пиксели*Кадры)                      : 0.140
Размер потока                            : 8,05 Гбайт (95%)
Библиотека кодирования                   : x264 core 115 r1995 c1e60b9
Настройки программы                      : cabac=1 / ref=3 / deblock=1:0:0 / analyse=0x3:0x113 / me=umh / subme=7 / psy=1 / psy_rd=1.00:0.00 / mixed_ref=1 / me_range=24 / chroma_me=1 / trellis=1 / 8x8dct=1 / cqm=0 / deadzone=21,11 / fast_pskip=1 / chroma_qp_offset=-2 / threads=12 / sliced_threads=0 / nr=0 / decimate=1 / interlaced=0 / bluray_compat=0 / constrained_intra=0 / bframes=3 / b_pyramid=2 / b_adapt=1 / b_bias=0 / direct=1 / weightb=1 / open_gop=0 / weightp=2 / keyint=100 / keyint_min=10 / scenecut=40 / intra_refresh=0 / rc_lookahead=40 / rc=crf / mbtree=1 / crf=21.0 / qcomp=0.60 / qpmin=0 / qpmax=69 / qpstep=4 / vbv_maxrate=20000 / vbv_bufsize=25000 / crf_max=0.0 / nal_hrd=none / ip_ratio=1.40 / aq=1:1.00
Язык                                     : English
Default                                  : Да
Forced                                   : Нет
Аудио
Идентификатор                            : 2
Формат                                   : AC-3
Формат/Информация                        : Audio Coding 3
Расширение режима                        : CM (complete main)
Параметр Endianness формата              : Big
Идентификатор кодека                     : A_AC3
Продолжительность                        : 2 ч. 58 м.
Вид битрейта                             : Постоянный
Битрейт                                  : 192 Кбит/сек
Каналы                                   : 2 канала
Расположение каналов                     : Front: L R
Частота                                  : 48,0 КГц
Битовая глубина                          : 16 бит
Метод сжатия                             : С потерями
Размер потока                            : 245 Мбайт (3%)
Заголовок                                : Спорт1
Язык                                     : Russian
Default                                  : Да
Forced                                   : Нет

Состав участников:

Состав участников:
Red Bull Racing: Себастьян Феттель - Марк Уэббер
Scuderia Ferrari: Фернандо Алонсо - Фелипе Масса
Vodafone McLaren Mercedes: Дженсон Баттон - Серхио Перес
Lotus F1 Team: Кими Райкконен - Роман Грожан
Mercedes AMG Petronas Formula 1 Team: Нико Росберг - Льюис Хэмилтон
Sauber F1 Team: Нико Хюлкенберг - Эстебан Гутьеррес
Sahara Force India F1 Team: Пол ди Реста - Адриан Сутил
Williams F1 Team: Пастор Мальдонадо - Валттери Боттас
Scuderia Toro Rosso: Жан-Эрик Вернь - Даниэль Риккардо
Caterham F1 Team: Шарль Пик - Гидо ван дер Гарде
Marussia F1 Team: Жюль Бьянки - Макс Чилтон

Скриншоты:

Скриншоты:
     

SmartSoft

Пост 14-Фев-2015 13:28

[Цитировать]

Формула 1 / Formula 1- Русское название: Формула 1
Оригинальное название: Formula 1
Телекомпания: Спорт 1 HD и SkySports F1HD
Год выпуска: 2012
Жанр: Спорт
Официальный сайт: www.formula1.com
Язык комментариев: Русский (Алексей Попов, иногда вместе с Натальей Фабричновой)
Продолжительность:
квалификация ~ 01:30:00 (Live-трансляция, включает пресс-конференцию. Русский комментарий может не соответствовать изображению в паузах между сессиями)
гонка ~ 02:30:00 (Live-трансляция)
Описание:
Весь сезон Формулы 1 2012 года. Квалификация + Гонка.
Доп. информация:
Исходник: HDTVRemux [TS/H.264/MP2(AC3), 1920х1080i (16:9), 25.000 fps]
Рип: деинтерлейсер [25i -> 50p]: QTGMC (Preset="Slow")
Формат: MKV
Видеокодек: H.264
Битрейт видео: ~3000-5500 Kbps
Размер кадра: 1280x720p (16:9); 50 fps
Качество видео: HDTVRip
Аудиокодек: AC3
Битрейт аудио: 192 Kbps

Состав участников:

Состав участников:
Red Bull Racing: Себастьян Феттель - Марк Уэббер
Vodafone McLaren Mercedes: Дженсон Баттон - Льюис Хэмилтон
Scuderia Ferrari: Фернандо Алонсо - Фелипе Масса
Mercedes AMG Petronas Formula 1 Team: Михаэль Шумахер - Нико Росберг
Lotus F1 Team: Кими Райкконен - Роман Грожан
Sahara Force India F1 Team: Пол ди Реста - Нико Хюлкенберг
Sauber F1 Team: Камуи Кобаяши - Серхио Перес
Scuderia Toro Rosso: Даниэль Риккардо - Жан-Эрик Вернь
Williams F1 Team: Пастор Мальдонадо - Бруно Сенна
Caterham F1 Team: Хейкки Ковалайнен - Виталий Петров
HRT F1 Team: Нараин Картикеян - Педро де ла Роса
Marussia F1 Team: Тимо Глок - Шарль Пик

Скриншоты:

     

Dracula

Пост 03-Фев-2015 23:15

[Цитировать]

Топик был перенесен из форума Другие виды спорта в форум Авто и мото спорт


kogesan

SmartSoft

Пост 03-Фев-2015 23:09

[Цитировать]

Формула 1 / Formula 1 [HDTVRip-AVC 720p 50fps, RUS]-
Русское название: Формула 1
Оригинальное название: Formula 1
Телекомпания: SkySports F1HD
Год выпуска: 2014
Жанр: Спорт
Официальный сайт: www.formula1.com
Язык комментариев: Русский (Алексей Попов и Наталья Фабричнова)
Продолжительность:
квалификация ~ 01:30:00 (Live-трансляция, включает пресс-конференцию. Русский комментарий может не соответствовать изображению в паузах между сессиями) гонка ~ 02:30:00 (Live-трансляция)
Описание:
Весь сезон Формулы 1 2014 года. Квалификация + Гонка.
Доп. информация:
Исходник: HDTVRemux [TS/H.264/MP2(AC3), 1920х1080i (16:9), 25.000 fps]
Рип: деинтерлейсер [25i -> 50p]: QTGMC(Preset="Slow")
Качество видео: HDTVRip
Формат: MKV
Видеокодек: H.264
Битрейт видео: ~7000 Kbps
Размер кадра:1280x720p (16:9); 50 fps
Аудиокодек: AC3
Битрейт аудио: 192 kbps

Состав участников:

Состав участников:
Red Bull Racing: Себастьян Феттель - Даниэль Риккардо
Mercedes AMG Petronas Formula 1 Team: Льюис Хэмилтон - Нико Росберг
Scuderia Ferrari: Фернандо Алонсо - Кими Райкконен
Lotus F1 Team: Роман Грожан - Пастор Мальдонадо
Vodafone McLaren Mercedes: Дженсон Баттон - Кевин Магнуссен
Sahara Force India F1 Team: Нико Хюлкенберг - Серхио Перес
Sauber F1 Team: Адриан Сутил - Эстебан Гутьеррес
Scuderia Toro Rosso: Жан-Эрик Вернь - Даниил Квят
Williams F1 Team: Фелипе Масса - Валттери Боттас
Marussia F1 Team: Жюль Бьянки - Макс Чилтон
Caterham F1 Team: Камуи Кобаяши - Маркус Эриксон

MediaInfo

Код:
H:\Formula 1\Formula 1 2014 Season\06 Гран-при Монако\Монако (гонка) 50fps.mkv
  General
    Unique ID : 205169887784208338485891795836196669189 (0x9A5A48766CB967428C48E8D9AC60C705)
    Complete name : H:\Formula 1\Formula 1 2014 Season\06 Гран-при Монако\Монако (гонка) 50fps.mkv
    Format : Matroska
    Format version : Version 4 / Version 2
    File size : 7.96 GiB
    Duration : 2h 40mn
    Overall bit rate : 7 100 Kbps
    Encoded date : UTC 2014-05-30 20:02:52
    Writing application : mkvmerge v6.9.1 ('Blue Panther') 64bit built on Apr 18 2014 18:23:38
    Writing library : libebml v1.3.0 + libmatroska v1.4.1
  Video #1
    ID : 1
    Format : AVC
    Format/Info : Advanced Video Codec
    Format profile : [url=mailto:[email protected]][email protected][/url]
    Format settings, CABAC : Yes
    Format settings, ReFrames : 4 frames
    Codec ID : V_MPEG4/ISO/AVC
    Duration : 2h 40mn
    Bit rate : 6 767 Kbps
    Width : 1 280 pixels
    Height : 720 pixels
    Display aspect ratio : 16:9
    Frame rate mode : Constant
    Frame rate : 50.000 fps
    Color space : YUV
    Chroma subsampling : 4:2:0
    Bit depth : 8 bits
    Scan type : Progressive
    Bits/(Pixel*Frame) : 0.147
    Stream size : 7.59 GiB (95%)
    Writing library : x264 core 133 r2334 a3ac64b
    Encoding settings : cabac=1 / ref=3 / deblock=1:0:0 / analyse=0x3:0x113 / me=umh / subme=9 / psy=1 / psy_rd=1.00:0.00 / mixed_ref=1 / me_range=24 / chroma_me=1 / trellis=1 / 8x8dct=1 / cqm=0 / deadzone=21,11 / fast_pskip=1 / chroma_qp_offset=-2 / threads=18 / lookahead_threads=1 / sliced_threads=0 / nr=0 / decimate=1 / interlaced=0 / bluray_compat=0 / constrained_intra=0 / bframes=3 / b_pyramid=2 / b_adapt=1 / b_bias=0 / direct=1 / weightb=1 / open_gop=0 / weightp=2 / keyint=100 / keyint_min=10 / scenecut=40 / intra_refresh=0 / rc_lookahead=40 / rc=crf / mbtree=1 / crf=21.0 / qcomp=0.60 / qpmin=0 / qpmax=69 / qpstep=4 / vbv_maxrate=20000 / vbv_bufsize=25000 / crf_max=0.0 / nal_hrd=none / ip_ratio=1.40 / aq=1:1.00
    Language : English
    Default : Yes
    Forced : No
  Audio #2
    ID : 2
    Format : AC-3
    Format/Info : Audio Coding 3
    Mode extension : CM (complete main)
    Format settings, Endianness : Big
    Codec ID : A_AC3
    Duration : 2h 40mn
    Bit rate mode : Constant
    Bit rate : 192 Kbps
    Channel count : 2 channels
    Channel positions : Front: L R
    Sampling rate : 48.0 KHz
    Bit depth : 16 bits
    Compression mode : Lossy
    Delay relative to video : 150ms
    Stream size : 220 MiB (3%)
    Title : Спорт1
    Language : Russian
    Default : Yes
    Forced : No

Скриншоты:

     

Omen

Пост 12-Окт-2014 20:55

[Цитировать]

Формула 1. Гран-При России. Квалификация (2014) - Режиссер / Телекомпания: Россия,
Год выпуска: 2014
Жанр: Спорт, авто
Комментатор: Алексей Попов, Наталья Фабричнова
Описание:
Долгожданный для всех любителей автоспорта Гран-при России "Формулы-1" начинает набирать обороты на новеньком "Сочи Автодроме" на берегу Черного моря.
Гран-при России пройдет в эти выходные, а в четверг пилоты команд собрались на автодроме, пообщались с прессой и раздали автографы всем желающим. Многие эксперты и гонщики сходятся во мнении, что трасса получилась сложной, но очень интересной. Ее длина составляет 5853,7 метра, она содержит 18 поворотов, а максимальная скорость ожидается на уровне 320 км/ч. (С)
Продолжительность: 01:16:00
Качество видео: HDTVRip
Видеокодек: MPEG-4 AVC/H.264
Битрейт видео: 4000 kb/s
Размер кадра: 1280x720
Аудиокодек: AC3, 2 ch
Битрейт аудио: 192 kb/s

MI

Код:
Общее
Уникальный идентификатор                 : 214525043743098174801692514010504152577 (0xA1640543323501519B7D576698B8C601)
Полное имя                               : D:\Раздачи\F1.2014.Round.16.Russian.Grand.Prix.Qualification.HDTVRip.720p.mkv
Формат                                   : Matroska
Версия формата                           : Version 4 / Version 2
Размер файла                             : 2,20 Гбайт
Продолжительность                        : 1 ч. 16 м.
Общий поток                              : 4193 Кбит/сек
Дата кодирования                         : UTC 2014-07-05 13:25:59
Программа кодирования                    : mkvmerge v7.0.0 ('Where We Going') 64bit built on Oct 11 2014 15:16:27
Библиотека кодирования                   : libebml v1.3.0 + libmatroska v1.4.1
DURATION                                 : 01:05:00.128000000
NUMBER_OF_FRAMES                         : 121879
NUMBER_OF_BYTES                          : 93603072
_STATISTICS_WRITING_APP                  : mkvmerge v7.0.0 ('Where We Going') 64bit built on Oct 11 2014 15:16:27
_STATISTICS_WRITING_DATE_UTC             : 2014-07-05 13:25:59
_STATISTICS_TAGS                         : BPS DURATION NUMBER_OF_FRAMES NUMBER_OF_BYTES
Видео
Идентификатор                            : 1
Формат                                   : AVC
Формат/Информация                        : Advanced Video Codec
Профиль формата                          : [url=mailto:[email protected]][email protected][/url]
Параметр CABAC формата                   : Да
Параметр ReFrames формата                : 4 кадра
Идентификатор кодека                     : V_MPEG4/ISO/AVC
Продолжительность                        : 1 ч. 16 м.
Битрейт                                  : 4000 Кбит/сек
Ширина                                   : 1280 пикселей
Высота                                   : 720 пикселей
Соотношение сторон                       : 16:9
Режим частоты кадров                     : Постоянный
Частота кадров                           : 50,000 кадров/сек
Цветовое пространство                    : YUV
Субдискретизация насыщенности            : 4:2:0
Битовая глубина                          : 8 бит
Тип развёртки                            : Прогрессивная
Бит/(Пиксели*Кадры)                      : 0.087
Размер потока                            : 1,78 Гбайт (93%)
Библиотека кодирования                   : x264 core 130 r2273 b3065e6
Настройки программы                      : cabac=1 / ref=2 / deblock=1:0:0 / analyse=0x3:0x113 / me=hex / subme=6 / psy=1 / psy_rd=1.00:0.00 / mixed_ref=1 / me_range=16 / chroma_me=1 / trellis=1 / 8x8dct=1 / cqm=0 / deadzone=21,11 / fast_pskip=1 / chroma_qp_offset=-2 / threads=12 / lookahead_threads=2 / sliced_threads=0 / nr=0 / decimate=1 / interlaced=0 / bluray_compat=0 / constrained_intra=0 / bframes=3 / b_pyramid=2 / b_adapt=1 / b_bias=0 / direct=1 / weightb=1 / open_gop=0 / weightp=1 / keyint=500 / keyint_min=50 / scenecut=40 / intra_refresh=0 / rc_lookahead=30 / rc=abr / mbtree=1 / bitrate=4000 / ratetol=1.0 / qcomp=0.60 / qpmin=0 / qpmax=69 / qpstep=4 / vbv_maxrate=62500 / vbv_bufsize=78125 / nal_hrd=none / ip_ratio=1.40 / aq=1:1.00
Язык                                     : English
Default                                  : Да
Forced                                   : Нет
Основные цвета                           : BT.709
Характеристики трансфера                 : BT.709
Коэффициенты матрицы                     : BT.709
Аудио
Идентификатор                            : 2
Формат                                   : AC-3
Формат/Информация                        : Audio Coding 3
Расширение режима                        : CM (complete main)
Параметр Endianness формата              : Big
Идентификатор кодека                     : A_AC3
Продолжительность                        : 1 ч. 16 м.
Вид битрейта                             : Постоянный
Битрейт                                  : 192 Кбит/сек
Каналы                                   : 2 канала
Расположение каналов                     : Front: L R
Частота                                  : 48,0 КГц
Битовая глубина                          : 16 бит
Метод сжатия                             : С потерями
Размер потока                            : 89,3 Мбайт (5%)
Язык                                     : Russian
Default                                  : Да
Forced                                   : Нет
Скриншоты:          

Omen

Пост 12-Окт-2014 20:55

[Цитировать]

Формула 1. Гран-При России. Гонка (2014) - Режиссер / Телекомпания: Россия,
Год выпуска: 2014
Жанр: Спорт, авто
Комментатор: Алексей Попов, Наталья Фабричнова
Описание:
Долгожданный для всех любителей автоспорта Гран-при России "Формулы-1" начинает набирать обороты на новеньком "Сочи Автодроме" на берегу Черного моря.
Гран-при России пройдет в эти выходные, а в четверг пилоты команд собрались на автодроме, пообщались с прессой и раздали автографы всем желающим. Многие эксперты и гонщики сходятся во мнении, что трасса получилась сложной, но очень интересной. Ее длина составляет 5853,7 метра, она содержит 18 поворотов, а максимальная скорость ожидается на уровне 320 км/ч. (С)
Продолжительность: 02:12:48
Качество видео: HDTVRip
Видеокодек: MPEG-4 AVC/H.264
Битрейт видео: 1900 kb/s
Размер кадра: 704х400
Аудиокодек: AC3, 2 ch
Битрейт аудио: 192 kb/s

MI

Код:
Общее
Полное имя                               : D:\Раздачи\Ф-1. Росии. Гонка. Багга. 12.10.2014.mkv
Формат                                   : Matroska
Версия формата                           : Version 4 / Version 2
Размер файла                             : 2,01 Гбайт
Продолжительность                        : 2 ч. 12 м.
Общий поток                              : 2041 Кбит/сек
Библиотека кодирования                   : MPlayer
Видео
Идентификатор                            : 1
Формат                                   : AVC
Формат/Информация                        : Advanced Video Codec
Профиль формата                          : [url=mailto:[email protected]][email protected][/url]
Параметр CABAC формата                   : Да
Параметр ReFrames формата                : 4 кадра
Идентификатор кодека                     : V_MPEG4/ISO/AVC
Продолжительность                        : 2 ч. 12 м.
Битрейт                                  : 1900 Кбит/сек
Ширина                                   : 704 пикселя
Высота                                   : 400 пикселей
Соотношение сторон                       : 16:9
Частота кадров                           : 25,000 кадров/сек
Цветовое пространство                    : YUV
Субдискретизация насыщенности            : 4:2:0
Битовая глубина                          : 8 бит
Тип развёртки                            : Прогрессивная
Метод сжатия                             : С потерями
Бит/(Пиксели*Кадры)                      : 0.270
Размер потока                            : 2,03 Гбайт (93%)
Библиотека кодирования                   : XviD 64
Аудио
Идентификатор                            : 2
Формат                                   : AC-3
Формат/Информация                        : Audio Coding 3
Расширение режима                        : CM (complete main)
Параметр Endianness формата              : Big
Идентификатор кодека                     : A_AC3
Продолжительность                        : 2 ч. 12 м.
Вид битрейта                             : Постоянный
Битрейт                                  : 192 Кбит/сек
Каналы                                   : 2 канала
Расположение каналов                     : Front: L R
Частота                                  : 48,0 КГц
Битовая глубина                          : 16 бит
Метод сжатия                             : С потерями
Размер потока                            : 89,3 Мбайт (5%)
Язык                                     : Russian
Default                                  : Да
Forced                                   : Нет
Скриншоты:          

Omen

Пост 12-Окт-2014 20:54

[Цитировать]

Формула 1. Гран-При России. Гонка (2014) - Режиссер / Телекомпания: Россия,
Год выпуска: 2014
Жанр: Спорт, авто
Комментатор: Алексей Попов, Наталья Фабричнова
Описание:
Долгожданный для всех любителей автоспорта Гран-при России "Формулы-1" начинает набирать обороты на новеньком "Сочи Автодроме" на берегу Черного моря.
Гран-при России пройдет в эти выходные, а в четверг пилоты команд собрались на автодроме, пообщались с прессой и раздали автографы всем желающим. Многие эксперты и гонщики сходятся во мнении, что трасса получилась сложной, но очень интересной. Ее длина составляет 5853,7 метра, она содержит 18 поворотов, а максимальная скорость ожидается на уровне 320 км/ч. (С)
Продолжительность: 02:12:56
Качество видео: HDTVRip
Видеокодек: MPEG-4 AVC/H.264
Битрейт видео: 4000 kb/s
Размер кадра: 1280x720
Аудиокодек: AC3, 2 ch
Битрейт аудио: 192 kb/s

MI

Код:
Общее
Уникальный идентификатор                 : 214525043743098174801692514010504152577 (0xA1640543323501519B7D576698B8C601)
Полное имя                               : D:\Раздачи\F1.2014.Round.16.Russian.Grand.Prix.Race.HDTVRip.720p.mkv
Формат                                   : Matroska
Версия формата                           : Version 4 / Version 2
Размер файла                             : 3,88 Гбайт
Продолжительность                        : 2 ч. 12 м.
Общий поток                              : 4193 Кбит/сек
Дата кодирования                         : UTC 2014-07-05 13:25:59
Программа кодирования                    : mkvmerge v7.0.0 ('Where We Going') 64bit built on Oct 12 2014 15:16:27
Библиотека кодирования                   : libebml v1.3.0 + libmatroska v1.4.1
DURATION                                 : 01:05:00.128000000
NUMBER_OF_FRAMES                         : 121879
NUMBER_OF_BYTES                          : 93603072
_STATISTICS_WRITING_APP                  : mkvmerge v7.0.0 ('Where We Going') 64bit built on Oct 12 2014 15:16:27
_STATISTICS_WRITING_DATE_UTC             : 2014-07-05 13:25:59
_STATISTICS_TAGS                         : BPS DURATION NUMBER_OF_FRAMES NUMBER_OF_BYTES
Видео
Идентификатор                            : 1
Формат                                   : AVC
Формат/Информация                        : Advanced Video Codec
Профиль формата                          : [url=mailto:[email protected]][email protected][/url]
Параметр CABAC формата                   : Да
Параметр ReFrames формата                : 4 кадра
Идентификатор кодека                     : V_MPEG4/ISO/AVC
Продолжительность                        : 2 ч. 12 м.
Битрейт                                  : 4000 Кбит/сек
Ширина                                   : 1280 пикселей
Высота                                   : 720 пикселей
Соотношение сторон                       : 16:9
Режим частоты кадров                     : Постоянный
Частота кадров                           : 50,000 кадров/сек
Цветовое пространство                    : YUV
Субдискретизация насыщенности            : 4:2:0
Битовая глубина                          : 8 бит
Тип развёртки                            : Прогрессивная
Бит/(Пиксели*Кадры)                      : 0.087
Размер потока                            : 1,78 Гбайт (93%)
Библиотека кодирования                   : x264 core 130 r2273 b3065e6
Настройки программы                      : cabac=1 / ref=2 / deblock=1:0:0 / analyse=0x3:0x113 / me=hex / subme=6 / psy=1 / psy_rd=1.00:0.00 / mixed_ref=1 / me_range=16 / chroma_me=1 / trellis=1 / 8x8dct=1 / cqm=0 / deadzone=21,11 / fast_pskip=1 / chroma_qp_offset=-2 / threads=12 / lookahead_threads=2 / sliced_threads=0 / nr=0 / decimate=1 / interlaced=0 / bluray_compat=0 / constrained_intra=0 / bframes=3 / b_pyramid=2 / b_adapt=1 / b_bias=0 / direct=1 / weightb=1 / open_gop=0 / weightp=1 / keyint=500 / keyint_min=50 / scenecut=40 / intra_refresh=0 / rc_lookahead=30 / rc=abr / mbtree=1 / bitrate=4000 / ratetol=1.0 / qcomp=0.60 / qpmin=0 / qpmax=69 / qpstep=4 / vbv_maxrate=62500 / vbv_bufsize=78125 / nal_hrd=none / ip_ratio=1.40 / aq=1:1.00
Язык                                     : English
Default                                  : Да
Forced                                   : Нет
Основные цвета                           : BT.709
Характеристики трансфера                 : BT.709
Коэффициенты матрицы                     : BT.709
Аудио
Идентификатор                            : 2
Формат                                   : AC-3
Формат/Информация                        : Audio Coding 3
Расширение режима                        : CM (complete main)
Параметр Endianness формата              : Big
Идентификатор кодека                     : A_AC3
Продолжительность                        : 2 ч. 12 м.
Вид битрейта                             : Постоянный
Битрейт                                  : 192 Кбит/сек
Каналы                                   : 2 канала
Расположение каналов                     : Front: L R
Частота                                  : 48,0 КГц
Битовая глубина                          : 16 бит
Метод сжатия                             : С потерями
Размер потока                            : 89,3 Мбайт (5%)
Язык                                     : Russian
Default                                  : Да
Forced                                   : Нет
Скриншоты:          

Dracula

Пост 25-Апр-2013 18:02

[Цитировать]

Топик был перенесен из форума Rock в форум Авто и мото спорт


RUGUI

UndegraundMen

Пост 24-Апр-2013 00:03

[Цитировать]

Формула 1. Сезон 2013. Официальные клипы (2013)- Русское название: Формула 1. Сезон 2012. Официальные клипы
Режиссер / Телекомпания: formula1.com
Год выпуска: 2012
Жанр: Спорт
Продолжительность: 08:36 + 05:49
Перевод: Не требуется (нет диалогов и комментариев)
Озвучка: Музыка + шум моторов

Описание:
Профессионально сделанные видеоклипы в формате высокой четкости по каждой из гонок сезона 2012 (новые гонки будут добавлены по ходу сезона).
А так же раздача содержит круговые клипы с каждой трассы в режиме ONBOARD

Доп. информация: Видео с официального сайта Формулы 1. Ничего не перекодировано и не вырезано

Список песен из клипов

01 Австралия - Twisted Sister - The kids are back
02 Малайзия - Hard-Fi - Bring It On
03 Китай - Thin Lizzy - Chinatown
Качество видео: WEB-DL
Видеокодек: MPEG-4 AVC/H.264
Битрейт видео: ~4229 Кбит/сек 25.00fps
Размер кадра: 1920x1080
Аудиокодек: AAC 128 Кбит/сек 48000Hz stereo        
   

Скриншоты ONBOARD

       
   

MI

MediaInfo всех файлов одинаковое
Общее
Уникальный идентификатор : 187668617200554239708704378687037848819 (0x8D2FA933F1461F2B8B8CCB74C62F3CF3)
Полное имя : \\\RE-01-AUS-13-1080p.mkv
Формат : Matroska
Версия формата : Version 2
Размер файла : 81,2 Мбайт
Продолжительность : 2 м. 40 с.
Общий поток : 4230 Кбит/сек
Название фильма : 01 - 2013 FORMULA 1 ROLEX AUSTRALIAN GRAND PRIX (Melbourne)
Дата кодирования : UTC 2013-03-22 16:23:55
Программа кодирования : mkvmerge v5.2.1 ('A Far Off Place') built on Jan 2 2012 23:21:10
Библиотека кодирования : libebml v1.2.3 + libmatroska v1.3.0
Видео
Идентификатор : 1
Формат : AVC
Формат/Информация : Advanced Video Codec
Профиль формата : [url=mailto:[email protected]][email protected][/url]
Параметр CABAC формата : Да
Параметр ReFrames формата : 4 кадра
Идентификатор кодека : V_MPEG4/ISO/AVC
Продолжительность : 2 м. 41 с.
Номинальный битрейт : 4000 Кбит/сек
Ширина : 1920 пикселей
Высота : 1080 пикселей
Соотношение сторон : 16:9
Режим частоты кадров : Постоянный
Частота кадров : 25,000 кадров/сек
Цветовое пространство : YUV
Субдискретизация насыщенности : 4:2:0
Битовая глубина : 8 бит
Тип развёртки : Прогрессивная
Бит/(Пиксели*Кадры) : 0.077
Библиотека кодирования : x264 core 60
Настройки программы : cabac=1 / ref=4 / deblock=1:0:0 / analyse=0x1:0x111 / me=umh / subme=5 / brdo=0 / mixed_ref=1 / me_range=16 / chroma_me=1 / trellis=1 / 8x8dct=0 / cqm=0 / deadzone=21,11 / chroma_qp_offset=0 / threads=1 / nr=0 / decimate=1 / mbaff=0 / bframes=2 / b_pyramid=0 / b_adapt=1 / b_bias=0 / direct=3 / wpredb=1 / bime=1 / keyint=50 / keyint_min=25 / scenecut=40 / rc=2pass / bitrate=4000 / ratetol=1.0 / rceq='blurCplx^(1-qComp)' / qcomp=1.00 / qpmin=10 / qpmax=51 / qpstep=4 / cplxblur=20.0 / qblur=0.5 / ip_ratio=1.40 / pb_ratio=1.30 / aq=2:1.00
Default : Да
Forced : Нет
Аудио
Идентификатор : 2
Формат : AAC
Формат/Информация : Advanced Audio Codec
Профиль формата : LC
Идентификатор кодека : A_AAC
Продолжительность : 2 м. 40 с.
Каналы : 2 канала
Расположение каналов : Front: L R
Частота : 48,0 КГц
Метод сжатия : С потерями
Язык : English
Default : Да
Forced : Нет
Раздача обновлена 23.04.2013. Добавлены RaceEdit + Onboard 2013 FORMULA 1 UBS CHINESE GRAND PRIX (Shanghai)
Скоро будет 2013 FORMULA 1 GULF AIR BAHRAIN GRAND PRIX (Sakhir)

Раздача ведется путем добавления новых файлов

При каждом добавлении клипа торрент файл создается заново. Чтобы начать закачку нового клипа или папки, необходимо остановить скачивание, удалить старый торрент из клиента (сами файлы удалять не надо), скачать новый торрент и запустить его в клиенте, указав при этом путь в старую папку. Клиент произведет хеширование (проверку) старой папки и начнет докачивать только новые клипы. Старые при этом не удаляются и продолжают раздаваться! Eсли вы уже удалили старые клипы, то предотвратить их повторную закачку можно убрав с них галочку при запуске нового торрента.

ВаЖныЙ

Пост 14-Май-2012 03:19

[Цитировать]

Формула 1. Сезон 2012. Этап 5. Гран-при Испании. Гонка / Спорт 1- Вид спорта: Формула-1
Дата/Год выпуска: 13.05.2012
Комментарий: Профессиональный (двухголосый)
Язык комментариев: Русский (Алексей Попов и Наталья Фабричнова)-Описание: Без рекламы!
-Качество: HDTVRip
Видео кодек: XviD
Аудио кодек: MP3
Формат видео: AVI
Видео: XviD MPEG-4; ~1800kbps; 720x400 0.25 bit/pixel; 25 fps
Аудио: 48 kHz, MPEG Layer 3, 2 ch, 128 kbps CBR
-

Продолжительность

02:24:38
---                        ---

ВаЖныЙ

Пост 17-Апр-2012 05:49

[Цитировать]

Формула 1. 2012. Этап 3 из 20. Гран-При Китая. Гонка- -Год выпуска: 2012
Страна: Китай
Жанр: Спорт, Формула 1
Продолжительность: 2:17:01
Перевод: Профессиональный (Алексей Попов )-Описание: Формула 1 2012 г. 3 этап ГП Китая. Гонка-Качество: HDTV
Формат: MKV
Видео кодек: H.26x
Аудио кодек: MP2
Видео: H264 [[email protected]], 1280x720p at 50 fps, ~3500 kbps avg
Аудио: MP2, 48 kHz, 128 kbps, 2 ch
---        ---

ВаЖныЙ

Пост 26-Мар-2012 06:03

[Цитировать]

Формула 1. 2012. Этап 2 из 20. Гран-При Малайзии. Гонка- -Год выпуска: 2012
Вид спорта: Формула 1
Продолжительность: 03:15:59
Комментарий: Профессиональный (Алексей Попов )
Язык: русский-Описание: Не успев толком перевести дух после стартового этапа в Мельбурне, участники чемпионата перебираются в экваториальную жару Куала-Лумпура. Короткие прямые и кочковатый асфальт Альберт-парка им предстоит поменять на скоростные виражи и широкие «проспекты» Сепанга. Вдобавок, дождь в Малайзии может начаться в любую секунду – и так же быстро смениться 30-градусной жарой. У команд практически нет времени, чтобы вносить какие-то изменения в конструкцию машин, однако из-за особенностей трассы расстановка сил может претерпеть за неделю существенные изменения. На первый план выйдут мощность мотора, аэродинамическая эффективность и низкий износ резины. В прошлом году все призеры Гран При трижды останавливались в боксах, но многие из их соперников выбирали вариант с четырьмя пит-стопами. Можно ожидать, что в этот раз у механиков будет чуть меньше работы, так как специалисты Pirelli решили привезти на экваториальный этап два самых жестких состава сликов – Hard и Medium, тогда как в 2011-м в распоряжении команд были Hard и Soft. Малайзийская гонка обычно радует болельщиков многочисленными обгонами, которых стало только больше с появлением системы снижения лобового сопротивления DRS. Отказы техники тоже нередки, так как нагрузка на все системы весьма велика из-за высокой температуры, влажности и большой средней скорости. Аварий же на Сепанге обычно немного, если не считать традиционной толчеи в первом повороте, где далеко не всем удается сохранить в целости свои антикрылья.-Качество: HDTVRip
Формат: AVI
Видео кодек: XviD
Аудио кодек: MP3
Видео: 1803 Кбит/с, 500x284
Аудио: 2 ch, 128 Кбит/с
---      ---

Nugeiro

Пост 24-Мар-2012 23:54

[Цитировать]

Размер постера не исправили.

ВаЖныЙ

Пост 24-Мар-2012 08:48

[Цитировать]

Nugeiro писал(а):
ВаЖныЙ, максимальный размер постера 500х500 и скриншоты берутся в тэг [imgs]ссылка на полное изображение, превью нельзя[/imgs] (исправьте во всех релизах, где нужно).
поправил
 

Текущее время: Сегодня 08:32

Часовой пояс: GMT + 3