Сегодня идет свободное скачивание без начисления Download

Результатов поиска: 1

Автор Сообщение

UndegraundMen

Пост 21-Авг-2013 17:02

[Цитировать]

Рафаэль - Поет Рафаэль (1974)- Год: 1974
Страна-производитель диска: СССР
Издатель (лейбл): Мелодия
Номер по каталогу: 33 С 04603-4
Жанр: Pop, Ballad, Vocal
Продолжительность: 00:32:36
Наличие сканов в раздаче: да
Автор оцифровки: stepniks-Кодек: FLAC 2.0
Формат записи: 24/96
Формат раздачи: 24/96-Большую популярность в СССР певцу принёс музыкальный фильм «Пусть говорят» (1968). После такого успеха на фирме «Мелодия» по лицензии фирмы Hispavox (Испания) в 1974 году вышел двойной альбом «Поёт Рафаэль», пользовавшийся повышенным спросом.
Кроме того, он обладатель 49 «платиновых», 327 «золотых» дисков и одного «уранового», нескольких премий «Грэмми», символических ключей от Нью-Йорка, Лос-Анджелеса, Чикаго и Майами.
В 1962 году испанец Рафаэль Мартос Санчес стал для всех просто Рафаэлем; это случилось после того, как он выступил в программе Евровидения на фестивале испанской песни.-Треклист:
A1. Я - тот самый [2:38]
(Yo Soy Aquel)
A2. Песня труда [2:13]
(La Canciуn Del Trabajo)
A3. Моя жизнь [3:32]
(Ma Vie)
A4. Саsi, саsi [2:07]
(Саsi, саsi)
A5. Когда тебя нет [3:38]
(Cuando Tu No Estas)
A6. Я был влюблен [2:20]
(Estuve Enamorado)

Продолжение трек листа:

B1. Поговорим о любви [2:51]
(Hablemos Del Amor)
B2. Занат солнца [2:40]
(Al Ponerse El Sol)
B3. Все девушки мне нравятся [2:02]
(Todas Las Chicas Me Gustan)
B4. Ночь [3:14]
(La Noche)
B5. Мужчины тоже плачут [2:18]
(Los Hombres Iloran Tambiyn)
B6. Песня барабанщика [3:04]
(La Canciуn Del Tamborilero)

Technical info:

Vinyl Condition Cod (Код состояния винила): NEAR MINT (90%-100% - практически идеальное состояние)
Vinyl Cleaning (Чистка винила): Knosti Antistatic Record Cleaning Machine, Goldring Super Exstatic Carbon Fiber Brush
Turntable (Вертушка): Bang & Olufsen Beocenter-7007 Type 1821
Phono Cartridge (Звукосниматель): MMC 4 (Moving Micro Cross) (Frequency 20-20000 Hz)
Stylus (Игла): Titanium-coated elliptical diamond
Interconnect (Кабель межблочный): Oyaide PA-02 (медь PCOCC-A, сверхчист. монокристаллич. 0.0264 Ом/м, 32 пФ/м)
AD converter (AЦП): Asahi Kasei Microsystems Co., Ltd. AKM AK5385A
Sound Card (Звуковая карта): Creative Professional E-Mu 0404 USB 2.0
Digitalization Soft (Программа-оцифровщик): Sony Sound Forge Pro v10.0
Audio signal processing (Обработка): Ручное удаление единичных щелчков
Processing Soft (Программа-обработчик): iZotope RX Advanced v2.10.656
Format: Vinyl-Rip, 24bps/96KHz, tracks flac + cue

MI:

Код:
Общее
Полное имя                               : C:\Raphael (1974)[Vinyl-Rip,24-96]\01 - Я - тот самый (Yo Soy Aquel).flac
Формат                                   : FLAC
Формат/Информация                        : Free Lossless Audio Codec
Размер файла                             : 53,2 Мбайт
Продолжительность                        : 2 м. 38 с.
Режим общего битрейта                    : Переменный
Общий поток                              : 2826 Кбит/сек
Альбом                                   : Поет Рафаэль
Альбом/Исполнитель                       : Рафаэль
Трек                                     : Я - тот самый (Yo Soy Aquel)
Трек/Положение                           : 1
Трек/Всего                               : 12
Исполнитель                              : Рафаэль
Продюсер                                 : Мелодия, Испавокс (Испания)
Кодирование произвёл                     : 24bit / 96kHz
Жанр                                     : Latin-Pop
Дата записи                              : 1974
LABELNO                                  : 33 C 04603-4
Аудио
Формат                                   : FLAC
Формат/Информация                        : Free Lossless Audio Codec
Продолжительность                        : 2 м. 38 с.
Вид битрейта                             : Переменный
Битрейт                                  : 2826 Кбит/сек
Каналы                                   : 2 канала
Частота                                  : 96,0 КГц
Битовая глубина                          : 24 бит
Размер потока                            : 53,2 Мбайт (100%)
Библиотека кодирования                   : libFLAC 1.2.1 (UTC 2007-09-17)
Общее
Полное имя                               : C:\Raphael (1974)[Vinyl-Rip,24-96]\02 - Песня Труда (La Canciуn Del Trabajo).flac
Формат                                   : FLAC
Формат/Информация                        : Free Lossless Audio Codec
Размер файла                             : 45,4 Мбайт
Продолжительность                        : 2 м. 12 с.
Режим общего битрейта                    : Переменный
Общий поток                              : 2867 Кбит/сек
Альбом                                   : Поет Рафаэль
Альбом/Исполнитель                       : Рафаэль
Трек                                     : Песня Труда (La Canciуn Del Trabajo)
Трек/Положение                           : 2
Трек/Всего                               : 12
Исполнитель                              : Рафаэль
Продюсер                                 : Мелодия, Испавокс (Испания)
Кодирование произвёл                     : 24bit / 96kHz
Жанр                                     : Latin-Pop
Дата записи                              : 1974
LABELNO                                  : 33 C 04603-4
Аудио
Формат                                   : FLAC
Формат/Информация                        : Free Lossless Audio Codec
Продолжительность                        : 2 м. 12 с.
Вид битрейта                             : Переменный
Битрейт                                  : 2866 Кбит/сек
Каналы                                   : 2 канала
Частота                                  : 96,0 КГц
Битовая глубина                          : 24 бит
Размер потока                            : 45,4 Мбайт (100%)
Библиотека кодирования                   : libFLAC 1.2.1 (UTC 2007-09-17)
Общее
Полное имя                               : C:\Raphael (1974)[Vinyl-Rip,24-96]\03 - Моя Жизнь (Ma Vie).flac
Формат                                   : FLAC
Формат/Информация                        : Free Lossless Audio Codec
Размер файла                             : 70,8 Мбайт
Продолжительность                        : 3 м. 32 с.
Режим общего битрейта                    : Переменный
Общий поток                              : 2799 Кбит/сек
Альбом                                   : Поет Рафаэль
Альбом/Исполнитель                       : Рафаэль
Трек                                     : Моя Жизнь (Ma Vie)
Трек/Положение                           : 3
Трек/Всего                               : 12
Исполнитель                              : Рафаэль
Продюсер                                 : Мелодия, Испавокс (Испания)
Кодирование произвёл                     : 24bit / 96kHz
Жанр                                     : Latin-Pop
Дата записи                              : 1974
LABELNO                                  : 33 C 04603-4
Аудио
Формат                                   : FLAC
Формат/Информация                        : Free Lossless Audio Codec
Продолжительность                        : 3 м. 32 с.
Вид битрейта                             : Переменный
Битрейт                                  : 2799 Кбит/сек
Каналы                                   : 2 канала
Частота                                  : 96,0 КГц
Битовая глубина                          : 24 бит
Размер потока                            : 70,8 Мбайт (100%)
Библиотека кодирования                   : libFLAC 1.2.1 (UTC 2007-09-17)
Общее
Полное имя                               : C:\Raphael (1974)[Vinyl-Rip,24-96]\04 - Casi, Casi.flac
Формат                                   : FLAC
Формат/Информация                        : Free Lossless Audio Codec
Размер файла                             : 44,0 Мбайт
Продолжительность                        : 2 м. 6 с.
Режим общего битрейта                    : Переменный
Общий поток                              : 2911 Кбит/сек
Альбом                                   : Поет Рафаэль
Альбом/Исполнитель                       : Рафаэль
Трек                                     : Casi, Casi
Трек/Положение                           : 4
Трек/Всего                               : 12
Исполнитель                              : Рафаэль
Продюсер                                 : Мелодия, Испавокс (Испания)
Кодирование произвёл                     : 24bit / 96kHz
Жанр                                     : Latin-Pop
Дата записи                              : 1974
LABELNO                                  : 33 C 04603-4
Аудио
Формат                                   : FLAC
Формат/Информация                        : Free Lossless Audio Codec
Продолжительность                        : 2 м. 6 с.
Вид битрейта                             : Переменный
Битрейт                                  : 2910 Кбит/сек
Каналы                                   : 2 канала
Частота                                  : 96,0 КГц
Битовая глубина                          : 24 бит
Размер потока                            : 44,0 Мбайт (100%)
Библиотека кодирования                   : libFLAC 1.2.1 (UTC 2007-09-17)
Общее
Полное имя                               : C:\Raphael (1974)[Vinyl-Rip,24-96]\05 - Когда Тебя Нет (Cuando Tu No Estas).flac
Формат                                   : FLAC
Формат/Информация                        : Free Lossless Audio Codec
Размер файла                             : 70,2 Мбайт
Продолжительность                        : 3 м. 37 с.
Режим общего битрейта                    : Переменный
Общий поток                              : 2705 Кбит/сек
Альбом                                   : Поет Рафаэль
Альбом/Исполнитель                       : Рафаэль
Трек                                     : Когда Тебя Нет (Cuando Tu No Estas)
Трек/Положение                           : 5
Трек/Всего                               : 12
Исполнитель                              : Рафаэль
Продюсер                                 : Мелодия, Испавокс (Испания)
Кодирование произвёл                     : 24bit / 96kHz
Жанр                                     : Latin-Pop
Дата записи                              : 1974
LABELNO                                  : 33 C 04603-4
Аудио
Формат                                   : FLAC
Формат/Информация                        : Free Lossless Audio Codec
Продолжительность                        : 3 м. 37 с.
Вид битрейта                             : Переменный
Битрейт                                  : 2705 Кбит/сек
Каналы                                   : 2 канала
Частота                                  : 96,0 КГц
Битовая глубина                          : 24 бит
Размер потока                            : 70,2 Мбайт (100%)
Библиотека кодирования                   : libFLAC 1.2.1 (UTC 2007-09-17)
Общее
Полное имя                               : C:\Raphael (1974)[Vinyl-Rip,24-96]\06 - Я Был Влюблен (Estuve Enamorado).flac
Формат                                   : FLAC
Формат/Информация                        : Free Lossless Audio Codec
Размер файла                             : 45,6 Мбайт
Продолжительность                        : 2 м. 19 с.
Режим общего битрейта                    : Переменный
Общий поток                              : 2735 Кбит/сек
Альбом                                   : Поет Рафаэль
Альбом/Исполнитель                       : Рафаэль
Трек                                     : Я Был Влюблен (Estuve Enamorado)
Трек/Положение                           : 6
Трек/Всего                               : 12
Исполнитель                              : Рафаэль
Продюсер                                 : Мелодия, Испавокс (Испания)
Кодирование произвёл                     : 24bit / 96kHz
Жанр                                     : Latin-Pop
Дата записи                              : 1974
LABELNO                                  : 33 C 04603-4
Аудио
Формат                                   : FLAC
Формат/Информация                        : Free Lossless Audio Codec
Продолжительность                        : 2 м. 19 с.
Вид битрейта                             : Переменный
Битрейт                                  : 2735 Кбит/сек
Каналы                                   : 2 канала
Частота                                  : 96,0 КГц
Битовая глубина                          : 24 бит
Размер потока                            : 45,6 Мбайт (100%)
Библиотека кодирования                   : libFLAC 1.2.1 (UTC 2007-09-17)
Общее
Полное имя                               : C:\Raphael (1974)[Vinyl-Rip,24-96]\07 - Поговорим О Любви (Hablemos Del Amor).flac
Формат                                   : FLAC
Формат/Информация                        : Free Lossless Audio Codec
Размер файла                             : 56,2 Мбайт
Продолжительность                        : 2 м. 51 с.
Режим общего битрейта                    : Переменный
Общий поток                              : 2753 Кбит/сек
Альбом                                   : Поет Рафаэль
Альбом/Исполнитель                       : Рафаэль
Трек                                     : Поговорим О Любви (Hablemos Del Amor)
Трек/Положение                           : 7
Трек/Всего                               : 12
Исполнитель                              : Рафаэль
Продюсер                                 : Мелодия, Испавокс (Испания)
Кодирование произвёл                     : 24bit / 96kHz
Жанр                                     : Latin-Pop
Дата записи                              : 1974
LABELNO                                  : 33 C 04603-4
Аудио
Формат                                   : FLAC
Формат/Информация                        : Free Lossless Audio Codec
Продолжительность                        : 2 м. 51 с.
Вид битрейта                             : Переменный
Битрейт                                  : 2753 Кбит/сек
Каналы                                   : 2 канала
Частота                                  : 96,0 КГц
Битовая глубина                          : 24 бит
Размер потока                            : 56,2 Мбайт (100%)
Библиотека кодирования                   : libFLAC 1.2.1 (UTC 2007-09-17)
Общее
Полное имя                               : C:\Raphael (1974)[Vinyl-Rip,24-96]\08 - Закат Солнца (Al Ponerse El Sol).flac
Формат                                   : FLAC
Формат/Информация                        : Free Lossless Audio Codec
Размер файла                             : 52,7 Мбайт
Продолжительность                        : 2 м. 40 с.
Режим общего битрейта                    : Переменный
Общий поток                              : 2761 Кбит/сек
Альбом                                   : Поет Рафаэль
Альбом/Исполнитель                       : Рафаэль
Трек                                     : Закат Солнца (Al Ponerse El Sol)
Трек/Положение                           : 8
Трек/Всего                               : 12
Исполнитель                              : Рафаэль
Продюсер                                 : Мелодия, Испавокс (Испания)
Кодирование произвёл                     : 24bit / 96kHz
Жанр                                     : Latin-Pop
Дата записи                              : 1974
LABELNO                                  : 33 C 04603-4
Аудио
Формат                                   : FLAC
Формат/Информация                        : Free Lossless Audio Codec
Продолжительность                        : 2 м. 40 с.
Вид битрейта                             : Переменный
Битрейт                                  : 2761 Кбит/сек
Каналы                                   : 2 канала
Частота                                  : 96,0 КГц
Битовая глубина                          : 24 бит
Размер потока                            : 52,7 Мбайт (100%)
Библиотека кодирования                   : libFLAC 1.2.1 (UTC 2007-09-17)
Общее
Полное имя                               : C:\Raphael (1974)[Vinyl-Rip,24-96]\09 - Все Девушки Мне Нравятся (Todas Las Chicas Me Gustan).flac
Формат                                   : FLAC
Формат/Информация                        : Free Lossless Audio Codec
Размер файла                             : 42,0 Мбайт
Продолжительность                        : 2 м. 1 с.
Режим общего битрейта                    : Переменный
Общий поток                              : 2891 Кбит/сек
Альбом                                   : Поет Рафаэль
Альбом/Исполнитель                       : Рафаэль
Трек                                     : Все Девушки Мне Нравятся (Todas Las Chicas Me Gustan)
Трек/Положение                           : 9
Трек/Всего                               : 12
Исполнитель                              : Рафаэль
Продюсер                                 : Мелодия, Испавокс (Испания)
Кодирование произвёл                     : 24bit / 96kHz
Жанр                                     : Latin-Pop
Дата записи                              : 1974
LABELNO                                  : 33 C 04603-4
Аудио
Формат                                   : FLAC
Формат/Информация                        : Free Lossless Audio Codec
Продолжительность                        : 2 м. 1 с.
Вид битрейта                             : Переменный
Битрейт                                  : 2890 Кбит/сек
Каналы                                   : 2 канала
Частота                                  : 96,0 КГц
Битовая глубина                          : 24 бит
Размер потока                            : 41,9 Мбайт (100%)
Библиотека кодирования                   : libFLAC 1.2.1 (UTC 2007-09-17)
Общее
Полное имя                               : C:\Raphael (1974)[Vinyl-Rip,24-96]\10 - Ночь (La Noche).flac
Формат                                   : FLAC
Формат/Информация                        : Free Lossless Audio Codec
Размер файла                             : 65,8 Мбайт
Продолжительность                        : 3 м. 13 с.
Режим общего битрейта                    : Переменный
Общий поток                              : 2852 Кбит/сек
Альбом                                   : Поет Рафаэль
Альбом/Исполнитель                       : Рафаэль
Трек                                     : Ночь (La Noche)
Трек/Положение                           : 10
Трек/Всего                               : 12
Исполнитель                              : Рафаэль
Продюсер                                 : Мелодия, Испавокс (Испания)
Кодирование произвёл                     : 24bit / 96kHz
Жанр                                     : Latin-Pop
Дата записи                              : 1974
LABELNO                                  : 33 C 04603-4
Аудио
Формат                                   : FLAC
Формат/Информация                        : Free Lossless Audio Codec
Продолжительность                        : 3 м. 13 с.
Вид битрейта                             : Переменный
Битрейт                                  : 2851 Кбит/сек
Каналы                                   : 2 канала
Частота                                  : 96,0 КГц
Битовая глубина                          : 24 бит
Размер потока                            : 65,8 Мбайт (100%)
Библиотека кодирования                   : libFLAC 1.2.1 (UTC 2007-09-17)
Общее
Полное имя                               : C:\Raphael (1974)[Vinyl-Rip,24-96]\11 - Мужчины Тоже Плачут (Los Hombres Iloran Tambiyn).flac
Формат                                   : FLAC
Формат/Информация                        : Free Lossless Audio Codec
Размер файла                             : 45,7 Мбайт
Продолжительность                        : 2 м. 17 с.
Режим общего битрейта                    : Переменный
Общий поток                              : 2780 Кбит/сек
Альбом                                   : Поет Рафаэль
Альбом/Исполнитель                       : Рафаэль
Трек                                     : Мужчины Тоже Плачут (Los Hombres Iloran Tambiyn)
Трек/Положение                           : 11
Трек/Всего                               : 12
Исполнитель                              : Рафаэль
Продюсер                                 : Мелодия, Испавокс (Испания)
Кодирование произвёл                     : 24bit / 96kHz
Жанр                                     : Latin-Pop
Дата записи                              : 1974
LABELNO                                  : 33 C 04603-4
Аудио
Формат                                   : FLAC
Формат/Информация                        : Free Lossless Audio Codec
Продолжительность                        : 2 м. 17 с.
Вид битрейта                             : Переменный
Битрейт                                  : 2780 Кбит/сек
Каналы                                   : 2 канала
Частота                                  : 96,0 КГц
Битовая глубина                          : 24 бит
Размер потока                            : 45,7 Мбайт (100%)
Библиотека кодирования                   : libFLAC 1.2.1 (UTC 2007-09-17)
Общее
Полное имя                               : C:\Raphael (1974)[Vinyl-Rip,24-96]\12 - Песня Барабанщика (La Canciуn Del Tamborilero).flac
Формат                                   : FLAC
Формат/Информация                        : Free Lossless Audio Codec
Размер файла                             : 57,6 Мбайт
Продолжительность                        : 3 м. 3 с.
Режим общего битрейта                    : Переменный
Общий поток                              : 2629 Кбит/сек
Альбом                                   : Поет Рафаэль
Альбом/Исполнитель                       : Рафаэль
Трек                                     : Песня Барабанщика (La Canciуn Del Tamborilero)
Трек/Положение                           : 12
Трек/Всего                               : 12
Исполнитель                              : Рафаэль
Продюсер                                 : Мелодия, Испавокс (Испания)
Кодирование произвёл                     : 24bit / 96kHz
Жанр                                     : Latin-Pop
Дата записи                              : 1974
LABELNO                                  : 33 C 04603-4
Аудио
Формат                                   : FLAC
Формат/Информация                        : Free Lossless Audio Codec
Продолжительность                        : 3 м. 3 с.
Вид битрейта                             : Переменный
Битрейт                                  : 2629 Кбит/сек
Каналы                                   : 2 канала
Частота                                  : 96,0 КГц
Битовая глубина                          : 24 бит
Размер потока                            : 57,6 Мбайт (100%)
Библиотека кодирования                   : libFLAC 1.2.1 (UTC 2007-09-17)

Спектр, Уровень, АЧХ:

 

Dynamic Range Meter:

Код:
foobar2000 1.2.2 / Dynamic Range Meter 1.1.1
log date: 2013-08-03 19:43:17
--------------------------------------------------------------------------------
Analyzed: Рафаэль / Поет Рафаэль
--------------------------------------------------------------------------------
DR         Peak         RMS     Duration Track
--------------------------------------------------------------------------------
DR11      -0.09 dB   -15.18 dB      2:38 01-Я - тот самый (Yo Soy Aquel)
DR12       0.00 dB   -13.94 dB      2:13 02-Песня Труда (La Canciуn Del Trabajo)
DR10      -1.72 dB   -14.85 dB      3:32 03-Моя Жизнь (Ma Vie)
DR11      -0.12 dB   -14.53 dB      2:07 04-Casi, Casi
DR10      -1.82 dB   -15.39 dB      3:38 05-Когда Тебя Нет (Cuando Tu No Estas)
DR11      -0.66 dB   -17.02 dB      2:20 06-Я Был Влюблен (Estuve Enamorado)
DR11      -1.86 dB   -17.85 dB      2:51 07-Поговорим О Любви (Hablemos Del Amor)
DR10      -3.59 dB   -16.82 dB      2:40 08-Закат Солнца (Al Ponerse El Sol)
DR11       0.00 dB   -14.39 dB      2:02 09-Все Девушки Мне Нравятся (Todas Las Chicas Me Gustan)
DR10      -1.72 dB   -15.26 dB      3:14 10-Ночь (La Noche)
DR10      -2.05 dB   -15.67 dB      2:18 11-Мужчины Тоже Плачут (Los Hombres Iloran Tambiyn)
DR11      -2.35 dB   -16.94 dB      3:04 12-Песня Барабанщика (La Canciуn Del Tamborilero)
--------------------------------------------------------------------------------
Number of tracks:  12
Official DR value: DR11
Samplerate:        96000 Hz
Channels:          2
Bits per sample:   24
Bitrate:           2629 kbps
Codec:             FLAC
================================================================================

Сover:

       

youtube

Время раздачи: 24/7 (круглосуточно) - до первых десяти сидов
 

Текущее время: Сегодня 23:11

Часовой пояс: GMT + 3