Сегодня идет свободное скачивание без начисления Download

Результатов поиска: 6

Автор Сообщение

uschakov.yura

Пост 03-Сен-2014 14:05

[Цитировать]

SPopov33 писал(а):
[qpost=undefined]Михаил Боярский - The best of (Созвездие хитов) (2004) [APE|Lossless]
в раздаче

SPopov33

Пост 01-Сен-2014 18:59

[Цитировать]

UndegraundMen, Пожалуйста раздайте!

UndegraundMen

Пост 24-Май-2013 00:03

[Цитировать]

Михаил Боярский - The best of (Созвездие хитов) (2004)- Год: 2004
Жанр: Retro|Pop
Страна-производитель диска: Россия
Издатель (лейбл): Мегалайнер
Номер по каталогу: MLSZ-0405
Продолжительность: 01:05:53
Аудиокодек: APE (*.ape)
Тип рипа: image+.cue
Битрейт: Lossless
Наличие сканов в содержимом раздачи: да
Трек лист:
01. Городские цветы (М.Дунаевский - Л.Дербенёв)
02. Листья жгут (М.Дунаевский - Л.Дербенёв)
03. Зеленоглазое такси (О.Кваша - В.Панфилов)
04. Дрессировщик (Ю.Маликов, В.Пресняков - И.Шаферан)
05. Песня мушкетёров (М.Дунаевский - Ю.Ряшенцев, И.Розовский)
06. Ланфрен-Ланфра (В.Лебедев - Ю.Ряшенцев)
07. Всё пройдёт (М.Дунаевский - Л.Дербенёв)
08. Спасибо, родная (В.Резников - В.Резников, А.Римицан)
09. Остров детства (О.Фельцман - М.Рябинин)
10. Посадите дерево (О.Фельцман - С.Осиашвили)
11. Друг (Ю.Мальцев)
12. Сяду в скорый поезд (Б.Емельянов - Л.Дербенёв)
13. Дворик (В.Резников)
14. Динозаврики (В.Резников - А.Римицан)
15. Поверь в себя (О.Фельцман - Н.Шеметникова)
16. Дорога к дому (Ю.Чернавский - Г.Кантер)
17. В Кейптаунском порту (народная)

Отчёт ЕАС:

Код:
Exact Audio Copy V1.0 beta 3 from 29. August 2011
Отчёт EAC об извлечении, выполненном 27. октября 2012, 21:25
Михаил Боярский / Созвездие хитов. Выпуск #2. The best of Михаил Боярский
Дисковод: HL-DT-STDVD-RAM GH22NP20   Adapter: 0  ID: 0
Режим чтения                 : Достоверность
Использование точного потока : Да
Отключение кэша аудио        : Да
Использование указателей C2  : Нет
Коррекция смещения при чтении                     : 102
Способность читать области Lead-in и Lead-out     : Нет
Заполнение пропущенных сэмплов тишиной            : Да
Удаление блоков с тишиной в начале и конце        : Нет
При вычислениях CRC использовались нулевые сэмплы : Да
Интерфейс                                         : Встроенный Win32-интерфейс для Win NT/2000
Выходной формат : Внутренние WAV-операции
Формат сэмплов  : 44.100 Гц; 16 бит; стерео
TOC извлечённого CD
     Трек |   Старт  | Длительность | Начальный сектор | Конечный сектор
    ---------------------------------------------------------------------
       1  |  0:00.00 |    4:03.15   |           0      |      18239
       2  |  4:03.15 |    3:29.08   |       18240      |      33922
       3  |  7:32.23 |    5:21.41   |       33923      |      58038
       4  | 12:53.64 |    3:53.20   |       58039      |      75533
       5  | 16:47.09 |    3:08.46   |       75534      |      89679
       6  | 19:55.55 |    2:20.74   |       89680      |     100253
       7  | 22:16.54 |    3:33.74   |      100254      |     116302
       8  | 25:50.53 |    5:58.10   |      116303      |     143162
       9  | 31:48.63 |    3:49.50   |      143163      |     160387
      10  | 35:38.38 |    4:01.64   |      160388      |     178526
      11  | 39:40.27 |    3:26.72   |      178527      |     194048
      12  | 43:07.24 |    2:37.04   |      194049      |     205827
      13  | 45:44.28 |    4:05.60   |      205828      |     224262
      14  | 49:50.13 |    4:01.05   |      224263      |     242342
      15  | 53:51.18 |    3:04.00   |      242343      |     256142
      16  | 56:55.18 |    4:30.52   |      256143      |     276444
      17  | 61:25.70 |    4:27.37   |      276445      |     296506
Характеристики диапазона извлечения и сообщения об ошибках
Выбранный диапазон
     Имя файла C:\РАЗНОЕ\Audio\М.Боярский. Созвездие хитов\Михаил Боярский - Созвездие хитов. Выпуск #2. The best of Михаил Боярский.wav
     Пиковый уровень 94.3 %
     Скорость извлечения 2.8 X
     Качество диапазона 99.9 %
     CRC теста 80880A72
     CRC копии 80880A72
     Копирование... OK
Ошибок не произошло
Конец отчёта
==== Контрольная сумма отчёта 2B3834DC36CE1BA75B23B18DF1CE862802B15F3ECF355D697B3BF8A71A4516B8 ====

Отчёт auCDtect Task manager:

Код:
-----------------------
DON'T MODIFY THIS FILE
-----------------------
PERFORMER: auCDtect Task Manager, ver. 1.5.1RC6 build 1.5.1.7
Copyright (c) 2008-2010 y-soft. All rights reserved
http://y-soft.org
ANALYZER: auCDtect: CD records authenticity detector, version 0.8.2
Copyright (c) 2004 Oleg Berngardt. All rights reserved.
Copyright (c) 2004 Alexander Djourik. All rights reserved.
FILE: Михаил Боярский - Созвездие хитов. Выпуск #2. The best of Михаил Боярский.ape
  Size: 440610540 Hash: B73BA4623B9C41C40A2C4F01936DF356 Accuracy: -m0
  Conclusion: CDDA 100%
  Signature: D899799D077B9C2927F5E56A613E13A591D4DC34

SPopov33

Пост 07-Авг-2014 07:23

[Цитировать]

p2000s, Помогите скачать!

p2000s

Пост 10-Май-2013 07:59

[Цитировать]

VA - С Днем Победы, дорогие ветераны! (2013)- Год: 2013
Жанр: Ретро, Инструментал, Марш
Продолжительность: 05:19:29
Кодек: FLAC
Битрейт: Lossless
Тип рипа: (image+.cue)

CD1

Продолжительность: 01:19:53
Трек лист:
01. Анс. песни и пляски им. Александрова — Если завтра война
02. В.Власов — Любимая моя
03. М.Леонидов — Соловьи
04. 7Б — Неизвестный солдат
05. Antonio J.Asiain — Lacricum
06. Валерия — С чего начинается Родина
07. Г.Виноградов — Катюша
08. А.Розенбаум — Перья алые бинтов
09. Любэ — Позови меня тихо по имени
10. G.E.N.E. — Blooming Kiss (edit)
11. И.Кобзон — Мгновения
12. Анс. песни и пляски КСФ — Североморский вальс
13. А.Усманов & В.Селиванов — Березы
14. М.Леонидов — Землянка
15. Любэ — Комбат
16. М.Бернес — Враги сожгли родную хату
17. Южный ветер — Время выбрало нас
18. F.Sherry — Song From Before
19. О.Газманов — Офицеры
20. А.Розембаум — Пухом небо тебе
21. М.Таривердиев — Вокзал прощания
22. Д.Перцев — Строевой марш

Отчёт ЕАС:

Код:
Exact Audio Copy V0.99 prebeta 5 from 4. May 2009
Отчёт EAC об извлечении, выполненном 6. мая 2013, 9:26
Сборник / С Днем Победы, дорогие ветераны! (CD 1)
Дисковод: AXV     CD/DVD-ROM   Adapter: 1  ID: 0
Режим чтения                 : Достоверность
Использование точного потока : Да
Отключение кэша аудио        : Да
Использование указателей C2  : Нет
Комбинированное смещение чтения/записи            : 0
Способность читать области Lead-in и Lead-out     : Нет
Заполнение пропущенных сэмплов тишиной            : Да
Удаление блоков с тишиной в начале и конце        : Нет
При вычислениях CRC использовались нулевые сэмплы : Нет
Интерфейс                                         : Встроенный Win32-интерфейс для Win NT/2000
Выходной формат          : Пользовательский кодировщик
Выбранный битрейт        : 768 kBit/s
Качество                 : Высокий
Добавление ID3-тэга      : Нет
Утилита сжатия           : C:\Program Files\Exact Audio Copy\FLAC\FLAC.EXE
Дополнительные параметры : -6 -V -T "ARTIST=%a" -T "TITLE=%t" -T "ALBUM=%g" -T "DATE=%y" -T "TRACKNUMBER=%n" -T "GENRE=%m" -T "COMMENT=%e" %s -o %d
TOC извлечённого CD
     Трек |   Старт  | Длительность | Начальный сектор | Конечный сектор
    ---------------------------------------------------------------------
       1  |  0:00.00 |    3:45.09   |           0      |      16883
       2  |  3:45.09 |    2:39.09   |       16884      |      28817
       3  |  6:24.18 |    3:23.60   |       28818      |      44102
       4  |  9:48.03 |    4:43.66   |       44103      |      65393
       5  | 14:31.69 |    4:48.41   |       65394      |      87034
       6  | 19:20.35 |    2:34.39   |       87035      |      98623
       7  | 21:54.74 |    2:17.70   |       98624      |     108968
       8  | 24:12.69 |    3:11.49   |      108969      |     123342
       9  | 27:24.43 |    2:39.73   |      123343      |     135340
      10  | 30:04.41 |    5:16.55   |      135341      |     159095
      11  | 35:21.21 |    2:54.46   |      159096      |     172191
      12  | 38:15.67 |    3:39.35   |      172192      |     188651
      13  | 41:55.27 |    3:59.55   |      188652      |     206631
      14  | 45:55.07 |    1:58.17   |      206632      |     215498
      15  | 47:53.24 |    5:03.47   |      215499      |     238270
      16  | 52:56.71 |    3:34.27   |      238271      |     254347
      17  | 56:31.23 |    3:02.44   |      254348      |     268041
      18  | 59:33.67 |    4:02.30   |      268042      |     286221
      19  | 63:36.22 |    5:15.12   |      286222      |     309858
      20  | 68:51.34 |    4:03.29   |      309859      |     328112
      21  | 72:54.63 |    3:32.05   |      328113      |     344017
      22  | 76:26.68 |    3:26.54   |      344018      |     359521
Характеристики диапазона извлечения и сообщения об ошибках
Выбранный диапазон
     Имя файла C:\Сборник - С Днем Победы, дорогие ветераны! (CD 1).wav
     Пиковый уровень 100.0 %
     Качество диапазона 100.0 %
     CRC копии 72ED1FBF
     Копирование... OK
Ошибок не произошло
Конец отчёта

Отчёт auCDtect Task manager:

Код:
-----------------------
DON'T MODIFY THIS FILE
-----------------------
PERFORMER: auCDtect Task Manager, ver. 1.5.1RC4 build 1.5.1.5
Copyright (c) 2008-2010 y-soft. All rights reserved
http://y-soft.org
ANALYZER: auCDtect: CD records authenticity detector, version 0.8.2
Copyright (c) 2004 Oleg Berngardt. All rights reserved.
Copyright (c) 2004 Alexander Djourik. All rights reserved.
FILE: Сборник - С Днем Победы, дорогие ветераны! (CD 1).flac
  Size: 489663772 Hash: 720A2211D4D85516A256C59DD82668F7 Accuracy: -m0
  Conclusion: CDDA 100%
  Signature: 48240232C2D40C32E11BB6DAD89CDCB153AAB0CB

содержание индексной карты

Код:
REM GENRE "Military song, Instrumental, Marches"
REM DATE 2013
REM DISCID 5D12B916
REM COMMENT "ExactAudioCopy v0.99pb5"
PERFORMER "Сборник"
TITLE "С Днем Победы, дорогие ветераны! (CD 1)"
FILE "Сборник - С Днем Победы, дорогие ветераны! (CD 1).flac" WAVE
  TRACK 01 AUDIO
    TITLE "Если завтра война"
    PERFORMER "Анс. песни и пляски им. Александрова"
    FLAGS DCP
    INDEX 01 00:00:00
  TRACK 02 AUDIO
    TITLE "Любимая моя"
    PERFORMER "В.Власов"
    FLAGS DCP
    INDEX 01 03:45:09
  TRACK 03 AUDIO
    TITLE "Соловьи"
    PERFORMER "М.Леонидов"
    FLAGS DCP
    INDEX 01 06:24:18
  TRACK 04 AUDIO
    TITLE "Неизвестный солдат"
    PERFORMER "7Б"
    FLAGS DCP
    INDEX 01 09:48:03
  TRACK 05 AUDIO
    TITLE "Lacricum"
    PERFORMER "Antonio J.Asiain"
    FLAGS DCP
    INDEX 01 14:31:69
  TRACK 06 AUDIO
    TITLE "С чего начинается Родина"
    PERFORMER "Валерия"
    FLAGS DCP
    INDEX 01 19:20:35
  TRACK 07 AUDIO
    TITLE "Катюша"
    PERFORMER "Г.Виноградов"
    FLAGS DCP
    INDEX 01 21:54:74
  TRACK 08 AUDIO
    TITLE "Перья алые бинтов"
    PERFORMER "А.Розенбаум"
    FLAGS DCP
    INDEX 01 24:12:69
  TRACK 09 AUDIO
    TITLE "Позови меня тихо по имени"
    PERFORMER "Любэ"
    FLAGS DCP
    INDEX 01 27:24:43
  TRACK 10 AUDIO
    TITLE "Blooming Kiss (edit)"
    PERFORMER "G.E.N.E."
    FLAGS DCP
    INDEX 01 30:04:41
  TRACK 11 AUDIO
    TITLE "Мгновения"
    PERFORMER "И.Кобзон"
    FLAGS DCP
    INDEX 01 35:21:21
  TRACK 12 AUDIO
    TITLE "Североморский вальс"
    PERFORMER "Анс. песни и пляски КСФ"
    FLAGS DCP
    INDEX 01 38:15:67
  TRACK 13 AUDIO
    TITLE "Березы"
    PERFORMER "А.Усманов & В.Селиванов"
    FLAGS DCP
    INDEX 01 41:55:27
  TRACK 14 AUDIO
    TITLE "Землянка"
    PERFORMER "М.Леонидов"
    FLAGS DCP
    INDEX 01 45:55:07
  TRACK 15 AUDIO
    TITLE "Комбат"
    PERFORMER "Любэ"
    FLAGS DCP
    INDEX 01 47:53:24
  TRACK 16 AUDIO
    TITLE "Враги сожгли родную хату"
    PERFORMER "М.Бернес"
    FLAGS DCP
    INDEX 01 52:56:71
  TRACK 17 AUDIO
    TITLE "Время выбрало нас"
    PERFORMER "Южный ветер"
    FLAGS DCP
    INDEX 01 56:31:23
  TRACK 18 AUDIO
    TITLE "Song From Before"
    PERFORMER "F.Sherry"
    FLAGS DCP
    INDEX 01 59:33:67
  TRACK 19 AUDIO
    TITLE "Офицеры"
    PERFORMER "О.Газманов"
    FLAGS DCP
    INDEX 01 63:36:22
  TRACK 20 AUDIO
    TITLE "Пухом небо тебе"
    PERFORMER "А.Розембаум"
    FLAGS DCP
    INDEX 01 68:51:34
  TRACK 21 AUDIO
    TITLE "Вокзал прощания"
    PERFORMER "М.Таривердиев"
    FLAGS DCP
    INDEX 01 72:54:63
  TRACK 22 AUDIO
    TITLE "Строевой марш"
    PERFORMER "Д.Перцев"
    FLAGS DCP
    INDEX 01 76:26:68

Спектр частот

 

CD2

Продолжительность: 01:19:43
Трек лист:
01. Анс. песни и пляски им. Александрова — Священная война
02. М.Бернес — Тучи над городом встали
03. А.Варум — До свидания, мальчики
04. Ayaka Hirahara — Instrumental Theme
05. Любэ — Давай за...
06. В.Высоцкий — Он не вернулся из боя
07. М.Леонидов — Махнем не глядя
08. Bernward Koch — Bahia Dawn
09. В.Королев — Мама, помолись за меня
10. Л.Лещенко — Не могу забыть
11. Г.Виноградов — В лесу прифронтовом
12. Н.Портелли — Темная ночь
13. ДДТ — Просвистела
14. Г.Абрамов — Шумел сурово брянский лес
15. А.Розенбаум — Мы вернемся
16. Russia Accordion Music — Oh, Mother!
17. В.Пучков — На солнечной поляночке
18. В.Высоцкий — Разведка боем
19. Б.Мокроусов — Погоня
20. Белый орел — А когда я вернусь домой
21. М.Леонидов — Туман
22. Н.Тимченко — Землянка
23. М.Таривердиев — Побег
24. ОМВД РФ — Марш Гренадер

Отчёт ЕАС:

Код:
Exact Audio Copy V0.99 prebeta 5 from 4. May 2009
Отчёт EAC об извлечении, выполненном 6. мая 2013, 11:38
Сборник / С Днем Победы, дорогие ветераны! (CD 2)
Дисковод: AXV     CD/DVD-ROM   Adapter: 1  ID: 0
Режим чтения                 : Достоверность
Использование точного потока : Да
Отключение кэша аудио        : Да
Использование указателей C2  : Нет
Комбинированное смещение чтения/записи            : 0
Способность читать области Lead-in и Lead-out     : Нет
Заполнение пропущенных сэмплов тишиной            : Да
Удаление блоков с тишиной в начале и конце        : Нет
При вычислениях CRC использовались нулевые сэмплы : Нет
Интерфейс                                         : Встроенный Win32-интерфейс для Win NT/2000
Выходной формат          : Пользовательский кодировщик
Выбранный битрейт        : 768 kBit/s
Качество                 : Высокий
Добавление ID3-тэга      : Нет
Утилита сжатия           : C:\Program Files\Exact Audio Copy\FLAC\FLAC.EXE
Дополнительные параметры : -6 -V -T "ARTIST=%a" -T "TITLE=%t" -T "ALBUM=%g" -T "DATE=%y" -T "TRACKNUMBER=%n" -T "GENRE=%m" -T "COMMENT=%e" %s -o %d
TOC извлечённого CD
     Трек |   Старт  | Длительность | Начальный сектор | Конечный сектор
    ---------------------------------------------------------------------
       1  |  0:00.00 |    2:57.21   |           0      |      13295
       2  |  2:57.21 |    2:00.60   |       13296      |      22355
       3  |  4:58.06 |    3:13.53   |       22356      |      36883
       4  |  8:11.59 |    4:45.37   |       36884      |      58295
       5  | 12:57.21 |    4:08.61   |       58296      |      76956
       6  | 17:06.07 |    2:18.34   |       76957      |      87340
       7  | 19:24.41 |    2:32.61   |       87341      |      98801
       8  | 21:57.27 |    3:54.26   |       98802      |     116377
       9  | 25:51.53 |    4:07.70   |      116378      |     134972
      10  | 29:59.48 |    3:49.30   |      134973      |     152177
      11  | 33:49.03 |    3:17.19   |      152178      |     166971
      12  | 37:06.22 |    3:16.26   |      166972      |     181697
      13  | 40:22.48 |    3:39.68   |      181698      |     198190
      14  | 44:02.41 |    3:13.68   |      198191      |     212733
      15  | 47:16.34 |    3:04.23   |      212734      |     226556
      16  | 50:20.57 |    3:03.37   |      226557      |     240318
      17  | 53:24.19 |    3:42.52   |      240319      |     257020
      18  | 57:06.71 |    2:21.58   |      257021      |     267653
      19  | 59:28.54 |    3:08.73   |      267654      |     281826
      20  | 62:37.52 |    4:04.20   |      281827      |     300146
      21  | 66:41.72 |    2:50.21   |      300147      |     312917
      22  | 69:32.18 |    3:02.38   |      312918      |     326605
      23  | 72:34.56 |    4:43.37   |      326606      |     347867
      24  | 77:18.18 |    2:25.14   |      347868      |     358756
Характеристики диапазона извлечения и сообщения об ошибках
Выбранный диапазон
     Имя файла C:\Сборник - С Днем Победы, дорогие ветераны! (CD 2).wav
     Пиковый уровень 100.0 %
     Качество диапазона 100.0 %
     CRC копии C5A0890E
     Копирование... OK
Ошибок не произошло
Конец отчёта

Отчёт auCDtect Task manager:

Код:
-----------------------
DON'T MODIFY THIS FILE
-----------------------
PERFORMER: auCDtect Task Manager, ver. 1.5.1RC4 build 1.5.1.5
Copyright (c) 2008-2010 y-soft. All rights reserved
http://y-soft.org
ANALYZER: auCDtect: CD records authenticity detector, version 0.8.2
Copyright (c) 2004 Oleg Berngardt. All rights reserved.
Copyright (c) 2004 Alexander Djourik. All rights reserved.
FILE: Сборник - С Днем Победы, дорогие ветераны! (CD 2).flac
  Size: 479784989 Hash: 4FA12410DBE69592A03513FC62E15F9D Accuracy: -m0
  Conclusion: CDDA 100%
  Signature: 1FBF5370A3E479C483155E299C180291290635AC

содержание индексной карты

Код:
REM GENRE "Military song, Instrumental, Marches"
REM DATE 2013
REM DISCID 4312AF18
REM COMMENT "ExactAudioCopy v0.99pb5"
PERFORMER "Сборник"
TITLE "С Днем Победы, дорогие ветераны! (CD 2)"
FILE "Сборник - С Днем Победы, дорогие ветераны! (CD 2).flac" WAVE
  TRACK 01 AUDIO
    TITLE "Священная война"
    PERFORMER "Анс. песни и пляски им. Александрова"
    FLAGS DCP
    INDEX 01 00:00:00
  TRACK 02 AUDIO
    TITLE "Тучи над городом встали"
    PERFORMER "М.Бернес"
    FLAGS DCP
    INDEX 01 02:57:21
  TRACK 03 AUDIO
    TITLE "До свидания, мальчики"
    PERFORMER "А.Варум"
    FLAGS DCP
    INDEX 01 04:58:06
  TRACK 04 AUDIO
    TITLE "Instrumental Theme"
    PERFORMER "Ayaka Hirahara"
    FLAGS DCP
    INDEX 01 08:11:59
  TRACK 05 AUDIO
    TITLE "Давай за..."
    PERFORMER "Любэ"
    FLAGS DCP
    INDEX 01 12:57:21
  TRACK 06 AUDIO
    TITLE "Он не вернулся из боя"
    PERFORMER "В.Высоцкий"
    FLAGS DCP
    INDEX 01 17:06:07
  TRACK 07 AUDIO
    TITLE "Махнем не глядя"
    PERFORMER "М.Леонидов"
    FLAGS DCP
    INDEX 01 19:24:41
  TRACK 08 AUDIO
    TITLE "Bahia Dawn"
    PERFORMER "Bernward Koch"
    FLAGS DCP
    INDEX 01 21:57:27
  TRACK 09 AUDIO
    TITLE "Мама, помолись за меня"
    PERFORMER "В.Королев"
    FLAGS DCP
    INDEX 01 25:51:53
  TRACK 10 AUDIO
    TITLE "Не могу забыть"
    PERFORMER "Л.Лещенко"
    FLAGS DCP
    INDEX 01 29:59:48
  TRACK 11 AUDIO
    TITLE "В лесу прифронтовом"
    PERFORMER "Г.Виноградов"
    FLAGS DCP
    INDEX 01 33:49:03
  TRACK 12 AUDIO
    TITLE "Темная ночь"
    PERFORMER "Н.Портелли"
    FLAGS DCP
    INDEX 01 37:06:22
  TRACK 13 AUDIO
    TITLE "Просвистела"
    PERFORMER "ДДТ"
    FLAGS DCP
    INDEX 01 40:22:48
  TRACK 14 AUDIO
    TITLE "Шумел сурово брянский лес"
    PERFORMER "Г.Абрамов"
    FLAGS DCP
    INDEX 01 44:02:41
  TRACK 15 AUDIO
    TITLE "Мы вернемся"
    PERFORMER "А.Розенбаум"
    FLAGS DCP
    INDEX 01 47:16:34
  TRACK 16 AUDIO
    TITLE "Oh, Mother!"
    PERFORMER "Russia Accordion Music"
    FLAGS DCP
    INDEX 01 50:20:57
  TRACK 17 AUDIO
    TITLE "На солнечной поляночке"
    PERFORMER "В.Пучков"
    FLAGS DCP
    INDEX 01 53:24:19
  TRACK 18 AUDIO
    TITLE "Разведка боем"
    PERFORMER "В.Высоцкий"
    FLAGS DCP
    INDEX 01 57:06:71
  TRACK 19 AUDIO
    TITLE "Погоня"
    PERFORMER "Б.Мокроусов"
    FLAGS DCP
    INDEX 01 59:28:54
  TRACK 20 AUDIO
    TITLE "А когда я вернусь домой"
    PERFORMER "Белый орел"
    FLAGS DCP
    INDEX 01 62:37:52
  TRACK 21 AUDIO
    TITLE "Туман"
    PERFORMER "М.Леонидов"
    FLAGS DCP
    INDEX 01 66:41:72
  TRACK 22 AUDIO
    TITLE "Землянка"
    PERFORMER "Н.Тимченко"
    FLAGS DCP
    INDEX 01 69:32:18
  TRACK 23 AUDIO
    TITLE "Побег"
    PERFORMER "М.Таривердиев"
    FLAGS DCP
    INDEX 01 72:34:56
  TRACK 24 AUDIO
    TITLE "Марш Гренадер"
    PERFORMER "ОМВД РФ"
    FLAGS DCP
    INDEX 01 77:18:18

Спектр частот

 

CD3

Продолжительность: 01:19:57
Трек лист:
01. Анс. песни и пляски им. Александрова — Полюшко-поле
02. А.Эйзен — Эх, дороги...
03. P.Dutour — Le Bal
04. В.Пучков — Соловьи
05. М.Бернес — Журавли
06. D.Luca — Pearl In Her Hair
07. А.Маршал — Не забыть
08. Г.Панков — Бухенвальдский набат
09. М.Леонидов — Услышь меня, хорошая
10. Семен Канада — Забытый полк
11. H.Arland — Marhen Ballade
12. Анс. песни и пляски КСФ — Усталая подлодка
13. В.Высоцкий — Тот, который не стрелял
14. Е.Семенкина & А.Фролова — В путь-дорожку дальнюю
15. Franck Pourcel — Manchester-Liverpool
16. М.Леонидов — Враги сожгли родную хату
17. М.Таривердиев — Дороги
18. В.Агапкин & Л.Дунаев — Прощание славянки
19. Юлиан — Пуля
20. И.Савчук — Смуглянка
21. Н.Тимченко — Песня о Москве
22. С.Чернецкий — Марш Будапешт

Отчёт ЕАС:

Код:
Exact Audio Copy V0.99 prebeta 5 from 4. May 2009
Отчёт EAC об извлечении, выполненном 6. мая 2013, 14:43
Сборник / С Днем Победы, дорогие ветераны! (CD 3)
Дисковод: AXV     CD/DVD-ROM   Adapter: 1  ID: 0
Режим чтения                 : Достоверность
Использование точного потока : Да
Отключение кэша аудио        : Да
Использование указателей C2  : Нет
Комбинированное смещение чтения/записи            : 0
Способность читать области Lead-in и Lead-out     : Нет
Заполнение пропущенных сэмплов тишиной            : Да
Удаление блоков с тишиной в начале и конце        : Нет
При вычислениях CRC использовались нулевые сэмплы : Нет
Интерфейс                                         : Встроенный Win32-интерфейс для Win NT/2000
Выходной формат          : Пользовательский кодировщик
Выбранный битрейт        : 768 kBit/s
Качество                 : Высокий
Добавление ID3-тэга      : Нет
Утилита сжатия           : C:\Program Files\Exact Audio Copy\FLAC\FLAC.EXE
Дополнительные параметры : -6 -V -T "ARTIST=%a" -T "TITLE=%t" -T "ALBUM=%g" -T "DATE=%y" -T "TRACKNUMBER=%n" -T "GENRE=%m" -T "COMMENT=%e" %s -o %d
TOC извлечённого CD
     Трек |   Старт  | Длительность | Начальный сектор | Конечный сектор
    ---------------------------------------------------------------------
       1  |  0:00.00 |    2:42.63   |           0      |      12212
       2  |  2:42.63 |    4:27.00   |       12213      |      32237
       3  |  7:09.63 |    1:24.48   |       32238      |      38585
       4  |  8:34.36 |    5:52.06   |       38586      |      64991
       5  | 14:26.42 |    4:09.27   |       64992      |      83693
       6  | 18:35.69 |    6:11.08   |       83694      |     111526
       7  | 24:47.02 |    4:48.48   |      111527      |     133174
       8  | 29:35.50 |    3:55.20   |      133175      |     150819
       9  | 33:30.70 |    2:26.48   |      150820      |     161817
      10  | 35:57.43 |    4:52.20   |      161818      |     183737
      11  | 40:49.63 |    3:13.53   |      183738      |     198265
      12  | 44:03.41 |    4:36.32   |      198266      |     218997
      13  | 48:39.73 |    2:48.00   |      218998      |     231597
      14  | 51:27.73 |    2:35.58   |      231598      |     243280
      15  | 54:03.56 |    2:29.71   |      243281      |     254526
      16  | 56:33.52 |    4:33.05   |      254527      |     275006
      17  | 61:06.57 |    2:58.72   |      275007      |     288428
      18  | 64:05.54 |    2:31.37   |      288429      |     299790
      19  | 66:37.16 |    3:51.19   |      299791      |     317134
      20  | 70:28.35 |    2:52.26   |      317135      |     330060
      21  | 73:20.61 |    3:12.33   |      330061      |     344493
      22  | 76:33.19 |    3:24.45   |      344494      |     359838
Характеристики диапазона извлечения и сообщения об ошибках
Выбранный диапазон
     Имя файла C:\Сборник - С Днем Победы, дорогие ветераны! (CD 3).wav
     Пиковый уровень 100.0 %
     Качество диапазона 100.0 %
     CRC копии 4E347018
     Копирование... OK
Ошибок не произошло
Конец отчёта

Отчёт auCDtect Task manager:

Код:
-----------------------
DON'T MODIFY THIS FILE
-----------------------
PERFORMER: auCDtect Task Manager, ver. 1.5.1RC4 build 1.5.1.5
Copyright (c) 2008-2010 y-soft. All rights reserved
http://y-soft.org
ANALYZER: auCDtect: CD records authenticity detector, version 0.8.2
Copyright (c) 2004 Oleg Berngardt. All rights reserved.
Copyright (c) 2004 Alexander Djourik. All rights reserved.
FILE: Сборник - С Днем Победы, дорогие ветераны! (CD 3).flac
  Size: 487600154 Hash: BED8581B84F02F1606BEE1EAB04ACFFD Accuracy: -m0
  Conclusion: CDDA 100%
  Signature: 040A63034F31881E5D21774DA10C2095FE9BF052

содержание индексной карты

Код:
REM GENRE "Military song, Instrumental, Marches"
REM DATE 2013
REM DISCID 5A12BD16
REM COMMENT "ExactAudioCopy v0.99pb5"
PERFORMER "Сборник"
TITLE "С Днем Победы, дорогие ветераны! (CD 3)"
FILE "Сборник - С Днем Победы, дорогие ветераны! (CD 3).flac" WAVE
  TRACK 01 AUDIO
    TITLE "Полюшко-поле"
    PERFORMER "Анс. песни и пляски им. Александрова"
    FLAGS DCP
    INDEX 01 00:00:00
  TRACK 02 AUDIO
    TITLE "Эх, дороги..."
    PERFORMER "А.Эйзен"
    FLAGS DCP
    INDEX 01 02:42:63
  TRACK 03 AUDIO
    TITLE "Le Bal"
    PERFORMER "P.Dutour"
    FLAGS DCP
    INDEX 01 07:09:63
  TRACK 04 AUDIO
    TITLE "Соловьи"
    PERFORMER "В.Пучков"
    FLAGS DCP
    INDEX 01 08:34:36
  TRACK 05 AUDIO
    TITLE "Журавли"
    PERFORMER "М.Бернес"
    FLAGS DCP
    INDEX 01 14:26:42
  TRACK 06 AUDIO
    TITLE "Pearl In Her Hair"
    PERFORMER "D.Luca"
    FLAGS DCP
    INDEX 01 18:35:69
  TRACK 07 AUDIO
    TITLE "Не забыть"
    PERFORMER "А.Маршал"
    FLAGS DCP
    INDEX 01 24:47:02
  TRACK 08 AUDIO
    TITLE "Бухенвальдский набат"
    PERFORMER "Г.Панков"
    FLAGS DCP
    INDEX 01 29:35:50
  TRACK 09 AUDIO
    TITLE "Услышь меня, хорошая"
    PERFORMER "М.Леонидов"
    FLAGS DCP
    INDEX 01 33:30:70
  TRACK 10 AUDIO
    TITLE "Забытый полк"
    PERFORMER "Семен Канада"
    FLAGS DCP
    INDEX 01 35:57:43
  TRACK 11 AUDIO
    TITLE "Marhen Ballade"
    PERFORMER "H.Arland"
    FLAGS DCP
    INDEX 01 40:49:63
  TRACK 12 AUDIO
    TITLE "Усталая подлодка"
    PERFORMER "Анс. песни и пляски КСФ"
    FLAGS DCP
    INDEX 01 44:03:41
  TRACK 13 AUDIO
    TITLE "Тот, который не стрелял"
    PERFORMER "В.Высоцкий"
    FLAGS DCP
    INDEX 01 48:39:73
  TRACK 14 AUDIO
    TITLE "В путь-дорожку дальнюю"
    PERFORMER "Е.Семенкина & А.Фролова"
    FLAGS DCP
    INDEX 01 51:27:73
  TRACK 15 AUDIO
    TITLE "Manchester-Liverpool"
    PERFORMER "Franck Pourcel"
    FLAGS DCP
    INDEX 01 54:03:56
  TRACK 16 AUDIO
    TITLE "Враги сожгли родную хату"
    PERFORMER "М.Леонидов"
    FLAGS DCP
    INDEX 01 56:33:52
  TRACK 17 AUDIO
    TITLE "Дороги"
    PERFORMER "М.Таривердиев"
    FLAGS DCP
    INDEX 01 61:06:57
  TRACK 18 AUDIO
    TITLE "Прощание славянки"
    PERFORMER "В.Агапкин & Л.Дунаев"
    FLAGS DCP
    INDEX 01 64:05:54
  TRACK 19 AUDIO
    TITLE "Пуля"
    PERFORMER "Юлиан"
    FLAGS DCP
    INDEX 01 66:37:16
  TRACK 20 AUDIO
    TITLE "Смуглянка"
    PERFORMER "И.Савчук"
    FLAGS DCP
    INDEX 01 70:28:35
  TRACK 21 AUDIO
    TITLE "Песня о Москве"
    PERFORMER "Н.Тимченко"
    FLAGS DCP
    INDEX 01 73:20:61
  TRACK 22 AUDIO
    TITLE "Марш Будапешт"
    PERFORMER "С.Чернецкий"
    FLAGS DCP
    INDEX 01 76:33:19

Спектр частот

 

CD4

Продолжительность: 01:19:55
Трек лист:
01. Анс. песни и пляски им. Александрова — Баллада о солдате
02. М.Бернес — Темная ночь
03. А.Иошпе & С.Рахимов — Алеша
04. VA — Prelude
05. Любэ — Солдат
06. И.Шмелев — Спят курганы темные
07. М.Леонидов — Давно мы дома не были
08. В.Высоцкий — Песня о погибшем летчике
09. И.Шатров — На сопках Манчжурии
10. А.Бандера — Поля России
11. М.Бернес — С чего начиначинается Родина
12. М.Таривердиев — Встреча с женой
13. Ray Conniff (In Moscow) — Не думай о секундах свысока
14. С.Рогожин — Пока ты любишь и ждешь
15. Ю.Началова — Песнь о солдате
16. Claude Ciari — 13 Jours En France
17. Белый орел — А в чистом поле
18. М.Леонидов — Корреспондентская-застольная
19. Russia Accordion Music — A Night At Moscow Suburb
20. Л.Лещенко — День Победы
21. В.Волков — Марш 9 мая

Отчёт ЕАС:

Код:
Exact Audio Copy V0.99 prebeta 5 from 4. May 2009
Отчёт EAC об извлечении, выполненном 6. мая 2013, 16:19
Сборник / С Днем Победы, дорогие ветераны! (CD 4)
Дисковод: AXV     CD/DVD-ROM   Adapter: 1  ID: 0
Режим чтения                 : Достоверность
Использование точного потока : Да
Отключение кэша аудио        : Да
Использование указателей C2  : Нет
Комбинированное смещение чтения/записи            : 0
Способность читать области Lead-in и Lead-out     : Нет
Заполнение пропущенных сэмплов тишиной            : Да
Удаление блоков с тишиной в начале и конце        : Нет
При вычислениях CRC использовались нулевые сэмплы : Нет
Интерфейс                                         : Встроенный Win32-интерфейс для Win NT/2000
Выходной формат          : Пользовательский кодировщик
Выбранный битрейт        : 768 kBit/s
Качество                 : Высокий
Добавление ID3-тэга      : Нет
Утилита сжатия           : C:\Program Files\Exact Audio Copy\FLAC\FLAC.EXE
Дополнительные параметры : -6 -V -T "ARTIST=%a" -T "TITLE=%t" -T "ALBUM=%g" -T "DATE=%y" -T "TRACKNUMBER=%n" -T "GENRE=%m" -T "COMMENT=%e" %s -o %d
TOC извлечённого CD
     Трек |   Старт  | Длительность | Начальный сектор | Конечный сектор
    ---------------------------------------------------------------------
       1  |  0:00.00 |    6:09.08   |           0      |      27682
       2  |  6:09.08 |    3:26.39   |       27683      |      43171
       3  |  9:35.47 |    4:22.41   |       43172      |      62862
       4  | 13:58.13 |    4:17.55   |       62863      |      82192
       5  | 18:15.68 |    5:05.11   |       82193      |     105078
       6  | 23:21.04 |    3:10.46   |      105079      |     119374
       7  | 26:31.50 |    3:51.01   |      119375      |     136700
       8  | 30:22.51 |    4:41.55   |      136701      |     157830
       9  | 35:04.31 |    2:24.66   |      157831      |     168696
      10  | 37:29.22 |    3:49.00   |      168697      |     185871
      11  | 41:18.22 |    2:27.59   |      185872      |     196955
      12  | 43:46.06 |    4:22.11   |      196956      |     216616
      13  | 48:08.17 |    2:53.08   |      216617      |     229599
      14  | 51:01.25 |    4:13.58   |      229600      |     248632
      15  | 55:15.08 |    3:49.67   |      248633      |     265874
      16  | 59:05.00 |    3:17.31   |      265875      |     280680
      17  | 62:22.31 |    3:21.29   |      280681      |     295784
      18  | 65:43.60 |    2:23.12   |      295785      |     306521
      19  | 68:06.72 |    4:00.38   |      306522      |     324559
      20  | 72:07.35 |    3:42.55   |      324560      |     341264
      21  | 75:50.15 |    4:04.65   |      341265      |     359629
Характеристики диапазона извлечения и сообщения об ошибках
Выбранный диапазон
     Имя файла C:\Сборник - С Днем Победы, дорогие ветераны! (CD 4).wav
     Пиковый уровень 100.0 %
     Качество диапазона 100.0 %
     CRC копии 1C82CE82
     Копирование... OK
Ошибок не произошло
Конец отчёта

Отчёт auCDtect Task manager:

Код:
-----------------------
DON'T MODIFY THIS FILE
-----------------------
PERFORMER: auCDtect Task Manager, ver. 1.5.1RC4 build 1.5.1.5
Copyright (c) 2008-2010 y-soft. All rights reserved
http://y-soft.org
ANALYZER: auCDtect: CD records authenticity detector, version 0.8.2
Copyright (c) 2004 Oleg Berngardt. All rights reserved.
Copyright (c) 2004 Alexander Djourik. All rights reserved.
FILE: Сборник - С Днем Победы, дорогие ветераны! (CD 4).flac
  Size: 497365400 Hash: 17095868CCC9EF5E4C4673C74AE961DE Accuracy: -m0
  Conclusion: CDDA 100%
  Signature: ED6C8A729D38171B8D5A8861CD9B96E8D554622C

содержание индексной карты

Код:
REM GENRE "Military song, Instrumental, Marches"
REM DATE 2013
REM DISCID 3712BB15
REM COMMENT "ExactAudioCopy v0.99pb5"
PERFORMER "Сборник"
TITLE "С Днем Победы, дорогие ветераны! (CD 4)"
FILE "Сборник - С Днем Победы, дорогие ветераны! (CD 4).flac" WAVE
  TRACK 01 AUDIO
    TITLE "Баллада о солдате"
    PERFORMER "Анс. песни и пляски им. Александрова"
    FLAGS DCP
    INDEX 01 00:00:00
  TRACK 02 AUDIO
    TITLE "Темная ночь"
    PERFORMER "М.Бернес"
    FLAGS DCP
    INDEX 01 06:09:08
  TRACK 03 AUDIO
    TITLE "Алеша"
    PERFORMER "А.Иошпе & С.Рахимов"
    FLAGS DCP
    INDEX 01 09:35:47
  TRACK 04 AUDIO
    TITLE "Prelude"
    PERFORMER "VA"
    FLAGS DCP
    INDEX 01 13:58:13
  TRACK 05 AUDIO
    TITLE "Солдат"
    PERFORMER "Любэ"
    FLAGS DCP
    INDEX 01 18:15:68
  TRACK 06 AUDIO
    TITLE "Спят курганы темные"
    PERFORMER "И.Шмелев"
    FLAGS DCP
    INDEX 01 23:21:04
  TRACK 07 AUDIO
    TITLE "Давно мы дома не были"
    PERFORMER "М.Леонидов"
    FLAGS DCP
    INDEX 01 26:31:50
  TRACK 08 AUDIO
    TITLE "Песня о погибшем летчике"
    PERFORMER "В.Высоцкий"
    FLAGS DCP
    INDEX 01 30:22:51
  TRACK 09 AUDIO
    TITLE "На сопках Манчжурии"
    PERFORMER "И.Шатров"
    FLAGS DCP
    INDEX 01 35:04:31
  TRACK 10 AUDIO
    TITLE "Поля России"
    PERFORMER "А.Бандера"
    FLAGS DCP
    INDEX 01 37:29:22
  TRACK 11 AUDIO
    TITLE "С чего начиначинается Родина"
    PERFORMER "М.Бернес"
    FLAGS DCP
    INDEX 01 41:18:22
  TRACK 12 AUDIO
    TITLE "Встреча с женой"
    PERFORMER "М.Таривердиев"
    FLAGS DCP
    INDEX 01 43:46:06
  TRACK 13 AUDIO
    TITLE "Не думай о секундах свысока"
    PERFORMER "Ray Conniff (In Moscow)"
    FLAGS DCP
    INDEX 01 48:08:17
  TRACK 14 AUDIO
    TITLE "Пока ты любишь и ждешь"
    PERFORMER "С.Рогожин"
    FLAGS DCP
    INDEX 01 51:01:25
  TRACK 15 AUDIO
    TITLE "Песнь о солдате"
    PERFORMER "Ю.Началова"
    FLAGS DCP
    INDEX 01 55:15:08
  TRACK 16 AUDIO
    TITLE "13 Jours En France"
    PERFORMER "Claude Ciari"
    FLAGS DCP
    INDEX 01 59:05:00
  TRACK 17 AUDIO
    TITLE "А в чистом поле"
    PERFORMER "Белый орел"
    FLAGS DCP
    INDEX 01 62:22:31
  TRACK 18 AUDIO
    TITLE "Корреспондентская-застольная"
    PERFORMER "М.Леонидов"
    FLAGS DCP
    INDEX 01 65:43:60
  TRACK 19 AUDIO
    TITLE "A Night At Moscow Suburb"
    PERFORMER "Russia Accordion Music"
    FLAGS DCP
    INDEX 01 68:06:72
  TRACK 20 AUDIO
    TITLE "День Победы"
    PERFORMER "Л.Лещенко"
    FLAGS DCP
    INDEX 01 72:07:35
  TRACK 21 AUDIO
    TITLE "Марш 9 мая"
    PERFORMER "В.Волков"
    FLAGS DCP
    INDEX 01 75:50:15

Спектр частот

 
Время раздачи: 24/7

UndegraundMen

Пост 11-Июл-2013 14:04

[Цитировать]

Rockets - Atomic (1982)- Год: 1982
Жанр: Space Rock, New Wave
Продолжительность: 00:38:44
Лейбл: Rockland Records (RKL 20323)
Страна: Italy
Сканы: Full
Автор оцифровки: EvgenKK
Кодек: FLAC 2.0 24/192
Тип рипа: image+.cue
Трек лист:
A1. Atomic [4:06]
A2. Some Other Place, Some Other Time [4:52]
A3. Star Vision [5:51]
A4. Run To The Stars [4:41]
B1. Future Game [4:55]
B2. Light Speed Junky [3:32]
B3. The Martian Way [5:18]
B4. Radio Station [5:28]
-

Медиа Инфо

Код:
General
Complete name                            : F:\...\Rockets (Vinyl 24-192)\Rockets - 1982 - Atomic\Atomic.flac
Format                                   : FLAC
Format/Info                              : Free Lossless Audio Codec
File size                                : 1.51 GiB
Duration                                 : 38mn 44s
Overall bit rate mode                    : Variable
Overall bit rate                         : 5 576 Kbps
Audio
Format                                   : FLAC
Format/Info                              : Free Lossless Audio Codec
Duration                                 : 38mn 44s
Bit rate mode                            : Variable
Bit rate                                 : 5 576 Kbps
Channel(s)                               : 2 channels
Sampling rate                            : 192 KHz
Bit depth                                : 24 bits
Stream size                              : 1.51 GiB (100%)
Writing library                          : libFLAC 1.2.1 (UTC 2007-09-17)

Dynamic Range Meter

Код:
foobar2000 1.2.6 / Dynamic Range Meter 1.1.1
log date: 2013-07-11 10:41:35
--------------------------------------------------------------------------------
Analyzed: Rockets / Atomic
--------------------------------------------------------------------------------
DR         Peak         RMS     Duration Track
--------------------------------------------------------------------------------
DR13       0.00 dB   -14.87 dB      4:06 01-Atomic
DR12      -0.05 dB   -15.41 dB      4:52 02-Some Other Place, Some Other Time
DR14      -1.93 dB   -17.80 dB      5:51 03-Star Vision
DR16       0.00 dB   -18.65 dB      4:41 04-Run To The Stars
DR15       0.00 dB   -17.14 dB      4:55 05-Future Game
DR15      -0.23 dB   -16.93 dB      3:32 06-Light Speed Junky
DR13      -1.39 dB   -17.51 dB      5:18 07-The Martian Way
DR15       0.00 dB   -17.11 dB      5:28 08-Radio Station
--------------------------------------------------------------------------------
Number of tracks:  8
Official DR value: DR14
Samplerate:        192000 Hz
Channels:          2
Bits per sample:   24
Bitrate:           5576 kbps
Codec:             FLAC
================================================================================

Спектр, АЧХ, Уровень записи

 

Тех. информация

Класс состояния винила: Ex
Проигрыватель: AKAI AP-Q41
Картридж: Sumico Blue Point№2
Фонокорректор: Musucal Fidelity X-LP
АЦП: Creative EMU-0404 USB
Ноутбук с трансформаторным линейностабилизированным БП
Программа: Adobe Audition 3.0
Обработка: Подрезаны "хвосты", убраны вручную щелчки в Аудишене , сжатие Foobar codec FLAC 1.2.1
Формат записи: 32/192

Пятаки

   
-Время раздачи: Круглосуточно (до первых сидов, далее по возможности)
 

Текущее время: Сегодня 03:44

Часовой пояс: GMT + 3