Today is a free download without charge Download

Search found 500 matches

Author Message

sergej644

Post 23-May-2020 17:48

[Quote]

-Amberian Dawn - Looking For You--
Год издания: 2020
Страна: Finland
Жанр: Symphonic Power Metal
Продолжительность: 00:43:03-Лейбл издания: Napalm Records Handels GmbH
Страна-выпуска диска: Germany
Номер по каталогу: NPR 880 DP-Формат: FLAC
Битрейт аудио: Lossless
Тип рипа: image +.cue
Наличие сканов в содержимом раздачи: да
-

Трэклист


01. United (3:44)
02. Eternal Fire Burning (4:18)
03. Looking For You (3:38)
04. Two Blades (3:43)
05. Symphony Nr.1 Part 4 - Awakening feat. Fabio Lione (6:00)
06. Go For A Ride (3:56)
07. Butterfly (3:37)
08. Universe (3:47)
09. Lay All Your Love On Me (ABBA Cover) (3:55)
10. Au Revoir (2:05)
11. Cherish My Memory Re-Mastered (Bonus) (4:21)
-

Лог создания рипа

Код:
Exact Audio Copy V1.4 from 3. February 2020
EAC extraction logfile from 22. February 2020, 1:09
Amberian Dawn / Looking For You
Used drive  : ASUS    DRW-24B3ST   Adapter: 2  ID: 0
Read mode : Burst
Read offset correction                      : 6
Overread into Lead-In and Lead-Out          : No
Fill up missing offset samples with silence : Yes
Delete leading and trailing silent blocks   : No
Null samples used in CRC calculations       : Yes
Used interface                              : Installed external ASPI interface
Used output format              : User Defined Encoder
Selected bitrate                : 1024 kBit/s
Quality                         : High
Add ID3 tag                     : No
Command line compressor         : C:\Program Files (x86)\Exact Audio Copy\FLAC\FLAC.EXE
Additional command line options : -V -8 -T "Date=%year%" -T "Genre=%genre%" -T"COMMENT=CDRip" -8 -V %source%
TOC of the extracted CD
     Track |   Start  |  Length  | Start sector | End sector
    ---------------------------------------------------------
        1  |  0:00.00 |  3:43.72 |         0    |    16796
        2  |  3:43.72 |  4:17.43 |     16797    |    36114
        3  |  8:01.40 |  3:38.12 |     36115    |    52476
        4  | 11:39.52 |  3:42.61 |     52477    |    69187
        5  | 15:22.38 |  5:59.73 |     69188    |    96185
        6  | 21:22.36 |  3:56.18 |     96186    |   113903
        7  | 25:18.54 |  3:36.45 |    113904    |   130148
        8  | 28:55.24 |  3:46.65 |    130149    |   147163
        9  | 32:42.14 |  3:55.35 |    147164    |   164823
       10  | 36:37.49 |  2:04.52 |    164824    |   174175
       11  | 38:42.26 |  4:20.43 |    174176    |   193718
Range status and errors
Selected range
     Filename C:\CDRip\Amberian Dawn - Looking For You.wav
     Peak level 96.6 %
     Extraction speed 3.0 X
     Test CRC 660B7BCE
     Copy CRC 758231F2
     Copy OK
No errors occurred
AccurateRip summary
Track  1  not present in database
Track  2  not present in database
Track  3  not present in database
Track  4  not present in database
Track  5  not present in database
Track  6  not present in database
Track  7  not present in database
Track  8  not present in database
Track  9  not present in database
Track 10  not present in database
Track 11  not present in database
None of the tracks are present in the AccurateRip database
End of status report

Индексная карта (non-compilant .cue)

Код:
REM GENRE "Symphonic Power Metal"
REM DATE 2020
REM DISCID 8E0A160B
REM COMMENT "ExactAudioCopy v1.4"
PERFORMER "Amberian Dawn"
TITLE "Looking For You"
REM COMPOSER "Amberian Dawn"
FILE "Amberian Dawn - Looking For You.flac" WAVE
  TRACK 01 AUDIO
    TITLE "United"
    PERFORMER "Amberian Dawn"
    REM COMPOSER "Amberian Dawn"
    ISRC ATN262088001
    INDEX 01 00:00:00
  TRACK 02 AUDIO
    TITLE "Eternal Fire Burning"
    PERFORMER "Amberian Dawn"
    REM COMPOSER "Amberian Dawn"
    ISRC ATN262088002
    INDEX 01 03:43:72
  TRACK 03 AUDIO
    TITLE "Looking For You"
    PERFORMER "Amberian Dawn"
    REM COMPOSER "Amberian Dawn"
    ISRC ATN262088003
    INDEX 01 08:01:40
  TRACK 04 AUDIO
    TITLE "Two Blades"
    PERFORMER "Amberian Dawn"
    REM COMPOSER "Amberian Dawn"
    ISRC ATN262088004
    INDEX 01 11:39:52
  TRACK 05 AUDIO
    TITLE "Symphony Nr.1 Part 4 - Awakening feat. Fabio Lione"
    PERFORMER "Amberian Dawn"
    REM COMPOSER "Amberian Dawn"
    ISRC ATN262088005
    INDEX 01 15:22:38
  TRACK 06 AUDIO
    TITLE "Go For A Ride"
    PERFORMER "Amberian Dawn"
    REM COMPOSER "Amberian Dawn"
    ISRC ATN262088006
    INDEX 01 21:22:36
  TRACK 07 AUDIO
    TITLE "Butterfly"
    PERFORMER "Amberian Dawn"
    REM COMPOSER "Amberian Dawn"
    ISRC ATN262088007
    INDEX 01 25:18:54
  TRACK 08 AUDIO
    TITLE "Universe"
    PERFORMER "Amberian Dawn"
    REM COMPOSER "Amberian Dawn"
    ISRC ATN262088008
    INDEX 00 28:54:08
    INDEX 01 28:55:24
  TRACK 09 AUDIO
    TITLE "Lay All Your Love On Me (ABBA Cover)"
    PERFORMER "Amberian Dawn"
    REM COMPOSER "Amberian Dawn"
    ISRC ATN262088009
    INDEX 01 32:42:14
  TRACK 10 AUDIO
    TITLE "Au Revoir"
    PERFORMER "Amberian Dawn"
    REM COMPOSER "Amberian Dawn"
    ISRC ATN262088010
    INDEX 01 36:37:49
  TRACK 11 AUDIO
    TITLE "Cherish My Memory Re-Mastered (Bonus)"
    PERFORMER "Amberian Dawn"
    REM COMPOSER "Amberian Dawn"
    ISRC ATN262088011
    INDEX 01 38:42:26
-

для ознакомления:

--

sergej644

Post 23-May-2020 17:45

[Quote]

-Brothers Of Metal - Emblas Saga (Japanese Edition)--
Год издания: 2020
Страна: Sweden
Жанр: Epic, Viking, Heavy, Power Metal
Продолжительность: 00:55:14-Лейбл издания: King Records
Страна-выпуска диска: Japan
Номер по каталогу: KICP 4009-Формат: WavPack
Битрейт аудио: Lossless
Тип рипа: image +.cue
Наличие сканов в содержимом раздачи: да
-

Трэклист


01. Brood Of The Trickster (1:56)
02. Powersnake (3:44)
03. Hel (4:40)
04. Chain Breaker (3:53)
05. Kaunaz Dagaz (Dawn Of Fire) (4:14)
06. Theft Of The Hammer (4:11)
07. Weaver Of Fate (4:46)
08. Njord (3:51)
09. Emblas Saga (7:15)
10. Brothers Unite (4:07)
11. One (4:18)
12. Ride Of The Valkyries (3:27)
13. To The Skies And Beyond (4:54)
-

Лог создания рипа

Код:
Exact Audio Copy V1.3 from 2. September 2016
EAC extraction logfile from 6. February 2020, 19:44
Brothers Of Metal / Emblas Saga
Used drive  : HL-DT-STDVDRAM GH24NSD1   Adapter: 1  ID: 0
Read mode               : Secure
Utilize accurate stream : Yes
Defeat audio cache      : Yes
Make use of C2 pointers : No
Read offset correction                      : 6
Overread into Lead-In and Lead-Out          : No
Fill up missing offset samples with silence : Yes
Delete leading and trailing silent blocks   : No
Null samples used in CRC calculations       : Yes
Used interface                              : Native Win32 interface for Win NT & 2000
Used output format              : User Defined Encoder
Selected bitrate                : 896 kBit/s
Quality                         : High
Add ID3 tag                     : No
Command line compressor         : C:\Program Files (x86)\Exact Audio Copy\wavpack.exe
Additional command line options : -hm %source% %dest%
TOC of the extracted CD
     Track |   Start  |  Length  | Start sector | End sector
    ---------------------------------------------------------
        1  |  0:00.00 |  1:56.37 |         0    |     8736
        2  |  1:56.37 |  3:43.39 |      8737    |    25500
        3  |  5:40.01 |  4:40.01 |     25501    |    46501
        4  | 10:20.02 |  3:53.27 |     46502    |    64003
        5  | 14:13.29 |  4:13.65 |     64004    |    83043
        6  | 18:27.19 |  4:10.44 |     83044    |   101837
        7  | 22:37.63 |  4:45.41 |    101838    |   123253
        8  | 27:23.29 |  3:50.39 |    123254    |   140542
        9  | 31:13.68 |  7:14.63 |    140543    |   173155
       10  | 38:28.56 |  4:07.15 |    173156    |   191695
       11  | 42:35.71 |  4:17.47 |    191696    |   211017
       12  | 46:53.43 |  3:26.52 |    211018    |   226519
       13  | 50:20.20 |  4:54.01 |    226520    |   248570
Range status and errors
Selected range
     Filename E:\Brothers Of Metal - 2020 - Emblas Saga (Japanese Edition)\Brothers Of Metal - Emblas Saga.wav
     Peak level 100.0 %
     Extraction speed 7.0 X
     Range quality 100.0 %
     Test CRC CA32081E
     Copy CRC CA32081E
     Copy OK
No errors occurred
AccurateRip summary
Track  1  accurately ripped (confidence 1)  [15011961]  (AR v2)
Track  2  accurately ripped (confidence 1)  [C6D34B64]  (AR v2)
Track  3  accurately ripped (confidence 1)  [55C170E2]  (AR v2)
Track  4  accurately ripped (confidence 1)  [2E43F98C]  (AR v2)
Track  5  accurately ripped (confidence 1)  [AD25805C]  (AR v2)
Track  6  accurately ripped (confidence 1)  [3009C7C8]  (AR v2)
Track  7  accurately ripped (confidence 1)  [B2ED14D1]  (AR v2)
Track  8  accurately ripped (confidence 1)  [88F9CF8A]  (AR v2)
Track  9  accurately ripped (confidence 1)  [2CAE1DEB]  (AR v2)
Track 10  accurately ripped (confidence 1)  [75A64A9B]  (AR v2)
Track 11  accurately ripped (confidence 1)  [2E41F3D3]  (AR v2)
Track 12  accurately ripped (confidence 1)  [DFBA0E05]  (AR v2)
Track 13  accurately ripped (confidence 1)  [84FB39CD]  (AR v2)
All tracks accurately ripped
End of status report

Индексная карта (non-compilant .cue)

Код:
REM GENRE "Epic/Viking/Power Metal"
REM DATE 2020
REM DISCID A30CF20D
REM COMMENT "ExactAudioCopy v1.3"
REM COMPOSER ""
PERFORMER "Brothers Of Metal"
TITLE "Emblas Saga"
FILE "Brothers Of Metal - 2020 - Emblas Saga.wv" WAVE
  TRACK 01 AUDIO
    TITLE "Brood Of The Trickster"
    PERFORMER "Brothers Of Metal"
    REM COMPOSER ""
    INDEX 01 00:00:00
  TRACK 02 AUDIO
    TITLE "Powersnake"
    PERFORMER "Brothers Of Metal"
    REM COMPOSER ""
    INDEX 01 01:56:37
  TRACK 03 AUDIO
    TITLE "Hel"
    PERFORMER "Brothers Of Metal"
    REM COMPOSER ""
    INDEX 00 05:39:73
    INDEX 01 05:40:01
  TRACK 04 AUDIO
    TITLE "Chain Breaker"
    PERFORMER "Brothers Of Metal"
    REM COMPOSER ""
    INDEX 00 10:20:01
    INDEX 01 10:20:02
  TRACK 05 AUDIO
    TITLE "Kaunaz Dagaz (Dawn Of Fire)"
    PERFORMER "Brothers Of Metal"
    REM COMPOSER ""
    INDEX 00 14:13:27
    INDEX 01 14:13:29
  TRACK 06 AUDIO
    TITLE "Theft Of The Hammer"
    PERFORMER "Brothers Of Metal"
    REM COMPOSER ""
    INDEX 00 18:27:17
    INDEX 01 18:27:19
  TRACK 07 AUDIO
    TITLE "Weaver Of Fate"
    PERFORMER "Brothers Of Metal"
    REM COMPOSER ""
    INDEX 01 22:37:63
  TRACK 08 AUDIO
    TITLE "Njord"
    PERFORMER "Brothers Of Metal"
    REM COMPOSER ""
    INDEX 01 27:23:29
  TRACK 09 AUDIO
    TITLE "Emblas Saga"
    PERFORMER "Brothers Of Metal"
    REM COMPOSER ""
    INDEX 00 31:13:59
    INDEX 01 31:13:68
  TRACK 10 AUDIO
    TITLE "Brothers Unite"
    PERFORMER "Brothers Of Metal"
    REM COMPOSER ""
    INDEX 00 38:28:48
    INDEX 01 38:28:56
  TRACK 11 AUDIO
    TITLE "One"
    PERFORMER "Brothers Of Metal"
    REM COMPOSER ""
    INDEX 00 42:35:67
    INDEX 01 42:35:71
  TRACK 12 AUDIO
    TITLE "Ride Of The Valkyries"
    PERFORMER "Brothers Of Metal"
    REM COMPOSER ""
    INDEX 00 46:53:42
    INDEX 01 46:53:43
  TRACK 13 AUDIO
    TITLE "To The Skies And Beyond"
    PERFORMER "Brothers Of Metal"
    REM COMPOSER ""
    INDEX 01 50:20:20
-

для ознакомления:

--

sergej644

Post 23-May-2020 17:42

[Quote]

-Demons & Wizards - III--
Год издания: 2020
Страна: USA | Germany |
Жанр: Power Metal
Продолжительность: 01:17:59-Лейбл издания: Century Media
Страна-выпуска диска: EU
Номер по каталогу: 19439714752-Формат: FLAC
Битрейт аудио: Lossless
Тип рипа: image +.cue
Наличие сканов в содержимом раздачи: да
-

Трэклист


01. Diabolic (8:05)
02. Invincible (4:39)
03. Wolves In Winter (4:22)
04. Final Warning (3:50)
05. Timeless Spirit (9:22)
06. Dark Side Of Her Majesty (4:42)
07. Midas Disease (4:41)
08. New Dawn (4:27)
09. Universal Truth (5:09)
10. Split (6:06)
11. Children Of Cain (10:12)
12. Final Warning (Demo) (4:02)
13. Children Of Cain (Demo) (8:22)
-

Лог создания рипа

Код:
Exact Audio Copy V1.5 from 20. February 2020
EAC extraction logfile from 4. March 2020, 9:15
Demons & Wizards / III (Japanese,SICP-6308)
Used drive  : PIONEER DVD-RW  DVR-221   Adapter: 1  ID: 0
Read mode               : Secure
Utilize accurate stream : Yes
Defeat audio cache      : Yes
Make use of C2 pointers : No
Read offset correction                      : 6
Overread into Lead-In and Lead-Out          : No
Fill up missing offset samples with silence : Yes
Delete leading and trailing silent blocks   : No
Null samples used in CRC calculations       : Yes
Used interface                              : Installed external ASPI interface
Used output format              : User Defined Encoder
Selected bitrate                : 1024 kBit/s
Quality                         : High
Add ID3 tag                     : No
Command line compressor         : C:\Program Files\Exact Audio Copy\FLAC\FLAC.EXE
Additional command line options : -V -8 -T "Date=%year%" -T "Genre=%genre%" -T "COMMENT=Ripped by" -8 -V %source%
TOC of the extracted CD
     Track |   Start  |  Length  | Start sector | End sector
    ---------------------------------------------------------
        1  |  0:00.00 |  8:04.56 |         0    |    36355
        2  |  8:04.56 |  4:38.68 |     36356    |    57273
        3  | 12:43.49 |  4:22.27 |     57274    |    76950
        4  | 17:06.01 |  3:50.29 |     76951    |    94229
        5  | 20:56.30 |  9:21.67 |     94230    |   136371
        6  | 30:18.22 |  4:42.37 |    136372    |   157558
        7  | 35:00.59 |  4:40.63 |    157559    |   178621
        8  | 39:41.47 |  4:26.62 |    178622    |   198633
        9  | 44:08.34 |  5:09.15 |    198634    |   221823
       10  | 49:17.49 |  6:06.26 |    221824    |   249299
       11  | 55:24.00 | 10:11.61 |    249300    |   295185
       12  | 65:35.61 |  4:01.39 |    295186    |   313299
       13  | 69:37.25 |  8:21.49 |    313300    |   350923
Range status and errors
Selected range
     Filename D:\Program Files\CD Images\Demons & Wizards - III 2020 (Japanese,SICP-6308) (Lossless\Demons & Wizards - III (Japanese,SICP-6308).wav
     Peak level 100.0 %
     Extraction speed 5.4 X
     Range quality 100.0 %
     Test CRC 1CCC2DC1
     Copy CRC 1CCC2DC1
     Copy OK
No errors occurred
AccurateRip summary
Track  1  not present in database
Track  2  not present in database
Track  3  not present in database
Track  4  not present in database
Track  5  not present in database
Track  6  not present in database
Track  7  not present in database
Track  8  not present in database
Track  9  not present in database
Track 10  not present in database
Track 11  not present in database
Track 12  not present in database
Track 13  not present in database
None of the tracks are present in the AccurateRip database
End of status report

Индексная карта (non-compilant .cue)

Код:
REM GENRE "Heavy/Power Metal"
REM DATE 2020
REM DISCID C012460D
REM COMMENT "ExactAudioCopy v1.5"
PERFORMER "Demons & Wizards"
TITLE "III (Japanese,SICP-6308)"
REM COMPOSER ""
FILE "Demons & Wizards - III (Japanese,SICP-6308).flac" WAVE
  TRACK 01 AUDIO
    TITLE "Diabolic"
    PERFORMER "Demons & Wizards"
    REM COMPOSER ""
    INDEX 01 00:00:00
  TRACK 02 AUDIO
    TITLE "Invincible"
    PERFORMER "Demons & Wizards"
    REM COMPOSER ""
    INDEX 00 07:59:56
    INDEX 01 08:04:56
  TRACK 03 AUDIO
    TITLE "Wolves In Winter"
    PERFORMER "Demons & Wizards"
    REM COMPOSER ""
    INDEX 00 12:39:49
    INDEX 01 12:43:49
  TRACK 04 AUDIO
    TITLE "Final Warning"
    PERFORMER "Demons & Wizards"
    REM COMPOSER ""
    INDEX 00 17:02:01
    INDEX 01 17:06:01
  TRACK 05 AUDIO
    TITLE "Timeless Spirit"
    PERFORMER "Demons & Wizards"
    REM COMPOSER ""
    INDEX 00 20:52:30
    INDEX 01 20:56:30
  TRACK 06 AUDIO
    TITLE "Dark Side Of Her Majesty"
    PERFORMER "Demons & Wizards"
    REM COMPOSER ""
    INDEX 00 30:13:22
    INDEX 01 30:18:22
  TRACK 07 AUDIO
    TITLE "Midas Disease"
    PERFORMER "Demons & Wizards"
    REM COMPOSER ""
    INDEX 00 34:56:60
    INDEX 01 35:00:59
  TRACK 08 AUDIO
    TITLE "New Dawn"
    PERFORMER "Demons & Wizards"
    REM COMPOSER ""
    INDEX 00 39:37:47
    INDEX 01 39:41:47
  TRACK 09 AUDIO
    TITLE "Universal Truth"
    PERFORMER "Demons & Wizards"
    REM COMPOSER ""
    INDEX 00 44:04:34
    INDEX 01 44:08:34
  TRACK 10 AUDIO
    TITLE "Split"
    PERFORMER "Demons & Wizards"
    REM COMPOSER ""
    INDEX 00 49:13:49
    INDEX 01 49:17:49
  TRACK 11 AUDIO
    TITLE "Children Of Cain"
    PERFORMER "Demons & Wizards"
    REM COMPOSER ""
    INDEX 00 55:20:00
    INDEX 01 55:24:00
  TRACK 12 AUDIO
    TITLE "Final Warning (Demo)"
    PERFORMER "Demons & Wizards"
    REM COMPOSER ""
    INDEX 00 65:31:07
    INDEX 01 65:35:61
  TRACK 13 AUDIO
    TITLE "Children Of Cain (Demo)"
    PERFORMER "Demons & Wizards"
    REM COMPOSER ""
    INDEX 00 69:33:61
    INDEX 01 69:37:25
-

для ознакомления:

--

sergej644

Post 23-May-2020 17:38

[Quote]

-Frozen Crown - Crowned In Frost--
Год издания: 2019
Страна: Italy
Жанр: Power Metal
Продолжительность: 00:51:46-Лейбл издания: Marquee Inc, / Avalon
Страна-выпуска диска: Japan
Номер по каталогу: MICP-11475-Формат: WavPack
Битрейт аудио: Lossless
Тип рипа: image +.cue
Наличие сканов в содержимом раздачи: да
-

Трэклист


01. Arctic Gales (1:25)
02. Neverending (5:07)
03. In The Dark (4:44)
04. Battles In The Night (4:19)
05. Winterfall (7:31)
06. Unspoken (4:03)
07. Lost In Time (4:31)
08. The Wolf And The Maiden (3:25)
09. Forever (5:09)
10. Enthroned (1:03)
11. Crowned In Frost (6:33)
12. The King's Rest (Japan Bonus Track) (3:54)
-

Лог создания рипа

Код:
Exact Audio Copy V1.3 from 2. September 2016
EAC extraction logfile from 5. July 2019, 14:03
Frozen Crown / Crowned In Frost
Used drive  : HL-DT-STDVDRAM GH24NSD1   Adapter: 1  ID: 0
Read mode               : Secure
Utilize accurate stream : Yes
Defeat audio cache      : Yes
Make use of C2 pointers : No
Read offset correction                      : 6
Overread into Lead-In and Lead-Out          : No
Fill up missing offset samples with silence : Yes
Delete leading and trailing silent blocks   : No
Null samples used in CRC calculations       : Yes
Used interface                              : Native Win32 interface for Win NT & 2000
Used output format              : User Defined Encoder
Selected bitrate                : 896 kBit/s
Quality                         : High
Add ID3 tag                     : No
Command line compressor         : C:\Program Files (x86)\Exact Audio Copy\wavpack.exe
Additional command line options : -hm %source% %dest%
TOC of the extracted CD
     Track |   Start  |  Length  | Start sector | End sector
    ---------------------------------------------------------
        1  |  0:00.00 |  1:24.46 |         0    |     6345
        2  |  1:24.46 |  5:07.29 |      6346    |    29399
        3  |  6:32.00 |  4:43.68 |     29400    |    50692
        4  | 11:15.68 |  4:18.63 |     50693    |    70105
        5  | 15:34.56 |  7:30.49 |     70106    |   103904
        6  | 23:05.30 |  4:03.17 |    103905    |   122146
        7  | 27:08.47 |  4:31.23 |    122147    |   142494
        8  | 31:39.70 |  3:25.30 |    142495    |   157899
        9  | 35:05.25 |  5:09.35 |    157900    |   181109
       10  | 40:14.60 |  1:03.25 |    181110    |   185859
       11  | 41:18.10 |  6:33.08 |    185860    |   215342
       12  | 47:51.18 |  3:54.35 |    215343    |   232927
Range status and errors
Selected range
     Filename E:\Frozen Crown - 2019 - Crowned in Frost (Japanese Edition)\Frozen Crown - Crowned In Frost.wav
     Peak level 99.4 %
     Extraction speed 1.2 X
     Range quality 100.0 %
     Test CRC 2E8F9619
     Copy CRC 2E8F9619
     Copy OK
No errors occurred
AccurateRip summary
Track  1  accurately ripped (confidence 1)  [27C1F7E5]  (AR v2)
Track  2  accurately ripped (confidence 1)  [534E7AFA]  (AR v2)
Track  3  accurately ripped (confidence 1)  [F33D9D29]  (AR v2)
Track  4  accurately ripped (confidence 1)  [6F8B1298]  (AR v2)
Track  5  accurately ripped (confidence 1)  [461DD7C7]  (AR v2)
Track  6  accurately ripped (confidence 1)  [FE2B8C4A]  (AR v2)
Track  7  accurately ripped (confidence 1)  [72233093]  (AR v2)
Track  8  accurately ripped (confidence 1)  [57E0DC81]  (AR v2)
Track  9  accurately ripped (confidence 1)  [8527F3F7]  (AR v2)
Track 10  accurately ripped (confidence 1)  [A4540066]  (AR v2)
Track 11  accurately ripped (confidence 1)  [D3CFDA43]  (AR v2)
Track 12  accurately ripped (confidence 1)  [E31BA3A1]  (AR v2)
All tracks accurately ripped
End of status report

Индексная карта (non-compilant .cue)

Код:
REM GENRE "Power Metal"
REM DATE 2019
REM DISCID A70C210C
REM COMMENT "ExactAudioCopy v1.3"
REM COMPOSER ""
PERFORMER "Frozen Crown"
TITLE "Crowned In Frost"
FILE "Frozen Crown - 2019 - Crowned In Frost.wv" WAVE
  TRACK 01 AUDIO
    TITLE "Arctic Gales"
    PERFORMER "Frozen Crown"
    REM COMPOSER ""
    INDEX 01 00:00:00
  TRACK 02 AUDIO
    TITLE "Neverending"
    PERFORMER "Frozen Crown"
    REM COMPOSER ""
    INDEX 01 01:24:46
  TRACK 03 AUDIO
    TITLE "In The Dark"
    PERFORMER "Frozen Crown"
    REM COMPOSER ""
    INDEX 01 06:32:00
  TRACK 04 AUDIO
    TITLE "Battles In The Night"
    PERFORMER "Frozen Crown"
    REM COMPOSER ""
    INDEX 01 11:15:68
  TRACK 05 AUDIO
    TITLE "Winterfall"
    PERFORMER "Frozen Crown"
    REM COMPOSER ""
    INDEX 01 15:34:56
  TRACK 06 AUDIO
    TITLE "Unspoken"
    PERFORMER "Frozen Crown"
    REM COMPOSER ""
    INDEX 01 23:05:30
  TRACK 07 AUDIO
    TITLE "Lost In Time"
    PERFORMER "Frozen Crown"
    REM COMPOSER ""
    INDEX 01 27:08:47
  TRACK 08 AUDIO
    TITLE "The Wolf And The Maiden"
    PERFORMER "Frozen Crown"
    REM COMPOSER ""
    INDEX 01 31:39:70
  TRACK 09 AUDIO
    TITLE "Forever"
    PERFORMER "Frozen Crown"
    REM COMPOSER ""
    INDEX 01 35:05:25
  TRACK 10 AUDIO
    TITLE "Enthroned"
    PERFORMER "Frozen Crown"
    REM COMPOSER ""
    INDEX 01 40:14:60
  TRACK 11 AUDIO
    TITLE "Crowned In Frost"
    PERFORMER "Frozen Crown"
    REM COMPOSER ""
    INDEX 01 41:18:10
  TRACK 12 AUDIO
    TITLE "The King's Rest (Japan Bonus Track)"
    PERFORMER "Frozen Crown"
    REM COMPOSER ""
    INDEX 01 47:51:18
-

для ознакомления:

--

sergej644

Post 22-May-2020 01:33

[Quote]

-Mystic Prophecy - Metal Division (Limited Edition, Metallic Boxset 2 CD) - 2019/2020--
Год издания: 2019/ 2020
Страна: Germany
Жанр: Power / Heavy Metal
Продолжительность: 01:54:39-Лейбл издания: Rock Of Angels Records
Страна-выпуска диска: EU
Номер по каталогу: ROAR2001DIGI-Формат: FLAC
Битрейт аудио: Lossless
Тип рипа: image +.cue
Наличие сканов в содержимом раздачи: да
-

Трэклист

CD 1 - 2020 | Mystic Prophecy - Metal Division | 00:43:24


01. Metal Division (3:29)
02. Eye To Eye (4:16)
03. Hail To The King (3:44)
04. Here Comes The Winter (5:13)
05. Curse Of The Slayer (3:54)
06. Dracula (3:22)
07. Together We Fall (3:40)
08. Die With The Hammer (3:58)
09. Reincarnation (3:55)
10. Mirror Of A Broken Heart (3:43)
11. Victory Is Mine (4:10)

CD 2 - 2019 | VA - Rock Of Angels Records - Official Compilation Vol. II. | 01:11:15


01. Mystic Prophecy - Metal Division (3:29)
02. Aerodyne - Kick It Down (4:15)
03. Steel Prophet - The God Machine (3:22)
04. Monument - Attila (4:53)
05. Enemy Inside - Oblivion (4:34)
06. Full House Brew Crew - Cannot Be Judged (3:37)
07. Ashes of Ares - Let All Despair (5:14)
08. Last Union - President Evil (Feat. James LaBrie) (4:11)
09. Guardians Of Time - As I Burn (Feat. Tim 'Ripper' Owens) (4:22)
10. Freternia - Dark Vision (5:26)
11. Badd Kharma - Devil In You (4:24)
12. KingCrown - Over The Moon (4:06)
13. Kilmara - The End Of The World (5:04)
14. Steel Engraved - Where Shadows Remain (4:42)
15. Athanasia - White Horse (5:12)
16. SL Theory - You Never Happened (4:25)
-

Лог создания рипа

CD 1 | Mystic Prophecy - Metal Division

Код:
Exact Audio Copy V1.3 from 2. September 2016
EAC extraction logfile from 21. January 2020, 10:28
Mystic Prophecy / Metal Division (ROAR2001DIGI)
Used drive  : PIONEER DVD-RW  DVR-221   Adapter: 1  ID: 0
Read mode               : Secure
Utilize accurate stream : Yes
Defeat audio cache      : Yes
Make use of C2 pointers : No
Read offset correction                      : 6
Overread into Lead-In and Lead-Out          : No
Fill up missing offset samples with silence : Yes
Delete leading and trailing silent blocks   : No
Null samples used in CRC calculations       : Yes
Used interface                              : Installed external ASPI interface
Used output format              : User Defined Encoder
Selected bitrate                : 1024 kBit/s
Quality                         : High
Add ID3 tag                     : No
Command line compressor         : C:\Program Files\Exact Audio Copy\FLAC\FLAC.EXE
Additional command line options : -V -8 -T "Date=%year%" -T "Genre=%genre%" -T "COMMENT=" -8 -V %source%
TOC of the extracted CD
     Track |   Start  |  Length  | Start sector | End sector
    ---------------------------------------------------------
        1  |  0:00.00 |  3:29.12 |         0    |    15686
        2  |  3:29.12 |  4:15.51 |     15687    |    34862
        3  |  7:44.63 |  3:44.15 |     34863    |    51677
        4  | 11:29.03 |  5:13.14 |     51678    |    75166
        5  | 16:42.17 |  3:53.68 |     75167    |    92709
        6  | 20:36.10 |  3:21.72 |     92710    |   107856
        7  | 23:58.07 |  3:39.62 |    107857    |   124343
        8  | 27:37.69 |  3:58.15 |    124344    |   142208
        9  | 31:36.09 |  3:54.50 |    142209    |   159808
       10  | 35:30.59 |  3:43.33 |    159809    |   176566
       11  | 39:14.17 |  4:09.49 |    176567    |   195290
Range status and errors
Selected range
     Filename D:\Program Files\CD Images\Mystic Prophecy - Metal Division 2020 (Limited Edition,Metallic Boxset 2CD) (lossless)\Metal Division\Mystic Prophecy - Metal Division (ROAR2001DIGI).wav
     Peak level 96.5 %
     Extraction speed 4.2 X
     Range quality 99.9 %
     Test CRC 25C58FBB
     Copy CRC 25C58FBB
     Copy OK
No errors occurred
AccurateRip summary
Track  1  not present in database
Track  2  not present in database
Track  3  not present in database
Track  4  not present in database
Track  5  not present in database
Track  6  not present in database
Track  7  not present in database
Track  8  not present in database
Track  9  not present in database
Track 10  not present in database
Track 11  not present in database
None of the tracks are present in the AccurateRip database
End of status report

CD 2 | VA - Rock Of Angels Records - Official Compilation Vol. II.

Код:
Exact Audio Copy V1.3 from 2. September 2016
EAC extraction logfile from 23. January 2020, 9:07
Various / ROCK OF ANGELS RECORDS - OFFICIAL COMPILATION Vol .II
Used drive  : PIONEER DVD-RW  DVR-221   Adapter: 1  ID: 0
Read mode               : Secure
Utilize accurate stream : Yes
Defeat audio cache      : Yes
Make use of C2 pointers : No
Read offset correction                      : 6
Overread into Lead-In and Lead-Out          : No
Fill up missing offset samples with silence : Yes
Delete leading and trailing silent blocks   : No
Null samples used in CRC calculations       : Yes
Used interface                              : Installed external ASPI interface
Used output format              : User Defined Encoder
Selected bitrate                : 1024 kBit/s
Quality                         : High
Add ID3 tag                     : No
Command line compressor         : C:\Program Files\Exact Audio Copy\FLAC\FLAC.EXE
Additional command line options : -V -8 -T "Date=%year%" -T "Genre=%genre%" -T "COMMENT=" -8 -V %source%
TOC of the extracted CD
     Track |   Start  |  Length  | Start sector | End sector
    ---------------------------------------------------------
        1  |  0:00.00 |  3:29.13 |         0    |    15687
        2  |  3:29.13 |  4:14.64 |     15688    |    34801
        3  |  7:44.02 |  3:21.54 |     34802    |    49930
        4  | 11:05.56 |  4:53.36 |     49931    |    71941
        5  | 15:59.17 |  4:33.61 |     71942    |    92477
        6  | 20:33.03 |  3:37.03 |     92478    |   108755
        7  | 24:10.06 |  5:14.36 |    108756    |   132341
        8  | 29:24.42 |  4:10.38 |    132342    |   151129
        9  | 33:35.05 |  4:21.50 |    151130    |   170754
       10  | 37:56.55 |  5:26.28 |    170755    |   195232
       11  | 43:23.08 |  4:23.57 |    195233    |   215014
       12  | 47:46.65 |  4:05.48 |    215015    |   233437
       13  | 51:52.38 |  5:04.06 |    233438    |   256243
       14  | 56:56.44 |  4:42.36 |    256244    |   277429
       15  | 61:39.05 |  5:11.50 |    277430    |   300804
       16  | 66:50.55 |  4:24.52 |    300805    |   320656
Range status and errors
Selected range
     Filename D:\Program Files\CD Images\Mystic Prophecy - Metal Division 2020 (Limited Edition,Metallic Boxset 2CD) (Lossless)\Rock Of Angels Records - Official Compilation Vol.II 2019\Various - ROCK OF ANGELS RECORDS - OFFICIAL COMPILATION Vol
     Peak level 99.9 %
     Extraction speed 5.3 X
     Range quality 100.0 %
     Test CRC 6454FB66
     Copy CRC 6454FB66
     Copy OK
No errors occurred
AccurateRip summary
Track  1  accurately ripped (confidence 1)  [83C43296]  (AR v2)
Track  2  accurately ripped (confidence 1)  [89047861]  (AR v2)
Track  3  accurately ripped (confidence 1)  [08A5424B]  (AR v2)
Track  4  accurately ripped (confidence 1)  [43A6D9B1]  (AR v2)
Track  5  accurately ripped (confidence 1)  [FD5B538B]  (AR v2)
Track  6  accurately ripped (confidence 1)  [59344817]  (AR v2)
Track  7  accurately ripped (confidence 1)  [849A359C]  (AR v2)
Track  8  accurately ripped (confidence 1)  [AEACEE72]  (AR v2)
Track  9  accurately ripped (confidence 1)  [C2B0AE92]  (AR v2)
Track 10  accurately ripped (confidence 1)  [9DE19A02]  (AR v2)
Track 11  accurately ripped (confidence 1)  [896E7ABF]  (AR v2)
Track 12  accurately ripped (confidence 1)  [A7B9B932]  (AR v2)
Track 13  accurately ripped (confidence 1)  [DACAC0A9]  (AR v2)
Track 14  accurately ripped (confidence 1)  [39C8D3D0]  (AR v2)
Track 15  accurately ripped (confidence 1)  [01333E5D]  (AR v2)
Track 16  accurately ripped (confidence 1)  [7720AD57]  (AR v2)
All tracks accurately ripped
End of status report

Индексная карта (non-compilant .cue)

CD 1 | Mystic Prophecy - Metal Division

Код:
REM GENRE "Heavy/Power/Thrash Metal"
REM DATE 2019
REM DISCID 890A2B0B
REM COMMENT "ExactAudioCopy v1.3"
PERFORMER "Mystic Prophecy"
TITLE "Metal Division (ROAR2001DIGI)"
REM COMPOSER ""
FILE "Mystic Prophecy - Metal Division (ROAR2001DIGI).flac" WAVE
  TRACK 01 AUDIO
    TITLE "Metal Division"
    PERFORMER "Mystic Prophecy"
    REM COMPOSER ""
    INDEX 01 00:00:00
  TRACK 02 AUDIO
    TITLE "Eye To Eye"
    PERFORMER "Mystic Prophecy"
    REM COMPOSER ""
    INDEX 00 03:28:12
    INDEX 01 03:29:12
  TRACK 03 AUDIO
    TITLE "Hail To The King"
    PERFORMER "Mystic Prophecy"
    REM COMPOSER ""
    INDEX 00 07:43:63
    INDEX 01 07:44:63
  TRACK 04 AUDIO
    TITLE "Here Comes The Winter"
    PERFORMER "Mystic Prophecy"
    REM COMPOSER ""
    INDEX 00 11:28:36
    INDEX 01 11:29:03
  TRACK 05 AUDIO
    TITLE "Curse Of The Slayer"
    PERFORMER "Mystic Prophecy"
    REM COMPOSER ""
    INDEX 00 16:41:17
    INDEX 01 16:42:17
  TRACK 06 AUDIO
    TITLE "Dracula"
    PERFORMER "Mystic Prophecy"
    REM COMPOSER ""
    INDEX 00 20:35:10
    INDEX 01 20:36:10
  TRACK 07 AUDIO
    TITLE "Together We Fall"
    PERFORMER "Mystic Prophecy"
    REM COMPOSER ""
    INDEX 00 23:57:07
    INDEX 01 23:58:07
  TRACK 08 AUDIO
    TITLE "Die With The Hammer"
    PERFORMER "Mystic Prophecy"
    REM COMPOSER ""
    INDEX 00 27:36:69
    INDEX 01 27:37:69
  TRACK 09 AUDIO
    TITLE "Reincarnation"
    PERFORMER "Mystic Prophecy"
    REM COMPOSER ""
    INDEX 00 31:35:09
    INDEX 01 31:36:09
  TRACK 10 AUDIO
    TITLE "Mirror Of A Broken Heart"
    PERFORMER "Mystic Prophecy"
    REM COMPOSER ""
    INDEX 00 35:29:59
    INDEX 01 35:30:59
  TRACK 11 AUDIO
    TITLE "Victory Is Mine"
    PERFORMER "Mystic Prophecy"
    REM COMPOSER ""
    INDEX 00 39:13:17
    INDEX 01 39:14:17

CD 2 | VA - Rock Of Angels Records - Official Compilation Vol. II.

Код:
REM GENRE "Heavy/Power/Thrash Metal"
REM DATE 2019
REM DISCID D110B310
REM COMMENT "ExactAudioCopy v1.3"
PERFORMER "Various"
TITLE "Rock Of Angels Records - Official Compilation Vol. II"
REM COMPOSER ""
FILE "Various - Rock Of Angels Records - Official Compilation Vol. II.flac" WAVE
  TRACK 01 AUDIO
    TITLE "Metal Division"
    PERFORMER "Mystic Prophecy"
    REM COMPOSER ""
    INDEX 01 00:00:00
  TRACK 02 AUDIO
    TITLE "Kick It Down"
    PERFORMER "Aerodyne"
    REM COMPOSER ""
    INDEX 01 03:29:13
  TRACK 03 AUDIO
    TITLE "The God Machine "
    PERFORMER "Steel Prophet"
    REM COMPOSER ""
    INDEX 01 07:44:02
  TRACK 04 AUDIO
    TITLE "Attila"
    PERFORMER "Monument"
    REM COMPOSER ""
    INDEX 01 11:05:56
  TRACK 05 AUDIO
    TITLE "Oblivion"
    PERFORMER "Enemy Inside"
    REM COMPOSER ""
    INDEX 01 15:59:17
  TRACK 06 AUDIO
    TITLE "Cannot Be Judged"
    PERFORMER "Full House Brew Crew"
    REM COMPOSER ""
    INDEX 01 20:33:03
  TRACK 07 AUDIO
    TITLE "Let All Despair"
    PERFORMER "Ashes of Ares"
    REM COMPOSER ""
    INDEX 01 24:10:06
  TRACK 08 AUDIO
    TITLE "President Evil (Feat. James LaBrie)"
    PERFORMER "Last Union"
    REM COMPOSER ""
    INDEX 01 29:24:42
  TRACK 09 AUDIO
    TITLE "As I Burn (Feat. Tim 'Ripper' Owens)"
    PERFORMER "Guardians Of Time"
    REM COMPOSER ""
    INDEX 01 33:35:05
  TRACK 10 AUDIO
    TITLE "Dark Vision"
    PERFORMER "Freternia"
    REM COMPOSER ""
    INDEX 01 37:56:55
  TRACK 11 AUDIO
    TITLE "Devil In You"
    PERFORMER "Badd Kharma"
    REM COMPOSER ""
    INDEX 01 43:23:08
  TRACK 12 AUDIO
    TITLE "Over The Moon"
    PERFORMER "KingCrown"
    REM COMPOSER ""
    INDEX 01 47:46:65
  TRACK 13 AUDIO
    TITLE "The End Of The World"
    PERFORMER "Kilmara"
    REM COMPOSER ""
    INDEX 01 51:52:38
  TRACK 14 AUDIO
    TITLE "Where Shadows Remain"
    PERFORMER "Steel Engraved"
    REM COMPOSER ""
    INDEX 01 56:56:44
  TRACK 15 AUDIO
    TITLE "White Horse"
    PERFORMER "Athanasia"
    REM COMPOSER ""
    INDEX 01 61:39:05
  TRACK 16 AUDIO
    TITLE "You Never Happened"
    PERFORMER "SL Theory"
    REM COMPOSER ""
    INDEX 01 66:50:55
-

для ознакомления:

--

p7204

Post 27-Mar-2020 18:03

[Quote]

Просьба встать на раздачу. Заранее спасибо.

p7204

Post 27-Mar-2020 18:02

[Quote]

Просьба встать на раздачу. Спасибо.

p7204

Post 27-Mar-2020 17:53

[Quote]

Просьба встать на раздачу.

sergej644

Post 26-Mar-2020 23:55

[Quote]

-David Reece - Cacophony of Souls--
Год издания: 2020
Страна: USA
Жанр: Hard & Heavy
Продолжительность: 00:48:01-Лейбл издания: Irond
Страна-выпуска диска: Russia
Номер по каталогу: CD 20-1968-Формат: FLAC
Битрейт аудио: Lossless
Тип рипа: image +.cue
Наличие сканов в содержимом раздачи: да
-

Трэклист


01. Chasing The Shadow (3:43)
02. Blood On Our Hands (3:17)
03. Judgement Day (3:30)
04. Collective Anaesthesia (5:22)
05. Cacophony Of Souls (3:57)
06. Another Life Another Time (4:46)
07. Metal Voice (3:26)
08. Over And Over (3:45)
09. Back In The Days (3:43)
10. A Perfect World (5:07)
11. Bleed (3:37)
12. No Disguise (3:49)
-

Лог создания рипа

Код:
Exact Audio Copy V1.5 from 20. February 2020
EAC extraction logfile from 21. March 2020, 22:36
David Reece / Cacophony Of Souls
Used drive  : ASUS    DRW-24B3ST   Adapter: 2  ID: 0
Read mode               : Secure
Utilize accurate stream : Yes
Defeat audio cache      : Yes
Make use of C2 pointers : No
Read offset correction                      : 6
Overread into Lead-In and Lead-Out          : No
Fill up missing offset samples with silence : Yes
Delete leading and trailing silent blocks   : No
Null samples used in CRC calculations       : Yes
Used interface                              : Installed external ASPI interface
Used output format              : User Defined Encoder
Selected bitrate                : 1024 kBit/s
Quality                         : High
Add ID3 tag                     : No
Command line compressor         : C:\Program Files (x86)\Exact Audio Copy\FLAC\FLAC.EXE
Additional command line options : -V -8 -T "Date=%year%" -T "Genre=%genre%" -T"COMMENT=CDRip for me-4u.com" -8 -V %source%
TOC of the extracted CD
     Track |   Start  |  Length  | Start sector | End sector
    ---------------------------------------------------------
        1  |  0:00.00 |  3:43.00 |         0    |    16724
        2  |  3:43.00 |  3:16.56 |     16725    |    31480
        3  |  6:59.56 |  3:29.63 |     31481    |    47218
        4  | 10:29.44 |  5:21.44 |     47219    |    71337
        5  | 15:51.13 |  3:56.41 |     71338    |    89078
        6  | 19:47.54 |  4:46.31 |     89079    |   110559
        7  | 24:34.10 |  3:26.30 |    110560    |   126039
        8  | 28:00.40 |  3:45.15 |    126040    |   142929
        9  | 31:45.55 |  3:43.01 |    142930    |   159655
       10  | 35:28.56 |  5:06.57 |    159656    |   182662
       11  | 40:35.38 |  3:36.71 |    182663    |   198933
       12  | 44:12.34 |  3:48.52 |    198934    |   216085
Range status and errors
Selected range
     Filename C:\David Reece - Cacophony Of Souls.wav
     Peak level 100.0 %
     Extraction speed 5.9 X
     Range quality 100.0 %
     Test CRC 7B3AF629
     Copy CRC 7B3AF629
     Copy OK
No errors occurred
AccurateRip summary
Track  1  not present in database
Track  2  not present in database
Track  3  not present in database
Track  4  not present in database
Track  5  not present in database
Track  6  not present in database
Track  7  not present in database
Track  8  not present in database
Track  9  not present in database
Track 10  not present in database
Track 11  not present in database
Track 12  not present in database
None of the tracks are present in the AccurateRip database
End of status report

Индексная карта (non-compilant .cue)

Код:
REM GENRE "Hard Rock"
REM DATE 2020
REM DISCID 9B0B410C
REM COMMENT "ExactAudioCopy v1.5"
PERFORMER "David Reece"
TITLE "Cacophony Of Souls"
REM COMPOSER "David Reece"
FILE "David Reece - Cacophony Of Souls.flac" WAVE
  TRACK 01 AUDIO
    TITLE "Chasing The Shadow"
    PERFORMER "David Reece"
    REM COMPOSER "David Reece"
    ISRC DETX21900707
    FLAGS DCP
    INDEX 01 00:00:00
  TRACK 02 AUDIO
    TITLE "Blood On Our Hands"
    PERFORMER "David Reece"
    REM COMPOSER "David Reece"
    ISRC DETX21900705
    FLAGS DCP
    INDEX 01 03:43:00
  TRACK 03 AUDIO
    TITLE "Judgement Day"
    PERFORMER "David Reece"
    REM COMPOSER "David Reece"
    ISRC DETX21900709
    FLAGS DCP
    INDEX 01 06:59:56
  TRACK 04 AUDIO
    TITLE "Collective Anaesthesia"
    PERFORMER "David Reece"
    REM COMPOSER "David Reece"
    ISRC DETX21900708
    FLAGS DCP
    INDEX 01 10:29:44
  TRACK 05 AUDIO
    TITLE "Cacophony Of Souls"
    PERFORMER "David Reece"
    REM COMPOSER "David Reece"
    ISRC DETX21900706
    FLAGS DCP
    INDEX 01 15:51:13
  TRACK 06 AUDIO
    TITLE "Another Life Another Time"
    PERFORMER "David Reece"
    REM COMPOSER "David Reece"
    ISRC DETX21900702
    FLAGS DCP
    INDEX 01 19:47:54
  TRACK 07 AUDIO
    TITLE "Metal Voice"
    PERFORMER "David Reece"
    REM COMPOSER "David Reece"
    ISRC DETX21900710
    FLAGS DCP
    INDEX 01 24:34:10
  TRACK 08 AUDIO
    TITLE "Over And Over"
    PERFORMER "David Reece"
    REM COMPOSER "David Reece"
    ISRC DETX21900712
    FLAGS DCP
    INDEX 01 28:00:40
  TRACK 09 AUDIO
    TITLE "Back In The Days"
    PERFORMER "David Reece"
    REM COMPOSER "David Reece"
    ISRC DETX21900703
    FLAGS DCP
    INDEX 01 31:45:55
  TRACK 10 AUDIO
    TITLE "A Perfect World"
    PERFORMER "David Reece"
    REM COMPOSER "David Reece"
    ISRC DETX21900701
    FLAGS DCP
    INDEX 01 35:28:56
  TRACK 11 AUDIO
    TITLE "Bleed"
    PERFORMER "David Reece"
    REM COMPOSER "David Reece"
    ISRC DETX21900704
    FLAGS DCP
    INDEX 01 40:35:38
  TRACK 12 AUDIO
    TITLE "No Disguise"
    PERFORMER "David Reece"
    REM COMPOSER "David Reece"
    ISRC DETX21900711
    FLAGS DCP
    INDEX 01 44:12:34
-

для ознакомления:

--

sergej644

Post 26-Mar-2020 23:51

[Quote]

-ShadowQuest - Gallows Of Eden--
Год издания: 2020
Страна: Sweden
Жанр: Power Metal
Продолжительность: 00:50:55-Лейбл издания: Garelock Records
Страна-выпуска диска: Sweden
Номер по каталогу: SE4RN19001-Формат: FLAC
Битрейт аудио: Lossless
Тип рипа: image +.cue
Наличие сканов в содержимом раздачи: да
-

Трэклист


01. The Avenger (3:56)
02. Titans Of War (3:50)
03. Gallows Of Eden (5:58)
04. Guardian Of Heaven (6:19)
05. Armageddon (4:07)
06. Dr. Midnight (3:50)
07. Reborn (7:36)
08. Into The Unknown (4:13)
09. Caught In A Flame (4:42)
10. Our Kinsmen Awaits (6:24)
-

Лог создания рипа

Код:
Exact Audio Copy V1.3 from 2. September 2016
Отчёт EAC об извлечении, выполненном 18. марта 2020, 18:06
ShadowQuest / Gallows Of Eden
Дисковод: ASUS    DRW-1612BL   Adapter: 3  ID: 1
Режим чтения                 : Достоверность
Использование точного потока : Да
Отключение кэша аудио        : Да
Использование указателей C2  : Нет
Коррекция смещения при чтении                     : 6
Способность читать области Lead-in и Lead-out     : Нет
Заполнение пропущенных сэмплов тишиной            : Да
Удаление блоков с тишиной в начале и конце        : Нет
При вычислениях CRC использовались нулевые сэмплы : Да
Интерфейс                                         : Установленный внешний ASPI-интерфейс
Выходной формат          : Пользовательский кодировщик
Выбранный битрейт        : 128 kBit/s
Качество                 : Высокий
Добавление ID3-тега      : Нет
Утилита сжатия           : C:\Program Files\Exact Audio Copy\Flac\flac.exe
Дополнительные параметры : -V -8 -T "Date=%year%" -T "Genre=%genre%" %source%
TOC извлечённого CD
     Трек |   Старт  | Длительность | Начальный сектор | Конечный сектор
    ---------------------------------------------------------------------
       1  |  0:00.00 |    3:55.68   |           0      |      17692
       2  |  3:55.68 |    3:50.05   |       17693      |      34947
       3  |  7:45.73 |    5:57.74   |       34948      |      61796
       4  | 13:43.72 |    6:18.44   |       61797      |      90190
       5  | 20:02.41 |    4:06.63   |       90191      |     108703
       6  | 24:09.29 |    3:49.64   |      108704      |     125942
       7  | 27:59.18 |    7:36.18   |      125943      |     160160
       8  | 35:35.36 |    4:13.02   |      160161      |     179137
       9  | 39:48.38 |    4:42.08   |      179138      |     200295
      10  | 44:30.46 |    6:24.29   |      200296      |     229124
Характеристики диапазона извлечения и сообщения об ошибках
Выбранный диапазон
     Имя файла D:\ShadowQuest - Gallows Of Eden.wav
     Пиковый уровень 100.0 %
     Скорость извлечения 7.5 X
     Качество диапазона 100.0 %
     CRC теста BDB2B75C
     CRC копии BDB2B75C
     Копирование... OK
Ошибок не произошло
AccurateRip: сводка
Трек  1  отсутствует в базе данных
Трек  2  отсутствует в базе данных
Трек  3  отсутствует в базе данных
Трек  4  отсутствует в базе данных
Трек  5  отсутствует в базе данных
Трек  6  отсутствует в базе данных
Трек  7  отсутствует в базе данных
Трек  8  отсутствует в базе данных
Трек  9  отсутствует в базе данных
Трек 10  отсутствует в базе данных
Ни одного трека нет в базе AccurateRip
Конец отчёта

Индексная карта (non-compilant .cue)

Код:
REM GENRE "Heavy Metal"
REM DATE 2020
REM DISCID 7C0BEF0A
REM COMMENT "ExactAudioCopy v1.3"
PERFORMER "ShadowQuest"
TITLE "Gallows Of Eden"
REM COMPOSER ""
FILE "ShadowQuest - Gallows Of Eden.flac" WAVE
  TRACK 01 AUDIO
    TITLE "The Avenger"
    PERFORMER "ShadowQuest"
    REM COMPOSER ""
    INDEX 01 00:00:00
  TRACK 02 AUDIO
    TITLE "Titans Of War"
    PERFORMER "ShadowQuest"
    REM COMPOSER ""
    INDEX 01 03:55:68
  TRACK 03 AUDIO
    TITLE "Gallows Of Eden"
    PERFORMER "ShadowQuest"
    REM COMPOSER ""
    INDEX 01 07:45:73
  TRACK 04 AUDIO
    TITLE "Guardian Of Heaven"
    PERFORMER "ShadowQuest"
    REM COMPOSER ""
    INDEX 01 13:43:72
  TRACK 05 AUDIO
    TITLE "Armageddon"
    PERFORMER "ShadowQuest"
    REM COMPOSER ""
    INDEX 01 20:02:41
  TRACK 06 AUDIO
    TITLE "Dr. Midnight"
    PERFORMER "ShadowQuest"
    REM COMPOSER ""
    INDEX 01 24:09:29
  TRACK 07 AUDIO
    TITLE "Reborn"
    PERFORMER "ShadowQuest"
    REM COMPOSER ""
    INDEX 01 27:59:18
  TRACK 08 AUDIO
    TITLE "Into The Unknown"
    PERFORMER "ShadowQuest"
    REM COMPOSER ""
    INDEX 01 35:35:36
  TRACK 09 AUDIO
    TITLE "Caught In A Flame"
    PERFORMER "ShadowQuest"
    REM COMPOSER ""
    INDEX 01 39:48:38
  TRACK 10 AUDIO
    TITLE "Our Kinsmen Awaits"
    PERFORMER "ShadowQuest"
    REM COMPOSER ""
    INDEX 01 44:30:46
-

для ознакомления:

--

veliksarr

Post 29-Feb-2020 16:06

[Quote]

Omen, Дайте сидов пожайлуста.

RazBoyNik

Post 16-Feb-2020 18:09

[Quote]

Putreseminal Viscosity - Spectral Rituals Of Malignancy (2020) - Жанр: Death Metal
Источник: ссылка
Продолжительность: 00:33:09
Кодек: FLAC
Битрейт: Lossless|WEB-DL
Тип рипа: tracks
Треклист:
01. Corporal Viscid Falsehood 02:49
02. Obnoxious Humanity 04:09
03. Abhorrent Cycles Of Lunacy 04:58
04. Exorcised Impious Entity 03:59
05. A Ghastly Abomination Emerged From The Deep Abyss 02:58
06. Revealed In Tormented Epiphany 03:25
07. Spawned Aberration 03:22
08. Infected By Marburg 03:48
09. Obscene Deformed Swarm 03:36

Отчёт auCDtect Task manager:

-----------------------
DON'T MODIFY THIS FILE
-----------------------
PERFORMER: auCDtect Task Manager, ver. 1.6.0 RC1 build 1.6.0.1
Copyright (c) 2008-2010 y-soft. All rights reserved
http://y-soft.org
ANALYZER: auCDtect: CD records authenticity detector, version 0.8.2
Copyright (c) 2004 Oleg Berngardt. All rights reserved.
Copyright (c) 2004 Alexander Djourik. All rights reserved.
FILE: PUTRESEMINAL VISCOSITY - Spectral Rituals Of Malignancy - 01 Corporal Viscid Falsehood.flac
Size: 21804939 Hash: FD5011D496F64DA02E598B6BDD155E10 Accuracy: -m0
Conclusion: CDDA 100%
Signature: 55740B400C823017616FC8B1A5B60FC0678969FC
FILE: PUTRESEMINAL VISCOSITY - Spectral Rituals Of Malignancy - 02 Obnoxious Humanity.flac
Size: 32718363 Hash: 5527051269B2967FDBCF6F4D4D0A7FED Accuracy: -m0
Conclusion: CDDA 100%
Signature: C6A6F23EDBADD1F1BA51E1EC4D5873CD7CE65AE3
FILE: PUTRESEMINAL VISCOSITY - Spectral Rituals Of Malignancy - 03 Abhorrent Cycles Of Lunacy.flac
Size: 38099990 Hash: 046A8D93ECE904B75B8D0949C6C6AF0F Accuracy: -m0
Conclusion: CDDA 100%
Signature: 8606E86A5AFE66EE0D634C022B60143CCD945A19
FILE: PUTRESEMINAL VISCOSITY - Spectral Rituals Of Malignancy - 04 Exorcised Impious Entity.flac
Size: 30415103 Hash: 64682AD3B9DEE7515277A0DC1EEFB713 Accuracy: -m0
Conclusion: CDDA 99%
Signature: 8CB18EBE1AD476C25213CC78126DDC95BA2C4CA7
FILE: PUTRESEMINAL VISCOSITY - Spectral Rituals Of Malignancy - 05 A Ghastly Abomination Emerged From The Deep Abyss.flac
Size: 23602965 Hash: 81554D0D48C6EE9A3D2F21C537BFA53A Accuracy: -m0
Conclusion: CDDA 100%
Signature: F8041A3428FD6FDB0714EA2D98D3DFC0ADA45D02
FILE: PUTRESEMINAL VISCOSITY - Spectral Rituals Of Malignancy - 06 Revealed In Tormented Epiphany.flac
Size: 26592227 Hash: C61DAB9B8AF2CCE15045126BE3BE519D Accuracy: -m0
Conclusion: CDDA 99%
Signature: 26517019B6ACFBAE80FA3E7E9463D8452D27D186
FILE: PUTRESEMINAL VISCOSITY - Spectral Rituals Of Malignancy - 07 Spawned Aberration.flac
Size: 26170976 Hash: CAD767007CBC454853C780C800B11594 Accuracy: -m0
Conclusion: CDDA 99%
Signature: C40B14924B913C36290BA3C3A7AF95A4384369BE
FILE: PUTRESEMINAL VISCOSITY - Spectral Rituals Of Malignancy - 08 Infected By Marburg.flac
Size: 30273237 Hash: 64D4C72E1AEFF782BF4265F8DB91B4B5 Accuracy: -m0
Conclusion: CDDA 100%
Signature: 6E042D6798402C04421E103CF3B1AEC5246D98E1
FILE: PUTRESEMINAL VISCOSITY - Spectral Rituals Of Malignancy - 09 Obscene Deformed Swarm.flac
Size: 28302273 Hash: B0E1D45E6A0520D4ABA3279C0B6F03EF Accuracy: -m0
Conclusion: CDDA 100%
Signature: 2D7C61606D52FF217D84DDC1856E18F2002F3E5C

Soldat_5

Post 20-Jan-2020 17:01

[Quote]

Space Project - The Return Of Space Raiders (2008) - Жанр: Synth-pop
Издание: Space Sound Records - SSR00001
Источник: (релизёр:) s-p-m2009
Продолжительность: 00:54:28
Кодек: FLAC
Битрейт: Lossless
Тип рипа: image + .cue
Треклист:
1 The Return Of Space Raiders (Original Version) 6:48
2 The Return Of Space Raiders (Staffan Öhman Remix) 6:54
3 The Return Of Space Raiders (mindXpander Remix) 8:08
4 The Return Of Space Raiders (Marco Rochowski Remix) 7:09
5 The Return Of Space Raiders (Dreamtime Remix) 6:05
6 The Return Of Space Raiders (Anders Lundqvist - The Shan Mix) 7:07
7 The Return Of Space Raiders (Galaxy Hunter Dance Remix) 4:55
8 The Return Of Space Raiders (A.M. Samurai Remix) 7:18

Отчёт EAC:

xact Audio Copy V1.0 beta 3 from 29. August 2011
Отчёт EAC об извлечении, выполненном 19. января 2020, 22:28
Space Project / The Return Of Space Raiders
Дисковод: TSSTcorpCDDVDW SH-224DB Adapter: 1 ID: 0
Режим чтения : Достоверность
Использование точного потока : Да
Отключение кэша аудио : Да
Использование указателей C2 : Нет
Коррекция смещения при чтении : 6
Способность читать области Lead-in и Lead-out : Нет
Заполнение пропущенных сэмплов тишиной : Да
Удаление блоков с тишиной в начале и конце : Нет
При вычислениях CRC использовались нулевые сэмплы : Да
Интерфейс : Встроенный Win32-интерфейс для Win NT/2000
Выходной формат : Пользовательский кодировщик
Выбранный битрейт : 128 kBit/s
Качество : Высокий
Добавление ID3-тега : Нет
Утилита сжатия : C:\Program Files (x86)\FLAC\flac.exe
Дополнительные параметры : -V -8 -T "Date=%year%" -T "Genre=%genre%" %source%
TOC извлечённого CD
Трек | Старт | Длительность | Начальный сектор | Конечный сектор
---------------------------------------------------------------------
1 | 0:00.00 | 6:48.08 | 0 | 30607
2 | 6:48.08 | 6:54.06 | 30608 | 61663
3 | 13:42.14 | 8:08.34 | 61664 | 98297
4 | 21:50.48 | 7:09.42 | 98298 | 130514
5 | 29:00.15 | 6:05.67 | 130515 | 157956
6 | 35:06.07 | 7:07.16 | 157957 | 189997
7 | 42:13.23 | 4:55.62 | 189998 | 212184
8 | 47:09.10 | 7:18.13 | 212185 | 245047
Характеристики диапазона извлечения и сообщения об ошибках
Выбранный диапазон
Имя файла C:\EAC\Space Project - The Return Of Space Raiders - 2008 CDM\Space Project - The Return Of Space Raiders.wav
Пиковый уровень 98.8 %
Скорость извлечения 2.9 X
Качество диапазона 100.0 %
CRC теста 71943C5F
CRC копии 71943C5F
Копирование... OK
Ошибок не произошло
AccurateRip: сводка
Трек 1 : извлечено точно (доверие 1) [7EEE0B17] (AR v2)
Трек 2 : извлечено точно (доверие 1) [F8608CAA] (AR v2)
Трек 3 : извлечено точно (доверие 1) [5D95FBF2] (AR v2)
Трек 4 : извлечено точно (доверие 1) [B31C9AD3] (AR v2)
Трек 5 : извлечено точно (доверие 1) [E9B25A04] (AR v2)
Трек 6 : извлечено точно (доверие 1) [3498DF6C] (AR v2)
Трек 7 : извлечено точно (доверие 1) [4C40D0F5] (AR v2)
Трек 8 : извлечено точно (доверие 1) [0FF48AC3] (AR v2)
Все треки извлечены точно
Конец отчёта
==== Контрольная сумма отчёта 4C84E4FCDABB96FEFCFEC29D62B1E80771D2E2AD3AE2F7C7D1039E2D5F4EC452 ====

Soldat_5

Post 16-Dec-2019 19:53

[Quote]

Oceans of Slumber - The Banished Heart (2018) - Жанр: Progressive Metal, Doom Metal, Death Metal
Издание: Century Media - 19075801992
Источник (релизер): BACKLASH (MMT)
Продолжительность: 01:05:04
Кодек: FLAC
Битрейт: Lossless
Тип рипа: image + .cue
Наличие сканов: Да, полные

Треклист:
01. The Decay of Disregard (8:59)
02. Fleeting Vigilance (5:26)
03. At Dawn (8:30)
04. The Banished Heart (9:05)
05. The Watcher (2:25)
06. Etiolation (6:01)
07. A Path to Broken Stars (6:32)
08. Howl of the Rougarou (5:03)
09. Her in the Distance (2:03)
10. No Color No Light (7:18)
11. Wayfaring Stranger (3:41)

Лог создания рипа:

Код:
Exact Audio Copy V1.3 from 2. September 2016
EAC extraction logfile from 19. August 2019, 18:20
Oceans of Slumber / The Banished Heart
Used drive  : HL-DT-STDVDRAM GH24NSD1   Adapter: 1  ID: 0
Read mode               : Secure
Utilize accurate stream : Yes
Defeat audio cache      : Yes
Make use of C2 pointers : No
Read offset correction                      : 6
Overread into Lead-In and Lead-Out          : No
Fill up missing offset samples with silence : Yes
Delete leading and trailing silent blocks   : No
Null samples used in CRC calculations       : Yes
Used interface                              : Native Win32 interface for Win NT & 2000
Used output format              : User Defined Encoder
Selected bitrate                : 896 kBit/s
Quality                         : High
Add ID3 tag                     : No
Command line compressor         : C:\Program Files (x86)\Exact Audio Copy\Flac\flac.exe
Additional command line options : -6 -V %source%
TOC of the extracted CD
     Track |   Start  |  Length  | Start sector | End sector
    ---------------------------------------------------------
        1  |  0:00.00 |  8:59.34 |         0    |    40458
        2  |  8:59.34 |  5:25.52 |     40459    |    64885
        3  | 14:25.11 |  8:30.18 |     64886    |   103153
        4  | 22:55.29 |  9:05.30 |    103154    |   144058
        5  | 32:00.59 |  2:25.18 |    144059    |   154951
        6  | 34:26.02 |  6:01.15 |    154952    |   182041
        7  | 40:27.17 |  6:31.52 |    182042    |   211418
        8  | 46:58.69 |  5:02.42 |    211419    |   234110
        9  | 52:01.36 |  2:03.04 |    234111    |   243339
       10  | 54:04.40 |  7:17.41 |    243340    |   276155
       11  | 61:22.06 |  3:41.33 |    276156    |   292763
Range status and errors
Selected range
     Filename C:\Users\User\Music\EAC\Oceans of Slumber - The Banished Heart\Oceans of Slumber - The Banished Heart.wav
     Peak level 100.0 %
     Extraction speed 7.8 X
     Range quality 100.0 %
     Test CRC DBE0570C
     Copy CRC DBE0570C
     Copy OK
No errors occurred
AccurateRip summary
Track  1  accurately ripped (confidence 13)  [50D53633]  (AR v2)
Track  2  accurately ripped (confidence 13)  [771E3AEC]  (AR v2)
Track  3  accurately ripped (confidence 13)  [F5E49744]  (AR v2)
Track  4  accurately ripped (confidence 13)  [5F0DAEE3]  (AR v2)
Track  5  accurately ripped (confidence 13)  [78C5413D]  (AR v2)
Track  6  accurately ripped (confidence 13)  [A29AD1C2]  (AR v2)
Track  7  accurately ripped (confidence 13)  [CDB5E312]  (AR v2)
Track  8  accurately ripped (confidence 13)  [AC23779B]  (AR v2)
Track  9  accurately ripped (confidence 13)  [66DF7095]  (AR v2)
Track 10  accurately ripped (confidence 13)  [9DBEDCB4]  (AR v2)
Track 11  accurately ripped (confidence 12)  [D6AC5675]  (AR v2)
All tracks accurately ripped
End of status report
---- CUETools DB Plugin V2.1.6
[CTDB TOCID: WzdRtoJ_JbkpE47BIMLG_5xbpDU-] found
Submit result: WzdRtoJ_JbkpE47BIMLG_5xbpDU- has been confirmed
Track | CTDB Status
  1   | (59/59) Accurately ripped
  2   | (59/59) Accurately ripped
  3   | (59/59) Accurately ripped
  4   | (59/59) Accurately ripped
  5   | (59/59) Accurately ripped
  6   | (59/59) Accurately ripped
  7   | (59/59) Accurately ripped
  8   | (59/59) Accurately ripped
  9   | (59/59) Accurately ripped
10   | (59/59) Accurately ripped
11   | (59/59) Accurately ripped
==== Log checksum 0B85E9DB3A70F79552E6499B7E722C4E6B6BD5803C873D033688105C6EF739B5 ====

О группе Oceans Of Slumber:

[img]http://nnmclub.ch/forum/image.php?link=https://i6.i...e22a84.jpg[/img]Американский коллектив Oceans Of Slumber до поры до времени ходил в статусе новичков на метал-сцене, и каких-то особых свершений от него поначалу не ждали. Первый альбом, выпущенный своими силами, приглянулся критикам. После была смена вокалиста и контракт с Century Media. И уже второй полноформатник «Winter» укрепил позиции и дал понять, что эта группа — серьезный игрок по данном поприще. И вот почти ровно два года спустя Oceans Of Slumber представили на суд общественности третью работу, озаглавленную «The Banished Heart».
Первое, что обращает на себя внимание — это смена общей атмосферы и настроения. Если «Winter» был довольно быстрым, лиричным и полетным, то вот с «The Banished Heart» ситуация кардинально другая. Музыка стала более среднетемповой, а сама атмосфера – вязкой, мрачной и беспокойной. Она, атмосфера, как бы тянет книзу, в некоторых местах душит и давит, но в этом и вся прелесть. «The Banished Heart» был бы идеальным саундтреком для сериала наподобие «True 1Detective», и это неспроста — альбом невероятно кинематографичен. Он как бы построен по всем законам драматургии. В нем есть завязка в виде «The Decay Of Disregard», своей настороженностью она задает тон всему повествованию, плавно перетекая в «Fleeting Vigilance». Атмосфера нагнетается в хаотичной «At Dawn», дальнейшее развитие сюжета находит свое отражение в волнообразной «The Banished Heart», чтобы далее перейти в кульминацию всей истории в лице «Etiolation» и «A Path To Broken Stars». А последние отголоски оной звучат в «Howl Of Rougarou». И после наступает катарсис в «Her In The Distance», который длится до конца альбома… Эта кинолента не изобилует яркими красками. Она окрашена в холодные тона предрассветного утра. От нее веет безысходностью и унынием, но в ней можно найти и «хэппи-энд», пусть и не в традиционном смысле этого слова.
Говоря о стилистике, следует отметить, что Oceans Of Slumber продолжают творить на поприще современного прогрессив-метала, привнося свои элементы в этот сложный жанр. На данной записи начала превалировать дум-метал-составляющая, в то время как грув-метал-элементы ушли на второй план. Также стало меньше влияния психоделического рока, зато плотно укоренились вставки из дэта и блэка. Это особенно хорошо слышно на примерах песен «At Dawn» и «Howl Of The Rougarou». Гитарных пассажей, присущих традиционному прогрессиву, здесь по сути нет. Зато есть вариативность и разноплановость в контексте одной композиции («Fleeting Vigilance», «The Banished Heart», «A Path To Broken Stars»). Слышна также тяга коллектива в сторону джента, хотя явных джентовых риффов тут не представлено. Порадовала клавишная секция — фортепианные пассажи Доббера Беверли добавляют нужной атмосферы, которая отсылает к традиционному готик-металу. «No Color, No Light» состоит из двух частей: мужская партия отсылает слушателя к хэви-металу, в то время партия женского вокала — это мрачный прогрессив. Свое место в «Wayfaring Stranger» нашли южная готика и кантри-фолк. Также на альбоме присутствуют две интерлюдии: околоэмбиентная «The Watcher» и фортепианная «Her In The Distance».
Огромную роль сыграл также вокал Кэмми Гилберт: ее густой тембр как нельзя кстати подходит данной музыке. Вокал Гилберт довольно разноплановый: она может петь монотонно, придавая еще большей грузности музыке («The Decay Of Disregard»), придавать своему голосу невесомости («A Path To Broken Stars»), показывать эмоциональную сторону («No Color, No Light»), а то и вовсе сделать свой голос бестелесным («Wayfarering Stranger»). Порадовал и мужской вокал. Мощный гроул Шона Гари идеально дополняет музыку, а «чистая» работа Тома Энглунда (Evergrey) на «No Color, No Light» выше всяких похвал.
Резюмируя, хочется вновь кинуть увесистый булыжник в ухоженный огород Джина Симмонса. Невозможно говорить о смерти целого жанра с такими работами как «The Banished Heart». Да, это не звучит как 30 лет назад, но время не стоит на месте, и все развивается. Важно вовремя поймать свою волну в этих темных водах.
Band:
Cammie Gilbert – Vocals
Anthony Contreras – Guitar, Backing Vocals
Sean Gary – Guitar, Vocals
Keegan Kelly – Bass, Backing Vocals
Dobber - Drums, Piano/Synths, Guitar

Soldat_5

Post 11-Dec-2019 11:41

[Quote]

Turisas - The Varangian Way (2007) - Жанр: Epic Viking Metal
Издание: Under license Century Media - FO681CD
Источник: Собственный CD
Продолжительность: 00:43:00
Кодек: FLAC
Битрейт: Lossless
Тип рипа: image + .cue
Треклист:
01. To Holmgard and Beyond
02. A Portage to the Unknown
03. Cursed Be Iron
04. Fields of Gold
05. In the Court of Jarisleif
06. Five Hundred And One
07. The Dnieper Rapids
08. Miklagard Overture

Отчёт EAC:

Exact Audio Copy V1.3 from 2. September 2016
EAC extraction logfile from 23. November 2019, 11:41
Turisas / The Varangian Way
Used drive : HL-DT-STDVDRAM GH22NS40 Adapter: 1 ID: 0
Read mode : Secure
Utilize accurate stream : Yes
Defeat audio cache : Yes
Make use of C2 pointers : No
Read offset correction : 667
Overread into Lead-In and Lead-Out : No
Fill up missing offset samples with silence : Yes
Delete leading and trailing silent blocks : No
Null samples used in CRC calculations : Yes
Used interface : Native Win32 interface for Win NT & 2000
Used output format : User Defined Encoder
Selected bitrate : 1024 kBit/s
Quality : High
Add ID3 tag : No
Command line compressor : C:\Program Files (x86)\Exact Audio Copy\Flac\flac.exe
Additional command line options : -V -8 -T "Date=%year%" -T "Genre=%genre%" %source%
TOC of the extracted CD
Track | Start | Length | Start sector | End sector
---------------------------------------------------------
1 | 0:00.00 | 5:17.64 | 0 | 23838
2 | 5:17.64 | 4:50.31 | 23839 | 45619
3 | 10:08.20 | 5:03.38 | 45620 | 68382
4 | 15:11.58 | 4:34.45 | 68383 | 88977
5 | 19:46.28 | 3:17.35 | 88978 | 103787
6 | 23:03.63 | 6:18.23 | 103788 | 132160
7 | 29:22.11 | 5:20.13 | 132161 | 156173
8 | 34:42.24 | 8:18.01 | 156174 | 193524
Range status and errors
Selected range
Filename Z:\home\meloman\LICENSE CD\TURISAS [2007] The Varangian Way [EAC-FLAC]\Turisas - The Varangian Way.wav
Peak level 97.7 %
Extraction speed 7.0 X
Range quality 99.9 %
Test CRC 6B88B480
Copy CRC 6B88B480
Copy OK
No errors occurred
AccurateRip summary
Track 1 accurately ripped (confidence 2) [ADD44D22] (AR v2)
Track 2 accurately ripped (confidence 2) [07FB833C] (AR v2)
Track 3 accurately ripped (confidence 2) [F0484A8F] (AR v2)
Track 4 accurately ripped (confidence 2) [C6E38E4D] (AR v2)
Track 5 accurately ripped (confidence 2) [30F92D1C] (AR v2)
Track 6 accurately ripped (confidence 2) [CF27F135] (AR v2)
Track 7 accurately ripped (confidence 2) [E7EB92C6] (AR v2)
Track 8 accurately ripped (confidence 2) [9E5FBA56] (AR v2)
All tracks accurately ripped
End of status report
==== Log checksum D8C44318D912EC96D3593E318A26510F8B4B17B45D02C2C2DD6406ED524AC6D7 ====
 

The time now is: Today 00:58

All times are GMT + 3 Hours