Today is a free download without charge Download

Search found 500 matches

Author Message

Soldat_5

Post 20-Jan-2020 17:01

[Quote]

Space Project - The Return Of Space Raiders (2008) - Жанр: Synth-pop
Издание: Space Sound Records - SSR00001
Источник: (релизёр:) s-p-m2009
Продолжительность: 00:54:28
Кодек: FLAC
Битрейт: Lossless
Тип рипа: image + .cue
Треклист:
1 The Return Of Space Raiders (Original Version) 6:48
2 The Return Of Space Raiders (Staffan Öhman Remix) 6:54
3 The Return Of Space Raiders (mindXpander Remix) 8:08
4 The Return Of Space Raiders (Marco Rochowski Remix) 7:09
5 The Return Of Space Raiders (Dreamtime Remix) 6:05
6 The Return Of Space Raiders (Anders Lundqvist - The Shan Mix) 7:07
7 The Return Of Space Raiders (Galaxy Hunter Dance Remix) 4:55
8 The Return Of Space Raiders (A.M. Samurai Remix) 7:18

Отчёт EAC:

xact Audio Copy V1.0 beta 3 from 29. August 2011
Отчёт EAC об извлечении, выполненном 19. января 2020, 22:28
Space Project / The Return Of Space Raiders
Дисковод: TSSTcorpCDDVDW SH-224DB Adapter: 1 ID: 0
Режим чтения : Достоверность
Использование точного потока : Да
Отключение кэша аудио : Да
Использование указателей C2 : Нет
Коррекция смещения при чтении : 6
Способность читать области Lead-in и Lead-out : Нет
Заполнение пропущенных сэмплов тишиной : Да
Удаление блоков с тишиной в начале и конце : Нет
При вычислениях CRC использовались нулевые сэмплы : Да
Интерфейс : Встроенный Win32-интерфейс для Win NT/2000
Выходной формат : Пользовательский кодировщик
Выбранный битрейт : 128 kBit/s
Качество : Высокий
Добавление ID3-тега : Нет
Утилита сжатия : C:\Program Files (x86)\FLAC\flac.exe
Дополнительные параметры : -V -8 -T "Date=%year%" -T "Genre=%genre%" %source%
TOC извлечённого CD
Трек | Старт | Длительность | Начальный сектор | Конечный сектор
---------------------------------------------------------------------
1 | 0:00.00 | 6:48.08 | 0 | 30607
2 | 6:48.08 | 6:54.06 | 30608 | 61663
3 | 13:42.14 | 8:08.34 | 61664 | 98297
4 | 21:50.48 | 7:09.42 | 98298 | 130514
5 | 29:00.15 | 6:05.67 | 130515 | 157956
6 | 35:06.07 | 7:07.16 | 157957 | 189997
7 | 42:13.23 | 4:55.62 | 189998 | 212184
8 | 47:09.10 | 7:18.13 | 212185 | 245047
Характеристики диапазона извлечения и сообщения об ошибках
Выбранный диапазон
Имя файла C:\EAC\Space Project - The Return Of Space Raiders - 2008 CDM\Space Project - The Return Of Space Raiders.wav
Пиковый уровень 98.8 %
Скорость извлечения 2.9 X
Качество диапазона 100.0 %
CRC теста 71943C5F
CRC копии 71943C5F
Копирование... OK
Ошибок не произошло
AccurateRip: сводка
Трек 1 : извлечено точно (доверие 1) [7EEE0B17] (AR v2)
Трек 2 : извлечено точно (доверие 1) [F8608CAA] (AR v2)
Трек 3 : извлечено точно (доверие 1) [5D95FBF2] (AR v2)
Трек 4 : извлечено точно (доверие 1) [B31C9AD3] (AR v2)
Трек 5 : извлечено точно (доверие 1) [E9B25A04] (AR v2)
Трек 6 : извлечено точно (доверие 1) [3498DF6C] (AR v2)
Трек 7 : извлечено точно (доверие 1) [4C40D0F5] (AR v2)
Трек 8 : извлечено точно (доверие 1) [0FF48AC3] (AR v2)
Все треки извлечены точно
Конец отчёта
==== Контрольная сумма отчёта 4C84E4FCDABB96FEFCFEC29D62B1E80771D2E2AD3AE2F7C7D1039E2D5F4EC452 ====

Soldat_5

Post 16-Dec-2019 19:53

[Quote]

Oceans of Slumber - The Banished Heart (2018) - Жанр: Progressive Metal, Doom Metal, Death Metal
Издание: Century Media - 19075801992
Источник (релизер): BACKLASH (MMT)
Продолжительность: 01:05:04
Кодек: FLAC
Битрейт: Lossless
Тип рипа: image + .cue
Наличие сканов: Да, полные

Треклист:
01. The Decay of Disregard (8:59)
02. Fleeting Vigilance (5:26)
03. At Dawn (8:30)
04. The Banished Heart (9:05)
05. The Watcher (2:25)
06. Etiolation (6:01)
07. A Path to Broken Stars (6:32)
08. Howl of the Rougarou (5:03)
09. Her in the Distance (2:03)
10. No Color No Light (7:18)
11. Wayfaring Stranger (3:41)

Лог создания рипа:

Код:
Exact Audio Copy V1.3 from 2. September 2016
EAC extraction logfile from 19. August 2019, 18:20
Oceans of Slumber / The Banished Heart
Used drive  : HL-DT-STDVDRAM GH24NSD1   Adapter: 1  ID: 0
Read mode               : Secure
Utilize accurate stream : Yes
Defeat audio cache      : Yes
Make use of C2 pointers : No
Read offset correction                      : 6
Overread into Lead-In and Lead-Out          : No
Fill up missing offset samples with silence : Yes
Delete leading and trailing silent blocks   : No
Null samples used in CRC calculations       : Yes
Used interface                              : Native Win32 interface for Win NT & 2000
Used output format              : User Defined Encoder
Selected bitrate                : 896 kBit/s
Quality                         : High
Add ID3 tag                     : No
Command line compressor         : C:\Program Files (x86)\Exact Audio Copy\Flac\flac.exe
Additional command line options : -6 -V %source%
TOC of the extracted CD
     Track |   Start  |  Length  | Start sector | End sector
    ---------------------------------------------------------
        1  |  0:00.00 |  8:59.34 |         0    |    40458
        2  |  8:59.34 |  5:25.52 |     40459    |    64885
        3  | 14:25.11 |  8:30.18 |     64886    |   103153
        4  | 22:55.29 |  9:05.30 |    103154    |   144058
        5  | 32:00.59 |  2:25.18 |    144059    |   154951
        6  | 34:26.02 |  6:01.15 |    154952    |   182041
        7  | 40:27.17 |  6:31.52 |    182042    |   211418
        8  | 46:58.69 |  5:02.42 |    211419    |   234110
        9  | 52:01.36 |  2:03.04 |    234111    |   243339
       10  | 54:04.40 |  7:17.41 |    243340    |   276155
       11  | 61:22.06 |  3:41.33 |    276156    |   292763
Range status and errors
Selected range
     Filename C:\Users\User\Music\EAC\Oceans of Slumber - The Banished Heart\Oceans of Slumber - The Banished Heart.wav
     Peak level 100.0 %
     Extraction speed 7.8 X
     Range quality 100.0 %
     Test CRC DBE0570C
     Copy CRC DBE0570C
     Copy OK
No errors occurred
AccurateRip summary
Track  1  accurately ripped (confidence 13)  [50D53633]  (AR v2)
Track  2  accurately ripped (confidence 13)  [771E3AEC]  (AR v2)
Track  3  accurately ripped (confidence 13)  [F5E49744]  (AR v2)
Track  4  accurately ripped (confidence 13)  [5F0DAEE3]  (AR v2)
Track  5  accurately ripped (confidence 13)  [78C5413D]  (AR v2)
Track  6  accurately ripped (confidence 13)  [A29AD1C2]  (AR v2)
Track  7  accurately ripped (confidence 13)  [CDB5E312]  (AR v2)
Track  8  accurately ripped (confidence 13)  [AC23779B]  (AR v2)
Track  9  accurately ripped (confidence 13)  [66DF7095]  (AR v2)
Track 10  accurately ripped (confidence 13)  [9DBEDCB4]  (AR v2)
Track 11  accurately ripped (confidence 12)  [D6AC5675]  (AR v2)
All tracks accurately ripped
End of status report
---- CUETools DB Plugin V2.1.6
[CTDB TOCID: WzdRtoJ_JbkpE47BIMLG_5xbpDU-] found
Submit result: WzdRtoJ_JbkpE47BIMLG_5xbpDU- has been confirmed
Track | CTDB Status
  1   | (59/59) Accurately ripped
  2   | (59/59) Accurately ripped
  3   | (59/59) Accurately ripped
  4   | (59/59) Accurately ripped
  5   | (59/59) Accurately ripped
  6   | (59/59) Accurately ripped
  7   | (59/59) Accurately ripped
  8   | (59/59) Accurately ripped
  9   | (59/59) Accurately ripped
10   | (59/59) Accurately ripped
11   | (59/59) Accurately ripped
==== Log checksum 0B85E9DB3A70F79552E6499B7E722C4E6B6BD5803C873D033688105C6EF739B5 ====

О группе Oceans Of Slumber:

[img]http://nnmclub.ch/forum/image.php?link=https://i6.i...e22a84.jpg[/img]Американский коллектив Oceans Of Slumber до поры до времени ходил в статусе новичков на метал-сцене, и каких-то особых свершений от него поначалу не ждали. Первый альбом, выпущенный своими силами, приглянулся критикам. После была смена вокалиста и контракт с Century Media. И уже второй полноформатник «Winter» укрепил позиции и дал понять, что эта группа — серьезный игрок по данном поприще. И вот почти ровно два года спустя Oceans Of Slumber представили на суд общественности третью работу, озаглавленную «The Banished Heart».
Первое, что обращает на себя внимание — это смена общей атмосферы и настроения. Если «Winter» был довольно быстрым, лиричным и полетным, то вот с «The Banished Heart» ситуация кардинально другая. Музыка стала более среднетемповой, а сама атмосфера – вязкой, мрачной и беспокойной. Она, атмосфера, как бы тянет книзу, в некоторых местах душит и давит, но в этом и вся прелесть. «The Banished Heart» был бы идеальным саундтреком для сериала наподобие «True 1Detective», и это неспроста — альбом невероятно кинематографичен. Он как бы построен по всем законам драматургии. В нем есть завязка в виде «The Decay Of Disregard», своей настороженностью она задает тон всему повествованию, плавно перетекая в «Fleeting Vigilance». Атмосфера нагнетается в хаотичной «At Dawn», дальнейшее развитие сюжета находит свое отражение в волнообразной «The Banished Heart», чтобы далее перейти в кульминацию всей истории в лице «Etiolation» и «A Path To Broken Stars». А последние отголоски оной звучат в «Howl Of Rougarou». И после наступает катарсис в «Her In The Distance», который длится до конца альбома… Эта кинолента не изобилует яркими красками. Она окрашена в холодные тона предрассветного утра. От нее веет безысходностью и унынием, но в ней можно найти и «хэппи-энд», пусть и не в традиционном смысле этого слова.
Говоря о стилистике, следует отметить, что Oceans Of Slumber продолжают творить на поприще современного прогрессив-метала, привнося свои элементы в этот сложный жанр. На данной записи начала превалировать дум-метал-составляющая, в то время как грув-метал-элементы ушли на второй план. Также стало меньше влияния психоделического рока, зато плотно укоренились вставки из дэта и блэка. Это особенно хорошо слышно на примерах песен «At Dawn» и «Howl Of The Rougarou». Гитарных пассажей, присущих традиционному прогрессиву, здесь по сути нет. Зато есть вариативность и разноплановость в контексте одной композиции («Fleeting Vigilance», «The Banished Heart», «A Path To Broken Stars»). Слышна также тяга коллектива в сторону джента, хотя явных джентовых риффов тут не представлено. Порадовала клавишная секция — фортепианные пассажи Доббера Беверли добавляют нужной атмосферы, которая отсылает к традиционному готик-металу. «No Color, No Light» состоит из двух частей: мужская партия отсылает слушателя к хэви-металу, в то время партия женского вокала — это мрачный прогрессив. Свое место в «Wayfaring Stranger» нашли южная готика и кантри-фолк. Также на альбоме присутствуют две интерлюдии: околоэмбиентная «The Watcher» и фортепианная «Her In The Distance».
Огромную роль сыграл также вокал Кэмми Гилберт: ее густой тембр как нельзя кстати подходит данной музыке. Вокал Гилберт довольно разноплановый: она может петь монотонно, придавая еще большей грузности музыке («The Decay Of Disregard»), придавать своему голосу невесомости («A Path To Broken Stars»), показывать эмоциональную сторону («No Color, No Light»), а то и вовсе сделать свой голос бестелесным («Wayfarering Stranger»). Порадовал и мужской вокал. Мощный гроул Шона Гари идеально дополняет музыку, а «чистая» работа Тома Энглунда (Evergrey) на «No Color, No Light» выше всяких похвал.
Резюмируя, хочется вновь кинуть увесистый булыжник в ухоженный огород Джина Симмонса. Невозможно говорить о смерти целого жанра с такими работами как «The Banished Heart». Да, это не звучит как 30 лет назад, но время не стоит на месте, и все развивается. Важно вовремя поймать свою волну в этих темных водах.
Band:
Cammie Gilbert – Vocals
Anthony Contreras – Guitar, Backing Vocals
Sean Gary – Guitar, Vocals
Keegan Kelly – Bass, Backing Vocals
Dobber - Drums, Piano/Synths, Guitar

Soldat_5

Post 11-Dec-2019 11:41

[Quote]

Turisas - The Varangian Way (2007) - Жанр: Epic Viking Metal
Издание: Under license Century Media - FO681CD
Источник: Собственный CD
Продолжительность: 00:43:00
Кодек: FLAC
Битрейт: Lossless
Тип рипа: image + .cue
Треклист:
01. To Holmgard and Beyond
02. A Portage to the Unknown
03. Cursed Be Iron
04. Fields of Gold
05. In the Court of Jarisleif
06. Five Hundred And One
07. The Dnieper Rapids
08. Miklagard Overture

Отчёт EAC:

Exact Audio Copy V1.3 from 2. September 2016
EAC extraction logfile from 23. November 2019, 11:41
Turisas / The Varangian Way
Used drive : HL-DT-STDVDRAM GH22NS40 Adapter: 1 ID: 0
Read mode : Secure
Utilize accurate stream : Yes
Defeat audio cache : Yes
Make use of C2 pointers : No
Read offset correction : 667
Overread into Lead-In and Lead-Out : No
Fill up missing offset samples with silence : Yes
Delete leading and trailing silent blocks : No
Null samples used in CRC calculations : Yes
Used interface : Native Win32 interface for Win NT & 2000
Used output format : User Defined Encoder
Selected bitrate : 1024 kBit/s
Quality : High
Add ID3 tag : No
Command line compressor : C:\Program Files (x86)\Exact Audio Copy\Flac\flac.exe
Additional command line options : -V -8 -T "Date=%year%" -T "Genre=%genre%" %source%
TOC of the extracted CD
Track | Start | Length | Start sector | End sector
---------------------------------------------------------
1 | 0:00.00 | 5:17.64 | 0 | 23838
2 | 5:17.64 | 4:50.31 | 23839 | 45619
3 | 10:08.20 | 5:03.38 | 45620 | 68382
4 | 15:11.58 | 4:34.45 | 68383 | 88977
5 | 19:46.28 | 3:17.35 | 88978 | 103787
6 | 23:03.63 | 6:18.23 | 103788 | 132160
7 | 29:22.11 | 5:20.13 | 132161 | 156173
8 | 34:42.24 | 8:18.01 | 156174 | 193524
Range status and errors
Selected range
Filename Z:\home\meloman\LICENSE CD\TURISAS [2007] The Varangian Way [EAC-FLAC]\Turisas - The Varangian Way.wav
Peak level 97.7 %
Extraction speed 7.0 X
Range quality 99.9 %
Test CRC 6B88B480
Copy CRC 6B88B480
Copy OK
No errors occurred
AccurateRip summary
Track 1 accurately ripped (confidence 2) [ADD44D22] (AR v2)
Track 2 accurately ripped (confidence 2) [07FB833C] (AR v2)
Track 3 accurately ripped (confidence 2) [F0484A8F] (AR v2)
Track 4 accurately ripped (confidence 2) [C6E38E4D] (AR v2)
Track 5 accurately ripped (confidence 2) [30F92D1C] (AR v2)
Track 6 accurately ripped (confidence 2) [CF27F135] (AR v2)
Track 7 accurately ripped (confidence 2) [E7EB92C6] (AR v2)
Track 8 accurately ripped (confidence 2) [9E5FBA56] (AR v2)
All tracks accurately ripped
End of status report
==== Log checksum D8C44318D912EC96D3593E318A26510F8B4B17B45D02C2C2DD6406ED524AC6D7 ====

Dracula

Post 22-Nov-2019 14:08

[Quote]

Топик был перенесен из форума Rock в форум Metal


Soldat_5

Soldat_5

Post 22-Nov-2019 14:06

[Quote]

Чёрный кофе / Трёхдисковое подарочное издание "Студии А"
Жанр: Heavy Metal
Носитель: CDR
Страна-производитель диска (релиза): Россия
Год издания: 2010
Издатель (лейбл): Студия "А"
Номер по каталогу: SA-393
Страна исполнителя (группы): СССР
Аудиокодек: FLAC (*.flac)
Тип рипа: image+.cue
Источник: собственный рип
Наличие сканов в содержимом раздачи: да

Сладкий ангел (1985) (00:32:08)

1.Сладкий ангел
2.Звуки космоса
3.Пылает за окном звезда
4.Я знаю
5.Смыты все краски лета
6.Листья
7.Лилия
8.Чёрный кофе
9.Я уйду

Лог создания рипа

Exact Audio Copy V1.3 from 2. September 2016
Отчёт EAC об извлечении, выполненном 21. ноября 2019, 23:02
Чёрный кофе / Сладкий ангел (Пески вр.-2010)
Дисковод: TS8XDVDSTRANSCEND Adapter: 1 ID: 1
Режим чтения : Достоверность
Использование точного потока : Да
Отключение кэша аудио : Да
Использование указателей C2 : Нет
Коррекция смещения при чтении : 6
Способность читать области Lead-in и Lead-out : Нет
Заполнение пропущенных сэмплов тишиной : Да
Удаление блоков с тишиной в начале и конце : Нет
При вычислениях CRC использовались нулевые сэмплы : Да
Интерфейс : Встроенный Win32-интерфейс для Win NT/2000
Выходной формат : Пользовательский кодировщик
Выбранный битрейт : 896 kBit/s
Качество : Высокий
Добавление ID3-тега : Нет
Утилита сжатия : C:\Program Files (x86)\Exact Audio Copy\Flac\flac.exe
Дополнительные параметры : -V -8 -T "Date=%year%" -T "Genre=%genre%" %source%
TOC извлечённого CD
Трек | Старт | Длительность | Начальный сектор | Конечный сектор
---------------------------------------------------------------------
1 | 0:00.00 | 3:26.66 | 0 | 15515
2 | 3:26.66 | 4:14.36 | 15516 | 34601
3 | 7:41.27 | 3:14.36 | 34602 | 49187
4 | 10:55.63 | 2:51.42 | 49188 | 62054
5 | 13:47.30 | 4:38.16 | 62055 | 82920
6 | 18:25.46 | 2:56.43 | 82921 | 96163
7 | 21:22.14 | 4:07.41 | 96164 | 114729
8 | 25:29.55 | 2:57.56 | 114730 | 128060
9 | 28:27.36 | 3:40.42 | 128061 | 144602
Характеристики диапазона извлечения и сообщения об ошибках
Выбранный диапазон
Имя файла E:\_Альбомы-раздачи lossless\Чёрный кофе\Чёрный кофе-1985-Сладкий ангел (Пески вр.-2010)\Сладкий ангел.wav
Пиковый уровень 96.6 %
Скорость извлечения 4.1 X
Качество диапазона 100.0 %
CRC теста 247806C0
CRC копии 247806C0
Копирование... OK
Ошибок не произошло
AccurateRip: сводка
Трек 1 отсутствует в базе данных
Трек 2 отсутствует в базе данных
Трек 3 отсутствует в базе данных
Трек 4 отсутствует в базе данных
Трек 5 отсутствует в базе данных
Трек 6 отсутствует в базе данных
Трек 7 отсутствует в базе данных
Трек 8 отсутствует в базе данных
Трек 9 отсутствует в базе данных
Ни одного трека нет в базе AccurateRip
Конец отчёта
==== Контрольная сумма отчёта 668CC898474FFAD62CF6139D8A42FC9A707EEB477BCE4E646F5117C70855D278 ====

Об альбоме (сборнике)

"Сладкий ангел" - демо-альбом, официально не издавался.

Состав

Дмитрий Варшавский – гитара, вокал
Игорь Куприянов - бас гитара, вокал
Сергей Черняков – ударные
Сергей Кудишин – гитара
---------------------------------------------------------

Светлый металл (1986) (00:41:35)

01.Знамя мира
02.Это - рок!
03.Светлый металл
04.Владимирская Русь
05.Дьявол во плоти
06.Незнакомец
07.Путешествие в жизнь
08.Переступи порог
09.Звёздный водоём
10.Звуки космоса
11.Чёрный кофе

Лог создания рипа

Exact Audio Copy V1.3 from 2. September 2016
Отчёт EAC об извлечении, выполненном 21. ноября 2019, 23:41
Чёрный кофе / Светлый металл (Пески вр.-2010)
Дисковод: TS8XDVDSTRANSCEND Adapter: 1 ID: 1
Режим чтения : Достоверность
Использование точного потока : Да
Отключение кэша аудио : Да
Использование указателей C2 : Нет
Коррекция смещения при чтении : 6
Способность читать области Lead-in и Lead-out : Нет
Заполнение пропущенных сэмплов тишиной : Да
Удаление блоков с тишиной в начале и конце : Нет
При вычислениях CRC использовались нулевые сэмплы : Да
Интерфейс : Встроенный Win32-интерфейс для Win NT/2000
Выходной формат : Пользовательский кодировщик
Выбранный битрейт : 896 kBit/s
Качество : Высокий
Добавление ID3-тега : Нет
Утилита сжатия : C:\Program Files (x86)\Exact Audio Copy\Flac\flac.exe
Дополнительные параметры : -V -8 -T "Date=%year%" -T "Genre=%genre%" %source%
TOC извлечённого CD
Трек | Старт | Длительность | Начальный сектор | Конечный сектор
---------------------------------------------------------------------
1 | 0:00.00 | 3:27.68 | 0 | 15592
2 | 3:27.68 | 4:17.09 | 15593 | 34876
3 | 7:45.02 | 3:16.71 | 34877 | 49647
4 | 11:01.73 | 4:37.07 | 49648 | 70429
5 | 15:39.05 | 2:54.25 | 70430 | 83504
6 | 18:33.30 | 4:17.08 | 83505 | 102787
7 | 22:50.38 | 3:38.20 | 102788 | 119157
8 | 26:28.58 | 4:16.52 | 119158 | 138409
9 | 30:45.35 | 3:17.58 | 138410 | 153242
10 | 34:03.18 | 4:49.53 | 153243 | 174970
11 | 38:52.71 | 2:42.64 | 174971 | 187184
Характеристики диапазона извлечения и сообщения об ошибках
Выбранный диапазон
Имя файла E:\_Альбомы-раздачи lossless\Чёрный кофе\Чёрный кофе-1986-Светлый металл (Пески вр.-2010)\Светлый металл.wav
Пиковый уровень 100.0 %
Скорость извлечения 4.4 X
Качество диапазона 100.0 %
CRC теста 23844BAE
CRC копии 23844BAE
Копирование... OK
Ошибок не произошло
AccurateRip: сводка
Трек 1 отсутствует в базе данных
Трек 2 отсутствует в базе данных
Трек 3 отсутствует в базе данных
Трек 4 отсутствует в базе данных
Трек 5 отсутствует в базе данных
Трек 6 отсутствует в базе данных
Трек 7 отсутствует в базе данных
Трек 8 отсутствует в базе данных
Трек 9 отсутствует в базе данных
Трек 10 отсутствует в базе данных
Трек 11 отсутствует в базе данных
Ни одного трека нет в базе AccurateRip
Конец отчёта
==== Контрольная сумма отчёта 8019F09571F8E898C0D77E6670D34951006155B9D48814914E8EC0C4D5CDA0EC ====

Об альбоме

Ранняя демо-версия альбома. Интересна композицией "Незнакомец", позже на альбоме "Переступи порог" эта композиция была представлена в несколько иной версии.
----------------------------------------------------------

Концерт в Центральном Доме туриста (1986) (00:37:10)

1.Вступление Ованеса Мелик-Пашаева
2.Переступи порог
3.Владимирская Русь
4.Светлый металл
5.Мой дом на круче
6.Я ищу
7.Знамя мира
8.Чёрный кофе
9.Замыкая круг

Лог создания рипа

Exact Audio Copy V1.3 from 2. September 2016
Отчёт EAC об извлечении, выполненном 22. ноября 2019, 0:07
Чёрный кофе / Концерт в ЦДТ 02.05.1986 (Пески вр.-2010)
Дисковод: TS8XDVDSTRANSCEND Adapter: 1 ID: 1
Режим чтения : Достоверность
Использование точного потока : Да
Отключение кэша аудио : Да
Использование указателей C2 : Нет
Коррекция смещения при чтении : 6
Способность читать области Lead-in и Lead-out : Нет
Заполнение пропущенных сэмплов тишиной : Да
Удаление блоков с тишиной в начале и конце : Нет
При вычислениях CRC использовались нулевые сэмплы : Да
Интерфейс : Встроенный Win32-интерфейс для Win NT/2000
Выходной формат : Пользовательский кодировщик
Выбранный битрейт : 896 kBit/s
Качество : Высокий
Добавление ID3-тега : Нет
Утилита сжатия : C:\Program Files (x86)\Exact Audio Copy\Flac\flac.exe
Дополнительные параметры : -V -8 -T "Date=%year%" -T "Genre=%genre%" %source%
TOC извлечённого CD
Трек | Старт | Длительность | Начальный сектор | Конечный сектор
---------------------------------------------------------------------
1 | 0:00.00 | 3:44.29 | 0 | 16828
2 | 3:44.29 | 4:14.28 | 16829 | 35906
3 | 7:58.57 | 4:55.17 | 35907 | 58048
4 | 12:53.74 | 3:20.67 | 58049 | 73115
5 | 16:14.66 | 3:13.19 | 73116 | 87609
6 | 19:28.10 | 4:26.08 | 87610 | 107567
7 | 23:54.18 | 3:43.55 | 107568 | 124347
8 | 27:37.73 | 3:39.06 | 124348 | 140778
9 | 31:17.04 | 5:53.17 | 140779 | 167270
Характеристики диапазона извлечения и сообщения об ошибках
Выбранный диапазон
Имя файла E:\_Альбомы-раздачи lossless\Чёрный кофе\Чёрный кофе-1986-Концерт в ЦДТ 02.05.1986 (Пески вр.-2010)\Концерт в ЦДТ 02.05.1986.wav
Пиковый уровень 99.6 %
Скорость извлечения 4.3 X
Качество диапазона 100.0 %
CRC теста 7367ECE7
CRC копии 7367ECE7
Копирование... OK
Ошибок не произошло
AccurateRip: сводка
Трек 1 отсутствует в базе данных
Трек 2 отсутствует в базе данных
Трек 3 отсутствует в базе данных
Трек 4 отсутствует в базе данных
Трек 5 отсутствует в базе данных
Трек 6 отсутствует в базе данных
Трек 7 отсутствует в базе данных
Трек 8 отсутствует в базе данных
Трек 9 отсутствует в базе данных
Ни одного трека нет в базе AccurateRip
Конец отчёта
==== Контрольная сумма отчёта 9923E0F7704FFC5F1729B4C299BD98BC99E5A4D6D3BD29B209D9109318284E78 ====

Об альбоме

Концертное выступление группы Дмитрия Варшавского "Чёрный кофе" 2 мая 1986 года в рамках программы "Замыкая круг" Ованеса Мелик-Пашаева. «Замыкая круг» — известная песня, написанная Крисом Кельми на стихи Маргаритой Пушкиной.
В 1986 году Дмитрий Варшавский устроился на работу в Марийскую филармонию к известному музыкальному менеджеру Ованесу Мелик-Пашаеву. С ним «Черный кофе» проработал два года, в течение которых группа выпустила два альбома, вела активную гастрольную деятельность (в том числе выехала в Испанию). Альбомы группы расходились по СССР миллионными тиражами.
---------------------------------------------------------

Фото

Доп. информация

Рип с компакт-дисков Студии А, 2010, SA-393, (3 CD-r).

sergej644

Post 26-Sep-2019 17:46

[Quote]

-VA - Heavy Metal Collections Vol.14 (3CD)--
Год издания: 2019
Страна: n/a
Жанр: Power, Symphonic, Heavy Metal
Продолжительность: 03:41:04-Формат: FLAC
Битрейт аудио: Lossless
Тип рипа: tracks
Наличие сканов в содержимом раздачи: photoshop
-

Трэклист

CD 1 | 01:08:15


01. Burning Witches - Lords Of War (2018) (3:38)
02. Striker - Heart Of Lies (2018) (4:04)
03. Queensryche - 46 North (2019) (3:33)
04. Grailknights - Black Spider's Web (2018) (4:27)
05. Phantom - Baptised (2017) (4:15)
06. Manigance - Ennemi (2018) (4:09)
07. Secret Sphere - Love (2017) (4:13)
08. Dead Of Night - Here Come The Metal Men (2018) (5:46)
09. Seven Thorns - Beneath A Crescent Moon (2018) (5:16)
10. Mass - Alive (2018) (4:31)
11. Rhapsody Of Fire - March Against The Tyrant (2019) (9:23)
12. Sinbreed - Falling Down (2018) (4:51)
13. The Three Tremors - When The Last Scream Fades (2019) (6:04)
14. Primal Fear - The Ritual (2018) (4:05)

CD 2 | 01:20:53


01. Nozomu Wakai's Destinia - Metal Souls (2018) (5:12)
02. Mega Colossus - Betta Master (2016) (5:13)
03. Beast In Black - Cry Out For A Hero (2019) (3:28)
04. Sirenia - Asphyxia (2018) (5:38)
05. White Wizzard - Voyage of the Wold Raiders (2018) (9:38)
06. Stonelake - Hold On To You (2018) (3:39)
07. HammerFall - Redemption (2011) (7:02)
08. Tower Of Babel - Midnight Sun (2017) (5:22)
09. Mike Lepond's Silent Assassins - Black Legend (2018) (4:33)
10. Elvenstorm - Bloodlust (2018) (5:06)
11. Midnight Sun - Metal Machine (2001) (4:29)
12. Pertness - Fortress (2018) (4:03)
13. Lost in Grey - Drifting in the Universe (2019) (12:41)
14. Venom - 100 Miles To Hell (2018) (4:48)

CD 3 | 01:11:56


01. Metal Inquisitor - Beyond Nightmares (2019) (5:26)
02. Victorius - Sons of Orion (2017) (5:08)
03. American Bombshell - Faster (2019) (3:33)
04. Last Union - Taken (feat. James LaBrie) (Radio Edit) (2019) (3:42)
05. Trick Or Treat - Jem (feat. Sara Squadrani) (2018) (3:17)
06. Sinbreed - At Least I Am (2018) (6:14)
07. Starbreaker - Days Of Confusion (2005) (4:26)
08. Thornbridge - Ember in the Winter Grove (2019) (4:42)
09. John Steel & Doogie White - From Dusk 'Til Dawn (2017) (5:43)
10. Torian - Old Friend Failure (2018) (4:28)
11. THE MAN - THE HELLION - ELECTRIC EYE (4:24)
12. Gonoreas - Puzzle (2017) (5:27)
13. Witherfall - Vintage (2018) (11:06)
14. Melted Space - Missing Creed (2018) (4:20)
-

Лог Audiochecker

CD 1

Код:
AUDIOCHECKER v2.0 beta (build 457)
~~~~~~~~~~~~~~~~~~~~~~~~~~~~~~~~~~
Started at: понедельник, 23. 09. 2019. - 14:36.23
14 files found
01 -===- K:\музыка на релиз\Proekt Heavy Metal Vol 1 - .... (sergej644)\VA - Heavy Metal Collections Vol.14 (3CD) - 2019 FLAC\CD 1\01. Burning Witches - Lords Of War (2018).flac
  Extracted successfully
  Conclusion: this track is CDDA with probability 100%
  Tempfile successfully deleted.
02 -===- K:\музыка на релиз\Proekt Heavy Metal Vol 1 - .... (sergej644)\VA - Heavy Metal Collections Vol.14 (3CD) - 2019 FLAC\CD 1\02. Striker - Heart Of Lies (2018).flac
  Extracted successfully
  Conclusion: this track is CDDA with probability 100%
  Tempfile successfully deleted.
03 -===- K:\музыка на релиз\Proekt Heavy Metal Vol 1 - .... (sergej644)\VA - Heavy Metal Collections Vol.14 (3CD) - 2019 FLAC\CD 1\03. Queensryche - 46 North (2019).flac
  Extracted successfully
  Conclusion: this track is CDDA with probability 100%
  Tempfile successfully deleted.
04 -===- K:\музыка на релиз\Proekt Heavy Metal Vol 1 - .... (sergej644)\VA - Heavy Metal Collections Vol.14 (3CD) - 2019 FLAC\CD 1\04. Grailknights - Black Spider's Web (2018).flac
  Extracted successfully
  Conclusion: this track is CDDA with probability 100%
  Tempfile successfully deleted.
05 -===- K:\музыка на релиз\Proekt Heavy Metal Vol 1 - .... (sergej644)\VA - Heavy Metal Collections Vol.14 (3CD) - 2019 FLAC\CD 1\05. Phantom - Baptised (2017).flac
  Extracted successfully
  Conclusion: this track is CDDA with probability 100%
  Tempfile successfully deleted.
06 -===- K:\музыка на релиз\Proekt Heavy Metal Vol 1 - .... (sergej644)\VA - Heavy Metal Collections Vol.14 (3CD) - 2019 FLAC\CD 1\06. Manigance - Ennemi (2018).flac
  Extracted successfully
  Conclusion: this track is CDDA with probability 99%
  Tempfile successfully deleted.
07 -===- K:\музыка на релиз\Proekt Heavy Metal Vol 1 - .... (sergej644)\VA - Heavy Metal Collections Vol.14 (3CD) - 2019 FLAC\CD 1\07. Secret Sphere - Love (2017).flac
  Extracted successfully
  Conclusion: this track is CDDA with probability 100%
  Tempfile successfully deleted.
08 -===- K:\музыка на релиз\Proekt Heavy Metal Vol 1 - .... (sergej644)\VA - Heavy Metal Collections Vol.14 (3CD) - 2019 FLAC\CD 1\08. Dead Of Night - Here Come The Metal Men (2018).flac
  Extracted successfully
  Conclusion: this track is CDDA with probability 99%
  Tempfile successfully deleted.
09 -===- K:\музыка на релиз\Proekt Heavy Metal Vol 1 - .... (sergej644)\VA - Heavy Metal Collections Vol.14 (3CD) - 2019 FLAC\CD 1\09. Seven Thorns - Beneath A Crescent Moon (2018).flac
  Extracted successfully
  Conclusion: this track is CDDA with probability 100%
  Tempfile successfully deleted.
10 -===- K:\музыка на релиз\Proekt Heavy Metal Vol 1 - .... (sergej644)\VA - Heavy Metal Collections Vol.14 (3CD) - 2019 FLAC\CD 1\10. Mass - Alive (2018).flac
  Extracted successfully
  Conclusion: this track is CDDA with probability 100%
  Tempfile successfully deleted.
11 -===- K:\музыка на релиз\Proekt Heavy Metal Vol 1 - .... (sergej644)\VA - Heavy Metal Collections Vol.14 (3CD) - 2019 FLAC\CD 1\11. Rhapsody Of Fire - March Against The Tyrant (2019).flac
  Extracted successfully
  Conclusion: this track is CDDA with probability 100%
  Tempfile successfully deleted.
12 -===- K:\музыка на релиз\Proekt Heavy Metal Vol 1 - .... (sergej644)\VA - Heavy Metal Collections Vol.14 (3CD) - 2019 FLAC\CD 1\12. Sinbreed - Falling Down (2018).flac
  Extracted successfully
  Conclusion: this track is CDDA with probability 99%
  Tempfile successfully deleted.
13 -===- K:\музыка на релиз\Proekt Heavy Metal Vol 1 - .... (sergej644)\VA - Heavy Metal Collections Vol.14 (3CD) - 2019 FLAC\CD 1\13. The Three Tremors - When The Last Scream Fades (2019).flac
  Extracted successfully
  Conclusion: this track is CDDA with probability 100%
  Tempfile successfully deleted.
14 -===- K:\музыка на релиз\Proekt Heavy Metal Vol 1 - .... (sergej644)\VA - Heavy Metal Collections Vol.14 (3CD) - 2019 FLAC\CD 1\14. Primal Fear - The Ritual (2018).flac
  Extracted successfully
  Conclusion: this track is CDDA with probability 100%
  Tempfile successfully deleted.
Finished at: понедельник, 23. 09. 2019. - 14:38.32 (operation time: 0:02.08)

CD 2

Код:
AUDIOCHECKER v2.0 beta (build 457)
~~~~~~~~~~~~~~~~~~~~~~~~~~~~~~~~~~
Started at: понедельник, 23. 09. 2019. - 14:40.31
14 files found
01 -===- K:\музыка на релиз\Proekt Heavy Metal Vol 1 - .... (sergej644)\VA - Heavy Metal Collections Vol.14 (3CD) - 2019 FLAC\CD 2\01. Nozomu Wakai's Destinia - Metal Souls (2018).flac
  Extracted successfully
  Conclusion: this track is CDDA with probability 100%
  Tempfile successfully deleted.
02 -===- K:\музыка на релиз\Proekt Heavy Metal Vol 1 - .... (sergej644)\VA - Heavy Metal Collections Vol.14 (3CD) - 2019 FLAC\CD 2\02. Mega Colossus - Betta Master (2016).flac
  Extracted successfully
  Conclusion: this track is CDDA with probability 100%
  Tempfile successfully deleted.
03 -===- K:\музыка на релиз\Proekt Heavy Metal Vol 1 - .... (sergej644)\VA - Heavy Metal Collections Vol.14 (3CD) - 2019 FLAC\CD 2\03. Beast In Black - Cry Out For A Hero (2019).flac
  Extracted successfully
  Conclusion: this track is CDDA with probability 100%
  Tempfile successfully deleted.
04 -===- K:\музыка на релиз\Proekt Heavy Metal Vol 1 - .... (sergej644)\VA - Heavy Metal Collections Vol.14 (3CD) - 2019 FLAC\CD 2\04. Sirenia - Asphyxia (2018).flac
  Extracted successfully
  Conclusion: this track is CDDA with probability 100%
  Tempfile successfully deleted.
05 -===- K:\музыка на релиз\Proekt Heavy Metal Vol 1 - .... (sergej644)\VA - Heavy Metal Collections Vol.14 (3CD) - 2019 FLAC\CD 2\05. White Wizzard - Voyage of the Wold Raiders (2018).flac
  Extracted successfully
  Conclusion: this track is CDDA with probability 100%
  Tempfile successfully deleted.
06 -===- K:\музыка на релиз\Proekt Heavy Metal Vol 1 - .... (sergej644)\VA - Heavy Metal Collections Vol.14 (3CD) - 2019 FLAC\CD 2\06. Stonelake - Hold On To You (2018).flac
  Extracted successfully
  Conclusion: this track is CDDA with probability 100%
  Tempfile successfully deleted.
07 -===- K:\музыка на релиз\Proekt Heavy Metal Vol 1 - .... (sergej644)\VA - Heavy Metal Collections Vol.14 (3CD) - 2019 FLAC\CD 2\07. HammerFall - Redemption (2011).flac
  Extracted successfully
  Conclusion: this track is CDDA with probability 100%
  Tempfile successfully deleted.
08 -===- K:\музыка на релиз\Proekt Heavy Metal Vol 1 - .... (sergej644)\VA - Heavy Metal Collections Vol.14 (3CD) - 2019 FLAC\CD 2\08. Tower Of Babel - Midnight Sun (2017).flac
  Extracted successfully
  Conclusion: this track is CDDA with probability 100%
  Tempfile successfully deleted.
09 -===- K:\музыка на релиз\Proekt Heavy Metal Vol 1 - .... (sergej644)\VA - Heavy Metal Collections Vol.14 (3CD) - 2019 FLAC\CD 2\09. Mike Lepond's Silent Assassins - Black Legend (2018).flac
  Extracted successfully
  Conclusion: this track is CDDA with probability 100%
  Tempfile successfully deleted.
10 -===- K:\музыка на релиз\Proekt Heavy Metal Vol 1 - .... (sergej644)\VA - Heavy Metal Collections Vol.14 (3CD) - 2019 FLAC\CD 2\10. Elvenstorm - Bloodlust (2018).flac
  Extracted successfully
  Conclusion: this track is CDDA with probability 100%
  Tempfile successfully deleted.
11 -===- K:\музыка на релиз\Proekt Heavy Metal Vol 1 - .... (sergej644)\VA - Heavy Metal Collections Vol.14 (3CD) - 2019 FLAC\CD 2\11. Midnight Sun - Metal Machine (2001).flac
  Extracted successfully
  Conclusion: this track is CDDA with probability 100%
  Tempfile successfully deleted.
12 -===- K:\музыка на релиз\Proekt Heavy Metal Vol 1 - .... (sergej644)\VA - Heavy Metal Collections Vol.14 (3CD) - 2019 FLAC\CD 2\12. Pertness - Fortress (2018).flac
  Extracted successfully
  Conclusion: this track is CDDA with probability 100%
  Tempfile successfully deleted.
13 -===- K:\музыка на релиз\Proekt Heavy Metal Vol 1 - .... (sergej644)\VA - Heavy Metal Collections Vol.14 (3CD) - 2019 FLAC\CD 2\13. Lost in Grey - Drifting in the Universe (2019).flac
  Extracted successfully
  Conclusion: this track is CDDA with probability 100%
  Tempfile successfully deleted.
14 -===- K:\музыка на релиз\Proekt Heavy Metal Vol 1 - .... (sergej644)\VA - Heavy Metal Collections Vol.14 (3CD) - 2019 FLAC\CD 2\14. Venom - 100 Miles To Hell (2018).flac
  Extracted successfully
  Conclusion: this track is CDDA with probability 100%
  Tempfile successfully deleted.
Finished at: понедельник, 23. 09. 2019. - 14:43.05 (operation time: 0:02.33)

CD 3

Код:
AUDIOCHECKER v2.0 beta (build 457)
~~~~~~~~~~~~~~~~~~~~~~~~~~~~~~~~~~
Started at: понедельник, 23. 09. 2019. - 14:44.19
14 files found
01 -===- K:\музыка на релиз\Proekt Heavy Metal Vol 1 - .... (sergej644)\VA - Heavy Metal Collections Vol.14 (3CD) - 2019 FLAC\CD 3\01. Metal Inquisitor - Beyond Nightmares (2019).flac
  Extracted successfully
  Conclusion: this track is CDDA with probability 100%
  Tempfile successfully deleted.
02 -===- K:\музыка на релиз\Proekt Heavy Metal Vol 1 - .... (sergej644)\VA - Heavy Metal Collections Vol.14 (3CD) - 2019 FLAC\CD 3\02. Victorius - Sons of Orion (2017).flac
  Extracted successfully
  Conclusion: this track is CDDA with probability 99%
  Tempfile successfully deleted.
03 -===- K:\музыка на релиз\Proekt Heavy Metal Vol 1 - .... (sergej644)\VA - Heavy Metal Collections Vol.14 (3CD) - 2019 FLAC\CD 3\03. American Bombshell - Faster (2019).flac
  Extracted successfully
  Conclusion: this track is CDDA with probability 100%
  Tempfile successfully deleted.
04 -===- K:\музыка на релиз\Proekt Heavy Metal Vol 1 - .... (sergej644)\VA - Heavy Metal Collections Vol.14 (3CD) - 2019 FLAC\CD 3\04. Last Union - Taken (feat. James LaBrie) (Radio Edit) (2019).flac
  Extracted successfully
  Conclusion: this track is CDDA with probability 100%
  Tempfile successfully deleted.
05 -===- K:\музыка на релиз\Proekt Heavy Metal Vol 1 - .... (sergej644)\VA - Heavy Metal Collections Vol.14 (3CD) - 2019 FLAC\CD 3\05. Trick Or Treat - Jem (feat. Sara Squadrani) (2018).flac
  Extracted successfully
  Conclusion: this track is CDDA with probability 100%
  Tempfile successfully deleted.
06 -===- K:\музыка на релиз\Proekt Heavy Metal Vol 1 - .... (sergej644)\VA - Heavy Metal Collections Vol.14 (3CD) - 2019 FLAC\CD 3\06. Sinbreed - At Least I Am (2018).flac
  Extracted successfully
  Conclusion: this track is CDDA with probability 100%
  Tempfile successfully deleted.
07 -===- K:\музыка на релиз\Proekt Heavy Metal Vol 1 - .... (sergej644)\VA - Heavy Metal Collections Vol.14 (3CD) - 2019 FLAC\CD 3\07. Starbreaker - Days Of Confusion (2005).flac
  Extracted successfully
  Conclusion: this track is CDDA with probability 100%
  Tempfile successfully deleted.
08 -===- K:\музыка на релиз\Proekt Heavy Metal Vol 1 - .... (sergej644)\VA - Heavy Metal Collections Vol.14 (3CD) - 2019 FLAC\CD 3\08. Thornbridge - Ember in the Winter Grove (2019).flac
  Extracted successfully
  Conclusion: this track is CDDA with probability 100%
  Tempfile successfully deleted.
09 -===- K:\музыка на релиз\Proekt Heavy Metal Vol 1 - .... (sergej644)\VA - Heavy Metal Collections Vol.14 (3CD) - 2019 FLAC\CD 3\09. John Steel & Doogie White - From Dusk 'Til Dawn (2017).flac
  Extracted successfully
  Conclusion: this track is CDDA with probability 100%
  Tempfile successfully deleted.
10 -===- K:\музыка на релиз\Proekt Heavy Metal Vol 1 - .... (sergej644)\VA - Heavy Metal Collections Vol.14 (3CD) - 2019 FLAC\CD 3\10. Torian - Old Friend Failure (2018).flac
  Extracted successfully
  Conclusion: this track is CDDA with probability 100%
  Tempfile successfully deleted.
11 -===- K:\музыка на релиз\Proekt Heavy Metal Vol 1 - .... (sergej644)\VA - Heavy Metal Collections Vol.14 (3CD) - 2019 FLAC\CD 3\11. THE MAN - The Hellion (Electric Eye)(cover Judas Priest) (2019).flac
  Extracted successfully
  Conclusion: this track is CDDA with probability 100%
  Tempfile successfully deleted.
12 -===- K:\музыка на релиз\Proekt Heavy Metal Vol 1 - .... (sergej644)\VA - Heavy Metal Collections Vol.14 (3CD) - 2019 FLAC\CD 3\12. Gonoreas - Puzzle (2017).flac
  Extracted successfully
  Conclusion: this track is CDDA with probability 100%
  Tempfile successfully deleted.
13 -===- K:\музыка на релиз\Proekt Heavy Metal Vol 1 - .... (sergej644)\VA - Heavy Metal Collections Vol.14 (3CD) - 2019 FLAC\CD 3\13. Witherfall - Vintage (2018).flac
  Extracted successfully
  Conclusion: this track is CDDA with probability 100%
  Tempfile successfully deleted.
14 -===- K:\музыка на релиз\Proekt Heavy Metal Vol 1 - .... (sergej644)\VA - Heavy Metal Collections Vol.14 (3CD) - 2019 FLAC\CD 3\14. Melted Space - Missing Creed (2018).flac
  Extracted successfully
  Conclusion: this track is CDDA with probability 99%
  Tempfile successfully deleted.
Finished at: понедельник, 23. 09. 2019. - 14:46.37 (operation time: 0:02.17)
--© Оформление и релиз by sergej644 - раздаю с 10:00 до 02:00 ночи --

1958bis

Post 23-Sep-2019 15:11

[Quote]

За графику — особое спасибо!!! Супер!

sergej644

Post 22-Sep-2019 21:19

[Quote]

-VA - Heavy Metal Collections Vol.13 (3CD)--
Год издания: 2019
Страна: n/a
Жанр: Power, Symphonic, Heavy Metal
Продолжительность: 03:16:54--Формат: FLAC
Битрейт аудио: Lossless
Тип рипа: tracks
Наличие сканов в содержимом раздачи: photoshop
-

Трэклист

CD 1 | 01:01:32


01. Beast In Black - Die By The Blade (2019) (3:15)
02. Free From Sin - Faces Of Christ (2018) (5:19)
03. Serenity - United (2017) (5:34)
04. Mega Colossus - Behold The Worm (2016) (4:49)
05. Grand Design - Rawk 'N Roll Hysteria (2018) (3:32)
06. HammerFall - One More Time (2011) (4:08)
07. Aldaria - Trail Of Tears (2017) (4:32)
08. Sleeping Romance - Enlighten (2013) (4:28)
09. Brothers Of Metal - Prophecy Of Ragnarok (2017) (3:42)
10. Iron Savior - Kill Or Get Killed (2019) (5:43)
11. Dynazty - Breathe With Me (2018) (4:07)
12. Starbreaker - Transparent (2005) (4:36)
13. Blazon Stone - Rock Out (2017) (3:26)
14. Freedom Call - M.E.T.A.L. (2019) (4:20)

CD 2 | 01:05:18


01. Millennium - False Reality (2018) (4:38)
02. Guardians Of Time - Raise The Eagle (2018) (5:13)
03. Frozen Land - Delusions Of Grandeur (2018) (3:21)
04. Dream Child - Games Of Shadows (2018) (5:59)
05. Beyond The Black - Hallelujah (2015) (5:22)
06. Chaos Magic - I'm Alive (2015) (3:42)
07. At Vance - Lost in Your Love (1999) (4:34)
08. God's Army - Enemy Maker (2018) (3:39)
09. Dark Moor - Birth of the Sun (20108) (4:32)
10. Luca Turilli - Black Dragon 1999 (2018) (5:01)
11. Fifth Angel - Queen Of Thieves (2018) (5:09)
12. Rexoria - Queen Of Light (2018) (4:18)
13. John Steel & Doogie White - Forever And Always (2017) (6:29)
14. Anvil - Rock That Shit (2018) (3:21)

CD 3 | 01:10:05


01. Lordi - Naked in My Cellar (2018) (4:45)
02. Mad Hatter - Mad Hatter Shine (2018) (8:48)
03. Eunomia - Freedom Call (2018) (4:48)
04. HammerFall - Patient Zero (2011) (6:02)
05. Gloryhammer - The Hollywood Hootsman (2015) (3:53)
06. Divine Ascension - One Step From Here (2018) (4:41)
07. Frozen Crown - Chasing Lights (2018) (4:48)
08. Valkyria - Abatido (2018) (3:59)
09. Sleeping Romance - Enlighten (2013) (4:28)
10. Secret Sphere - Kindness (2017) (5:14)
11. Last Union - Most Beautiful Day (2019) (4:15)
12. Gloryhammer - Quest for the Hammer of Glory (2013) (5:36)
13. White Wizzard - Storm the Shores (2018) (4:31)
14. Lacrimosa - Zwischen Allen Stuhlen (2017) (4:17)

Audiochecker Log

CD 1

Код:
AUDIOCHECKER v2.0 beta (build 457) - by Dester - [email protected]
~~~~~~~~~~~~~~~~~~~~~~~~~~~~~~~~~
-----------------------------------------------------------
Started at: воскресенье, 22. 09. 2019. - 13:33.56
14 files found
01 -===- G:\VA - Heavy Metal Collections Vol.13 (3CD) - 2019  FLAC\CD 1\01. Beast In Black - Die By The Blade (2019).flac
  Extracted successfully
  Conclusion: this track is CDDA with probability 100%
  Tempfile successfully deleted.
02 -===- G:\VA - Heavy Metal Collections Vol.13 (3CD) - 2019  FLAC\CD 1\02. Free From Sin - Faces Of Christ (2018).flac
  Extracted successfully
  Conclusion: this track is CDDA with probability 100%
  Tempfile successfully deleted.
03 -===- G:\VA - Heavy Metal Collections Vol.13 (3CD) - 2019  FLAC\CD 1\03. Serenity - United (2017).flac
  Extracted successfully
  Conclusion: this track is CDDA with probability 100%
  Tempfile successfully deleted.
04 -===- G:\VA - Heavy Metal Collections Vol.13 (3CD) - 2019  FLAC\CD 1\04. Mega Colossus - Behold The Worm (2016).flac
  Extracted successfully
  Conclusion: this track is CDDA with probability 100%
  Tempfile successfully deleted.
05 -===- G:\VA - Heavy Metal Collections Vol.13 (3CD) - 2019  FLAC\CD 1\05. Grand Design - Rawk 'N Roll Hysteria (2018).Flac
  Extracted successfully
  Conclusion: this track is CDDA with probability 100%
  Tempfile successfully deleted.
06 -===- G:\VA - Heavy Metal Collections Vol.13 (3CD) - 2019  FLAC\CD 1\06. HammerFall - One More Time (2011).flac
  Extracted successfully
  Conclusion: this track is CDDA with probability 100%
  Tempfile successfully deleted.
07 -===- G:\VA - Heavy Metal Collections Vol.13 (3CD) - 2019  FLAC\CD 1\07. Aldaria - Trail Of Tears (2017).flac
  Extracted successfully
  Conclusion: this track is CDDA with probability 100%
  Tempfile successfully deleted.
08 -===- G:\VA - Heavy Metal Collections Vol.13 (3CD) - 2019  FLAC\CD 1\08. Sleeping Romance - Enlighten (2013).flac
  Extracted successfully
  Conclusion: this track is CDDA with probability 100%
  Tempfile successfully deleted.
09 -===- G:\VA - Heavy Metal Collections Vol.13 (3CD) - 2019  FLAC\CD 1\09 .Brothers Of Metal - Prophecy Of Ragnarok (2017).flac
  Extracted successfully
  Conclusion: this track is CDDA with probability 100%
  Tempfile successfully deleted.
10 -===- G:\VA - Heavy Metal Collections Vol.13 (3CD) - 2019  FLAC\CD 1\10. Iron Savior - Kill Or Get Killed (2019).flac
  Extracted successfully
  Conclusion: this track is CDDA with probability 100%
  Tempfile successfully deleted.
11 -===- G:\VA - Heavy Metal Collections Vol.13 (3CD) - 2019  FLAC\CD 1\11. Dynazty - Breathe With Me (2018).flac
  Extracted successfully
  Conclusion: this track is CDDA with probability 100%
  Tempfile successfully deleted.
12 -===- G:\VA - Heavy Metal Collections Vol.13 (3CD) - 2019  FLAC\CD 1\12. Starbreaker - Transparent (2005).flac
  Extracted successfully
  Conclusion: this track is CDDA with probability 100%
  Tempfile successfully deleted.
13 -===- G:\VA - Heavy Metal Collections Vol.13 (3CD) - 2019  FLAC\CD 1\13. Blazon Stone - Rock Out (2017).flac
  Extracted successfully
  Conclusion: this track is CDDA with probability 100%
  Tempfile successfully deleted.
14 -===- G:\VA - Heavy Metal Collections Vol.13 (3CD) - 2019  FLAC\CD 1\14. Freedom Call - M.E.T.A.L. (2019).flac
  Extracted successfully
  Conclusion: this track is CDDA with probability 100%
  Tempfile successfully deleted.
Finished at: воскресенье, 22. 09. 2019. - 13:35.54 (operation time: 0:01.58)

CD 2

Код:
AUDIOCHECKER v2.0 beta (build 457) - by Dester - [email protected]
~~~~~~~~~~~~~~~~~~~~~~~~~~~~~~~~~
-----------------------------------------------------------
Started at: воскресенье, 22. 09. 2019. - 13:39.04
14 files found
01 -===- G:\VA - Heavy Metal Collections Vol.13 (3CD) - 2019  FLAC\CD 2\01. Millennium - False Reality (2018).flac
  Extracted successfully
  Conclusion: this track is CDDA with probability 99%
  Tempfile successfully deleted.
02 -===- G:\VA - Heavy Metal Collections Vol.13 (3CD) - 2019  FLAC\CD 2\02. Guardians Of Time - Raise The Eagle (2018).flac
  Extracted successfully
  Conclusion: this track is CDDA with probability 100%
  Tempfile successfully deleted.
03 -===- G:\VA - Heavy Metal Collections Vol.13 (3CD) - 2019  FLAC\CD 2\03. Frozen Land - Delusions Of Grandeur (2018).flac
  Extracted successfully
  Conclusion: this track is CDDA with probability 100%
  Tempfile successfully deleted.
04 -===- G:\VA - Heavy Metal Collections Vol.13 (3CD) - 2019  FLAC\CD 2\04. Dream Child - Games Of Shadows (2018).flac
  Extracted successfully
  Conclusion: this track is CDDA with probability 100%
  Tempfile successfully deleted.
05 -===- G:\VA - Heavy Metal Collections Vol.13 (3CD) - 2019  FLAC\CD 2\05. Beyond The Black - Hallelujah (2015).flac
  Extracted successfully
  Conclusion: this track is CDDA with probability 100%
  Tempfile successfully deleted.
06 -===- G:\VA - Heavy Metal Collections Vol.13 (3CD) - 2019  FLAC\CD 2\06. Chaos Magic - I'm Alive (2015).flac
  Extracted successfully
  Conclusion: this track is CDDA with probability 100%
  Tempfile successfully deleted.
07 -===- G:\VA - Heavy Metal Collections Vol.13 (3CD) - 2019  FLAC\CD 2\07. At Vance - Lost in Your Love (1999).flac
  Extracted successfully
  Conclusion: this track is CDDA with probability 100%
  Tempfile successfully deleted.
08 -===- G:\VA - Heavy Metal Collections Vol.13 (3CD) - 2019  FLAC\CD 2\08. God's Army - Enemy Maker (2018).flac
  Extracted successfully
  Conclusion: this track is CDDA with probability 87%
  Tempfile successfully deleted.
09 -===- G:\VA - Heavy Metal Collections Vol.13 (3CD) - 2019  FLAC\CD 2\09. Dark Moor - Birth of the Sun (2018).flac
  Extracted successfully
  Conclusion: this track is CDDA with probability 100%
  Tempfile successfully deleted.
10 -===- G:\VA - Heavy Metal Collections Vol.13 (3CD) - 2019  FLAC\CD 2\10. Luca Turilli - Black Dragon 1999 (2018).flac
  Extracted successfully
  Conclusion: this track is CDDA with probability 100%
  Tempfile successfully deleted.
11 -===- G:\VA - Heavy Metal Collections Vol.13 (3CD) - 2019  FLAC\CD 2\11. Fifth Angel - Queen Of Thieves (2018).flac
  Extracted successfully
  Conclusion: this track is CDDA with probability 100%
  Tempfile successfully deleted.
12 -===- G:\VA - Heavy Metal Collections Vol.13 (3CD) - 2019  FLAC\CD 2\12. Rexoria - Queen Of Light (2018).flac
  Extracted successfully
  Conclusion: this track is CDDA with probability 100%
  Tempfile successfully deleted.
13 -===- G:\VA - Heavy Metal Collections Vol.13 (3CD) - 2019  FLAC\CD 2\13. John Steel & Doogie White - Forever And Always (2017).flac
  Extracted successfully
  Conclusion: this track is CDDA with probability 100%
  Tempfile successfully deleted.
14 -===- G:\VA - Heavy Metal Collections Vol.13 (3CD) - 2019  FLAC\CD 2\14. Anvil - Rock That Shit (2018).flac
  Extracted successfully
  Conclusion: this track is CDDA with probability 100%
  Tempfile successfully deleted.
Finished at: воскресенье, 22. 09. 2019. - 13:41.12 (operation time: 0:02.07)

CD 3

Код:
AUDIOCHECKER v2.0 beta (build 457) - by Dester - [email protected]
~~~~~~~~~~~~~~~~~~~~~~~~~~~~~~~~~
-----------------------------------------------------------
Started at: воскресенье, 22. 09. 2019. - 13:42.33
14 files found
01 -===- G:\VA - Heavy Metal Collections Vol.13 (3CD) - 2019  FLAC\CD 3\01. Lordi - Naked in My Cellar (2018).flac
  Extracted successfully
  Conclusion: this track is CDDA with probability 100%
  Tempfile successfully deleted.
02 -===- G:\VA - Heavy Metal Collections Vol.13 (3CD) - 2019  FLAC\CD 3\02. Mad Hatter - Mad Hatter Shine (2018).flac
  Extracted successfully
  Conclusion: this track is CDDA with probability 100%
  Tempfile successfully deleted.
03 -===- G:\VA - Heavy Metal Collections Vol.13 (3CD) - 2019  FLAC\CD 3\03. Eunomia - Freedom Call (2018).flac
  Extracted successfully
  Conclusion: this track is CDDA with probability 100%
  Tempfile successfully deleted.
04 -===- G:\VA - Heavy Metal Collections Vol.13 (3CD) - 2019  FLAC\CD 3\04. HammerFall - Patient Zero (2011).flac
  Extracted successfully
  Conclusion: this track is CDDA with probability 100%
  Tempfile successfully deleted.
05 -===- G:\VA - Heavy Metal Collections Vol.13 (3CD) - 2019  FLAC\CD 3\05. Gloryhammer - The Hollywood Hootsman (2015).flac
  Extracted successfully
  Conclusion: this track is CDDA with probability 100%
  Tempfile successfully deleted.
06 -===- G:\VA - Heavy Metal Collections Vol.13 (3CD) - 2019  FLAC\CD 3\06. Divine Ascension - One Step From Here (2018).flac
  Extracted successfully
  Conclusion: this track is CDDA with probability 100%
  Tempfile successfully deleted.
07 -===- G:\VA - Heavy Metal Collections Vol.13 (3CD) - 2019  FLAC\CD 3\07. Frozen Crown - Chasing Lights (2018).flac
  Extracted successfully
  Conclusion: this track is MPEG with probability 100%
  Tempfile successfully deleted.
08 -===- G:\VA - Heavy Metal Collections Vol.13 (3CD) - 2019  FLAC\CD 3\08. Valkyria - Abatido (2018).flac
  Extracted successfully
  Conclusion: this track is CDDA with probability 100%
  Tempfile successfully deleted.
09 -===- G:\VA - Heavy Metal Collections Vol.13 (3CD) - 2019  FLAC\CD 3\09. Sleeping Romance - Enlighten (2013).flac
  Extracted successfully
  Conclusion: this track is CDDA with probability 100%
  Tempfile successfully deleted.
10 -===- G:\VA - Heavy Metal Collections Vol.13 (3CD) - 2019  FLAC\CD 3\10. Secret Sphere - Kindness (2017).flac
  Extracted successfully
  Conclusion: this track is CDDA with probability 100%
  Tempfile successfully deleted.
11 -===- G:\VA - Heavy Metal Collections Vol.13 (3CD) - 2019  FLAC\CD 3\11. Last Union - Most Beautiful Day (2019).flac
  Extracted successfully
  Conclusion: this track is CDDA with probability 100%
  Tempfile successfully deleted.
12 -===- G:\VA - Heavy Metal Collections Vol.13 (3CD) - 2019  FLAC\CD 3\12. Gloryhammer - Quest for the Hammer of Glory (2013).flac
  Extracted successfully
  Conclusion: this track is CDDA with probability 100%
  Tempfile successfully deleted.
13 -===- G:\VA - Heavy Metal Collections Vol.13 (3CD) - 2019  FLAC\CD 3\13. White Wizzard - Storm the Shores (2018).flac
  Extracted successfully
  Conclusion: this track is CDDA with probability 100%
  Tempfile successfully deleted.
14 -===- G:\VA - Heavy Metal Collections Vol.13 (3CD) - 2019  FLAC\CD 3\14. Lacrimosa - Zwischen Allen Stuhlen (2017).flac
  Extracted successfully
  Conclusion: this track is CDDA with probability 100%
  Tempfile successfully deleted.
Finished at: воскресенье, 22. 09. 2019. - 13:44.54 (operation time: 0:02.20)
--

1958bis

Post 16-Sep-2019 15:03

[Quote]

Особое спасибо за графику!!!

sergej644

Post 15-Sep-2019 13:15

[Quote]

-Avantasia - The Metal Opera Part I&II (Japanese Edition, 2CD) (Reissue)--
Год издания: 2019
Страна: Germany
Жанр: Symphonic Power Metal
Продолжительность: 02:02:38-Лейбл издания: Avalon
Страна-выпуска диска: Japan
Номер по каталогу: MICP-30098/99-Формат: FLAC
Битрейт аудио: Lossless
Тип рипа: image +.cue
Наличие сканов в содержимом раздачи: да
-

Трэклист

Avantasia - The Metal Opera Pt.I | 01:03:21


01. Prelude (1:11)
02. Reach Out for the Light (6:33)
03. Serpents in Paradise (6:17)
04. Malleus Maleficarum (1:43)
05. Breaking Away (4:36)
06. Farewell (6:32)
07. The Glory of Rome (5:29)
08. In Nomine Patris (1:04)
09. Avantasia (5:32)
10. A New Dimension (1:39)
11. Inside (2:24)
12. Sign of the Cross (6:26)
13. The Tower (9:45)
14. Avantasia (radio single) (4:10)

Avantasia - The Metal Opera Pt. II | 00:59:17


01. The Seven Angels (14:18)
02. No Return (4:29)
03. The Looking Glass (4:53)
04. In Quest For (3:54)
05. The Final Sacrifice (5:02)
06. Neverland (5:00)
07. Anywhere (5:29)
08. Chalice of Agony (6:00)
09. Memory (5:43)
10. Into the Unknown (4:29)
-

Лог создания рипа

CD 1

Код:
Exact Audio Copy V1.3 from 2. September 2016
EAC extraction logfile from 26. January 2019, 11:28
Avantasia / The Metal Opera - Japan SHM-CD (MICP-30098) PaperSleeve Ltd. Ed.
Used drive  : ASUS    DRW-24D5MT   Adapter: 1  ID: 0
Read mode               : Secure
Utilize accurate stream : Yes
Defeat audio cache      : Yes
Make use of C2 pointers : No
Read offset correction                      : 6
Overread into Lead-In and Lead-Out          : No
Fill up missing offset samples with silence : Yes
Delete leading and trailing silent blocks   : No
Null samples used in CRC calculations       : Yes
Used interface                              : Native Win32 interface for Win NT & 2000
Used output format              : User Defined Encoder
Selected bitrate                : 768 kBit/s
Quality                         : High
Add ID3 tag                     : No
Command line compressor         : C:\Program Files (x86)\Exact Audio Copy\FLAC\FLAC.EXE
Additional command line options : -6 -V -T "ARTIST=%artist%" -T "TITLE=%title%" -T "ALBUM=%albumtitle%" -T "DATE=%year%" -T "TRACKNUMBER=%tracknr%" -T "GENRE=%genre%" -T "COMMENT=%comment%" -T "BAND=%albuminterpret%" -T "ALBUMARTIST=%albuminterpret%" -T "COMPOSER=%composer%" %haslyrics%--tag-from-file=LYRICS="%lyricsfile%"%haslyrics% -T "DISCNUMBER=%cdnumber%" -T "TOTALDISCS=%totalcds%" -T "TOTALTRACKS=%numtracks%" %hascover%--picture="%coverfile%"%hascover% %source% -o %dest%
TOC of the extracted CD
     Track |   Start  |  Length  | Start sector | End sector
    ---------------------------------------------------------
        1  |  0:00.00 |  1:11.30 |         0    |     5354
        2  |  1:11.30 |  6:32.50 |      5355    |    34804
        3  |  7:44.05 |  6:16.57 |     34805    |    63061
        4  | 14:00.62 |  1:42.38 |     63062    |    70749
        5  | 15:43.25 |  4:35.40 |     70750    |    91414
        6  | 20:18.65 |  6:32.30 |     91415    |   120844
        7  | 26:51.20 |  5:29.12 |    120845    |   145531
        8  | 32:20.32 |  1:04.05 |    145532    |   150336
        9  | 33:24.37 |  5:31.40 |    150337    |   175201
       10  | 38:56.02 |  1:39.20 |    175202    |   182646
       11  | 40:35.22 |  2:23.73 |    182647    |   193444
       12  | 42:59.20 |  6:26.25 |    193445    |   222419
       13  | 49:25.45 |  9:45.15 |    222420    |   266309
       14  | 59:10.60 |  4:10.11 |    266310    |   285070
Range status and errors
Selected range
     Filename E:\Música\EAC\Avantasia\Avantasia - The Metal Opera - Japan SHM-CD (MICP-30098) PaperSleeve Ltd. Ed..wav
     Peak level 98.8 %
     Extraction speed 6.0 X
     Range quality 100.0 %
     Test CRC AE085CD5
     Copy CRC AE085CD5
     Copy OK
No errors occurred
AccurateRip summary
Track  1  not present in database
Track  2  not present in database
Track  3  not present in database
Track  4  not present in database
Track  5  not present in database
Track  6  not present in database
Track  7  not present in database
Track  8  not present in database
Track  9  not present in database
Track 10  not present in database
Track 11  not present in database
Track 12  not present in database
Track 13  not present in database
Track 14  not present in database
None of the tracks are present in the AccurateRip database
End of status report

CD 2

Код:
Exact Audio Copy V1.3 from 2. September 2016
EAC extraction logfile from 26. January 2019, 12:28
Avantasia / The Metal Opera, Pt. II - Japan SHM-CD (MICP-30099) PaperSleeve Ltd. Ed
Used drive  : ASUS    DRW-24D5MT   Adapter: 1  ID: 0
Read mode               : Secure
Utilize accurate stream : Yes
Defeat audio cache      : Yes
Make use of C2 pointers : No
Read offset correction                      : 6
Overread into Lead-In and Lead-Out          : No
Fill up missing offset samples with silence : Yes
Delete leading and trailing silent blocks   : No
Null samples used in CRC calculations       : Yes
Used interface                              : Native Win32 interface for Win NT & 2000
Used output format              : User Defined Encoder
Selected bitrate                : 768 kBit/s
Quality                         : High
Add ID3 tag                     : No
Command line compressor         : C:\Program Files (x86)\Exact Audio Copy\FLAC\FLAC.EXE
Additional command line options : -6 -V -T "ARTIST=%artist%" -T "TITLE=%title%" -T "ALBUM=%albumtitle%" -T "DATE=%year%" -T "TRACKNUMBER=%tracknr%" -T "GENRE=%genre%" -T "COMMENT=%comment%" -T "BAND=%albuminterpret%" -T "ALBUMARTIST=%albuminterpret%" -T "COMPOSER=%composer%" %haslyrics%--tag-from-file=LYRICS="%lyricsfile%"%haslyrics% -T "DISCNUMBER=%cdnumber%" -T "TOTALDISCS=%totalcds%" -T "TOTALTRACKS=%numtracks%" %hascover%--picture="%coverfile%"%hascover% %source% -o %dest%
TOC of the extracted CD
     Track |   Start  |  Length  | Start sector | End sector
    ---------------------------------------------------------
        1  |  0:00.00 | 14:17.57 |         0    |    64331
        2  | 14:17.57 |  4:28.60 |     64332    |    84491
        3  | 18:46.42 |  4:53.00 |     84492    |   106466
        4  | 23:39.42 |  3:53.45 |    106467    |   123986
        5  | 27:33.12 |  5:01.73 |    123987    |   146634
        6  | 32:35.10 |  5:00.27 |    146635    |   169161
        7  | 37:35.37 |  5:28.53 |    169162    |   193814
        8  | 43:04.15 |  6:00.27 |    193815    |   220841
        9  | 49:04.42 |  5:43.33 |    220842    |   246599
       10  | 54:48.00 |  4:29.20 |    246600    |   266794
Range status and errors
Selected range
     Filename E:\Música\EAC\Avantasia\Avantasia - The Metal Opera, Pt. II - Japan SHM-CD (MICP-30099) PaperSleeve Ltd. Ed.wav
     Peak level 98.8 %
     Extraction speed 1.8 X
     Range quality 100.0 %
     Test CRC 21139C36
     Copy CRC 21139C36
     Copy OK
No errors occurred
AccurateRip summary
Track  1  cannot be verified as accurate (confidence 83)  [5C2A0A53], AccurateRip returned [291A9242]  (AR v2)
Track  2  cannot be verified as accurate (confidence 85)  [A584AB6A], AccurateRip returned [DC4C6AFD]  (AR v2)
Track  3  cannot be verified as accurate (confidence 83)  [C0F91B02], AccurateRip returned [AC337398]  (AR v2)
Track  4  cannot be verified as accurate (confidence 83)  [693A5AF8], AccurateRip returned [466F1709]  (AR v2)
Track  5  cannot be verified as accurate (confidence 84)  [649012CB], AccurateRip returned [7A702E2C]  (AR v2)
Track  6  cannot be verified as accurate (confidence 83)  [30F29032], AccurateRip returned [97F14E72]  (AR v2)
Track  7  cannot be verified as accurate (confidence 83)  [8EBA1F4A], AccurateRip returned [2A2E1113]  (AR v2)
Track  8  cannot be verified as accurate (confidence 83)  [B96D016D], AccurateRip returned [0F5652C7]  (AR v2)
Track  9  cannot be verified as accurate (confidence 81)  [A0C52A41], AccurateRip returned [5ACD8452]  (AR v2)
Track 10  cannot be verified as accurate (confidence 79)  [23E605C2], AccurateRip returned [15BF1382]  (AR v2)
No tracks could be verified as accurate
You may have a different pressing from the one(s) in the database
End of status report

Индексная карта (non-compilant .cue)

CD 1

Код:
REM GENRE "Heavy Metal"
REM DATE 2008
REM DISCID BB0ED80E
REM COMMENT "ExactAudioCopy v1.3"
PERFORMER "Avantasia"
TITLE "The Metal Opera - Japan SHM-CD (MICP-30098) PaperSleeve Ltd. Ed."
REM COMPOSER ""
FILE "Avantasia - The Metal Opera - Japan SHM-CD (MICP-30098) PaperSleeve Ltd. Ed..flac" WAVE
  TRACK 01 AUDIO
    TITLE "Prelude"
    PERFORMER "Avantasia"
    REM COMPOSER ""
    INDEX 01 00:00:00
  TRACK 02 AUDIO
    TITLE "Reach Out for the Light"
    PERFORMER "Avantasia"
    REM COMPOSER ""
    INDEX 01 01:11:30
  TRACK 03 AUDIO
    TITLE "Serpents in Paradise"
    PERFORMER "Avantasia"
    REM COMPOSER ""
    INDEX 01 07:44:05
  TRACK 04 AUDIO
    TITLE "Malleus Maleficarum"
    PERFORMER "Avantasia"
    REM COMPOSER ""
    INDEX 00 13:58:74
    INDEX 01 14:00:62
  TRACK 05 AUDIO
    TITLE "Breaking Away"
    PERFORMER "Avantasia"
    REM COMPOSER ""
    INDEX 01 15:43:25
  TRACK 06 AUDIO
    TITLE "Farewell"
    PERFORMER "Avantasia"
    REM COMPOSER ""
    INDEX 00 20:16:56
    INDEX 01 20:18:65
  TRACK 07 AUDIO
    TITLE "The Glory of Rome"
    PERFORMER "Avantasia"
    REM COMPOSER ""
    INDEX 00 26:49:17
    INDEX 01 26:51:20
  TRACK 08 AUDIO
    TITLE "In Nomine Patris"
    PERFORMER "Avantasia"
    REM COMPOSER ""
    INDEX 00 32:17:32
    INDEX 01 32:20:32
  TRACK 09 AUDIO
    TITLE "Avantasia"
    PERFORMER "Avantasia"
    REM COMPOSER ""
    INDEX 00 33:23:45
    INDEX 01 33:24:37
  TRACK 10 AUDIO
    TITLE "A New Dimension"
    PERFORMER "Avantasia"
    REM COMPOSER ""
    INDEX 00 38:53:65
    INDEX 01 38:56:02
  TRACK 11 AUDIO
    TITLE "Inside"
    PERFORMER "Avantasia"
    REM COMPOSER ""
    INDEX 00 40:34:38
    INDEX 01 40:35:22
  TRACK 12 AUDIO
    TITLE "Sign of the Cross"
    PERFORMER "Avantasia"
    REM COMPOSER ""
    INDEX 00 42:58:55
    INDEX 01 42:59:20
  TRACK 13 AUDIO
    TITLE "The Tower"
    PERFORMER "Avantasia"
    REM COMPOSER ""
    INDEX 00 49:22:45
    INDEX 01 49:25:45
  TRACK 14 AUDIO
    TITLE "Avantasia (radio single)"
    PERFORMER "Avantasia"
    REM COMPOSER ""
    INDEX 00 59:08:60
    INDEX 01 59:10:60

CD 2

Код:
REM GENRE "Heavy Metal"
REM DATE 2002
REM DISCID 9B0DE50A
REM COMMENT "ExactAudioCopy v1.3"
PERFORMER "Avantasia"
TITLE "The Metal Opera, Pt. II - Japan SHM-CD (MICP-30099) PaperSleeve Ltd. Ed"
REM COMPOSER ""
FILE "Avantasia - The Metal Opera, Pt. II - Japan SHM-CD (MICP-30099) PaperSleeve Ltd. Ed.flac" WAVE
  TRACK 01 AUDIO
    TITLE "The Seven Angels"
    PERFORMER "Avantasia"
    REM COMPOSER ""
    INDEX 01 00:00:00
  TRACK 02 AUDIO
    TITLE "No Return"
    PERFORMER "Avantasia"
    REM COMPOSER ""
    INDEX 01 14:17:57
  TRACK 03 AUDIO
    TITLE "The Looking Glass"
    PERFORMER "Avantasia"
    REM COMPOSER ""
    INDEX 01 18:46:42
  TRACK 04 AUDIO
    TITLE "In Quest For"
    PERFORMER "Avantasia"
    REM COMPOSER ""
    INDEX 01 23:39:42
  TRACK 05 AUDIO
    TITLE "The Final Sacrifice"
    PERFORMER "Avantasia"
    REM COMPOSER ""
    INDEX 01 27:33:12
  TRACK 06 AUDIO
    TITLE "Neverland"
    PERFORMER "Avantasia"
    REM COMPOSER ""
    INDEX 01 32:35:10
  TRACK 07 AUDIO
    TITLE "Anywhere"
    PERFORMER "Avantasia"
    REM COMPOSER ""
    INDEX 01 37:35:37
  TRACK 08 AUDIO
    TITLE "Chalice of Agony"
    PERFORMER "Avantasia"
    REM COMPOSER ""
    INDEX 01 43:04:15
  TRACK 09 AUDIO
    TITLE "Memory"
    PERFORMER "Avantasia"
    REM COMPOSER ""
    INDEX 01 49:04:42
  TRACK 10 AUDIO
    TITLE "Into the Unknown"
    PERFORMER "Avantasia"
    REM COMPOSER ""
    INDEX 01 54:48:00
-

для ознакомления:

--

sergej644

Post 14-Sep-2019 19:45

[Quote]

-Saxon - The Eagle Has Landed 40 Live (3CD)--
Год издания: 2019
Страна: UK
Жанр: Heavy Metal
Продолжительность: 03:06:38-Лейбл издания: Silver Lining Music
Страна-выпуска диска: EU
Номер по каталогу: SLM076P02-Формат: FLAC
Битрейт аудио: Lossless
Тип рипа: image +.cue
Наличие сканов в содержимом раздачи: да
-

Трэклист

CD 1 | 01:14:10


01. State of Grace (Berlin 2007) (5:19)
02. Red Star Falling (Berlin 2007) (6:18)
03. Attila the Hun (Berlin 2007) (8:14)
04. If I Was You (Sheffield 2007) (3:15)
05. Witchfinder General (Berlin 2009) (4:21)
06. Demon Sweeney Todd (Berlin 2009) (3:59)
07. The Letter + Valley of the Kings (London 2009) (6:05)
08. Machine Gun (London 2009) (3:38)
09. Live to Rock (Berlin 2009) (4:29)
10. Hammer of the Gods (Berlin 2011) (4:16)
11. Back in '79 (Berlin 2011) (3:10)
12. I've Got to Rock (To Stay Alive) (Berlin 2011) (4:34)
13. Call to Arms (Berlin 2011) (4:26)
14. Rock 'n' Roll Gypsy (Berlin 2011) (4:34)
15. Chasing the Bullet (Berlin 2011) (4:26)
16. Play It Loud (Berlin 2011) (3:04)

CD 2 | 00:59:30


01. Sacrifice (BYH Balingen 2013) (4:09)
02. Night of the Wolf (BYH Balingen 2013) (3:39)
03. Conquistador + Drum Solo (BYH Balingen 2013) (7:31)
04. Stand Up and Fight (BYH Balingen 2013) (4:23)
05. Crusader (Wacken Open Air 2014) (7:56)
06. Battalions of Steel (Wacken Open Air 2014) (4:24)
07. The Eagle Has Landed (Wacken Open Air 2014) (6:27)
08. Power and the Glory (Wacken Open Air 2014) (4:59)
09. Dallas 1pm (Wacken Open Air 2014) (6:20)
10. Princess of the Night (Wacken Open Air 2014) (3:58)
11. Denim and Leather (Wacken Open Air 2014) (5:45)

CD 3 | 00:52:58


01. Eye of the Storm (Zoetemeer 2015) (3:38)
02. 747 (Strangers in the Night) (Helsinki 2015) (5:26)
03. Killing Ground (London 2016) (4:16)
04. Ace of Spades (London 2016) (3:05)
05. 20,000 FT (San Antonio 2018) (3:39)
06. Thunderbolt (San Antonio 2018) (4:36)
07. Sons of Odin (Los Angeles 2018) (3:29)
08. This Town Rocks (Los Angeles 2018) (4:14)
09. Nosferatu (The Vampire's Waltz) (Manchester 2018) (4:17)
10. Predator (Manchester 2018) (3:17)
11. They Played Rock and Roll (Stockholm 2018) (3:42)
12. The Secret of Flight (London 2018) (4:29)
13. Battering Ram (London 2018) (4:49)
-

Лог создания рипа

CD 1

Код:
Exact Audio Copy V1.3 from 2. September 2016
EAC extraction logfile from 23. August 2019, 12:32
SAXON / The Eagle Has Landed 40 Live CD1
Used drive  : ASUS    DRW-24D5MT   Adapter: 1  ID: 0
Read mode               : Secure
Utilize accurate stream : Yes
Defeat audio cache      : Yes
Make use of C2 pointers : No
Read offset correction                      : 6
Overread into Lead-In and Lead-Out          : No
Fill up missing offset samples with silence : Yes
Delete leading and trailing silent blocks   : No
Null samples used in CRC calculations       : Yes
Used interface                              : Native Win32 interface for Win NT & 2000
Used output format              : User Defined Encoder
Selected bitrate                : 768 kBit/s
Quality                         : High
Add ID3 tag                     : No
Command line compressor         : C:\Program Files (x86)\Exact Audio Copy\FLAC\FLAC.EXE
Additional command line options : -6 -V -T "ARTIST=%artist%" -T "TITLE=%title%" -T "ALBUM=%albumtitle%" -T "DATE=%year%" -T "TRACKNUMBER=%tracknr%" -T "GENRE=%genre%" -T "COMMENT=%comment%" -T "BAND=%albuminterpret%" -T "ALBUMARTIST=%albuminterpret%" -T "COMPOSER=%composer%" %haslyrics%--tag-from-file=LYRICS="%lyricsfile%"%haslyrics% -T "DISCNUMBER=%cdnumber%" -T "TOTALDISCS=%totalcds%" -T "TOTALTRACKS=%numtracks%" %hascover%--picture="%coverfile%"%hascover% %source% -o %dest%
TOC of the extracted CD
     Track |   Start  |  Length  | Start sector | End sector
    ---------------------------------------------------------
        1  |  0:00.00 |  5:18.71 |         0    |    23920
        2  |  5:18.71 |  6:17.60 |     23921    |    52255
        3  | 11:36.56 |  8:14.27 |     52256    |    89332
        4  | 19:51.08 |  3:15.21 |     89333    |   103978
        5  | 23:06.29 |  4:21.32 |    103979    |   123585
        6  | 27:27.61 |  3:58.39 |    123586    |   141474
        7  | 31:26.25 |  6:04.61 |    141475    |   168835
        8  | 37:31.11 |  3:38.21 |    168836    |   185206
        9  | 41:09.32 |  4:29.21 |    185207    |   205402
       10  | 45:38.53 |  4:16.20 |    205403    |   224622
       11  | 49:54.73 |  3:10.25 |    224623    |   238897
       12  | 53:05.23 |  4:34.27 |    238898    |   259474
       13  | 57:39.50 |  4:26.34 |    259475    |   279458
       14  | 62:06.09 |  4:34.12 |    279459    |   300020
       15  | 66:40.21 |  4:26.32 |    300021    |   320002
       16  | 71:06.53 |  3:03.44 |    320003    |   333771
Range status and errors
Selected range
     Filename E:\Música\EAC\Saxon\SAXON - The Eagle Has Landed 40 Live CD1.wav
     Peak level 100.0 %
     Extraction speed 2.1 X
     Range quality 100.0 %
     Test CRC 15B788B2
     Copy CRC 15B788B2
     Copy OK
No errors occurred
AccurateRip summary
Track  1  not present in database
Track  2  not present in database
Track  3  not present in database
Track  4  not present in database
Track  5  not present in database
Track  6  not present in database
Track  7  not present in database
Track  8  not present in database
Track  9  not present in database
Track 10  not present in database
Track 11  not present in database
Track 12  not present in database
Track 13  not present in database
Track 14  not present in database
Track 15  not present in database
Track 16  not present in database
None of the tracks are present in the AccurateRip database
End of status report

CD 2

Код:
Exact Audio Copy V1.3 from 2. September 2016
EAC extraction logfile from 23. August 2019, 10:54
SAXON / The Eagle Has Landed 40 Live CD2
Used drive  : ASUS    DRW-24D5MT   Adapter: 1  ID: 0
Read mode               : Secure
Utilize accurate stream : Yes
Defeat audio cache      : Yes
Make use of C2 pointers : No
Read offset correction                      : 6
Overread into Lead-In and Lead-Out          : No
Fill up missing offset samples with silence : Yes
Delete leading and trailing silent blocks   : No
Null samples used in CRC calculations       : Yes
Used interface                              : Native Win32 interface for Win NT & 2000
Used output format              : User Defined Encoder
Selected bitrate                : 768 kBit/s
Quality                         : High
Add ID3 tag                     : No
Command line compressor         : C:\Program Files (x86)\Exact Audio Copy\FLAC\FLAC.EXE
Additional command line options : -6 -V -T "ARTIST=%artist%" -T "TITLE=%title%" -T "ALBUM=%albumtitle%" -T "DATE=%year%" -T "TRACKNUMBER=%tracknr%" -T "GENRE=%genre%" -T "COMMENT=%comment%" -T "BAND=%albuminterpret%" -T "ALBUMARTIST=%albuminterpret%" -T "COMPOSER=%composer%" %haslyrics%--tag-from-file=LYRICS="%lyricsfile%"%haslyrics% -T "DISCNUMBER=%cdnumber%" -T "TOTALDISCS=%totalcds%" -T "TOTALTRACKS=%numtracks%" %hascover%--picture="%coverfile%"%hascover% %source% -o %dest%
TOC of the extracted CD
     Track |   Start  |  Length  | Start sector | End sector
    ---------------------------------------------------------
        1  |  0:00.00 |  4:08.48 |         0    |    18647
        2  |  4:08.48 |  3:39.32 |     18648    |    35104
        3  |  7:48.05 |  7:30.70 |     35105    |    68924
        4  | 15:19.00 |  4:22.59 |     68925    |    88633
        5  | 19:41.59 |  7:55.41 |     88634    |   124299
        6  | 27:37.25 |  4:24.27 |    124300    |   144126
        7  | 32:01.52 |  6:26.72 |    144127    |   173148
        8  | 38:28.49 |  4:58.63 |    173149    |   195561
        9  | 43:27.37 |  6:19.48 |    195562    |   224034
       10  | 49:47.10 |  3:58.28 |    224035    |   241912
       11  | 53:45.38 |  5:44.64 |    241913    |   267776
Range status and errors
Selected range
     Filename E:\Música\EAC\Saxon\SAXON - The Eagle Has Landed 40 Live CD2.wav
     Peak level 100.0 %
     Extraction speed 7.1 X
     Range quality 99.9 %
     Test CRC 5A615F22
     Copy CRC 5A615F22
     Copy OK
No errors occurred
AccurateRip summary
Track  1  not present in database
Track  2  not present in database
Track  3  not present in database
Track  4  not present in database
Track  5  not present in database
Track  6  not present in database
Track  7  not present in database
Track  8  not present in database
Track  9  not present in database
Track 10  not present in database
Track 11  not present in database
None of the tracks are present in the AccurateRip database
End of status report

CD 3

Код:
Exact Audio Copy V1.3 from 2. September 2016
EAC extraction logfile from 23. August 2019, 11:41
SAXON / The Eagle Has Landed 40 Live CD3
Used drive  : ASUS    DRW-24D5MT   Adapter: 1  ID: 0
Read mode               : Secure
Utilize accurate stream : Yes
Defeat audio cache      : Yes
Make use of C2 pointers : No
Read offset correction                      : 6
Overread into Lead-In and Lead-Out          : No
Fill up missing offset samples with silence : Yes
Delete leading and trailing silent blocks   : No
Null samples used in CRC calculations       : Yes
Used interface                              : Native Win32 interface for Win NT & 2000
Used output format              : User Defined Encoder
Selected bitrate                : 768 kBit/s
Quality                         : High
Add ID3 tag                     : No
Command line compressor         : C:\Program Files (x86)\Exact Audio Copy\FLAC\FLAC.EXE
Additional command line options : -6 -V -T "ARTIST=%artist%" -T "TITLE=%title%" -T "ALBUM=%albumtitle%" -T "DATE=%year%" -T "TRACKNUMBER=%tracknr%" -T "GENRE=%genre%" -T "COMMENT=%comment%" -T "BAND=%albuminterpret%" -T "ALBUMARTIST=%albuminterpret%" -T "COMPOSER=%composer%" %haslyrics%--tag-from-file=LYRICS="%lyricsfile%"%haslyrics% -T "DISCNUMBER=%cdnumber%" -T "TOTALDISCS=%totalcds%" -T "TOTALTRACKS=%numtracks%" %hascover%--picture="%coverfile%"%hascover% %source% -o %dest%
TOC of the extracted CD
     Track |   Start  |  Length  | Start sector | End sector
    ---------------------------------------------------------
        1  |  0:00.00 |  3:38.14 |         0    |    16363
        2  |  3:38.14 |  5:26.19 |     16364    |    40832
        3  |  9:04.33 |  4:16.28 |     40833    |    60060
        4  | 13:20.61 |  3:04.64 |     60061    |    73924
        5  | 16:25.50 |  3:39.29 |     73925    |    90378
        6  | 20:05.04 |  4:36.32 |     90379    |   111110
        7  | 24:41.36 |  3:28.70 |    111111    |   126780
        8  | 28:10.31 |  4:13.65 |    126781    |   145820
        9  | 32:24.21 |  4:17.35 |    145821    |   165130
       10  | 36:41.56 |  3:16.56 |    165131    |   179886
       11  | 39:58.37 |  3:41.70 |    179887    |   196531
       12  | 43:40.32 |  4:28.44 |    196532    |   216675
       13  | 48:09.01 |  4:48.51 |    216676    |   238326
Range status and errors
Selected range
     Filename E:\Música\EAC\Saxon\SAXON - The Eagle Has Landed 40 Live CD3.wav
     Peak level 100.0 %
     Extraction speed 1.7 X
     Range quality 100.0 %
     Test CRC 48E54F91
     Copy CRC 48E54F91
     Copy OK
No errors occurred
AccurateRip summary
Track  1  not present in database
Track  2  not present in database
Track  3  not present in database
Track  4  not present in database
Track  5  not present in database
Track  6  not present in database
Track  7  not present in database
Track  8  not present in database
Track  9  not present in database
Track 10  not present in database
Track 11  not present in database
Track 12  not present in database
Track 13  not present in database
None of the tracks are present in the AccurateRip database
End of status report

Индексная карта (non-compilant .cue)

CD 1

Код:
REM GENRE "Heavy Metal"
REM DATE 2019-08-02
REM DISCID FD116210
REM COMMENT "ExactAudioCopy v1.3"
PERFORMER "SAXON"
TITLE "The Eagle Has Landed 40 Live CD1"
REM COMPOSER ""
FILE "SAXON - The Eagle Has Landed 40 Live CD1.flac" WAVE
  TRACK 01 AUDIO
    TITLE "State of Grace (Berlin 2007)"
    PERFORMER "SAXON"
    REM COMPOSER ""
    INDEX 01 00:00:00
  TRACK 02 AUDIO
    TITLE "Red Star Falling (Berlin 2007)"
    PERFORMER "SAXON"
    REM COMPOSER ""
    INDEX 01 05:18:71
  TRACK 03 AUDIO
    TITLE "Attila the Hun (Berlin 2007)"
    PERFORMER "SAXON"
    REM COMPOSER ""
    INDEX 01 11:36:56
  TRACK 04 AUDIO
    TITLE "If I Was You (Sheffield 2007)"
    PERFORMER "SAXON"
    REM COMPOSER ""
    INDEX 01 19:51:08
  TRACK 05 AUDIO
    TITLE "Witchfinder General (Berlin 2009)"
    PERFORMER "SAXON"
    REM COMPOSER ""
    INDEX 01 23:06:29
  TRACK 06 AUDIO
    TITLE "Demon Sweeney Todd (Berlin 2009)"
    PERFORMER "SAXON"
    REM COMPOSER ""
    INDEX 01 27:27:61
  TRACK 07 AUDIO
    TITLE "The Letter + Valley of the Kings (London 2009)"
    PERFORMER "SAXON"
    REM COMPOSER ""
    INDEX 01 31:26:25
  TRACK 08 AUDIO
    TITLE "Machine Gun (London 2009)"
    PERFORMER "SAXON"
    REM COMPOSER ""
    INDEX 01 37:31:11
  TRACK 09 AUDIO
    TITLE "Live to Rock (Berlin 2009)"
    PERFORMER "SAXON"
    REM COMPOSER ""
    INDEX 01 41:09:32
  TRACK 10 AUDIO
    TITLE "Hammer of the Gods (Berlin 2011)"
    PERFORMER "SAXON"
    REM COMPOSER ""
    INDEX 01 45:38:53
  TRACK 11 AUDIO
    TITLE "Back in '79 (Berlin 2011)"
    PERFORMER "SAXON"
    REM COMPOSER ""
    INDEX 01 49:54:73
  TRACK 12 AUDIO
    TITLE "I've Got to Rock (To Stay Alive) [Berlin 2011]"
    PERFORMER "SAXON"
    REM COMPOSER ""
    INDEX 01 53:05:23
  TRACK 13 AUDIO
    TITLE "Call to Arms (Berlin 2011)"
    PERFORMER "SAXON"
    REM COMPOSER ""
    INDEX 01 57:39:50
  TRACK 14 AUDIO
    TITLE "Rock 'n' Roll Gypsy (Berlin 2011)"
    PERFORMER "SAXON"
    REM COMPOSER ""
    INDEX 01 62:06:09
  TRACK 15 AUDIO
    TITLE "Chasing the Bullet (Berlin 2011)"
    PERFORMER "SAXON"
    REM COMPOSER ""
    INDEX 01 66:40:21
  TRACK 16 AUDIO
    TITLE "Play It Loud (Berlin 2011)"
    PERFORMER "SAXON"
    REM COMPOSER ""
    INDEX 01 71:06:53

CD 2

Код:
REM GENRE "Heavy Metal"
REM DATE 2019-08-02
REM DISCID 920DF20B
REM COMMENT "ExactAudioCopy v1.3"
PERFORMER "SAXON"
TITLE "The Eagle Has Landed 40 Live CD2"
REM COMPOSER ""
FILE "SAXON - The Eagle Has Landed 40 Live CD2.flac" WAVE
  TRACK 01 AUDIO
    TITLE "Sacrifice (BYH Balingen 2013)"
    PERFORMER "SAXON"
    REM COMPOSER ""
    INDEX 01 00:00:00
  TRACK 02 AUDIO
    TITLE "Night of the Wolf (BYH Balingen 2013)"
    PERFORMER "SAXON"
    REM COMPOSER ""
    INDEX 01 04:08:48
  TRACK 03 AUDIO
    TITLE "Conquistador + Drum Solo (BYH Balingen 2013)"
    PERFORMER "SAXON"
    REM COMPOSER ""
    INDEX 01 07:48:05
  TRACK 04 AUDIO
    TITLE "Stand Up and Fight (BYH Balingen 2013)"
    PERFORMER "SAXON"
    REM COMPOSER ""
    INDEX 01 15:19:00
  TRACK 05 AUDIO
    TITLE "Crusader (Wacken Open Air 2014)"
    PERFORMER "SAXON"
    REM COMPOSER ""
    INDEX 01 19:41:59
  TRACK 06 AUDIO
    TITLE "Battalions of Steel (Wacken Open Air 2014)"
    PERFORMER "SAXON"
    REM COMPOSER ""
    INDEX 01 27:37:25
  TRACK 07 AUDIO
    TITLE "The Eagle Has Landed (Wacken Open Air 2014)"
    PERFORMER "SAXON"
    REM COMPOSER ""
    INDEX 01 32:01:52
  TRACK 08 AUDIO
    TITLE "Power and the Glory (Wacken Open Air 2014)"
    PERFORMER "SAXON"
    REM COMPOSER ""
    INDEX 01 38:28:49
  TRACK 09 AUDIO
    TITLE "Dallas 1pm (Wacken Open Air 2014)"
    PERFORMER "SAXON"
    REM COMPOSER ""
    INDEX 01 43:27:37
  TRACK 10 AUDIO
    TITLE "Princess of the Night (Wacken Open Air 2014)"
    PERFORMER "SAXON"
    REM COMPOSER ""
    INDEX 01 49:47:10
  TRACK 11 AUDIO
    TITLE "Denim and Leather (Wacken Open Air 2014)"
    PERFORMER "SAXON"
    REM COMPOSER ""
    INDEX 01 53:45:38

CD 3

Код:
REM GENRE "Heavy Metal"
REM DATE 2019-08-02
REM DISCID A40C690D
REM COMMENT "ExactAudioCopy v1.3"
PERFORMER "SAXON"
TITLE "The Eagle Has Landed 40 Live CD3"
REM COMPOSER ""
FILE "SAXON - The Eagle Has Landed 40 Live CD3.flac" WAVE
  TRACK 01 AUDIO
    TITLE "Eye of the Storm (Zoetemeer 2015)"
    PERFORMER "SAXON"
    REM COMPOSER ""
    INDEX 01 00:00:00
  TRACK 02 AUDIO
    TITLE "747 (Strangers in the Night) (Helsinki 2015)"
    PERFORMER "SAXON"
    REM COMPOSER ""
    INDEX 01 03:38:14
  TRACK 03 AUDIO
    TITLE "Killing Ground (London 2016)"
    PERFORMER "SAXON"
    REM COMPOSER ""
    INDEX 01 09:04:33
  TRACK 04 AUDIO
    TITLE "Ace of Spades (London 2016)"
    PERFORMER "SAXON"
    REM COMPOSER ""
    INDEX 01 13:20:61
  TRACK 05 AUDIO
    TITLE "20,000 FT (San Antonio 2018)"
    PERFORMER "SAXON"
    REM COMPOSER ""
    INDEX 01 16:25:50
  TRACK 06 AUDIO
    TITLE "Thunderbolt (San Antonio 2018)"
    PERFORMER "SAXON"
    REM COMPOSER ""
    INDEX 01 20:05:04
  TRACK 07 AUDIO
    TITLE "Sons of Odin (Los Angeles 2018)"
    PERFORMER "SAXON"
    REM COMPOSER ""
    INDEX 01 24:41:36
  TRACK 08 AUDIO
    TITLE "This Town Rocks (Los Angeles 2018)"
    PERFORMER "SAXON"
    REM COMPOSER ""
    INDEX 01 28:10:31
  TRACK 09 AUDIO
    TITLE "Nosferatu (The Vampire's Waltz) (Manchester 2018)"
    PERFORMER "SAXON"
    REM COMPOSER ""
    INDEX 01 32:24:21
  TRACK 10 AUDIO
    TITLE "Predator (Manchester 2018)"
    PERFORMER "SAXON"
    REM COMPOSER ""
    INDEX 01 36:41:56
  TRACK 11 AUDIO
    TITLE "They Played Rock and Roll (Stockholm 2018)"
    PERFORMER "SAXON"
    REM COMPOSER ""
    INDEX 01 39:58:37
  TRACK 12 AUDIO
    TITLE "The Secret of Flight (London 2018)"
    PERFORMER "SAXON"
    REM COMPOSER ""
    INDEX 01 43:40:32
  TRACK 13 AUDIO
    TITLE "Battering Ram (London 2018)"
    PERFORMER "SAXON"
    REM COMPOSER ""
    INDEX 01 48:09:01
--

p7204

Post 21-Aug-2019 17:51

[Quote]

Огромная просьба встать на раздачу

zanzir

Post 30-Jul-2019 16:56

[Quote]

Please seed this one

sergej644

Post 23-Feb-2019 20:10

[Quote]

-Delain - Hunter's Moon (Limited Edition)--
Год издания: 2019
Страна: Netherlands
Жанр: Symphonic, Gothic Metal
Продолжительность: 01:04:56-Лейбл издания: Napalm Records Handels GmbH
Страна-выпуска диска: Germany
Номер по каталогу: NPR 822 DP-Формат: FLAC
Битрейт аудио: Lossless
Тип рипа: image+cue
Наличие сканов в содержимом раздачи: да
-

Трэклист


01. Masters of Destiny (4:55)
02. Hunter's Moon (4:30)
03. The Silence Is Mine (2:38)
04. Art KIlls (4:00)
05. Hands of Gold - Live (5:25)
06. Danse Macabre - Live (5:29)
07. Scarlet - Live (4:46)
08. Your Body Is a Battleground - Live (4:11)
09. Nothing Left - Live (5:01)
10. Control the Storm - Live (4:24)
11. Sing to Me - Live (5:15)
12. Not Enough - Live (5:35)
13. Scandal - Live (4:10)
14. The Gathering - Live (4:37)
--

Лог создания рипа

Код:
Exact Audio Copy V1.3 from 2. September 2016
EAC extraction logfile from 22. February 2019, 14:02
Delain / Hunter's Moon
Used drive  : HP      DVD Writer 1170d   Adapter: 1  ID: 1
Read mode               : Secure
Utilize accurate stream : Yes
Defeat audio cache      : Yes
Make use of C2 pointers : No
Read offset correction                      : 6
Overread into Lead-In and Lead-Out          : No
Fill up missing offset samples with silence : Yes
Delete leading and trailing silent blocks   : No
Null samples used in CRC calculations       : Yes
Used interface                              : Native Win32 interface for Win NT & 2000
Used output format              : User Defined Encoder
Selected bitrate                : 1024 kBit/s
Quality                         : High
Add ID3 tag                     : No
Command line compressor         : C:\Program Files (x86)\Exact Audio Copy\Flac\flac.exe
Additional command line options : -V -8 -T "Date=%year%" -T "Genre=%genre%" %source%
TOC of the extracted CD
     Track |   Start  |  Length  | Start sector | End sector
    ---------------------------------------------------------
        1  |  0:00.00 |  4:54.70 |         0    |    22119
        2  |  4:54.70 |  4:30.32 |     22120    |    42401
        3  |  9:25.27 |  2:37.51 |     42402    |    54227
        4  | 12:03.03 |  4:00.03 |     54228    |    72230
        5  | 16:03.06 |  5:24.69 |     72231    |    96599
        6  | 21:28.00 |  5:28.58 |     96600    |   121257
        7  | 26:56.58 |  4:45.51 |    121258    |   142683
        8  | 31:42.34 |  4:11.29 |    142684    |   161537
        9  | 35:53.63 |  5:01.00 |    161538    |   184112
       10  | 40:54.63 |  4:24.03 |    184113    |   203915
       11  | 45:18.66 |  5:14.65 |    203916    |   227530
       12  | 50:33.56 |  5:35.25 |    227531    |   252680
       13  | 56:09.06 |  4:09.74 |    252681    |   271429
       14  | 60:19.05 |  4:37.04 |    271430    |   292208
Range status and errors
Selected range
     Filename C:\EAC\Delain - Hunter's Moon.wav
     Peak level 99.4 %
     Extraction speed 6.1 X
     Range quality 100.0 %
     Test CRC 2C245231
     Copy CRC 2C245231
     Copy OK
No errors occurred
AccurateRip summary
Track  1  not present in database
Track  2  not present in database
Track  3  not present in database
Track  4  not present in database
Track  5  not present in database
Track  6  not present in database
Track  7  not present in database
Track  8  not present in database
Track  9  not present in database
Track 10  not present in database
Track 11  not present in database
Track 12  not present in database
Track 13  not present in database
Track 14  not present in database
None of the tracks are present in the AccurateRip database
End of status report

Индексная карта (non-compilant .cue)

Код:
REM DATE 2019
REM DISCID BF0F380E
REM COMMENT "ExactAudioCopy v1.3"
PERFORMER "Delain"
TITLE "Hunter's Moon"
FILE "Delain - Hunter's Moon.flac" WAVE
  TRACK 01 AUDIO
    TITLE "Masters of Destiny"
    PERFORMER "Delain"
    INDEX 01 00:00:00
  TRACK 02 AUDIO
    TITLE "Hunter's Moon"
    PERFORMER "Delain"
    INDEX 00 04:53:65
    INDEX 01 04:54:70
  TRACK 03 AUDIO
    TITLE "The Silence Is Mine"
    PERFORMER "Delain"
    INDEX 00 09:24:00
    INDEX 01 09:25:27
  TRACK 04 AUDIO
    TITLE "Art KIlls"
    PERFORMER "Delain"
    INDEX 01 12:03:03
  TRACK 05 AUDIO
    TITLE "Hands of Gold - Live"
    PERFORMER "Delain"
    INDEX 00 16:00:33
    INDEX 01 16:03:06
  TRACK 06 AUDIO
    TITLE "Danse Macabre - Live"
    PERFORMER "Delain"
    INDEX 01 21:28:00
  TRACK 07 AUDIO
    TITLE "Scarlet - Live"
    PERFORMER "Delain"
    INDEX 01 26:56:58
  TRACK 08 AUDIO
    TITLE "Your Body Is a Battleground - Live"
    PERFORMER "Delain"
    INDEX 01 31:42:34
  TRACK 09 AUDIO
    TITLE "Nothing Left - Live"
    PERFORMER "Delain"
    INDEX 01 35:53:63
  TRACK 10 AUDIO
    TITLE "Control the Storm - Live"
    PERFORMER "Delain"
    INDEX 01 40:54:63
  TRACK 11 AUDIO
    TITLE "Sing to Me - Live"
    PERFORMER "Delain"
    INDEX 01 45:18:66
  TRACK 12 AUDIO
    TITLE "Not Enough - Live"
    PERFORMER "Delain"
    INDEX 01 50:33:56
  TRACK 13 AUDIO
    TITLE "Scandal - Live"
    PERFORMER "Delain"
    INDEX 01 56:09:06
  TRACK 14 AUDIO
    TITLE "The Gathering - Live"
    PERFORMER "Delain"
    INDEX 01 60:19:05
-

для ознакомления:

--

sergej644

Post 28-Jan-2019 21:12

[Quote]

-Axel Rudi Pell - Love Ballads--
Год издания: 2002
Страна: Germany
Жанр: Melodic Heavy Metal
Продолжительность: 01:17:54-Лейбл издания: Universal Music Company
Страна-выпуска диска: Russia
Номер по каталогу: Лицензия с РАО №0047/А9-02
Тип альбома: Compilation (пиратка)-Формат: APE
Битрейт аудио: Lossless
Тип рипа: image +.cue
Наличие сканов в содержимом раздачи: да
-

Трэклист


01. Come Back To Me (6:53)
02. Ashes From The Oath (9:37)
03. Broken Heart (5:11)
04. When A Blind Man Cries (4:39)
05. Silent Angel (5:17)
06. Innocent Child (5:29)
07. The Line (7:40)
08. Oceans Of Time (7:47)
09. Tearin' Out My Heart (6:05)
10. The Clown Is Dead (12:13)
11. The Eyes Of The Lost (7:04)
-

Лог создания рипа

Код:
Отчёт EAC об извлечении, выполненном 6. ноября 2009, 12:07 для диска:
Axel Rudi Pell / Love Ballads
Дисковод: PIONEER DVD-RW  DVR-216D   Adapter: 3  ID: 1
Режим чтения: Достоверный (C2: нет, Точный поток: да, Отключение кэша: да)
Коррекция смещения при чтении: 96
Способность читать области Lead-in и Lead-out : Нет
Выходной формат: Внутренние WAV-операции
                     44.100 Гц; 16 бит; стерео
Другие параметры:
    Заполнение пропущенных сэмплов тишиной : Да
    Удаление блоков с тишиной в начале и конце : Нет
    Встроенный Win32-интерфейс для Win NT/2000
Характеристики диапазона извлечения и сообщения об ошибках
Выбранный диапазон
     Имя файла H:\Мои раздачи\Axel Rudi Pell - Love Ballads 2002\ape\Axel Rudi Pell - Love Ballads.wav
     Подозрительная позиция 0:29:09
     Подозрительная позиция 1:13:26
     Пиковый уровень 100.0 %
     Качество диапазона 99.8 %
     CRC 8C13B673
     Копирование завершено
Были ошибки
Конец отчёта

Индексная карта (non-compilant .cue)

Код:
REM GENRE "Hard Rock"
REM DATE 2002
REM DISCID 9912420B
REM COMMENT "ExactAudioCopy v0.95b4"
PERFORMER "Axel Rudi Pell"
TITLE "Love Ballads"
FILE "Axel Rudi Pell - Love Ballads.wav" WAVE
  TRACK 01 AUDIO
    TITLE "Come Back To Me"
    PERFORMER "Axel Rudi Pell"
    FLAGS DCP
    INDEX 01 00:00:00
  TRACK 02 AUDIO
    TITLE "Ashes From The Oath"
    PERFORMER "Axel Rudi Pell"
    INDEX 01 06:53:20
  TRACK 03 AUDIO
    TITLE "Broken Heart"
    PERFORMER "Axel Rudi Pell"
    FLAGS DCP
    INDEX 01 16:30:14
  TRACK 04 AUDIO
    TITLE "When A Blind Man Cries"
    PERFORMER "Axel Rudi Pell"
    INDEX 01 21:41:34
  TRACK 05 AUDIO
    TITLE "Silent Angel"
    PERFORMER "Axel Rudi Pell"
    INDEX 01 26:19:74
  TRACK 06 AUDIO
    TITLE "Innocent Child"
    PERFORMER "Axel Rudi Pell"
    INDEX 01 31:37:03
  TRACK 07 AUDIO
    TITLE "The Line"
    PERFORMER "Axel Rudi Pell"
    INDEX 01 37:05:45
  TRACK 08 AUDIO
    TITLE "Oceans Of Time"
    PERFORMER "Axel Rudi Pell"
    INDEX 01 44:45:44
  TRACK 09 AUDIO
    TITLE "Tearin' Out My Heart"
    PERFORMER "Axel Rudi Pell"
    INDEX 01 52:32:74
  TRACK 10 AUDIO
    TITLE "The Clown Is Dead"
    PERFORMER "Axel Rudi Pell"
    FLAGS DCP
    INDEX 01 58:38:02
  TRACK 11 AUDIO
    TITLE "The Eyes Of The Lost"
    PERFORMER "Axel Rudi Pell"
    INDEX 01 70:50:46
-

для ознакомления:


--
 

The time now is: Today 07:15

All times are GMT + 3 Hours