Сегодня идет свободное скачивание без начисления Download

Результатов поиска: 2

Автор Сообщение

Nugeiro

Пост 04-Сен-2011 12:39

[Цитировать]

Easy Star All-Stars - First Light- Год: 2011 Discogs
Label: Easy Star Records – ES1025
Format: CD, Album
Жанр: Reggae
Кодек: FLAC
Битрейт: Lossless
Тип рипа: tracks+.cue
Продолжительность: 00:57:15-Треклист:
01. Don't Stop The Music 4:19
02. Break Of Dawn 3:42
03. First Light (Ramblin' Fever) 3:55
04. One Likkle Draw (feat Junior Jazz & Daddy Lion Chandell 4:13
05. Something Went Wrong 3:49
06. Easy Now Star (feat The Meditations & Tony Tuff & Lady Ann) 4:05
07. Universal Law 3:26
08. Paid My Dues 4:34
09. Reggae Pension 4:17
10. In The Light 4:15
11. Unbelievable (feat Cas Haley) 4:18
12. All The Way 3:32
13. I Won't Stop 4:23
14. Don't Stop Dub Music 4:21

Отчёт ЕАС:

Код:
Exact Audio Copy V1.0 beta 1 from 15. November 2010
EAC extraction logfile from 2. September 2011, 20:38
Easy Star All-Stars / First Light
Used drive  : Optiarc DVD RW AD-7203S   Adapter: 1  ID: 0
Read mode               : Secure
Utilize accurate stream : Yes
Defeat audio cache      : Yes
Make use of C2 pointers : No
Read offset correction                      : 48
Overread into Lead-In and Lead-Out          : No
Fill up missing offset samples with silence : Yes
Delete leading and trailing silent blocks   : No
Null samples used in CRC calculations       : Yes
Used interface                              : Native Win32 interface for Win NT & 2000
Gap handling                                : Appended to previous track
Used output format              : User Defined Encoder
Selected bitrate                : 1024 kBit/s
Quality                         : High
Add ID3 tag                     : No
Command line compressor         : H:\Program Files\Exact Audio Copy\Flac\flac.exe
Additional command line options : -V -8 -T "artist=%a" -T "title=%t" -T "album=%g" -T "date=%y" -T "tracknumber=%n" -T "genre=%m" %s
TOC of the extracted CD
     Track |   Start  |  Length  | Start sector | End sector
    ---------------------------------------------------------
        1  |  0:00.00 |  4:19.22 |         0    |    19446
        2  |  4:19.22 |  3:42.21 |     19447    |    36117
        3  |  8:01.43 |  3:55.27 |     36118    |    53769
        4  | 11:56.70 |  4:13.08 |     53770    |    72752
        5  | 16:10.03 |  3:49.31 |     72753    |    89958
        6  | 19:59.34 |  4:05.25 |     89959    |   108358
        7  | 24:04.59 |  3:26.46 |    108359    |   123854
        8  | 27:31.30 |  4:34.50 |    123855    |   144454
        9  | 32:06.05 |  4:17.45 |    144455    |   163774
       10  | 36:23.50 |  4:15.42 |    163775    |   182941
       11  | 40:39.17 |  4:18.18 |    182942    |   202309
       12  | 44:57.35 |  3:32.46 |    202310    |   218255
       13  | 48:30.06 |  4:23.54 |    218256    |   238034
       14  | 52:53.60 |  4:21.26 |    238035    |   257635
Track  1
     Filename J:\0day.ro upload\Easy Star All-Stars - First Light - 2011 [flac]\01. Don t Stop The Music.wav
     Pre-gap length  0:00:02.00
     Peak level 98.9 %
     Extraction speed 2.5 X
     Track quality 100.0 %
     Test CRC 1B525874
     Copy CRC 1B525874
     Cannot be verified as accurate (confidence 2)  [7C642BE6], AccurateRip returned [DDED9847]
     Copy OK
Track  2
     Filename J:\0day.ro upload\Easy Star All-Stars - First Light - 2011 [flac]\02. Break Of Dawn.wav
     Peak level 99.8 %
     Extraction speed 2.8 X
     Track quality 100.0 %
     Test CRC 13954173
     Copy CRC 13954173
     Cannot be verified as accurate (confidence 2)  [777F0512], AccurateRip returned [71A5109D]
     Copy OK
Track  3
     Filename J:\0day.ro upload\Easy Star All-Stars - First Light - 2011 [flac]\03. First Light (Ramblin Fever).wav
     Peak level 98.9 %
     Extraction speed 2.9 X
     Track quality 100.0 %
     Test CRC 705EB676
     Copy CRC 705EB676
     Cannot be verified as accurate (confidence 2)  [3FF9B357], AccurateRip returned [7541D3CB]
     Copy OK
Track  4
     Filename J:\0day.ro upload\Easy Star All-Stars - First Light - 2011 [flac]\04. One Likkle Draw (feat. Junior Jazz and Daddy Lion Chandell).wav
     Peak level 98.9 %
     Extraction speed 3.2 X
     Track quality 100.0 %
     Test CRC 33F94D45
     Copy CRC 33F94D45
     Cannot be verified as accurate (confidence 2)  [14B9DCD6], AccurateRip returned [0A308E01]
     Copy OK
Track  5
     Filename J:\0day.ro upload\Easy Star All-Stars - First Light - 2011 [flac]\05. Something Went Wrong.wav
     Peak level 98.9 %
     Extraction speed 3.3 X
     Track quality 100.0 %
     Test CRC FE84F0E0
     Copy CRC FE84F0E0
     Cannot be verified as accurate (confidence 2)  [4BB7193D], AccurateRip returned [D4A39A96]
     Copy OK
Track  6
     Filename J:\0day.ro upload\Easy Star All-Stars - First Light - 2011 [flac]\06. Easy Now Star (feat. The Meditations, Tony Tuff and Lady Ann).wav
     Peak level 99.9 %
     Extraction speed 3.5 X
     Track quality 100.0 %
     Test CRC 2D707D12
     Copy CRC 2D707D12
     Cannot be verified as accurate (confidence 2)  [FC2E5087], AccurateRip returned [1490E1D9]
     Copy OK
Track  7
     Filename J:\0day.ro upload\Easy Star All-Stars - First Light - 2011 [flac]\07. Universal Law.wav
     Peak level 99.9 %
     Extraction speed 3.6 X
     Track quality 100.0 %
     Test CRC 78C93E64
     Copy CRC 78C93E64
     Cannot be verified as accurate (confidence 2)  [C2985D9A], AccurateRip returned [18908011]
     Copy OK
Track  8
     Filename J:\0day.ro upload\Easy Star All-Stars - First Light - 2011 [flac]\08. Paid My Dues.wav
     Peak level 98.9 %
     Extraction speed 3.9 X
     Track quality 100.0 %
     Test CRC 50AA0897
     Copy CRC 50AA0897
     Cannot be verified as accurate (confidence 2)  [1CAA0CA2], AccurateRip returned [56683B08]
     Copy OK
Track  9
     Filename J:\0day.ro upload\Easy Star All-Stars - First Light - 2011 [flac]\09. Reggae Pension.wav
     Peak level 98.9 %
     Extraction speed 4.0 X
     Track quality 100.0 %
     Test CRC BA08EA0C
     Copy CRC BA08EA0C
     Cannot be verified as accurate (confidence 2)  [424B0116], AccurateRip returned [BA1A6212]
     Copy OK
Track 10
     Filename J:\0day.ro upload\Easy Star All-Stars - First Light - 2011 [flac]\10. In The Light.wav
     Peak level 99.9 %
     Extraction speed 4.2 X
     Track quality 100.0 %
     Test CRC 6AE2934F
     Copy CRC 6AE2934F
     Cannot be verified as accurate (confidence 2)  [24F668C7], AccurateRip returned [D2E64F3B]
     Copy OK
Track 11
     Filename J:\0day.ro upload\Easy Star All-Stars - First Light - 2011 [flac]\11. Unbelievable (feat. Cas Haley).wav
     Peak level 99.9 %
     Extraction speed 4.4 X
     Track quality 100.0 %
     Test CRC 28F10513
     Copy CRC 28F10513
     Cannot be verified as accurate (confidence 2)  [7A8DB274], AccurateRip returned [B75ED363]
     Copy OK
Track 12
     Filename J:\0day.ro upload\Easy Star All-Stars - First Light - 2011 [flac]\12. All The Way.wav
     Peak level 99.9 %
     Extraction speed 4.4 X
     Track quality 100.0 %
     Test CRC 94FE504C
     Copy CRC 94FE504C
     Cannot be verified as accurate (confidence 2)  [0CA72790], AccurateRip returned [8E47103E]
     Copy OK
Track 13
     Filename J:\0day.ro upload\Easy Star All-Stars - First Light - 2011 [flac]\13. I Won t Stop.wav
     Peak level 99.9 %
     Extraction speed 4.7 X
     Track quality 100.0 %
     Test CRC 603B0CDF
     Copy CRC 603B0CDF
     Cannot be verified as accurate (confidence 2)  [E768A266], AccurateRip returned [3508A67E]
     Copy OK
Track 14
     Filename J:\0day.ro upload\Easy Star All-Stars - First Light - 2011 [flac]\14. Don t Stop Dub Music.wav
     Peak level 98.9 %
     Extraction speed 4.3 X
     Track quality 99.9 %
     Test CRC 53EFC30A
     Copy CRC 53EFC30A
     Cannot be verified as accurate (confidence 2)  [3C2D4640], AccurateRip returned [78C0B79C]
     Copy OK
No tracks could be verified as accurate
You may have a different pressing from the one(s) in the database
No errors occurred
End of status report
==== Log checksum 943E6FC8FB0C6FA0E602535D937084EE401E14CB48266D2A2BA88811C46129E3 ====

Отчёт auCDtect Task manager:

Код:
-----------------------
DON'T MODIFY THIS FILE
-----------------------
PERFORMER: auCDtect Task Manager, ver. 1.5.1RC4 build 1.5.1.5
Copyright (c) 2008-2010 y-soft. All rights reserved
http://y-soft.org
ANALYZER: auCDtect: CD records authenticity detector, version 0.8.2
Copyright (c) 2004 Oleg Berngardt. All rights reserved.
Copyright (c) 2004 Alexander Djourik. All rights reserved.
FILE: 14. Don t Stop Dub Music.flac
  Size: 28772822 Hash: 7A2C6A2481F0E3BA20BE0B2BD734533E Accuracy: -m0
  Conclusion: CDDA 100%
  Signature: 3576BB55C25FFD1898FFBA031EE8CC5D21949C6B
FILE: 13. I Won t Stop.flac
  Size: 32740291 Hash: 85CC3478B38195EDE2E0234D80083CAA Accuracy: -m0
  Conclusion: CDDA 100%
  Signature: 42354FF7A5022C73475FF2438D15D09C38C905FE
FILE: 12. All The Way.flac
  Size: 27183874 Hash: 639197294084AFEB22B8906B33EE15E4 Accuracy: -m0
  Conclusion: CDDA 100%
  Signature: 9EBA52412C55DB700A989A3365979138CFC7DEAF
FILE: 11. Unbelievable (feat. Cas Haley).flac
  Size: 28908738 Hash: 74CD86B5FD2D9A2C011B3C01ED28A76F Accuracy: -m0
  Conclusion: CDDA 100%
  Signature: E09228F5BCEAAE1DD889FB4B8B88033C6F57AF52
FILE: 10. In The Light.flac
  Size: 28756601 Hash: 899F01EACA81AFB2C2FC6D21A8BCDDDD Accuracy: -m0
  Conclusion: CDDA 100%
  Signature: 9E25EDDE26B3FF8AE0135E3810CE28E14EADC177
FILE: 09. Reggae Pension.flac
  Size: 31393794 Hash: 59313250822FCE210E400D9FFB759A1E Accuracy: -m0
  Conclusion: CDDA 100%
  Signature: 60DD7424D1BA24CA176F52E57E3F6D54E0D5F441
FILE: 08. Paid My Dues.flac
  Size: 32530202 Hash: C89B4FAD377A9388BD0E05E4A5623947 Accuracy: -m0
  Conclusion: CDDA 100%
  Signature: 50B69B3536EBC3FF67C6A252E95DB538C27FD7D0
FILE: 07. Universal Law.flac
  Size: 24509498 Hash: 7ADCD59C0D97F7608186F91081EF598D Accuracy: -m0
  Conclusion: CDDA 100%
  Signature: 6556AEE3112A57014CD19A1385C603DA71519496
FILE: 06. Easy Now Star (feat. The Meditations, Tony Tuff and Lady Ann).flac
  Size: 28221081 Hash: B5C6C005FC8307793E5B96187A33E5E5 Accuracy: -m0
  Conclusion: CDDA 100%
  Signature: 68C91A54AB95FC43460E5BB2702EE70D6B896C0C
FILE: 05. Something Went Wrong.flac
  Size: 30603489 Hash: B9528045393860452117C3FD5FD89A41 Accuracy: -m0
  Conclusion: CDDA 99%
  Signature: E8269BBD9690265D1EEA9766866AEB33F65C6259
FILE: 04. One Likkle Draw (feat. Junior Jazz and Daddy Lion Chandell).flac
  Size: 30322645 Hash: 0F21C01D46EA728C8A9E1DEF42A09247 Accuracy: -m0
  Conclusion: CDDA 100%
  Signature: BF79913C6F7502E7781DD9112FA9C01D1A1134B1
FILE: 03. First Light (Ramblin Fever).flac
  Size: 28280498 Hash: C7CB233DF97794BC1DB75E1874639F1B Accuracy: -m0
  Conclusion: CDDA 100%
  Signature: C8EA9C3C66B5A8D902DD3FE5B2264E03191A0E31
FILE: 02. Break Of Dawn.flac
  Size: 27221381 Hash: 97814CA0B79AC774E2697B9FCA74116C Accuracy: -m0
  Conclusion: CDDA 100%
  Signature: 709E250D917B477CC42AB4CC801450DAE2DA41CA
FILE: 01. Don t Stop The Music.flac
  Size: 31872970 Hash: 94921B720C2C7EC4D82411D88A64F71A Accuracy: -m0
  Conclusion: CDDA 100%
  Signature: 632714ABE28BB09DBC23D7505DF0FB0E90A5781A

Paullo

Пост 01-Июл-2011 10:38

[Цитировать]

Beyonce - 4
Жанр: R&B, Pop
Страна-производитель диска: Sony Music
Год издания диска: 2011
Аудиокодек: FLAC (*.flac)
Тип рипа: tracks+.cue
Битрейт аудио: lossless
Продолжительность: 00:46:32
Источник (релизер): WEB
Наличие сканов в содержимом раздачи: нет
Треклист:
01. 1+1 (04:33)
02. I Care (03:59)
03. I Miss You (02:59)
04. Best Thing I Never Had (04:13)
05. Party Ft. Andre 3000 And Kanye West (04:5)
06. Rather Die Young (03:42)
07. Start Over (03:19)
08. Love On Top (04:27)
09. Countdown (03:33)
10. End Of Time (03:44)
11. I Was Here (03:59)
12. Run The World (Girls) (03:56)

Лог создания рипа

Exact Audio Copy V1.0 beta 2 from 29. April 2011
EAC extraction logfile from 27. June 2011, 11:30
Beyonce / 4
Used drive : PLEXTOR CD-R PREMIUM2 Adapter: 0 ID: 0
Read mode : Secure
Utilize accurate stream : Yes
Defeat audio cache : Yes
Make use of C2 pointers : No
Read offset correction : 30
Overread into Lead-In and Lead-Out : Yes
Fill up missing offset samples with silence : Yes
Delete leading and trailing silent blocks : No
Null samples used in CRC calculations : Yes
Used interface : Native Win32 interface for Win NT & 2000
Gap handling : Appended to previous track
Used output format : User Defined Encoder
Selected bitrate : 1024 kBit/s
Quality : High
Add ID3 tag : No
Command line compressor : C:\Program Files (x86)\Exact Audio Copy\FLAC\FLAC.EXE
Additional command line options : -8 -V -T "ARTIST=%artist%" -T "TITLE=%title%" -T "ALBUM=%albumtitle%" -T "DATE=%year%" -T "TRACKNUMBER=%tracknr%" -T "GENRE=%genre%" %source%
TOC of the extracted CD
Track | Start | Length | Start sector | End sector
---------------------------------------------------------
1 | 0:00.00 | 4:33.66 | 0 | 20540
2 | 4:33.66 | 3:59.35 | 20541 | 38500
3 | 8:33.26 | 2:59.05 | 38501 | 51930
4 | 11:32.31 | 4:13.56 | 51931 | 70961
5 | 15:46.12 | 4:05.36 | 70962 | 89372
6 | 19:51.48 | 3:42.36 | 89373 | 106058
7 | 23:34.09 | 3:19.08 | 106059 | 120991
8 | 26:53.17 | 4:27.31 | 120992 | 141047
9 | 31:20.48 | 3:33.29 | 141048 | 157051
10 | 34:54.02 | 3:43.74 | 157052 | 173850
11 | 38:38.01 | 3:59.16 | 173851 | 191791
12 | 42:37.17 | 3:56.07 | 191792 | 209498
Track 1
Filename D:\EAC Rips\Beyonce - 4 (2011) [FLAC]\01 - 1+1.wav
Pre-gap length 0:00:02.00
Peak level 99.8 %
Extraction speed 1.2 X
Track quality 99.9 %
Test CRC 8C9C5641
Copy CRC 8C9C5641
Track not present in AccurateRip database
Copy OK
Track 2
Filename D:\EAC Rips\Beyonce - 4 (2011) [FLAC]\02 - I Care.wav
Peak level 99.8 %
Extraction speed 1.3 X
Track quality 100.0 %
Test CRC C2DDBDBE
Copy CRC C2DDBDBE
Track not present in AccurateRip database
Copy OK
Track 3
Filename D:\EAC Rips\Beyonce - 4 (2011) [FLAC]\03 - I Miss You.wav
Peak level 99.8 %
Extraction speed 1.3 X
Track quality 100.0 %
Test CRC 26328CB9
Copy CRC 26328CB9
Track not present in AccurateRip database
Copy OK
Track 4
Filename D:\EAC Rips\Beyonce - 4 (2011) [FLAC]\04 - Best Thing I Never Had.wav
Peak level 99.8 %
Extraction speed 1.3 X
Track quality 100.0 %
Test CRC 99C5B73F
Copy CRC 99C5B73F
Track not present in AccurateRip database
Copy OK
Track 5
Filename D:\EAC Rips\Beyonce - 4 (2011) [FLAC]\05 - Party.wav
Peak level 99.8 %
Extraction speed 1.3 X
Track quality 100.0 %
Test CRC 37595A7F
Copy CRC 37595A7F
Track not present in AccurateRip database
Copy OK
Track 6
Filename D:\EAC Rips\Beyonce - 4 (2011) [FLAC]\06 - Rather Die Young.wav
Peak level 99.8 %
Extraction speed 1.3 X
Track quality 100.0 %
Test CRC E7424662
Copy CRC E7424662
Track not present in AccurateRip database
Copy OK
Track 7
Filename D:\EAC Rips\Beyonce - 4 (2011) [FLAC]\07 - Start Over.wav
Peak level 99.8 %
Extraction speed 1.2 X
Track quality 100.0 %
Test CRC 5CE00C2A
Copy CRC 5CE00C2A
Track not present in AccurateRip database
Copy OK
Track 8
Filename D:\EAC Rips\Beyonce - 4 (2011) [FLAC]\08 - Love On Top.wav
Peak level 99.8 %
Extraction speed 1.3 X
Track quality 100.0 %
Test CRC 8DB8F2C3
Copy CRC 8DB8F2C3
Track not present in AccurateRip database
Copy OK
Track 9
Filename D:\EAC Rips\Beyonce - 4 (2011) [FLAC]\09 - Countdown.wav
Peak level 99.8 %
Extraction speed 1.3 X
Track quality 100.0 %
Test CRC 47FA6B2E
Copy CRC 47FA6B2E
Track not present in AccurateRip database
Copy OK
Track 10
Filename D:\EAC Rips\Beyonce - 4 (2011) [FLAC]\10 - End Of Time.wav
Pre-gap length 0:00:01.18
Peak level 99.8 %
Extraction speed 1.3 X
Track quality 100.0 %
Test CRC 38CD498F
Copy CRC 38CD498F
Track not present in AccurateRip database
Copy OK
Track 11
Filename D:\EAC Rips\Beyonce - 4 (2011) [FLAC]\11 - I Was Here.wav
Peak level 99.8 %
Extraction speed 1.2 X
Track quality 100.0 %
Test CRC 1F8A3411
Copy CRC 1F8A3411
Track not present in AccurateRip database
Copy OK
Track 12
Filename D:\EAC Rips\Beyonce - 4 (2011) [FLAC]\12 - Run The World (Girls).wav
Peak level 99.8 %
Extraction speed 1.2 X
Track quality 100.0 %
Test CRC F7358DF9
Copy CRC F7358DF9
Track not present in AccurateRip database
Copy OK
None of the tracks are present in the AccurateRip database
No errors occurred
End of status report
==== Log checksum 992B9B3286970B86DCCC439A6C0C88F204B43C4BC6B91F550AC25BB125FDAE00 ====

Содержание индексной карты (.CUE)

REM GENRE Soul
REM DATE 2011
REM DISCID AA0AE90C
REM COMMENT "ExactAudioCopy v1.0b2"
PERFORMER "Beyonce"
TITLE "4"
FILE "01 - 1+1.wav" WAVE
TRACK 01 AUDIO
TITLE "1+1"
PERFORMER "Beyonce"
INDEX 01 00:00:00
FILE "02 - I Care.wav" WAVE
TRACK 02 AUDIO
TITLE "I Care"
PERFORMER "Beyonce"
INDEX 01 00:00:00
FILE "03 - I Miss You.wav" WAVE
TRACK 03 AUDIO
TITLE "I Miss You"
PERFORMER "Beyonce"
INDEX 01 00:00:00
FILE "04 - Best Thing I Never Had.wav" WAVE
TRACK 04 AUDIO
TITLE "Best Thing I Never Had"
PERFORMER "Beyonce"
INDEX 01 00:00:00
FILE "05 - Party.wav" WAVE
TRACK 05 AUDIO
TITLE "Party"
PERFORMER "Beyonce"
INDEX 01 00:00:00
FILE "06 - Rather Die Young.wav" WAVE
TRACK 06 AUDIO
TITLE "Rather Die Young"
PERFORMER "Beyonce"
INDEX 01 00:00:00
FILE "07 - Start Over.wav" WAVE
TRACK 07 AUDIO
TITLE "Start Over"
PERFORMER "Beyonce"
INDEX 01 00:00:00
FILE "08 - Love On Top.wav" WAVE
TRACK 08 AUDIO
TITLE "Love On Top"
PERFORMER "Beyonce"
INDEX 01 00:00:00
FILE "09 - Countdown.wav" WAVE
TRACK 09 AUDIO
TITLE "Countdown"
PERFORMER "Beyonce"
INDEX 01 00:00:00
TRACK 10 AUDIO
TITLE "End Of Time"
PERFORMER "Beyonce"
INDEX 00 03:32:11
FILE "10 - End Of Time.wav" WAVE
INDEX 01 00:00:00
FILE "11 - I Was Here.wav" WAVE
TRACK 11 AUDIO
TITLE "I Was Here"
PERFORMER "Beyonce"
INDEX 01 00:00:00
FILE "12 - Run The World (Girls).wav" WAVE
TRACK 12 AUDIO
TITLE "Run The World (Girls)"
PERFORMER "Beyonce"
INDEX 01 00:00:00

*nfo

---------------------------------------------------------------------
Beyonce - 4
---------------------------------------------------------------------
Artist...............: Beyonce
Album................: 4
Genre................: Soul
Source...............: CD
Year.................: 2011
Ripper...............: Exact Audio Copy (Secure mode) & PLEXTOR CD-R PREMIUM2
Codec................: Free Lossless Audio Codec (FLAC)
Version..............: reference libFLAC 1.2.1 20070917
Quality..............: Lossless, (avg. compression: 65 Перегрузка
Channels.............: Stereo / 44100 HZ / 16 Bit
Tags.................: VorbisComment
Included.............: NFO, MD5, M3U, LOG, CUE
---------------------------------------------------------------------
Tracklisting
---------------------------------------------------------------------
1. (00:04:34) - (59.67%) Beyonce - 1+1
2. (00:03:59) - (62.63%) Beyonce - I Care
3. (00:02:59) - (54.64%) Beyonce - I Miss You
4. (00:04:14) - (64.53%) Beyonce - Best Thing I Never Had
5. (00:04:05) - (68.82%) Beyonce - Party
6. (00:03:42) - (58.22%) Beyonce - Rather Die Young
7. (00:03:19) - (65.45%) Beyonce - Start Over
8. (00:04:27) - (70.17%) Beyonce - Love On Top
9. (00:03:33) - (73.15%) Beyonce - Countdown
10. (00:03:44) - (67.17%) Beyonce - End Of Time
11. (00:03:59) - (63.10%) Beyonce - I Was Here
12. (00:03:56) - (74.54%) Beyonce - Run The World (Girls)
Playing Time.........: 00:46:33
Total Size...........: 307.00 MB
NFO generated on.....: 6/27/2011 11:32:44
 

Текущее время: Сегодня 23:25

Часовой пояс: GMT + 3