Сегодня идет свободное скачивание без начисления Download

Результатов поиска: 10

Автор Сообщение

O.S.A.

Пост 11-Июл-2014 18:19

[Цитировать]

Latexxx Teens - Cold Heart And Old Scars (2013)- Год: 2013
Жанр: Industrial Metal
Catalog#: FO1012CD
Продолжительность: 00:42:45
Кодек: FLAC
Битрейт: Lossless
Треклист:

01. DIE (03:29)
02. We Only Come Out at Night (04:09)
03. Love You to Death (02:24)
04. Edge of Insanity (03:19)
05. Crawling (04:10)
06. World Collapse (04:19)
07. Black Dream (04:03)
08. Call Me (03:48)
09. Crying at the Moon (04:16)
10. Wendigo (04:14)
11. Lullaby for the End (04:29)
-

cue:

Код:
REM GENRE "industrial metal"
REM DATE 2013
REM DISCID 800A050B
REM COMMENT "ExactAudioCopy v1.0b3"
PERFORMER "Latexxx Teens"
TITLE "Cold Heart And Old Scars (FO1012CD)"
FILE "Latexxx Teens - Cold Heart And Old Scars (FO1012CD).flac" WAVE
  TRACK 01 AUDIO
    TITLE "01. DIE"
    PERFORMER "Latexxx Teens"
    INDEX 01 00:00:00
  TRACK 02 AUDIO
    TITLE "02. We Only Come Out at Night"
    PERFORMER "Latexxx Teens"
    INDEX 01 03:29:49
  TRACK 03 AUDIO
    TITLE "03. Love You to Death"
    PERFORMER "Latexxx Teens"
    INDEX 01 07:38:57
  TRACK 04 AUDIO
    TITLE "04. Edge of Insanity"
    PERFORMER "Latexxx Teens"
    INDEX 01 10:03:19
  TRACK 05 AUDIO
    TITLE "05. Crawling"
    PERFORMER "Latexxx Teens"
    INDEX 01 13:22:47
  TRACK 06 AUDIO
    TITLE "06. World Collapse"
    PERFORMER "Latexxx Teens"
    INDEX 01 17:33:32
  TRACK 07 AUDIO
    TITLE "07. Black Dream"
    PERFORMER "Latexxx Teens"
    INDEX 01 21:52:59
  TRACK 08 AUDIO
    TITLE "08. Call Me"
    PERFORMER "Latexxx Teens"
    INDEX 01 25:56:40
  TRACK 09 AUDIO
    TITLE "09. Crying at the Moon"
    PERFORMER "Latexxx Teens"
    INDEX 01 29:44:56
  TRACK 10 AUDIO
    TITLE "10. Wendigo"
    PERFORMER "Latexxx Teens"
    INDEX 01 34:00:62
  TRACK 11 AUDIO
    TITLE "11. Lullaby for the End"
    PERFORMER "Latexxx Teens"
    INDEX 01 38:15:41

Отчёт ЕАС:

Код:
Exact Audio Copy V1.0 beta 3 from 29. August 2011
EAC extraction logfile from 11. October 2013, 23:14
Latexxx Teens / Cold Heart And Old Scars (FO1012CD)
Used drive  : PLEXTOR DVDR   PX-860A   Adapter: 0  ID: 3
Read mode               : Secure
Utilize accurate stream : Yes
Defeat audio cache      : Yes
Make use of C2 pointers : No
Read offset correction                      : 96
Overread into Lead-In and Lead-Out          : No
Fill up missing offset samples with silence : Yes
Delete leading and trailing silent blocks   : No
Null samples used in CRC calculations       : Yes
Used interface                              : Installed external ASPI interface
Used output format              : User Defined Encoder
Selected bitrate                : 1024 kBit/s
Quality                         : High
Add ID3 tag                     : Yes
Command line compressor         : E:\Program Files (x86)\Exact Audio Copy\Flac\flac.exe
Additional command line options : -V -8 -T "Date=%year%" -T "Genre=%genre%" %source%
TOC of the extracted CD
     Track |   Start  |  Length  | Start sector | End sector
    ---------------------------------------------------------
        1  |  0:00.00 |  3:29.49 |         0    |    15723
        2  |  3:29.49 |  4:09.08 |     15724    |    34406
        3  |  7:38.57 |  2:24.37 |     34407    |    45243
        4  | 10:03.19 |  3:19.28 |     45244    |    60196
        5  | 13:22.47 |  4:10.60 |     60197    |    79006
        6  | 17:33.32 |  4:19.27 |     79007    |    98458
        7  | 21:52.59 |  4:03.56 |     98459    |   116739
        8  | 25:56.40 |  3:48.16 |    116740    |   133855
        9  | 29:44.56 |  4:16.06 |    133856    |   153061
       10  | 34:00.62 |  4:14.54 |    153062    |   172165
       11  | 38:15.41 |  4:29.56 |    172166    |   192396
Range status and errors
Selected range
     Filename D:\MUSIC\Latexxx Teens - Cold Heart And Old Scars (FO1012CD).wav
     Peak level 100.0 %
     Extraction speed 2.5 X
     Range quality 100.0 %
     Test CRC 49CBB222
     Copy CRC 49CBB222
     Copy OK
No errors occurred
AccurateRip summary
Track  1  not present in database
Track  2  not present in database
Track  3  not present in database
Track  4  not present in database
Track  5  not present in database
Track  6  not present in database
Track  7  not present in database
Track  8  not present in database
Track  9  not present in database
Track 10  not present in database
Track 11  not present in database
None of the tracks are present in the AccurateRip database
End of status report
==== Log checksum 24469F5619A4FB1C8B77F5C0019C31E2755DE5E8AAECF929998BAE24DDB38235 ====

Отчёт auCDtect Task manager:

Код:
-----------------------
DON'T MODIFY THIS FILE
-----------------------
PERFORMER: auCDtect Task Manager, ver. 1.6.0 RC1 build 1.6.0.1
Copyright (c) 2008-2010 y-soft. All rights reserved
http://y-soft.org
ANALYZER: auCDtect: CD records authenticity detector, version 0.8.2
Copyright (c) 2004 Oleg Berngardt. All rights reserved.
Copyright (c) 2004 Alexander Djourik. All rights reserved.
FILE: Latexxx Teens - Cold Heart And Old Scars (FO1012CD).flac
  Size: 344868137 Hash: 9293A16E29EA0F426F3177C7AFACD616 Accuracy: -m0
  Conclusion: CDDA 100%
  Signature: 933D1EFD28AAD31DBE81F95B9CD34020FF62E691

Спектрограмма:

 
-

Dracula

Пост 25-Сен-2013 09:02

[Цитировать]

Топик был перенесен из форума Компьютерная литература в форум Industrial, Noise, EBM, Dark Electro, Aggrotech, Synthpop, New Wave, Synth-pop, Technopop


sashau

UndegraundMen

Пост 25-Сен-2013 05:00

[Цитировать]

Skytech - No Need For Words / Out Of Nowhere (2013) WEB- Год: 2013
Жанр: Trance
Продолжительность: 00:21:53
Лейбл: Coldharbour Recordings
Каталожный №: CLHR154
Сканы: Only Front
Кодек: FLAC (tracks)
Битрейт: Lossless
Трек лист:
01. No Need For Words (Original Mix) [7:08]
02. Out Of Nowhere (Original Mix) [7:23]
03. No Need For Words (Radio Edit) [3:26]
04. Out Of Nowhere (Radio Edit) [3:56]
Beatport
-

Отчёт auCDtect Task Manager:

Код:
-----------------------
DON'T MODIFY THIS FILE
-----------------------
PERFORMER: auCDtect Task Manager, ver. 1.5.1RC6 build 1.5.1.7
Copyright (c) 2008-2010 y-soft. All rights reserved
http://y-soft.org
ANALYZER: auCDtect: CD records authenticity detector, version 0.8.2
Copyright (c) 2004 Oleg Berngardt. All rights reserved.
Copyright (c) 2004 Alexander Djourik. All rights reserved.
FILE: 04. Skytech - Out Of Nowhere (Radio Edit).flac
  Size: 32922819 Hash: 0A354D9A108DE612C165F25B6EC2F48F Accuracy: -m0
  Conclusion: CDDA 99%
  Signature: E10C53FF08D48FCA899802DCFAD5FA478EC5B3B7
FILE: 03. Skytech - No Need For Words (Radio Edit).flac
  Size: 27533728 Hash: 9D5386DF4F77D6DD73FA88F8C27841AF Accuracy: -m0
  Conclusion: CDDA 99%
  Signature: E99F9872869F860BA3847407127DCF7595563C87
FILE: 02. Skytech - Out Of Nowhere (Original Mix).flac
  Size: 63988621 Hash: 21F0611987CBCA84C6548C726BD50B64 Accuracy: -m0
  Conclusion: CDDA 100%
  Signature: D1D10F6DEF6AB267AB589E6732FEA53C21EFA0F5
FILE: 01. Skytech - No Need For Words (Original Mix).flac
  Size: 58321769 Hash: A76B9DB11DE5C41DDD242A6958652560 Accuracy: -m0
  Conclusion: CDDA 100%
  Signature: A23D264B096E0C4FCD8875FEDD4C27482128FF1F
-Время раздачи: Круглосуточно (до первых сидов, далее по возможности)

p2000s

Пост 27-Май-2013 16:10

[Цитировать]

Daft Punk - Random Access Memories (Deluxe Edition)- Label: Sony Music Entertainment. Made in Japan.
Catalog #: SICP-3817
Страна: France
Жанр: Funk, Electro, Synth-pop
Год выпуска: 2013
Формат: FLAC (tracks + .cue)
Битрейт аудио: lossless
Продолжительность: 01:11:50-Трэклист:
01. Give Life Back to Music [04:35]
02. The Game of Love [05:22]
03. Giorgio by Moroder [09:04]
04. Within [03:48]
05. Instant Crush [05:37]
06. Lose Yourself to Dance [05:53]
07. Touch [08:18]
08. Get Lucky [06:09]
09. Beyond [04:50]
10. Motherboard [05:41]
11. Fragments of Time [04:39]
12. Doin' It Right [04:11]
13. Contact [06:21]
14. Horizon [04:24]
- -

Log Exact Audio Copy:

Exact Audio Copy V1.0 beta 3 from 29. August 2011
EAC extraction logfile from 21. May 2013, 21:11
Daft Punk / Random Access Memories
Used drive : Optiarc DVD RW AD-7241S Adapter: 0 ID: 0
Read mode : Secure
Utilize accurate stream : Yes
Defeat audio cache : Yes
Make use of C2 pointers : No
Read offset correction : 48
Overread into Lead-In and Lead-Out : No
Fill up missing offset samples with silence : Yes
Delete leading and trailing silent blocks : No
Null samples used in CRC calculations : Yes
Used interface : Native Win32 interface for Win NT & 2000
Gap handling : Appended to previous track
Used output format : User Defined Encoder
Selected bitrate : 1024 kBit/s
Quality : High
Add ID3 tag : No
Command line compressor : C:\Program Files (x86)\Exact Audio Copy\Flac\flac.exe
Additional command line options : -8 -V -T "ARTIST=%artist%" -T "TITLE=%title%" -T "ALBUM=%albumtitle%" -T "DATE=%year%" -T "TRACKNUMBER=%tracknr1%" -T "GENRE=%genre%" -T "PERFORMER=%albuminterpret%" -T "COMPOSER=%composer%" %haslyrics%--tag-from-file=LYRICS="%lyricsfile%"%haslyrics% -T "ALBUMARTIST=%albumartist%" -T "DISCNUMBER=%cdnumber%" -T "TOTALDISCS=%totalcds%" -T "TOTALTRACKS=%numtracks%" -T "COMMENT=%comment%" %source% -o %dest%
TOC of the extracted CD
Track | Start | Length | Start sector | End sector
---------------------------------------------------------
1 | 0:00.00 | 4:35.18 | 0 | 20642
2 | 4:35.18 | 5:22.18 | 20643 | 44810
3 | 9:57.36 | 9:04.51 | 44811 | 85661
4 | 19:02.12 | 3:48.28 | 85662 | 102789
5 | 22:50.40 | 5:37.44 | 102790 | 128108
6 | 28:28.09 | 5:53.66 | 128109 | 154649
7 | 34:22.00 | 8:18.72 | 154650 | 192071
8 | 42:40.72 | 6:09.43 | 192072 | 219789
9 | 48:50.40 | 4:50.24 | 219790 | 241563
10 | 53:40.64 | 5:41.54 | 241564 | 267192
11 | 59:22.43 | 4:39.52 | 267193 | 288169
12 | 64:02.20 | 4:11.30 | 288170 | 307024
13 | 68:13.50 | 6:21.53 | 307025 | 335652
14 | 74:35.28 | 4:24.14 | 335653 | 355466
Track 1
Filename D:\Daft Punk - Random Access Memories (Japan) (FLAC)\01 Give Life Back to Music.wav
Pre-gap length 0:00:02.00
Peak level 100.0 %
Extraction speed 2.3 X
Track quality 99.9 %
Test CRC 6901A8B9
Copy CRC 6901A8B9
Track not present in AccurateRip database
Copy OK
Track 2
Filename D:\Daft Punk - Random Access Memories (Japan) (FLAC)\02 The Game of Love.wav
Peak level 100.0 %
Extraction speed 2.9 X
Track quality 100.0 %
Test CRC CCEBADC6
Copy CRC CCEBADC6
Track not present in AccurateRip database
Copy OK
Track 3
Filename D:\Daft Punk - Random Access Memories (Japan) (FLAC)\03 Giorgio by Moroder.wav
Peak level 100.0 %
Extraction speed 3.5 X
Track quality 100.0 %
Test CRC 399E62C4
Copy CRC 399E62C4
Track not present in AccurateRip database
Copy OK
Track 4
Filename D:\Daft Punk - Random Access Memories (Japan) (FLAC)\04 Within.wav
Peak level 100.0 %
Extraction speed 3.0 X
Track quality 99.9 %
Test CRC 8F2C7E9B
Copy CRC 8F2C7E9B
Track not present in AccurateRip database
Copy OK
Track 5
Filename D:\Daft Punk - Random Access Memories (Japan) (FLAC)\05 Instant Crush.wav
Peak level 100.0 %
Extraction speed 3.9 X
Track quality 100.0 %
Test CRC D5E3EADD
Copy CRC D5E3EADD
Track not present in AccurateRip database
Copy OK
Track 6
Filename D:\Daft Punk - Random Access Memories (Japan) (FLAC)\06 Lose Yourself to Dance.wav
Peak level 100.0 %
Extraction speed 3.8 X
Track quality 99.9 %
Test CRC 50AA5D86
Copy CRC 50AA5D86
Track not present in AccurateRip database
Copy OK
Track 7
Filename D:\Daft Punk - Random Access Memories (Japan) (FLAC)\07 Touch.wav
Peak level 100.0 %
Extraction speed 4.3 X
Track quality 99.9 %
Test CRC D52E4526
Copy CRC D52E4526
Track not present in AccurateRip database
Copy OK
Track 8
Filename D:\Daft Punk - Random Access Memories (Japan) (FLAC)\08 Get Lucky.wav
Peak level 100.0 %
Extraction speed 4.7 X
Track quality 100.0 %
Test CRC 41397857
Copy CRC 41397857
Track not present in AccurateRip database
Copy OK
Track 9
Filename D:\Daft Punk - Random Access Memories (Japan) (FLAC)\09 Beyond.wav
Peak level 100.0 %
Extraction speed 4.8 X
Track quality 100.0 %
Test CRC F71B966E
Copy CRC F71B966E
Track not present in AccurateRip database
Copy OK
Track 10
Filename D:\Daft Punk - Random Access Memories (Japan) (FLAC)\10 Motherboard.wav
Peak level 100.0 %
Extraction speed 5.1 X
Track quality 100.0 %
Test CRC EFC16CB2
Copy CRC EFC16CB2
Track not present in AccurateRip database
Copy OK
Track 11
Filename D:\Daft Punk - Random Access Memories (Japan) (FLAC)\11 Fragments of Time.wav
Peak level 100.0 %
Extraction speed 5.1 X
Track quality 100.0 %
Test CRC E6905A38
Copy CRC E6905A38
Track not present in AccurateRip database
Copy OK
Track 12
Filename D:\Daft Punk - Random Access Memories (Japan) (FLAC)\12 Doin' It Right.wav
Peak level 100.0 %
Extraction speed 5.2 X
Track quality 100.0 %
Test CRC 9D371A8B
Copy CRC 9D371A8B
Track not present in AccurateRip database
Copy OK
Track 13
Filename D:\Daft Punk - Random Access Memories (Japan) (FLAC)\13 Contact.wav
Peak level 100.0 %
Extraction speed 5.5 X
Track quality 100.0 %
Test CRC 86431E64
Copy CRC 86431E64
Track not present in AccurateRip database
Copy OK
Track 14
Filename D:\Daft Punk - Random Access Memories (Japan) (FLAC)\14 Horizon.wav
Peak level 99.4 %
Extraction speed 5.5 X
Track quality 100.0 %
Test CRC 7BA0522B
Copy CRC 7BA0522B
Track not present in AccurateRip database
Copy OK
None of the tracks are present in the AccurateRip database
No errors occurred
End of status report
---- CUETools DB Plugin V2.1.3
[CTDB TOCID: iLwasLgOtMp4a2AutF85IJ3Xdh0-] found, Submit result: iLwasLgOtMp4a2AutF85IJ3Xdh0- has been confirmed
[91917fcd] (1/1) Accurately ripped
==== Log checksum D5D3F12F3F397E2C434677F30785D15D456D6F93AF6FAEA1E3645E400B926CF5 ====

Log AudioChecker:

AUDIOCHECKER v2.0 beta (build 457) - by Dester - [email protected]
~~~~~~~~~~~~~~~~~~~~~~~~~~~~~~~~~~
-=== НЕ РЕДАКТИРУЙТЕ ЭТОТ ФАЙЛ! ===-
Путь: ...\Daft Punk - Random Access Memories [Deluxe Edition] (2013)
01 -=- 01. Give Life Back to Music.flac -=- CDDA (100%)
02 -=- 02. The Game of Love.flac -=- CDDA (100%)
03 -=- 03. Giorgio by Moroder.flac -=- CDDA (100%)
04 -=- 04. Within.flac -=- CDDA (100%)
05 -=- 05. Instant Crush.flac -=- CDDA (100%)
06 -=- 06. Lose Yourself to Dance.flac -=- CDDA (100%)
07 -=- 07. Touch.flac -=- CDDA (99%)
08 -=- 08. Get Lucky.flac -=- CDDA (100%)
09 -=- 09. Beyond.flac -=- CDDA (100%)
10 -=- 10. Motherboard.flac -=- CDDA (100%)
11 -=- 11. Fragments of Time.flac -=- CDDA (99%)
12 -=- 12. Doin' It Right.flac -=- CDDA (100%)
13 -=- 13. Contact.flac -=- CDDA (100%)
14 -=- 14. Horizon.flac -=- CDDA (100%)
Сводка 99,86% CDDA
123617556
Время раздачи: 24/7

p2000s

Пост 27-Май-2013 14:51

[Цитировать]

Carly Rae Jepsen - Tonight I'm Getting Over You (Remixes) (WEB)- Label: School Boy Records, Interscope Records. Made in US
Страна: Canada
Жанр: Synth-pop, Progressive House, Electro, Gabber
Год выпуска: 2013
Формат: FLAC (tracks)
Битрейт аудио: lossless
Продолжительность: 00:27:06-Трэклист:
01. Tonight I'm Getting Over You (Showtek Remix) [05:18]
02. Tonight I'm Getting Over You (Twice As Nice Remix) [03:40]
03. Tonight I'm Getting Over You (Reid Stefan Remix) [06:06]
04. Tonight I'm Getting Over You (Wayne G & LFB Club Mix) [07:07]
05. Tonight I'm Getting Over You (KoKo Club Mix) [04:53]
- -Время раздачи: 24/7

Log AudioChecker:

AUDIOCHECKER v2.0 beta (build 457) - by Dester - [email protected]
~~~~~~~~~~~~~~~~~~~~~~~~~~~~~~~~~~
-=== DO NOT EDIT THIS FILE! ===-
Path: ...\2013 - Tonight I'm Getting Over You (Remixes) [School Boy Records, Interscope Records]
1 -=- 01. Tonight I'm Getting Over You (Showtek Remix).flac -=- CDDA (99%)
2 -=- 02. Tonight I'm Getting Over You (Twice As Nice Remix).flac -=- CDDA (100%)
3 -=- 03. Tonight I'm Getting Over You (Reid Stefan Remix).flac -=- MPEG (95%)
4 -=- 04. Tonight I'm Getting Over You (Wayne G & LFB Club Mix).flac -=- CDDA (100%)
5 -=- 05. Tonight I'm Getting Over You (KoKo Club Mix).flac -=- CDDA (100%)
Summary 80,80% CDDA
13512164

Log Spectrogram:

 

Dracula

Пост 25-Май-2013 14:16

[Цитировать]

Топик был перенесен из форума Обучающее видео в форум Industrial, Noise, EBM, Dark Electro, Aggrotech, Synthpop, New Wave, Synth-pop, Technopop


RUGUI

UndegraundMen

Пост 25-Май-2013 00:03

[Цитировать]

iVardensphere - Apok- Год: 2011
Лейбл: Metropolis - MET 762
Жанр: Rhythmic Noise, Tribal, Industrial
Продолжительность: 01:19:37
Кодек: FLAC
Битрейт: Lossless
Типрипа: tracks
Треклист:
01. Sutekh (4:52)
02. Here Lies Lily Brant (5:51)
03. Nazca (Feat. Servitor Sanctum) (feat. Sean Malley) (6:41)
04. Myopic (Feat. Caustic) (4:28)
05. Cracked Earth (Feat. I:Scintilla) (5:13)
06. Acheron (Feat. God Module) (5:13)
07. Of Ancient Reprise (Feat. This Morn' Omina) (7:57)
08. Chasing The Dragon (6:24)
09. Devils (5:21)
10. Ghostnote (3:27)
11. People Of The Sun (4:55)
12. Cracked Earth (Skold Remix) (4:15)
13. Bloodwater (ESA Remix) (3:50)
14. Chasing The Dragon (Reconstructed By Releveler) (4:54)
15. Here Lies Lily Brandt (6:15)

Отчёт ЕАС:

Код:
Exact Audio Copy V1.0 beta 3 from 29. August 2011
EAC extraction logfile from 18. January 2012, 23:29
iVardensphere / APOK
Used drive  : TSSTcorpCDDVDW TS-L633C   Adapter: 0  ID: 1
Read mode               : Secure
Utilize accurate stream : Yes
Defeat audio cache      : Yes
Make use of C2 pointers : No
Read offset correction                      : 6
Overread into Lead-In and Lead-Out          : No
Fill up missing offset samples with silence : Yes
Delete leading and trailing silent blocks   : No
Null samples used in CRC calculations       : Yes
Used interface                              : Native Win32 interface for Win NT & 2000
Gap handling                                : Appended to previous track
Used output format              : User Defined Encoder
Selected bitrate                : 1024 kBit/s
Quality                         : High
Add ID3 tag                     : No
Command line compressor         : C:\Program Files (x86)\FLAC\flac.exe
Additional command line options : -8 -V -T "ARTIST=%artist%" -T "TITLE=%title%" -T "ALBUM=%albumtitle%" -T "DATE=%year%" -T "TRACKNUMBER=%tracknr%" -T "GENRE=%genre%" -T "COMMENT=%comment%" -T "BAND=%albuminterpret%" -T "COMPOSER=%composer%" %source%
TOC of the extracted CD
     Track |   Start  |  Length  | Start sector | End sector
    ---------------------------------------------------------
        1  |  0:00.00 |  4:52.27 |         0    |    21926
        2  |  4:52.27 |  5:51.25 |     21927    |    48276
        3  | 10:43.52 |  6:41.37 |     48277    |    78388
        4  | 17:25.14 |  4:27.42 |     78389    |    98455
        5  | 21:52.56 |  5:13.33 |     98456    |   121963
        6  | 27:06.14 |  5:12.68 |    121964    |   145431
        7  | 32:19.07 |  7:57.04 |    145432    |   181210
        8  | 40:16.11 |  6:23.72 |    181211    |   210007
        9  | 46:40.08 |  5:21.34 |    210008    |   234116
       10  | 52:01.42 |  3:27.28 |    234117    |   249669
       11  | 55:28.70 |  4:55.28 |    249670    |   271822
       12  | 60:24.23 |  4:15.11 |    271823    |   290958
       13  | 64:39.34 |  3:49.56 |    290959    |   308189
       14  | 68:29.15 |  4:54.14 |    308190    |   330253
       15  | 73:23.29 |  6:14.40 |    330254    |   358343
Track  1
     Filename D:\EACrips\iVardensphere-APOK\Sutekh-iVardensphere-APOK-01.wav
     Pre-gap length  0:00:02.00
     Peak level 100.0 %
     Extraction speed 1.2 X
     Track quality 100.0 %
     Test CRC F5B88100
     Copy CRC F5B88100
     Accurately ripped (confidence 1)  [838E7FB6]  (AR v1)
     Copy OK
Track  2
     Filename D:\EACrips\iVardensphere-APOK\Here_Lies_Lily_Brant-iVardensphere-APOK-02.wav
     Peak level 98.8 %
     Extraction speed 1.4 X
     Track quality 100.0 %
     Test CRC 6C62955F
     Copy CRC 6C62955F
     Accurately ripped (confidence 1)  [316761C3]  (AR v1)
     Copy OK
Track  3
     Filename D:\EACrips\iVardensphere-APOK\Nazca_(Feat._Servitor_Sanctum)-iVardensphere-APOK-03.wav
     Peak level 98.8 %
     Extraction speed 1.6 X
     Track quality 100.0 %
     Test CRC 9DF525E6
     Copy CRC 9DF525E6
     Accurately ripped (confidence 1)  [5995910E]  (AR v1)
     Copy OK
Track  4
     Filename D:\EACrips\iVardensphere-APOK\Myopic_(Feat._Caustic)-iVardensphere-APOK-04.wav
     Peak level 98.8 %
     Extraction speed 1.5 X
     Track quality 99.9 %
     Test CRC 88827A7D
     Copy CRC 88827A7D
     Accurately ripped (confidence 1)  [FEE2ACC4]  (AR v1)
     Copy OK
Track  5
     Filename D:\EACrips\iVardensphere-APOK\Cracked_Earth_(Feat._I-Scintilla)-iVardensphere-APOK-05.wav
     Peak level 98.8 %
     Extraction speed 1.8 X
     Track quality 100.0 %
     Test CRC 712DE24E
     Copy CRC 712DE24E
     Accurately ripped (confidence 1)  [EA30BE62]  (AR v1)
     Copy OK
Track  6
     Filename D:\EACrips\iVardensphere-APOK\Acheron_(Feat._God_Module)-iVardensphere-APOK-06.wav
     Peak level 98.8 %
     Extraction speed 1.9 X
     Track quality 100.0 %
     Test CRC E7325B34
     Copy CRC E7325B34
     Accurately ripped (confidence 1)  [7B4AF079]  (AR v1)
     Copy OK
Track  7
     Filename D:\EACrips\iVardensphere-APOK\Of_Ancient_Reprise_(Feat._This_Morn'_Omina)-iVardensphere-APOK-07.wav
     Peak level 98.8 %
     Extraction speed 2.0 X
     Track quality 99.9 %
     Test CRC 42F9CF37
     Copy CRC 42F9CF37
     Accurately ripped (confidence 1)  [DDEB0736]  (AR v1)
     Copy OK
Track  8
     Filename D:\EACrips\iVardensphere-APOK\Chasing_The_Dragon-iVardensphere-APOK-08.wav
     Peak level 98.8 %
     Extraction speed 2.2 X
     Track quality 100.0 %
     Test CRC 7D29C01A
     Copy CRC 7D29C01A
     Accurately ripped (confidence 1)  [97C26CEA]  (AR v1)
     Copy OK
Track  9
     Filename D:\EACrips\iVardensphere-APOK\Devils-iVardensphere-APOK-09.wav
     Peak level 98.8 %
     Extraction speed 2.3 X
     Track quality 100.0 %
     Test CRC E8DED984
     Copy CRC E8DED984
     Accurately ripped (confidence 1)  [FA1F9251]  (AR v1)
     Copy OK
Track 10
     Filename D:\EACrips\iVardensphere-APOK\Ghostnote-iVardensphere-APOK-10.wav
     Peak level 98.8 %
     Extraction speed 2.2 X
     Track quality 100.0 %
     Test CRC 0B6526CD
     Copy CRC 0B6526CD
     Accurately ripped (confidence 1)  [16C5C017]  (AR v1)
     Copy OK
Track 11
     Filename D:\EACrips\iVardensphere-APOK\People_Of_The_Sun-iVardensphere-APOK-11.wav
     Peak level 98.8 %
     Extraction speed 2.4 X
     Track quality 100.0 %
     Test CRC C9614A07
     Copy CRC C9614A07
     Accurately ripped (confidence 1)  [C008526B]  (AR v1)
     Copy OK
Track 12
     Filename D:\EACrips\iVardensphere-APOK\Cracked_Earth_(Skold_Remix)-iVardensphere-APOK-12.wav
     Peak level 98.8 %
     Extraction speed 2.4 X
     Track quality 100.0 %
     Test CRC 04CBFAED
     Copy CRC 04CBFAED
     Accurately ripped (confidence 1)  [87D7CA81]  (AR v1)
     Copy OK
Track 13
     Filename D:\EACrips\iVardensphere-APOK\Bloodwater_(ESA_Remix)-iVardensphere-APOK-13.wav
     Peak level 100.0 %
     Extraction speed 2.1 X
     Track quality 99.9 %
     Test CRC 0BFDF028
     Copy CRC 0BFDF028
     Accurately ripped (confidence 1)  [4E39F31D]  (AR v1)
     Copy OK
Track 14
     Filename D:\EACrips\iVardensphere-APOK\Chasing_the_Dragon_(Reconstructed_By_releveleR)-iVardensphere-APOK-14.wav
     Peak level 98.5 %
     Extraction speed 2.5 X
     Track quality 100.0 %
     Test CRC ADFFECD6
     Copy CRC ADFFECD6
     Accurately ripped (confidence 1)  [C5668390]  (AR v1)
     Copy OK
Track 15
     Filename D:\EACrips\iVardensphere-APOK\Here_Lies_Lily_Brant_(iVs_Vs._Pull_Out_Kings)-iVardensphere-APOK-15.wav
     Peak level 98.8 %
     Extraction speed 2.7 X
     Track quality 100.0 %
     Test CRC FE42DD5A
     Copy CRC FE42DD5A
     Accurately ripped (confidence 1)  [45E36514]  (AR v1)
     Copy OK
All tracks accurately ripped
No errors occurred
End of status report
---- CUETools DB Plugin V2.1.3
[CTDB TOCID: SPJl5QyODr.lTjQt4QTGdjRFoWk-] disk not present in database, Submit result: SPJl5QyODr.lTjQt4QTGdjRFoWk- has been uploaded
==== Log checksum E8689D2072256B6FD45D39C8E48DFB9D92743B8196397206B1B4AC3A18FBB43C ====

Отчёт auCDtect Task manager:

Код:
-----------------------
DON'T MODIFY THIS FILE
-----------------------
PERFORMER: auCDtect Task Manager, ver. 1.5.1RC6 build 1.5.1.7
Copyright (c) 2008-2010 y-soft. All rights reserved
http://y-soft.org
ANALYZER: auCDtect: CD records authenticity detector, version 0.8.2
Copyright (c) 2004 Oleg Berngardt. All rights reserved.
Copyright (c) 2004 Alexander Djourik. All rights reserved.
FILE: 15. Here Lies Lily Brandt.flac
  Size: 44917029 Hash: 34AF5B7A8C60AD4DA296DDF6BC4776AA Accuracy: -m0
  Conclusion: CDDA 100%
  Signature: 18E0E9EB2AC77D09CB1CBD04316ED2408C1CD9FE
FILE: 14. Chasing The Dragon (Reconstructed By Releveler).flac
  Size: 33284396 Hash: 3820F031ECC0D3C57E79BF9C29858D38 Accuracy: -m0
  Conclusion: CDDA 99%
  Signature: 7A6E1C3D20DDDF4CFAAE752EA603894E8FF8B1FD
FILE: 13. Bloodwater (ESA Remix).flac
  Size: 28123886 Hash: 3AB4B622710B64E0489CFDBB8BC28B46 Accuracy: -m0
  Conclusion: CDDA 100%
  Signature: 30D9FA51CF8913F9A9DB293C1AA6F93BCB06D20B
FILE: 12. Cracked Earth (Skold Remix).flac
  Size: 34836876 Hash: AE723FEB51A61A884AA0EA834A95A2FA Accuracy: -m0
  Conclusion: CDDA 100%
  Signature: A46611D31AB691BC252A01D9BE3CC25EC65BB170
FILE: 11. People Of The Sun.flac
  Size: 30375746 Hash: 860C2441C691CF34D5116A57E73CD459 Accuracy: -m0
  Conclusion: CDDA 100%
  Signature: 12DEAF6B3ACB7594400EB28FB9C0F910D97EF873
FILE: 10. Ghostnote.flac
  Size: 23349215 Hash: 702C14C2460F7BB9A049350864CD8A43 Accuracy: -m0
  Conclusion: CDDA 100%
  Signature: FF5E571AA81DF96BCA73D8E748202A4FC626C4DA
FILE: 09. Devils.flac
  Size: 37175449 Hash: 7B9D3BAB006FC2C701327CBC11235500 Accuracy: -m0
  Conclusion: CDDA 100%
  Signature: 161C82A8BC40833AF4606C42FFE6D22D1EE230FF
FILE: 08. Chasing The Dragon.flac
  Size: 45862602 Hash: 532CF6C19ECDD54AD2291E51EB8D2348 Accuracy: -m0
  Conclusion: CDDA 100%
  Signature: 0081BF56B06D256DBA9EECC6DD86DC25CFDFFB24
FILE: 07. Of Ancient Reprise (Feat. This Morn' Omina).flac
  Size: 56343025 Hash: BF2C2B4CE349416AEB8915EB0B3B61BB Accuracy: -m0
  Conclusion: CDDA 100%
  Signature: DA301F391A5BD690EC0AC507E3DC304241A2222F
FILE: 06. Acheron (Feat. God Module).flac
  Size: 38566376 Hash: 05B503D438CD7A8E32198FFE6EEC68A6 Accuracy: -m0
  Conclusion: CDDA 100%
  Signature: C37028EA2221E4ABC5A6AA4897EEFBACD69575D9
FILE: 05. Cracked Earth (Feat. I-Scintilla).flac
  Size: 37370451 Hash: 2F64A7B9D364E753E77F0C13933C2098 Accuracy: -m0
  Conclusion: CDDA 100%
  Signature: 9B9039B38969E90EE242B94BBF20E270B672EC3A
FILE: 04. Myopic (Feat. Caustic).flac
  Size: 36989680 Hash: 3D5552E0E319D7F22A2BC865E013E879 Accuracy: -m0
  Conclusion: CDDA 100%
  Signature: 2716E073DB389F2C612270CCD83EB4275F5CA7CC
FILE: 03. Nazca (Feat. Servitor Sanctum) (feat. Sean Malley).flac
  Size: 41898716 Hash: 0264DC499C9611CD2F11E01A910BF569 Accuracy: -m0
  Conclusion: CDDA 100%
  Signature: 99C23495C352CB6B9EB9854D06F1726FBBD1590F
FILE: 02. Here Lies Lily Brant.flac
  Size: 41339147 Hash: A30B80BE303B1315CC7E936065FFB312 Accuracy: -m0
  Conclusion: CDDA 100%
  Signature: C3CEC4C5548C578B258496310E17C474F385A94A
FILE: 01. Sutekh.flac
  Size: 32066584 Hash: B953D1566FC98EA62C39CFB293AE4A73 Accuracy: -m0
  Conclusion: CDDA 100%
  Signature: 4E5E30F4FCCE3696E6FB0F906AB032A857CB7156

Discogs

Время раздачи: 12/7

p2000s

Пост 11-Май-2013 14:19

[Цитировать]

Depeche Mode - Soothe My Soul (CD Maxi-Single)
Страна: UK
Жанр: Electronic, Synthpop
Год выпуска: 2013
Формат: FLAC (image + .cue)
Битрейт аудио: lossless
Продолжительность: 00:35:49
Трэклист:
01. Soothe My Soul [Steve Angello vs Jacques Lu Cont Remix] [07:03]
02. Soothe My Soul [Tom Furse - The Horrors Remix] [04:58]
03. Soothe My Soul [Billy F Gibbons And Joe Hardy Remix] [05:17]
04. Soothe My Soul [Joris Delacroix Remix] [06:55]
05. Soothe My Soul [Black Asteroid Remix] [05:35]
06. Soothe My Soul [Gregor Tresher Soothed Remix] [05:59]
Soothe My Soul
Depeche Mode

Log Exact Audio Copy:

Exact Audio Copy V1.0 beta 3 from 29. August 2011
EAC extraction logfile from 10. May 2013, 15:08
Depeche Mode / Soothe My Soul
Used drive : SlimtypeBD E DS4E1S Adapter: 0 ID: 1
Read mode : Secure
Utilize accurate stream : Yes
Defeat audio cache : Yes
Make use of C2 pointers : No
Read offset correction : 6
Overread into Lead-In and Lead-Out : No
Fill up missing offset samples with silence : Yes
Delete leading and trailing silent blocks : No
Null samples used in CRC calculations : Yes
Used interface : Native Win32 interface for Win NT & 2000
Used output format : User Defined Encoder
Selected bitrate : 896 kBit/s
Quality : High
Add ID3 tag : No
Command line compressor : C:\Program Files (x86)\Exact Audio Copy\Flac\flac.exe
Additional command line options : -8 -V -T "Date=%year%" -T "Genre=%genre%" -T "COMMENT=ripped by sewerok®" %source%
TOC of the extracted CD
Track | Start | Length | Start sector | End sector
---------------------------------------------------------
1 | 0:00.00 | 7:03.39 | 0 | 31763
2 | 7:03.39 | 4:58.30 | 31764 | 54143
3 | 12:01.69 | 5:17.12 | 54144 | 77930
4 | 17:19.06 | 6:55.04 | 77931 | 109059
5 | 24:14.10 | 5:35.29 | 109060 | 134213
6 | 29:49.39 | 5:59.59 | 134214 | 161197
Range status and errors
Selected range
Filename E:\Depeche Mode - Soothe My Soul [2013](CD Maxi-Single)\Depeche Mode - Soothe My Soul.wav
Peak level 100.0 %
Extraction speed 4.1 X
Range quality 100.0 %
Test CRC D0C4A0BF
Copy CRC D0C4A0BF
Copy OK
No errors occurred
AccurateRip summary
Track 1 not present in database
Track 2 not present in database
Track 3 not present in database
Track 4 not present in database
Track 5 not present in database
Track 6 not present in database
None of the tracks are present in the AccurateRip database
End of status report
==== Log checksum A2942E655FA06FE79511E1CAACC401C9E8FE04B5DD7B523529AD4415061C632A ====

Log AudioChecker:

AUDIOCHECKER v2.0 beta (build 457) - by Dester - [email protected]
~~~~~~~~~~~~~~~~~~~~~~~~~~~~~~~~~~
-=== НЕ РЕДАКТИРУЙТЕ ЭТОТ ФАЙЛ! ===-
Путь: ...\Depeche Mode - Soothe My Soul [CD Maxi-Single] (2013)
1 -=- Depeche Mode - Soothe My Soul.flac -=- CDDA (100%)
34109716

BiteFly

Пост 15-Дек-2011 17:49

[Цитировать]

Kraftwerk - Computer World- Жанр: Synthpop, New Wave
Страна-производитель диска: US
Год издания диска: 1981
Издатель (лейбл): Elektra
Номер по каталогу: 9 3549-2
Страна: Germany
Аудиокодек: FLAC (*.flac)
Тип рипа: image+.cue
Битрейт аудио: lossless
Продолжительность: 00:34:36
Наличие сканов в содержимом раздачи: да
Треклист:
01. Computer World (5:07)
02. Pocket Calculator (4:57)
03. Numbers (3:21)
04. Computer World . . 2 (3:19)
05. Computer Love (7:18)
06. Home Computer (6:19)
07. It's More Fun To Compute (4:12)

Лог создания рипа

Код:
Exact Audio Copy V1.0 beta 2 from 29. April 2011
Отчёт EAC об извлечении, выполненном 14. августа 2011, 17:40
Kraftwerk / Computer World (Elektra 9 3549-2 Longpack edition)
Дисковод: PLEXTOR CD-R   PREMIUM2   Adapter: 0  ID: 0
Режим чтения                 : Достоверность
Использование точного потока : Да
Отключение кэша аудио        : Да
Использование указателей C2  : Нет
Коррекция смещения при чтении                     : 30
Способность читать области Lead-in и Lead-out     : Да
Заполнение пропущенных сэмплов тишиной            : Да
Удаление блоков с тишиной в начале и конце        : Нет
При вычислениях CRC использовались нулевые сэмплы : Да
Интерфейс                                         : Встроенный Win32-интерфейс для Win NT/2000
Выходной формат : Внутренние WAV-операции
Формат сэмплов  : 44.100 Гц; 16 бит; стерео
TOC извлечённого CD
     Трек |   Старт  | Длительность | Начальный сектор | Конечный сектор
    ---------------------------------------------------------------------
       1  |  0:00.32 |    5:07.43   |          32      |      23099
       2  |  5:08.00 |    4:57.72   |       23100      |      45446
       3  | 10:05.72 |    3:21.30   |       45447      |      60551
       4  | 13:27.27 |    3:19.05   |       60552      |      75481
       5  | 16:46.32 |    7:18.18   |       75482      |     108349
       6  | 24:04.50 |    6:19.25   |      108350      |     136799
       7  | 30:24.00 |    4:12.17   |      136800      |     155716
Характеристики диапазона извлечения и сообщения об ошибках
Выбранный диапазон
     Имя файла F:\For rutracker.org\Kraftwerk - Computer World - 1981 (Elektra 9 3549-2 Longpack edition)\Kraftwerk - Computer World (Elektra 9 3549-2 Longpack edition).wav
     Пиковый уровень 99.6 %
     Скорость извлечения 1.9 X
     Качество диапазона 100.0 %
     CRC теста AC482EEB
     CRC копии AC482EEB
     Копирование... OK
Ошибок не произошло
AccurateRip: сводка
Трек  1  : извлечено точно (доверие 6)  [D2C17F60]  (AR v2)
Трек  2  : извлечено точно (доверие 7)  [0B97EBF6]  (AR v2)
Трек  3  : извлечено точно (доверие 7)  [1D714AC4]  (AR v2)
Трек  4  : извлечено точно (доверие 7)  [A03F2FAD]  (AR v2)
Трек  5  : извлечено точно (доверие 7)  [3B6E181F]  (AR v2)
Трек  6  : извлечено точно (доверие 6)  [561984FE]  (AR v2)
Трек  7  : извлечено точно (доверие 7)  [7CAF2F10]  (AR v2)
Все треки извлечены точно
Конец отчёта
==== Контрольная сумма отчёта 9321223E63D776930E0EA26A1A9D5EC414416AB121BF66EF4DFD60F0BF466809 ====
-

BiteFly

Пост 22-Ноя-2011 13:24

[Цитировать]

Depeche Mode - Everything Counts- Жанр: Synthpop
Год релиза: 1983
Год выпуска диска: 1987
Лэйбл / №: Mute Records / INT 826.837
Производитель диска: W. Germany
Аудио кодек: FLAC
Тип рипа: image+.cue
Битрейт аудио: lossless
Продолжительность: 00:25:54
Трэклист:
01 - Everything Counts [Original 7'' Mix] (3:58)
02 - New Life [Live] (4:10)
03 - Boys Say Go! [Live] (2:35)
04 - Nothing To Fear [Live] (4:20)
05 - The Meaning Of Love [Live] (3:15)
06 - Everything Counts [Original 12'' Mix] (7:20)

EAC Log

Exact Audio Copy V0.99 prebeta 5 from 4. May 2011
EAC extraction logfile from 16. January 2011, 22:06
Depeche Mode / Everything Counts (INT 826.837) (MCD) (1987)
Used drive : PIONEER DVD-RW DVR-218L Adapter: 1 ID: 0
Read mode : Secure
Utilize accurate stream : Yes
Defeat audio cache : Yes
Make use of C2 pointers : No
Read offset correction : 6
Overread into Lead-In and Lead-Out : No
Fill up missing offset samples with silence : Yes
Delete leading and trailing silent blocks : No
Null samples used in CRC calculations : Yes
Used interface : Native Win32 interface for Win NT & 2000
Used output format : User Defined Encoder
Selected bitrate : 320 kBit/s
Quality : High
Add ID3 tag : No
Command line compressor : C:\Program Files\Exact Audio Copy\Flac\flac.exe
Additional command line options : -8 -V -T "ARTIST=%a" -T "TITLE=%t" -T "ALBUM=%g" -T "DATE=%y" -T "TRACKNUMBER=%n" -T "GENRE=%m" -T "COMMENT=EAC FLAC -8" %s
TOC of the extracted CD
Track | Start | Length | Start sector | End sector
---------------------------------------------------------
1 | 0:00.00 | 4:00.00 | 0 | 17999
2 | 4:00.00 | 4:12.32 | 18000 | 36931
3 | 8:12.32 | 2:36.23 | 36932 | 48654
4 | 10:48.55 | 4:28.20 | 48655 | 68774
5 | 15:17.00 | 3:17.00 | 68775 | 83549
6 | 18:34.00 | 7:20.05 | 83550 | 116554
Range status and errors
Selected range
Filename F:\IDE\Depeche Mode - Everything Counts (INT 826.837) (MCD) (1987).wav
Peak level 100.0 %
Range quality 99.9 %
Test CRC E340F514
Copy CRC E340F514
Copy OK
No errors occurred
AccurateRip summary
Track 1 accurately ripped (confidence 24) [D598ABA4]
Track 2 accurately ripped (confidence 24) [CAF0BFAE]
Track 3 accurately ripped (confidence 24) [998468EC]
Track 4 accurately ripped (confidence 24) [30B82ED9]
Track 5 accurately ripped (confidence 24) [ECAF4F8E]
Track 6 accurately ripped (confidence 24) [03D28B39]
All tracks accurately ripped
End of status report
 

Текущее время: Сегодня 23:16

Часовой пояс: GMT + 3