Сегодня идет свободное скачивание без начисления Download

Результатов поиска: 5

Автор Сообщение

p2000s

Пост 25-Май-2013 10:25

[Цитировать]

Schiller - Sonne Live- Label: Universal, Sleepingroom, Island Records
Catalog #: 06025 3731942 8
Страна: Germany
Жанр: Ambient, Chillout, Electronic
Год выпуска: 2013
Формат: FLAC (image + .cue)
Битрейт аудио: lossless
Продолжительность: 02:26:21-Трэклист:
CD1:
01. Willkommen [00:56]
02. Lichtermeer [04:20]
03. Solaris [01:22]
04. Kon-Tiki [03:37]
05. Revelation [05:02]
06. Velvet Aeroplane | Mit Kate Havnevik [05:44]
07. Schiller [05:48]
08. The Silence | Mit Meredith Call [06:03]
09. Reach Out | Mit Meredith Call [04:55]
10. Sommernacht [05:19]
11. Berlin - Moskau [05:11]
12. Mitternacht [06:27]
13. Leidenschaft [04:45]
14. Ghost | Mit Kate Havnevik [05:04]
15. The Fire | Mit Kate Havnevik [05:56]
16. Sehnsucht Instrumental [06:15]-

Трэклист CD2:

01. Das Glockenspiel [05:43]
02. Allways You | Mit Anggun [07:54]
03. Einklang [05:17]
04. Epic Shores | Mit Meredith Call [05:58]
05. Heimathafen [04:17]
06. Blind | Mit Anggun [05:03]
07. Playing With Madness Instrumental [04:58]
08. Nachtflug [06:35]
09. Reprise [03:40]
10. Sonne Instrumental - Chill Out Version [05:17]
11. Energy - Chill Out Version [06:46]
12. Morgenrot - Chill Out Version [07:59]

Log Exact Audio Copy:

CD1:

Exact Audio Copy V0.99 prebeta 3 from 28. July 2007
Отчёт EAC об извлечении, выполненном 10. мая 2013, 20:36
Schiller / Sonne Live Cd01
Дисковод: PIONEER DVD-RW DVR-112D Adapter: 1 ID: 0
Режим чтения : Достоверность
Использование точного потока : Да
Отключение кэша аудио : Да
Использование указателей C2 : Нет
Коррекция смещения при чтении : 48
Способность читать области Lead-in и Lead-out : Нет
Заполнение пропущенных сэмплов тишиной : Да
Удаление блоков с тишиной в начале и конце : Нет
При вычислениях CRC использовались нулевые сэмплы : Да
Интерфейс : Встроенный Win32-интерфейс для Win NT/2000
Выходной формат : Внутренние WAV-операции
Формат сэмплов : 44.100 Гц; 16 бит; стерео
TOC извлечённого CD
Трек | Старт | Длительность | Начальный сектор | Конечный сектор
---------------------------------------------------------------------
1 | 0:00.00 | 0:56.26 | 0 | 4225
2 | 0:56.26 | 4:20.26 | 4226 | 23751
3 | 5:16.52 | 1:22.58 | 23752 | 29959
4 | 6:39.35 | 3:37.08 | 29960 | 46242
5 | 10:16.43 | 5:02.23 | 46243 | 68915
6 | 15:18.66 | 5:44.34 | 68916 | 94749
7 | 21:03.25 | 5:48.53 | 94750 | 120902
8 | 26:52.03 | 6:03.01 | 120903 | 148128
9 | 32:55.04 | 4:55.12 | 148129 | 170265
10 | 37:50.16 | 5:19.25 | 170266 | 194215
11 | 43:09.41 | 5:11.01 | 194216 | 217541
12 | 48:20.42 | 6:27.12 | 217542 | 246578
13 | 54:47.54 | 4:45.09 | 246579 | 267962
14 | 59:32.63 | 5:04.26 | 267963 | 290788
15 | 64:37.14 | 5:56.13 | 290789 | 317501
16 | 70:33.27 | 6:15.41 | 317502 | 345667
Характеристики диапазона извлечения и сообщения об ошибках
Выбранный диапазон
Имя файла N:\Schiller - 2013 - Sonne Live (2CD)\CD1\Schiller - Sonne Live CD1.wav
Пиковый уровень 100.0 %
Качество диапазона 100.0 %
CRC теста 5EE125C1
CRC копии 5EE125C1
Копирование... OK
Ошибок не произошло
AccurateRip: сводка
Трек 1 нет в базе данных
Трек 2 точное извлечение (доверие 1) [5276BFF2]
Трек 3 точное извлечение (доверие 1) [AE95ECA4]
Трек 4 точность не определена (достоверность 1) [FCF66E12], AccurateRip вернул [B9A31735]
Трек 5 точность не определена (достоверность 1) [249B18DC], AccurateRip вернул [9AD62E19]
Трек 6 точное извлечение (доверие 1) [75EDBA5D]
Трек 7 точное извлечение (доверие 1) [F3B69E2F]
Трек 8 точность не определена (достоверность 1) [E1B26741], AccurateRip вернул [07F78471]
Трек 9 точное извлечение (доверие 1) [D895A88A]
Трек 10 точность не определена (достоверность 1) [527C3625], AccurateRip вернул [B170E45C]
Трек 11 точное извлечение (доверие 1) [7BAA4006]
Трек 12 точное извлечение (доверие 1) [04FF859B]
Трек 13 точное извлечение (доверие 1) [3C55A8AD]
Трек 14 точность не определена (достоверность 1) [388F0A6F], AccurateRip вернул [1DA64D9E]
Трек 15 точность не определена (достоверность 1) [0B114E82], AccurateRip вернул [41311296]
Трек 16 точное извлечение (доверие 1) [A15B67A5]
9 трек(и) скопированы точно
6 трек(и) не удалось проверить на точность
1 трек(и) не содержатся в базе AccurateRip
Некоторые треки не прошли проверку на точность
Конец отчёта

CD2:

Exact Audio Copy V0.99 prebeta 3 from 28. July 2007
Отчёт EAC об извлечении, выполненном 10. мая 2013, 20:58
Schiller / Sonne Live Cd02
Дисковод: PIONEER DVD-RW DVR-112D Adapter: 1 ID: 0
Режим чтения : Достоверность
Использование точного потока : Да
Отключение кэша аудио : Да
Использование указателей C2 : Нет
Коррекция смещения при чтении : 48
Способность читать области Lead-in и Lead-out : Нет
Заполнение пропущенных сэмплов тишиной : Да
Удаление блоков с тишиной в начале и конце : Нет
При вычислениях CRC использовались нулевые сэмплы : Да
Интерфейс : Встроенный Win32-интерфейс для Win NT/2000
Выходной формат : Внутренние WAV-операции
Формат сэмплов : 44.100 Гц; 16 бит; стерео
TOC извлечённого CD
Трек | Старт | Длительность | Начальный сектор | Конечный сектор
---------------------------------------------------------------------
1 | 0:00.00 | 5:43.74 | 0 | 25798
2 | 5:43.74 | 7:54.04 | 25799 | 61352
3 | 13:38.03 | 5:17.21 | 61353 | 85148
4 | 18:55.24 | 5:58.47 | 85149 | 112045
5 | 24:53.71 | 4:17.60 | 112046 | 131380
6 | 29:11.56 | 5:03.32 | 131381 | 154137
7 | 34:15.13 | 4:58.67 | 154138 | 176554
8 | 39:14.05 | 6:35.67 | 176555 | 206246
9 | 45:49.72 | 3:40.23 | 206247 | 222769
10 | 49:30.20 | 5:17.65 | 222770 | 246609
11 | 54:48.10 | 6:46.02 | 246610 | 277061
12 | 61:34.12 | 7:59.13 | 277062 | 312999
Характеристики диапазона извлечения и сообщения об ошибках
Выбранный диапазон
Имя файла N:\Schiller - 2013 - Sonne Live (2CD)\CD2\Schiller - Sonne Live CD2.wav
Пиковый уровень 99.9 %
Качество диапазона 99.9 %
CRC теста 0AE00A7D
CRC копии 0AE00A7D
Копирование... OK
Ошибок не произошло
AccurateRip: сводка
Трек 1 точность не определена (достоверность 1) [F0752CC6], AccurateRip вернул [EEA8A8C4]
Трек 2 точное извлечение (доверие 1) [13AD15FF]
Трек 3 точное извлечение (доверие 1) [BE0FA2A9]
Трек 4 точное извлечение (доверие 1) [623F29DE]
Трек 5 точность не определена (достоверность 1) [C1D8E0F9], AccurateRip вернул [740075CC]
Трек 6 точность не определена (достоверность 1) [9939F29D], AccurateRip вернул [322101EC]
Трек 7 точное извлечение (доверие 1) [190D6E1E]
Трек 8 точное извлечение (доверие 1) [D6C1CEA9]
Трек 9 точность не определена (достоверность 1) [E5C1F740], AccurateRip вернул [D1F32D71]
Трек 10 точное извлечение (доверие 1) [492DFEE2]
Трек 11 точность не определена (достоверность 1) [56FD8DDB], AccurateRip вернул [E072E415]
Трек 12 точность не определена (достоверность 1) [133C250E], AccurateRip вернул [A1E08DA1]
6 трек(и) скопированы точно
6 трек(и) не удалось проверить на точность
Некоторые треки не прошли проверку на точность
Конец отчёта

Log AudioChecker:

CD1:

AUDIOCHECKER v2.0 beta (build 457) - by Dester - [email protected]
~~~~~~~~~~~~~~~~~~~~~~~~~~~~~~~~~~
-=== НЕ РЕДАКТИРУЙТЕ ЭТОТ ФАЙЛ! ===-
Путь: ...\CD1
1 -=- Schiller - Sonne Live CD1.flac -=- CDDA (99%)
50410724

CD2:

AUDIOCHECKER v2.0 beta (build 457) - by Dester - [email protected]
~~~~~~~~~~~~~~~~~~~~~~~~~~~~~~~~~~
-=== НЕ РЕДАКТИРУЙТЕ ЭТОТ ФАЙЛ! ===-
Путь: ...\CD2
1 -=- Schiller - Sonne Live CD2.flac -=- CDDA (100%)
1083188
Время раздачи: 24/7

p2000s

Пост 25-Май-2013 09:41

[Цитировать]

Schiller - Sonne (Chill Out Edition) (WEB)- Label: Sleepingroom Musik GmbH. Made in DE.
Страна: Germany
Жанр: Ambient, Chillout, Electronic
Год выпуска: 2013
Формат: FLAC (tracks)
Битрейт аудио: lossless
Продолжительность: 01:24:02-Трэклист:
01. Sonne (Instrumental Chill Out Version) [05:17]
02. Mitternacht (Chill Out Version) [08:38]
03. Energy (Chill Out Version) [06:45]
04. Lichtermeer (Chill Out Version) [05:37]
05. Yellow [05:46]
06. Dancing In The Dark (Chill Out Version) [07:17]
07. Orange [04:10]
08. Velvet Aeroplane (Chill Out Version) [06:10]
09. Morgenrot (Chill Out Version) [07:59]
10. Berlin Moskau (Chill Out Version) [06:28]
11. Epic Shores (Chill Out Version) [06:56]
12. Das Dritte Auge (Chill Out Version) [07:34]
13. Sonne (Chill Out Version) [05:20]
- -

Log AudioChecker:

AUDIOCHECKER v2.0 beta (build 457) - by Dester - [email protected]
~~~~~~~~~~~~~~~~~~~~~~~~~~~~~~~~~~
-=== DO NOT EDIT THIS FILE! ===-
Path: ...\Schiller-Sonne[ChillOutEdition]2013HQ
01 -=- 01 - Sonne (Instrumental Chill Out Version).flac -=- CDDA (100%)
02 -=- 02 - Mitternacht (Chill Out Version).flac -=- CDDA (100%)
03 -=- 03 - Energy (Chill Out Version).flac -=- CDDA (100%)
04 -=- 04 - Lichtermeer (Chill Out Version).flac -=- CDDA (100%)
05 -=- 05 - Yellow.flac -=- CDDA (100%)
06 -=- 06 - Dancing In The Dark (Chill Out Version).flac -=- CDDA (100%)
07 -=- 07 - Orange.flac -=- CDDA (100%)
08 -=- 08 - Velvet Aeroplane (Chill Out Version).flac -=- CDDA (99%)
09 -=- 09 - Morgenrot (Chill Out Version).flac -=- CDDA (100%)
10 -=- 10 - Berlin Moskau (Chill Out Version).flac -=- CDDA (100%)
11 -=- 11 - Epic Shores (Chill Out Version).flac -=- CDDA (100%)
12 -=- 12 - Das Dritte Auge (Chill Out Version).flac -=- CDDA (99%)
13 -=- 13 - Sonne (Chill Out Version).flac -=- CDDA (100%)
Summary 99,85% CDDA
40309940
Время раздачи: 24/7

p2000s

Пост 23-Май-2013 07:49

[Цитировать]

Solarsoul - Defying Gravity- Label: Astrolabe Recordings. Made in US.
Страна: Россия
Жанр: Ambient, Chillout, Dontempo, Space
Год выпуска: 2013
Формат: FLAC (tracks)
Битрейт аудио: lossless
Продолжительность: 01:49:13-Трэклист:
01. A Star Is Born [05:28]
02. About Eternal Wandering and About the Earth (Memory of Ray Bradbury) [10:13]
03. Magellanic Clouds (Original Ambient Dub Mix) [04:48]
04. The Starry Sky (feat. Nimanty) (Original Space Ambient Mix) [13:46]
05. There, Where We Will Meet Again [06:16]
06. Defying Gravity (Original Ambient Space Mix) [07:43]
07. Metamorphosis of the Mind (Hypnosis Original Mix) [06:51]
08. The Goldilocks Zone [08:20]
09. Midnight (Original Ambient Mix) [05:24]
10. Blurring the Boundaries (Original Ambient Mix) [05:15]
11. UDFy (13 Billion Light Years from Earth) [10:33]
12. Contemplation (Original Ambient Breaks Mix) [07:00]
13. Heavenly Berth (Original Ambient Space Mix) [10:11]
14. Defying Gravity (Nale Remix) [05:04]
15. Light Memory (I Remember) (Original Piano Ambient Mix) [02:14]
-WEB Сайт

Log AudioChecker:

AUDIOCHECKER v2.0 beta (build 457) - by Dester - [email protected]
~~~~~~~~~~~~~~~~~~~~~~~~~~~~~~~~~~
-=== НЕ РЕДАКТИРУЙТЕ ЭТОТ ФАЙЛ! ===-
Путь: ...\Solarsoul - Defying Gravity (2013) [WEB-FLAC]
01 -=- 01 - A Star Is Born.flac -=- CDDA (54%)
02 -=- 02 - About Eternal Wandering and About the Earth (Memory of Ray Bradbury).flac -=- CDDA (100%)
03 -=- 03 - Magellanic Clouds (Original Ambient Dub Mix).flac -=- MPEG (90%)
04 -=- 04 - The Starry Sky (feat. Nimanty) (Original Space Ambient Mix).flac -=- CDDA (100%)
05 -=- 05 - There, Where We Will Meet Again.flac -=- CDDA (100%)
06 -=- 06 - Defying Gravity (Original Ambient Space Mix).flac -=- CDDA (100%)
07 -=- 07 - Metamorphosis of the Mind (Hypnosis Original Mix).flac -=- CDDA (100%)
08 -=- 08 - The Goldilocks Zone.flac -=- CDDA (100%)
09 -=- 09 - Midnight (Original Ambient Mix).flac -=- CDDA (100%)
10 -=- 10 - Blurring the Boundaries (Original Ambient Mix).flac -=- CDDA (92%)
11 -=- 11 - UDFy (13 Billion Light Years from Earth).flac -=- CDDA (43%)
12 -=- 12 - Contemplation (Original Ambient Breaks Mix).flac -=- CDDA (100%)
13 -=- 13 - Heavenly Berth (Original Ambient Space Mix).flac -=- CDDA (100%)
14 -=- 14 - Defying Gravity (Nale Remix).flac -=- CDDA (100%)
15 -=- 15 - Light Memory (I Remember) (Original Piano Ambient Mix).flac -=- CDDA (100%)
Сводка 86,60% CDDA
79565220

Log Spectrogram:

 
Время раздачи: 24/7

Koralina

Пост 27-Мар-2012 16:13

[Цитировать]

VA - Relax (Compiled by Nicolo) (2011) Год: 2011
Жанр: Ambient, Chillout
Продолжительность: 01:09:12
Кодек: FLAC
Битрейт: Lossless
Тип рипа: tracks+.cue
01. Flaque - Horizon Variations [04:59]
02. Virtual Light - Insight [06:16]
03. Chlorophil - Viera Dub [05:04]
04. Alloy Trex - Rxable [07:28]
05. Audiovoid - Earth Pulse Fading [06:47]
06. Magman - Alley [07:57]
07. Flaque - The Clouds And The Sun [04:21]
08. Lemonchill - Mantra [07:03]
09. Magman - Sanctuary [09:46]
10. Rainbow Kandicane - Karma [04:44]
11. Return To Mono - Song For Sleepers [04:43]

Log

Код:
Exact Audio Copy V1.0 beta 3 from 29. August 2011
Отчёт EAC об извлечении, выполненном 26. марта 2012, 23:15
Various Artists / Relax
Дисковод: TSSTcorpCDDVDW SH-S223C   Adapter: 2  ID: 1
Режим чтения                 : Достоверность
Использование точного потока : Да
Отключение кэша аудио        : Да
Использование указателей C2  : Нет
Коррекция смещения при чтении                     : 697
Способность читать области Lead-in и Lead-out     : Нет
Заполнение пропущенных сэмплов тишиной            : Да
Удаление блоков с тишиной в начале и конце        : Нет
При вычислениях CRC использовались нулевые сэмплы : Да
Интерфейс                                         : Встроенный Win32-интерфейс для Win NT/2000
Обработка зазоров                                 : Добавлено к предыдущему треку
Выходной формат          : Пользовательский кодировщик
Выбранный битрейт        : 768 kBit/s
Качество                 : Высокий
Добавление ID3-тега      : Нет
Утилита сжатия           : C:\Program Files\Exact Audio Copy\FLAC\FLAC.EXE
Дополнительные параметры : -6 -V -T "ARTIST=%artist%" -T "TITLE=%title%" -T "ALBUM=%albumtitle%" -T "DATE=%year%" -T "TRACKNUMBER=%tracknr%" -T "GENRE=%genre%" -T "COMMENT=%comment%" -T "BAND=%albuminterpret%" -T "ALBUMARTIST=%albuminterpret%" -T "COMPOSER=%composer%" %haslyrics%--tag-from-file=LYRICS="%lyricsfile%"%haslyrics% -T "DISCNUMBER=%cdnumber%" -T "TOTALDISCS=%totalcds%" -T "TOTALTRACKS=%numtracks%" %hascover%--picture="%coverfile%"%hascover% %source% -o %dest%
TOC извлечённого CD
     Трек |   Старт  | Длительность | Начальный сектор | Конечный сектор
    ---------------------------------------------------------------------
       1  |  0:00.00 |    4:59.01   |           0      |      22425
       2  |  4:59.01 |    6:16.02   |       22426      |      50627
       3  | 11:15.03 |    5:04.43   |       50628      |      73470
       4  | 16:19.46 |    7:28.32   |       73471      |     107102
       5  | 23:48.03 |    6:47.25   |      107103      |     137652
       6  | 30:35.28 |    7:57.48   |      137653      |     173475
       7  | 38:33.01 |    4:21.25   |      173476      |     193075
       8  | 42:54.26 |    7:03.08   |      193076      |     224808
       9  | 49:57.34 |    9:46.61   |      224809      |     268819
      10  | 59:44.20 |    4:44.54   |      268820      |     290173
      11  | 64:28.74 |    4:43.34   |      290174      |     311432
Трек  1
     Имя файла C:\Users\DeathLikE\Desktop\Новая папка\01. Flaque - Horizon Variations (Relax).wav
     Длина предзазора  0:00:02.00
     Пиковый уровень 98.9 %
     Скорость извлечения 2.1 X
     Качество трека 100.0 %
     CRC теста 1D60DBF7
     CRC копии 1D60DBF7
     Точное извлечение (достоверность 2)  [492CEDD8]  (AR v1)
     Копирование... OK
Трек  2
     Имя файла C:\Users\DeathLikE\Desktop\Новая папка\02. Virtual Light - Insight (Relax).wav
     Пиковый уровень 98.9 %
     Скорость извлечения 2.4 X
     Качество трека 100.0 %
     CRC теста 3D0302CB
     CRC копии 3D0302CB
     Точное извлечение (достоверность 2)  [8B5096DF]  (AR v1)
     Копирование... OK
Трек  3
     Имя файла C:\Users\DeathLikE\Desktop\Новая папка\03. Chlorophil - Viera Dub (Relax).wav
     Пиковый уровень 98.9 %
     Скорость извлечения 2.6 X
     Качество трека 100.0 %
     CRC теста 7C4CEAC5
     CRC копии 7C4CEAC5
     Точное извлечение (достоверность 2)  [6812F239]  (AR v1)
     Копирование... OK
Трек  4
     Имя файла C:\Users\DeathLikE\Desktop\Новая папка\04. Alloy Trex - Rixble (Relax).wav
     Пиковый уровень 98.9 %
     Скорость извлечения 2.9 X
     Качество трека 100.0 %
     CRC теста BDB8C56B
     CRC копии BDB8C56B
     Точное извлечение (достоверность 2)  [1E370EBA]  (AR v1)
     Копирование... OK
Трек  5
     Имя файла C:\Users\DeathLikE\Desktop\Новая папка\05. Audiovoid - Earth Pulse Fading (Relax).wav
     Пиковый уровень 98.9 %
     Скорость извлечения 0.8 X
     Качество трека 99.9 %
     CRC теста A846E4C1
     CRC копии A846E4C1
     Точное извлечение (достоверность 2)  [EAC43EA3]  (AR v1)
     Копирование... OK
Трек  6
     Имя файла C:\Users\DeathLikE\Desktop\Новая папка\06. Magman - Alley (Relax).wav
     Пиковый уровень 98.9 %
     Скорость извлечения 3.4 X
     Качество трека 100.0 %
     CRC теста ECEC7956
     CRC копии ECEC7956
     Точное извлечение (достоверность 2)  [B4838F87]  (AR v1)
     Копирование... OK
Трек  7
     Имя файла C:\Users\DeathLikE\Desktop\Новая папка\07. Flaque - The Clouds and the Sun (Relax).wav
     Длина предзазора  4:27:07.01
     Пиковый уровень 98.9 %
     Скорость извлечения 3.3 X
     Качество трека 100.0 %
     CRC теста FBE0AC12
     CRC копии FBE0AC12
     Точное извлечение (достоверность 2)  [BC28E9DA]  (AR v1)
     Копирование... OK
Трек  8
     Имя файла C:\Users\DeathLikE\Desktop\Новая папка\08. Lemonchill - Mantra (Relax).wav
     Пиковый уровень 98.9 %
     Скорость извлечения 3.7 X
     Качество трека 100.0 %
     CRC теста 58A0A63E
     CRC копии 58A0A63E
     Точное извлечение (достоверность 2)  [2B071924]  (AR v1)
     Копирование... OK
Трек  9
     Имя файла C:\Users\DeathLikE\Desktop\Новая папка\09. Magman - Sanctuary (Relax).wav
     Пиковый уровень 98.9 %
     Скорость извлечения 1.5 X
     Качество трека 99.9 %
     CRC теста B8CBDC5D
     CRC копии B8CBDC5D
     Точное извлечение (достоверность 2)  [E42DE3F2]  (AR v1)
     Копирование... OK
Трек 10
     Имя файла C:\Users\DeathLikE\Desktop\Новая папка\10. Rainbow Kandicane - Karma (Relax).wav
     Пиковый уровень 98.9 %
     Скорость извлечения 0.2 X
     Качество трека 100.0 %
     CRC теста 04A53613
     CRC копии 04A53613
     Точное извлечение (достоверность 2)  [B3A7E988]  (AR v1)
     Копирование... OK
Трек 11
     Имя файла C:\Users\DeathLikE\Desktop\Новая папка\11. Return to Mono - Song for Sleepers (Relax).wav
     Пиковый уровень 96.6 %
     Скорость извлечения 3.9 X
     Качество трека 100.0 %
     CRC теста 6E492FFA
     CRC копии 6E492FFA
     Точное извлечение (достоверность 2)  [567F272A]  (AR v1)
     Копирование... OK
Все треки извлечены точно
Ошибок не произошло
Конец отчёта
---- CUETools DB Plugin V2.1.3
[CTDB TOCID: m4gyftc6reYzu499kuhxQe2PJZw-] disk not present in database, Submit result: m4gyftc6reYzu499kuhxQe2PJZw- has been uploaded
==== Контрольная сумма отчёта 998F233A8153AABF7C4247C9AD0763F3755AC55CE8B74ADDDBC2844EE00D32C8 ====

auCDtect Task manager:

Код:
DON'T MODIFY THIS FILE
-----------------------
PERFORMER: auCDtect Task Manager, ver. 1.5.1RC6 build 1.5.1.7
Copyright (c) 2008-2010 y-soft. All rights reserved
http://y-soft.org
ANALYZER: auCDtect: CD records authenticity detector, version 0.8.2
Copyright (c) 2004 Oleg Berngardt. All rights reserved.
Copyright (c) 2004 Alexander Djourik. All rights reserved.
FILE: 11. Return to Mono - Song for Sleepers (Relax).flac
  Size: 31774796 Hash: 0572F2B1920F5BAD57678FEE1F1D197E Accuracy: -m0
  Conclusion: CDDA 100%
  Signature: 9853F04749A50245B45E879BD0F090BE25B289FB
FILE: 10. Rainbow Kandicane - Karma (Relax).flac
  Size: 33714889 Hash: CCF8E3C7C927B7790A803B2AC88534A9 Accuracy: -m0
  Conclusion: CDDA 100%
  Signature: CA3C1251E836A7E91A537ABEC0E4397DDAA6717C
FILE: 09. Magman - Sanctuary (Relax).flac
  Size: 62322352 Hash: 38F794CF936B757D26223E626BC388DD Accuracy: -m0
  Conclusion: CDDA 100%
  Signature: D804EA4BF7DD92E02E02A736C89A4AEC6A18C803
FILE: 08. Lemonchill - Mantra (Relax).flac
  Size: 49495040 Hash: 19D98CA2B8BD47F5DF8F6FAFDD98D9C3 Accuracy: -m0
  Conclusion: CDDA 100%
  Signature: 628D1877E9C0CE33F32144D84B370BF620565D8C
FILE: 07. Flaque - The Clouds and the Sun (Relax).flac
  Size: 30014468 Hash: 2C73E1C6BFBA8AF912271A13B49B87CA Accuracy: -m0
  Conclusion: CDDA 100%
  Signature: A05C626DEA5567C4B45748F6600D93CBB1C92EB4
FILE: 06. Magman - Alley (Relax).flac
  Size: 45798773 Hash: 0E55E95AAD5D25F5A8166C55780E83E0 Accuracy: -m0
  Conclusion: CDDA 100%
  Signature: 3189A06F2515ECE49CE41F260C512FED14230A50
FILE: 05. Audiovoid - Earth Pulse Fading (Relax).flac
  Size: 40766066 Hash: EB489830B0B777D2E7E6C2466D07BDD2 Accuracy: -m0
  Conclusion: CDDA 100%
  Signature: CCAB6551C6A2802C5756885B1D8A2DC58343982F
FILE: 04. Alloy Trex - Rixble (Relax).flac
  Size: 45500391 Hash: DC2987407D40ABDC1334743D3E834A22 Accuracy: -m0
  Conclusion: CDDA 100%
  Signature: 8288782657B6CD0E5093A7F87C2BE8CED6B888F1
FILE: 03. Chlorophil - Viera Dub (Relax).flac
  Size: 30070532 Hash: C59620215A880C3FCA0F8F66B7AB2244 Accuracy: -m0
  Conclusion: CDDA 100%
  Signature: E2C4B1BBD23C5E3165EE05CE85A5B3E9086BA5B6
FILE: 02. Virtual Light - Insight (Relax).flac
  Size: 41892534 Hash: B7D9864D465093BE47126CDFBC2A2548 Accuracy: -m0
  Conclusion: CDDA 99%
  Signature: 6B647F09951DEB0EC41D78EE26341348F4FD665F
FILE: 01. Flaque - Horizon Variations (Relax).flac
  Size: 29992108 Hash: CB46D782515672E10181109C9369F456 Accuracy: -m0
  Conclusion: CDDA 62%
  Signature: A717FE68DA95ADB2F47F363D576B6FF3D101D214

BiteFly

Пост 24-Дек-2011 03:36

[Цитировать]

F.M. Einheit & Caspar Broetzmann - Merry Christmas-
Каталог # Blast First BFFP 97 CD
Дата релиза: 1994г.
Производитель диска: UK
Формат: CD Album
Жанр: Noise, Experimental, Industrial
Источник рипа: Интернет
Битрейт аудио: lossless
Аудио кодек: FLAC
Тип рипа: tracks+.cue
Продолжительность: 00:52:06
Трэклист:
[02:06] 01. Panzer Kette
[02:28] 02. Nizzary
[04:14] 03. Das 5 Federn Fuckhouse
[04:58] 04. Merry Christmas
[07:30] 05. Kowâ Axis
[04:01] 06. Solingen
[05:16] 07. Park Der Löwen
[04:44] 08. Headhunter Song
[02:13] 09. Stück Frau Das Uhr Spiel
[07:08] 10. Panzer Ketten
[02:53] 11. Untitled
[01:41] 12. Untitled
[02:47] 13. Untitled
Наличие сканов: Да
-

EAC

Код:
EAC extraction logfile from 22. August 2008, 10:57 for CD
Einheit Brotzmann / Merry Christmas
Used drive  : LITE-ON DVDRW SOHW-1693S   Adapter: 0  ID: 0
Read mode   : Secure with NO C2, accurate stream, disable cache
Read offset correction : 12
Overread into Lead-In and Lead-Out : No
Used output format : C:\Program Files\FLAC\flac.exe   (User Defined Encoder)
                     320 kBit/s
                     Additional command line options : -V -8 -T "artist=%a" -T "title=%t" -T "album=%g" -T "date=%y" -T "tracknumber=%n" -T "genre=%m" %s
Other options      :
    Fill up missing offset samples with silence : Yes
    Delete leading and trailing silent blocks : No
    Native Win32 interface for Win NT & 2000
Track  1
     Filename D:\MP3\A-F\F.M. Einheit & Caspar Brotzmann - Merry Christmas\01 - Merry Christmas - Panzer Kette.wav
     Pre-gap length  0:00:02.00
     Peak level 74.1 %
     Track quality 100.0 %
     Test CRC 32D2944E
     Copy CRC 32D2944E
     Copy OK
Track  2
     Filename D:\MP3\A-F\F.M. Einheit & Caspar Brotzmann - Merry Christmas\02 - Merry Christmas - Nizzary.wav
     Peak level 85.0 %
     Track quality 100.0 %
     Test CRC 2DF3734E
     Copy CRC 2DF3734E
     Copy OK
Track  3
     Filename D:\MP3\A-F\F.M. Einheit & Caspar Brotzmann - Merry Christmas\03 - Merry Christmas - Das 5 Federn Fuckhouse.wav
     Peak level 97.6 %
     Track quality 100.0 %
     Test CRC F75CA0AD
     Copy CRC F75CA0AD
     Copy OK
Track  4
     Filename D:\MP3\A-F\F.M. Einheit & Caspar Brotzmann - Merry Christmas\04 - Merry Christmas - Merry Christmas.wav
     Peak level 97.1 %
     Track quality 100.0 %
     Test CRC 5CD35A12
     Copy CRC 5CD35A12
     Copy OK
Track  5
     Filename D:\MP3\A-F\F.M. Einheit & Caspar Brotzmann - Merry Christmas\05 - Merry Christmas - Kowв Axis.wav
     Peak level 97.8 %
     Track quality 100.0 %
     Test CRC 48448B05
     Copy CRC 48448B05
     Copy OK
Track  6
     Filename D:\MP3\A-F\F.M. Einheit & Caspar Brotzmann - Merry Christmas\06 - Merry Christmas - Solingen.wav
     Pre-gap length  0:00:02.60
     Peak level 99.0 %
     Track quality 100.0 %
     Test CRC ADD37F42
     Copy CRC ADD37F42
     Copy OK
Track  7
     Filename D:\MP3\A-F\F.M. Einheit & Caspar Brotzmann - Merry Christmas\07 - Merry Christmas - Park Der Lцwen.wav
     Peak level 87.9 %
     Track quality 100.0 %
     Test CRC 7C682FF8
     Copy CRC 7C682FF8
     Copy OK
Track  8
     Filename D:\MP3\A-F\F.M. Einheit & Caspar Brotzmann - Merry Christmas\08 - Merry Christmas - Headhunter Song.wav
     Peak level 96.4 %
     Track quality 100.0 %
     Test CRC 455456B7
     Copy CRC 455456B7
     Copy OK
Track  9
     Filename D:\MP3\A-F\F.M. Einheit & Caspar Brotzmann - Merry Christmas\09 - Merry Christmas - Stьck Frau Das Uhr Spiel.wav
     Pre-gap length  0:00:05.73
     Peak level 86.1 %
     Track quality 100.0 %
     Test CRC 267AEED8
     Copy CRC 267AEED8
     Copy OK
Track 10
     Filename D:\MP3\A-F\F.M. Einheit & Caspar Brotzmann - Merry Christmas\10 - Merry Christmas - Panzer Ketten.wav
     Peak level 85.0 %
     Track quality 100.0 %
     Test CRC D1F05D1A
     Copy CRC D1F05D1A
     Copy OK
Track 11
     Filename D:\MP3\A-F\F.M. Einheit & Caspar Brotzmann - Merry Christmas\11 - Merry Christmas - Untitled.wav
     Peak level 98.7 %
     Track quality 100.0 %
     Test CRC 44506B9B
     Copy CRC 44506B9B
     Copy OK
Track 12
     Filename D:\MP3\A-F\F.M. Einheit & Caspar Brotzmann - Merry Christmas\12 - Merry Christmas - Untitled.wav
     Peak level 97.3 %
     Track quality 100.0 %
     Test CRC 623AAFC3
     Copy CRC 623AAFC3
     Copy OK
Track 13
     Filename D:\MP3\A-F\F.M. Einheit & Caspar Brotzmann - Merry Christmas\13 - Merry Christmas - Untitled.wav
     Peak level 74.3 %
     Track quality 100.0 %
     Test CRC B8D52959
     Copy CRC B8D52959
     Copy OK
No errors occured
End of status report

Cue

Код:
REM GENRE Avantgarde
REM DATE 1995
REM DISCID B00C360D
REM COMMENT "ExactAudioCopy v0.95b3"
PERFORMER "Einheit Brotzmann"
TITLE "Merry Christmas"
FILE "01 - Merry Christmas - Panzer Kette.wav" WAVE
  TRACK 01 AUDIO
    TITLE "Panzer Kette"
    PERFORMER "Einheit Brotzmann"
    INDEX 01 00:00:00
FILE "02 - Merry Christmas - Nizzary.wav" WAVE
  TRACK 02 AUDIO
    TITLE "Nizzary"
    PERFORMER "Einheit Brotzmann"
    INDEX 01 00:00:00
FILE "03 - Merry Christmas - Das 5 Federn Fuckhouse.wav" WAVE
  TRACK 03 AUDIO
    TITLE "Das 5 Federn Fuckhouse"
    PERFORMER "Einheit Brotzmann"
    INDEX 01 00:00:00
FILE "04 - Merry Christmas - Merry Christmas.wav" WAVE
  TRACK 04 AUDIO
    TITLE "Merry Christmas"
    PERFORMER "Einheit Brotzmann"
    INDEX 01 00:00:00
FILE "05 - Merry Christmas - Kowa Axis.wav" WAVE
  TRACK 05 AUDIO
    TITLE "Kowa Axis"
    PERFORMER "Einheit Brotzmann"
    INDEX 01 00:00:00
  TRACK 06 AUDIO
    TITLE "Solingen"
    PERFORMER "Einheit Brotzmann"
    INDEX 00 07:27:70
FILE "06 - Merry Christmas - Solingen.wav" WAVE
    INDEX 01 00:00:00
FILE "07 - Merry Christmas - Park Der Loewen.wav" WAVE
  TRACK 07 AUDIO
    TITLE "Park Der Loewen "
    PERFORMER "Einheit Brotzmann"
    INDEX 01 00:00:00
FILE "08 - Merry Christmas - Headhunter Song.wav" WAVE
  TRACK 08 AUDIO
    TITLE "Headhunter Song"
    PERFORMER "Einheit Brotzmann"
    INDEX 01 00:00:00
  TRACK 09 AUDIO
    TITLE "Stueck Frau Das Uhr Spiel"
    PERFORMER "Einheit Brotzmann"
    INDEX 00 04:38:50
FILE "09 - Merry Christmas - Stueck Frau Das Uhr Spiel.wav" WAVE
    INDEX 01 00:00:00
FILE "10 - Merry Christmas - Panzer Ketten.wav" WAVE
  TRACK 10 AUDIO
    TITLE "Panzer Ketten"
    PERFORMER "Einheit Brotzmann"
    INDEX 01 00:00:00
FILE "11 - Merry Christmas - Untitled.wav" WAVE
  TRACK 11 AUDIO
    TITLE "Untitled"
    PERFORMER "Einheit Brotzmann"
    INDEX 01 00:00:00
FILE "12 - Merry Christmas - Untitled.wav" WAVE
  TRACK 12 AUDIO
    TITLE "Untitled"
    PERFORMER "Einheit Brotzmann"
    INDEX 01 00:00:00
FILE "13 - Merry Christmas - Untitled.wav" WAVE
  TRACK 13 AUDIO
    TITLE "Untitled"
    PERFORMER "Einheit Brotzmann"
    INDEX 01 00:00:00
-
 

Текущее время: Сегодня 03:50

Часовой пояс: GMT + 3