Сегодня идет свободное скачивание без начисления Download

Результатов поиска: 6

Автор Сообщение

Dracula

Пост 28-Апр-2013 17:31

[Цитировать]

Топик был перенесен из форума Rock в форум Country


RUGUI

Omen

Пост 28-Апр-2013 16:22

[Цитировать]

Loggins & Messina / Native Sons- Жанр: Country / Folk Rock / Страна-производитель диска: U.S.A.
Год издания: 1976 / Издатель (лейбл): Columbia Records
Номер по каталогу: CK 33578 / Страна: United States
Аудиокодек: FLAC (*.flac) / Тип рипа: image+.cue
Битрейт аудио: lossless / Продолжительность: 00:38:36
Источник (релизер): I Am / Наличие сканов в содержимом раздачи: да
-Треклист:01. Sweet Marie (Jim Messina) – 03:04
02. Pretty Princess (Messina, Murray MacLeod)06:57
03. My Lady, My Love (Kenny Loggins)03:00
04. When I Was a Child (Messina)04:18
05. Wasting Our Time (K. Loggins, John Townsend)02:50
06. Peacemaker (K. Loggins, Townsend, Ed Sanford)04:03
07. It's Alright (Messina, MacLeod)04:00
08. Boogie Man (Messina)02:01
09. Fox Fire (K. Loggins)02:58
10. Native Son (K. Loggins, Dan Loggins)04:10

-

EAC Log

Exact Audio Copy V1.0 beta 3 from 29. August 2011
Отчёт EAC об извлечении, выполненном 27. апреля 2013, 9:02
Loggins & Messina / Native Sons
Дисковод: Optiarc DVD RW AD-5280S Adapter: 0 ID: 0
Режим чтения : ДостоверностьИспользование точного потока : ДаОтключение кэша аудио : ДаИспользование указателей C2 : Нет
Коррекция смещения при чтении : 48Способность читать области Lead-in и Lead-out : НетЗаполнение пропущенных сэмплов тишиной : ДаУдаление блоков с тишиной в начале и конце : НетПри вычислениях CRC использовались нулевые сэмплы : ДаИнтерфейс : Встроенный Win32-интерфейс для Win NT/2000
Выходной формат : Внутренние WAV-операцииФормат сэмплов : 44.100 Гц; 16 бит; стерео
TOC извлечённого CD
Трек | Старт | Длительность | Начальный сектор | Конечный сектор --------------------------------------------------------------------- 1 | 0:00.00 | 3:05.67 | 0 | 13941 2 | 3:05.67 | 6:57.68 | 13942 | 45284 3 | 10:03.60 | 3:02.45 | 45285 | 58979 4 | 13:06.30 | 4:19.30 | 58980 | 78434 5 | 17:25.60 | 2:51.15 | 78435 | 91274 6 | 20:17.00 | 5:05.50 | 91275 | 114199 7 | 25:22.50 | 3:59.52 | 114200 | 132176 8 | 29:22.27 | 2:02.48 | 132177 | 141374 9 | 31:25.00 | 3:00.25 | 141375 | 154899 10 | 34:25.25 | 4:10.35 | 154900 | 173684
Характеристики диапазона извлечения и сообщения об ошибках
Выбранный диапазон
Имя файла D:\Запись\Loggins & Messina - Native Sons\Loggins & Messina - Native Sons.wav
Пиковый уровень 100.0 % Скорость извлечения 3.9 X Качество диапазона 100.0 % CRC теста 71C8A60A CRC копии 71C8A60A Копирование... OK
Ошибок не произошло
AccurateRip: сводка
Трек 1 точность не определена (достоверность 1) [1364659F], AccurateRip вернул [E75F2C88] (AR v2)Трек 2 точность не определена (достоверность 1) [34443C7D], AccurateRip вернул [893D1EAE] (AR v2)Трек 3 точность не определена (достоверность 1) [4EFCD42A], AccurateRip вернул [F2223D24] (AR v2)Трек 4 точность не определена (достоверность 1) [7DD557E0], AccurateRip вернул [4DBB0FEE] (AR v2)Трек 5 точность не определена (достоверность 1) [453C81DE], AccurateRip вернул [C2EACBDC] (AR v2)Трек 6 точность не определена (достоверность 1) [DF58B102], AccurateRip вернул [64A8FBCA] (AR v2)Трек 7 точность не определена (достоверность 1) [E916C867], AccurateRip вернул [40726139] (AR v2)Трек 8 точность не определена (достоверность 1) [4B3384DD], AccurateRip вернул [0237AF02] (AR v2)Трек 9 точность не определена (достоверность 1) [D01F1E1F], AccurateRip вернул [E791AC75] (AR v2)Трек 10 точность не определена (достоверность 1) [3A59F463], AccurateRip вернул [3C4FAD3E] (AR v2)
Ни один трек не прошёл проверки на точностьВ вашей базе может быть иной вариант штамповки диска
Конец отчёта

AUDIOCHECKER

AUDIOCHECKER v2.0 beta (build 457) - by Dester - [email protected]~~~~~~~~~~~~~~~~~~~~~~~~~~~~~~~~~~
Started at: суббота, 27. 04. 2013. - 9:20.581 file found
1 -===- D:\Запись\Loggins & Messina - Native Sons\Loggins & Messina - Native Sons.flac Extracted successfully Conclusion: this track is CDDA with probability 100% Tempfile successfully deleted.
Finished at: суббота, 27. 04. 2013. - 9:23.31 (operation time: 0:02.33)

-

Tau Analyzer

Spectrum

Dracula

Пост 28-Апр-2013 17:31

[Цитировать]

Топик был перенесен из форума Rock в форум Country


RUGUI

Omen

Пост 28-Апр-2013 12:18

[Цитировать]

Kenny Loggins with Jim Messina / Sittin' In- Жанр: Country / Folk-Rock / Страна-производитель диска: U.S.A.
Год издания: 1971 / Издатель (лейбл): Columbia Records
Номер по каталогу: CK 31044 / Страна: United States
Аудиокодек: FLAC (*.flac) / Тип рипа: image+.cue
Битрейт аудио: lossless / Продолжительность: 00:45:14
Источник (релизер): I Am / Наличие сканов в содержимом раздачи: да
-Треклист:01. Nobody But You (Jim Messina)03:00
02. Danny's Song (Kenny Loggins)04:16
03. Vahevala (Dan Loggins, Dann Lottermoser)04:47
04. Trilogy: Lovin' Me/To Make a Woman Feel Wanted/Peace of Mind (Loggins, Messina, Murray MacLeod)11:13
05. Back to Georgia (Loggins)03:19
06. House at Pooh Corner (Loggins)04:25
07. Listen to a Country Song (Messina, Al Garth)02:49
08. Same Old Wine (Messina)08:17
09. Rock 'n' Roll Mood (Loggins, Michael Omartian)03:04
-

EAC Log

Exact Audio Copy V1.0 beta 3 from 29. August 2011
Отчёт EAC об извлечении, выполненном 25. апреля 2013, 22:28
Kenny Loggins with Jim Messina / Sittin' In
Дисковод: Optiarc DVD RW AD-5280S Adapter: 0 ID: 0
Режим чтения : ДостоверностьИспользование точного потока : ДаОтключение кэша аудио : ДаИспользование указателей C2 : Нет
Коррекция смещения при чтении : 48Способность читать области Lead-in и Lead-out : НетЗаполнение пропущенных сэмплов тишиной : ДаУдаление блоков с тишиной в начале и конце : НетПри вычислениях CRC использовались нулевые сэмплы : ДаИнтерфейс : Встроенный Win32-интерфейс для Win NT/2000
Выходной формат : Внутренние WAV-операцииФормат сэмплов : 44.100 Гц; 16 бит; стерео
TOC извлечённого CD
Трек | Старт | Длительность | Начальный сектор | Конечный сектор --------------------------------------------------------------------- 1 | 0:00.00 | 3:00.25 | 0 | 13524 2 | 3:00.25 | 4:16.37 | 13525 | 32761 3 | 7:16.62 | 4:47.23 | 32762 | 54309 4 | 12:04.10 | 11:13.70 | 54310 | 104854 5 | 23:18.05 | 3:19.20 | 104855 | 119799 6 | 26:37.25 | 4:25.27 | 119800 | 139701 7 | 31:02.52 | 2:49.58 | 139702 | 152434 8 | 33:52.35 | 8:17.27 | 152435 | 189736 9 | 42:09.62 | 3:04.50 | 189737 | 203586
Характеристики диапазона извлечения и сообщения об ошибках
Выбранный диапазон
Имя файла D:\Запись\Kenny Loggins with Jim Messina - Sittin' In\Kenny Loggins with Jim Messina - Sittin' In.wav
Пиковый уровень 98.6 % Скорость извлечения 4.0 X Качество диапазона 100.0 % CRC теста 36EFD0A0 CRC копии 36EFD0A0 Копирование... OK
Ошибок не произошло
AccurateRip: сводка
Трек 1 точность не определена (достоверность 11) [04412CCE], AccurateRip вернул [9C7E5193] (AR v2)Трек 2 точность не определена (достоверность 12) [AE79AD89], AccurateRip вернул [9768B20E] (AR v2)Трек 3 точность не определена (достоверность 12) [D6470F5A], AccurateRip вернул [1FAA5D1E] (AR v2)Трек 4 точность не определена (достоверность 11) [2A4A6CF2], AccurateRip вернул [B618C89C] (AR v2)Трек 5 точность не определена (достоверность 12) [D14E3D04], AccurateRip вернул [1E8BD26C] (AR v2)Трек 6 точность не определена (достоверность 12) [C577F428], AccurateRip вернул [38C98ABC] (AR v2)Трек 7 точность не определена (достоверность 12) [92BC3007], AccurateRip вернул [513D1CE6] (AR v2)Трек 8 точность не определена (достоверность 12) [C2307436], AccurateRip вернул [1EECC50F] (AR v2)Трек 9 точность не определена (достоверность 11) [C4CCEB17], AccurateRip вернул [B454536E] (AR v2)
Ни один трек не прошёл проверки на точностьВ вашей базе может быть иной вариант штамповки диска
Конец отчёта

AUDIOCHECKE

AUDIOCHECKER v2.0 beta (build 457) - by Dester - [email protected]~~~~~~~~~~~~~~~~~~~~~~~~~~~~~~~~~~
Started at: четверг, 25. 04. 2013. - 22:50.021 file found
1 -===- D:\Запись\Kenny Loggins with Jim Messina - Sittin' In\Kenny Loggins with Jim Messina - Sittin' In.flac Extracted successfully Conclusion: this track is CDDA with probability 100% Tempfile successfully deleted.
Finished at: четверг, 25. 04. 2013. - 22:53.25 (operation time: 0:03.23)

-

Tau Analyzer

Spectrum

Dracula

Пост 28-Апр-2013 17:31

[Цитировать]

Топик был перенесен из форума Rock в форум Country


RUGUI

Omen

Пост 28-Апр-2013 12:18

[Цитировать]

Fred Eaglesmith / Dusty
Жанр: alt country, americana
Страна-производитель диска: Canada
Год издания: 2004
Издатель (лейбл): A Major Label
Номер по каталогу: FRED10
Страна: Canada
Аудиокодек: FLAC (*.flac)
Тип рипа: image+.cue
Битрейт аудио: lossless
Продолжительность: 45:00
Источник (релизер): transgressions
Наличие сканов в содержимом раздачи: да
Треклист:
1. Dusty
2. Tunnel
3. I 75
4. Ship
5. Rainbow
6. Whicita
7. Crowds
8. Hey Baby
9. Codeine
10. Carne Del Toro

Лог создания рипа

Exact Audio Copy V0.99 prebeta 5 from 4. May 2009
EAC extraction logfile from 27. July 2009, 11:16
Fred Eaglesmith / Dusty
Used drive : HL-DT-STDVDRAM GH20NS15 Adapter: 2 ID: 0
Read mode : SecureUtilize accurate stream : YesDefeat audio cache : YesMake use of C2 pointers : No
Read offset correction : 667Overread into Lead-In and Lead-Out : NoFill up missing offset samples with silence : YesDelete leading and trailing silent blocks : NoNull samples used in CRC calculations : YesUsed interface : Native Win32 interface for Win NT & 2000
Used output format : Internal WAV RoutinesSample format : 44.100 Hz; 16 Bit; Stereo
TOC of the extracted CD
Track | Start | Length | Start sector | End sector --------------------------------------------------------- 1 | 0:00.00 | 4:43.10 | 0 | 21234 2 | 4:43.10 | 3:44.24 | 21235 | 38058 3 | 8:27.34 | 4:46.28 | 38059 | 59536 4 | 13:13.62 | 4:35.54 | 59537 | 80215 5 | 17:49.41 | 3:52.65 | 80216 | 97680 6 | 21:42.31 | 7:11.15 | 97681 | 130020 7 | 28:53.46 | 5:21.35 | 130021 | 154130 8 | 34:15.06 | 3:11.58 | 154131 | 168513 9 | 37:26.64 | 5:03.00 | 168514 | 191238 10 | 42:29.64 | 3:28.68 | 191239 | 206906
Range status and errors
Selected range
Filename C:\musjk\Fred Eaglesmith - Dusty.wav
Peak level 100.0 % Range quality 100.0 % Test CRC 29D16BA9 Copy CRC 29D16BA9 Copy OK
No errors occurred
AccurateRip summary
Track 1 accurately ripped (confidence 3) [2844CA43]Track 2 accurately ripped (confidence 2) [74C549C7]Track 3 accurately ripped (confidence 3) [4A1ABDBF]Track 4 accurately ripped (confidence 3) [B35D3D2B]Track 5 accurately ripped (confidence 2) [861C3120]Track 6 accurately ripped (confidence 2) [DF76B86A]Track 7 accurately ripped (confidence 2) [213E6E2F]Track 8 accurately ripped (confidence 2) [6C6292F7]Track 9 accurately ripped (confidence 3) [1B1B2A93]Track 10 accurately ripped (confidence 2) [0863D92C]
All tracks accurately ripped
End of status report
http://www.youtube.com/watch?v=VcWaz8WCHcE
 

Текущее время: Сегодня 08:08

Часовой пояс: GMT + 3