Сегодня идет свободное скачивание без начисления Download

Результатов поиска: 119

Автор Сообщение

Dracula

Пост 26-Фев-2015 10:35

[Цитировать]

Топик был перенесен из форума Metal в форум Metal


RUGUI

Dracula

Пост 26-Фев-2015 10:33

[Цитировать]

Топик был перенесен из форума Metal в форум Metal


RUGUI

Dracula

Пост 26-Фев-2015 10:32

[Цитировать]

Топик был перенесен из форума Metal в форум Metal


RUGUI

Dracula

Пост 26-Фев-2015 10:32

[Цитировать]

Топик был перенесен из форума Metal в форум Metal


RUGUI

Dracula

Пост 26-Фев-2015 10:32

[Цитировать]

Топик был перенесен из форума Metal в форум Metal


RUGUI

Omen

Пост 26-Фев-2015 06:00

[Цитировать]


Wolfpakk - Дискография

Жанр: Heavy Metal Носитель: CD Год издания: 2011-2013
Страна исполнителя (группы): Germany Продолжительность: 01:48:04
Аудиокодек: FLAC (*.flac) Тип рипа: image+.cue Битрейт аудио: lossless
Источник (релизер): CD собственной коллекции Наличие сканов: Да (Complete 600 DPI)
Sock It To Me Cold Winter Dark Revelation Reptile's Kiss
-

Об исполнителе (группе)

Wolfpakk — музыкальный коллектив, созданный музыкантами Михаэлем Воссом (Casanova, Mad Max, Michael Schenker Group) и Марком Свини (Crystal Ball).
Михаэль и Марк были давно знакомы и всегда хотел сделать совместный проект. В 2009 году Восс был продюсером при выпуске 2-го сольного альбома Марка. Со времен этой деятельности музыканты вынашивали планы о совместной работе и о приглашении в него как можно больше знаменитостей современной рок-музыки. Благодаря своей работе в качестве продюсера Воссу удалось привлечь к совместной работе в группе большое количество музыкантов.
Links: http://www.wolfpakk.net/index.php/en/
http://www.metal-archives.com/bands/Wolfpakk/3540333505
-

2011 - Wolfpakk (Original Recording) [AFM Records AFM 372-2] (01:52:37)


01. Sirens 04:56
02. Dark Horizons 04:19
03. Lost 06:45
04. Slam Down the Hammer 04:23
05. The Crow 05:27
06. Wolfpup 00:56
07. Let Me Die 06:46
08. Reptile's Kiss 04:36
09. Ride the Bullet 04:11
10. Wolfony 09:57
Mark Sweeney - Vocals.
Michael Voss - Vocals.
Guest:
Vocals: Paul Di'Anno, Tony Martin, Jeff Scott Soto, Rob Rock, Mark Boals, Tim "Ripper" Owens, Paul Shortino, Mark Fox, Michaela Schober, Jean Marc Viller, Pearl, Molly Duncan.
Guitars: Tommy Denander, Nadja Kossinskaja, Freddy Scherer, George Solonos, Ralf "Doc" Heyne, Torsten Koehne, Ira Black, Andy Midgeley, Igor Gianola.
Keyboards: Alessandro Delveccio, Ferdy Doernberg.
Bass: Mat Sinner, Matthias Rethmann, Nils Middelhauve, Neil Murray, Barend Courbois.
Drums: Gereon Homann.

Об альбоме (сборнике)

The main men behind this melodic metal project are Michael Voss (ex-Casanova) and Mark Sweeney (ex-Crystal Ball). Both gentlemen have been friends for a long time and one of their long-time dreams was the making of an album together. The last time the two worked together was when Sweeney recorded his 2nd solo album in 2009 with Voss behind the producer’s desk. The plans for the making of a melodic metal album were devised back then. They agreed to invite the best possible musicians from the hard rock and metal world to perform songs especially written for them. Having made a lot of friends throughout his career, it wasn’t that difficult for Voss to contact the musicians he wanted and in a very short time he gathered around 30 musicians who would participate. “Wolfpakk” features 11 songs written by Voss/Sweeney, who also signed for the mix and the production. Both rockers share vocal parts in each of the songs with a guest vocalist. Passing in review this way are Mark Fox (Shakra), Mark Boals (Malmsteen), Rob Rock (Impellitteri), Paul Shortino (Quiet Riot), Paul Di’Anno (Iron Maiden), Jeff Scott Soto (Talisman), Tony Martin (Black Sabbath) and Ripper Owens (Judas Priest) a.o. Among the supporting musicians are the guitarists Torsten Koehne, Tommy Denander, Freddy Scherer and Olaf Lenk, the bass players Tony Franklin, Mat Sinner and Neil Murray and the keyboarders Alessandro Del Vecchio and Ferdy Doernberg. And the result, I hear you ask? Well, although I won’t discuss the potential, I’m not that impressed. What I hear is certainly not bad, but certainly not world class altogether. Something that bothers me is the changeable quality of the songs. Quite simple is a (typical Teutonic) shout-along song like “The Crow”, that features Paul Di’Anno. Not my cup of tea. Luckily enough it’s followed by a short instrumental and a far better “Let Me Die”, with Jeff Scott Soto sharing the vox with Voss and Sweeney. But given enough spins, it could be that I’ll like this Wolfpakk more in the future.

Лог создания рипа

Exact Audio Copy V1.0 beta 3 from 29. August 2011
EAC extraction logfile from 21. February 2015, 12:33
Wolfpakk / Wolfpakk
Used drive : ATAPI iHAS122 W Adapter: 2 ID: 0
Read mode : SecureUtilize accurate stream : YesDefeat audio cache : YesMake use of C2 pointers : No
Read offset correction : 48Overread into Lead-In and Lead-Out : NoFill up missing offset samples with silence : YesDelete leading and trailing silent blocks : NoNull samples used in CRC calculations : YesUsed interface : Installed external ASPI interface
Used output format : User Defined EncoderSelected bitrate : 1024 kBit/sQuality : HighAdd ID3 tag : NoCommand line compressor : C:\Program Files\FLAC\flac.exeAdditional command line options : -V -8 -T "Date=%year%" -T "Genre=%genre%" -T"COMMENT=Ripped by Ilijan" -8 -V %source%
TOC of the extracted CD
Track | Start | Length | Start sector | End sector --------------------------------------------------------- 1 | 0:00.00 | 4:57.52 | 0 | 22326 2 | 4:57.52 | 4:20.42 | 22327 | 41868 3 | 9:18.19 | 6:47.05 | 41869 | 72398 4 | 16:05.24 | 4:25.52 | 72399 | 92325 5 | 20:31.01 | 5:29.15 | 92326 | 117015 6 | 26:00.16 | 0:57.49 | 117016 | 121339 7 | 26:57.65 | 6:48.21 | 121340 | 151960 8 | 33:46.11 | 4:37.58 | 151961 | 172793 9 | 38:23.69 | 4:13.06 | 172794 | 191774 10 | 42:37.00 | 9:59.43 | 191775 | 236742
Range status and errors
Selected range
Filename D:\ИЛИЯН\Wolfpakk - Wolfpakk.wav
Peak level 100.0 % Extraction speed 3.9 X Range quality 100.0 % Test CRC 7C7E3E3F Copy CRC 7C7E3E3F Copy OK
No errors occurred
AccurateRip summary
Track 1 accurately ripped (confidence 5) [924286E4] (AR v2)Track 2 accurately ripped (confidence 5) [6E23B16B] (AR v2)Track 3 accurately ripped (confidence 5) [62C53793] (AR v2)Track 4 accurately ripped (confidence 5) [EA7C01F9] (AR v2)Track 5 accurately ripped (confidence 5) [DD1BE5A7] (AR v2)Track 6 accurately ripped (confidence 5) [E375B6B8] (AR v2)Track 7 accurately ripped (confidence 5) [D393DAB4] (AR v2)Track 8 accurately ripped (confidence 5) [C668AD2E] (AR v2)Track 9 accurately ripped (confidence 5) [D9C8925E] (AR v2)Track 10 accurately ripped (confidence 5) [D1EC9B50] (AR v2)
All tracks accurately ripped
End of status report
---- CUETools DB Plugin V2.1.3
[CTDB TOCID: o2fP4aNgY.0pZlmABtdQFFfLgi8-] found, Submit result: o2fP4aNgY.0pZlmABtdQFFfLgi8- has been confirmed[8854e8e7] (6/6) Accurately ripped
==== Log checksum 6406AC63B08FAFF2CEF0761870B3658D342AE12BB802E1C2495CC7D62EAE95E0 ====

2013 - Cry Wolf (Original Recording) [AFM Records AFM 466-2] (00:55:27)


01. Moonlight 04:35
02. A Matter of Time 04:34
03. Dark Revelation 03:33
04. Cold Winter 04:41
05. Palace of Gold 05:02
06. The Beast in Me 04:35
07. Wakken 04:39
08. Pressure Down 04:05
09. Run with the Wolf (Rainbow cover) 05:29
10. Cry Wolf 10:02
11. Kid Raw (Bonus Track) 03:55
Mark Sweeney - Vocals.
Michael Voss - Vocals.
Guest:
Vocals: Amanda Somerville, Blaze Bayley, Ralf Scheepers, Göran Edman, Johnny Gioeli, Doogie White, Tony Mills, Piet Sielck, Jean Marc Viller.
Guitars: Roland Grapow, Mandy Meyer, Kee Marcello.
Keyboards: Tony Carey, Don Airey.
Bass: Mike Winkler.
Drums: Gereon Homann, Brian Tichy, Roland Jahoda.
Miscellaneous staff:
Mark Sweeney - Producer, Mixing.
Michael Voss - Producer, Mixing.
Hiko - Artwork, Layout.

Об альбоме (сборнике)

The Roaring Wolves are back… On a strong wake of a surprising and a triumphal album in 2011, that was much simply called “Wolfpakk”, the turbulent duo of vocalists comprised of Mark Sweeney (ex-CRYSTAL BALL) and Michael Voss (MAD MAX/MSG / ex-CASANOVA) unleash the successor, named "Cry Wolf" , and again the choral all-star project shift is the trick to give a marketing format for this burning platter, by gathering a pack of many high-class guest musicians and a few full blooded terrific barking voices to produce another raving record in the same musical vein as the great and self-titled debut.
Running and undaunted Guests on "Cry Wolf" are :
Vocals: Amanda Somerville (AVANTASIA), Ralf Scheepers (PRIMAL FEAR / ex-GAMMA RAY), Göran Edman (ex-RISING FORCE / ex-GLORY), Johnny Gioeli (A.R.P. / HARDLINE), Tony Mills (ex-SHY/ ex-SIAM / ex-TNT), Doogie White (ex-RAINBOW / ex-RISING FORCE / ex-CORNERSTONE / MSG), Blaze Baley (ex-IRON MAIDEN / WOLFSBANE), Piet Sielck (IRON SAVIOR / ex-SAVAGE CIRCUS).
Guitars: Kee Marcello (ex-EUROPE / ex-EASY ACTION), Mandy Meyer (UNISONIC / KROKUS / ex-GOTTHARD / ex-COBRA), Roland Grapow (MASTERPLAN / ex-HELLOWEEN).
Keys: Don Airey (ex-OZZY / DEEP PURPLE), Tony Carey (ex-RAINBOW).
Drums: Brian Tichy (SUN / ex-WHITESNAKE), Hermann Rarebell (ex-SCORPIONS), Roland Jahoda (ex-PARADOX / F.U.C.K.)
Under the leitmotiv of “if isn’t broken don’t fix it”, the Duet of Alpha Wolves and the fantastic AFM Records are teamed again in order to reedit the successful experience in giving the full and wild creative responsibility to the werewolf duet: the champions of Melodic Metal -Mister Sweeney and Doctor Voss.
They wrote all the songs together (minus one surprise cover version from RAINBOW “Run With The Wolf” featuring the participation of the iconic keyboard player Tony Carey) and they were also in charge once again, for production and mixing duty, and of course they performed some ferocious vocals. This is a work of art tremendously and carefully polished that put some lights in a brilliant manner to the songwriting talent of the savage binomial Voss / Sweeney.
The highlights of the albums are , the beginning track "Moonlight” with Ralf Scheepers who provide a very typical high flux of screaming and yelling, embellished by a fast pace and an epic dimension somewhere between HEAVENS GATE and MIND ODYSSEY with a little something from GAMMA RAY.
In the same melodic power frenzy, the solid "A Matter of Time" that sounds like VICTORY meets BONFIRE, boosted by a share of battling vocals between Sweeney and Johnny Gioeli with an uplifting performance, courtesy of Mr. Brian Tichy beating his drum kit.
"Palace of Gold" reveals a new heaviness and a dark density before transforming in a more pompous style than usual with the participation to the voice of Tony Mills and a massive multi-layer backing vocal section choir, like a symphonic version of DIO merged with a delicate and fragile Prog Rock melody.
Another fast double kick power number is "Beast In Me" with the always classy singing of Goran Edman, recalling that he was the singer for RISING FORCE / SPACE ODYSSEY / STRATOSPHERE and for 1999’s third album “The Last Viking” by The JOHANSSON BROTHERS and a true Neoclassical expertise demonstration in the lead spot provided by Roland Grapow.
Then it's time for a real entertaining Teutonic Metal with an Hard Rock touch cut named "Pressure Down" with the very distinctive voice of Doogie White which is highlighted in a mid tempo heavy rhythm , and a strong sing along headbanging refrain with a great gang backing vocal unit, like ACCEPT meets SINNER with an extensive ad lib howling final.
The rest of the tracklisting is also enjoyable mixing a few gimmick True Metal tracks as a simple sing along hymn as "Wakken" in the HAMMERFALL / IRON SAVIOR / RUNNIG WILD and obliviously ACCEPT's fashion (…"bang your head…Metal attack"…) or the less catchy but energetic, epic, tortuous and poignant title track "Cry Wolf" that extend to ten minutes with atmospheric sequence, special FX surreal sounds like wind and rain plus a few narrative parts in with a very surprising vocal interpretation of Blaze Bayley and a ultra-fast shredding piece of lead guitar signed by the one and the only, the other Swedish maestro Mr. Kee Marcello himself for a big fat guitar lesson and a serious beating .
Before that we had a ballad with Mrs. Somerville but I think it's just a flat and ordinary number, very caricaturish, in a not really inspired style, before that it was the moment for the WOLFPAKK's leaders to be left alone in the vocal department at least, Voss / Sweeney are dueling in the single, a quite regular Euro Metal cut under the moniker of "Dark Revelation"…Not my favorite.
The cover version of a legendary classic rock track, is as always, a double edged sword but secured with the approval and the additional playing of the early RAINBOW's keyboardist Tony Carey, to keep it in the right path, in this case "Run With The Wolf" is a good revision lightened in its rhythmic cadence structure as a result we have a more pompous rendition, with obviously the Hammond keyboards quite upfront.
Finally, the album is the perfect sequel of the highly acclaimed debut; this sophomore episode fulfilled the dangerous task, with maybe a less impressive guest list but with a real focus on bringing back, proudly and under one united flag, the old nature of the pure roaring Euro-Metal mania.

+ Video: "Cold Winter".mp4

MediaInfo

ОбщееПолное имя : C:\Users\Администратор\Desktop\Илиян\WOLFPAKK - Discography 2011-2013 (EAC-FLAC)\WOLFPAKK 2013 - Cry Wolf (EAC-FLAC)\Video\WP_Cold_Winter.mp4Формат : MPEG-4Профиль формата : Base Media / Version 2Идентификатор кодека : mp42Размер файла : 76,7 МбайтПродолжительность : 4 м. 49 с.Режим общего битрейта : ПеременныйОбщий поток : 2224 Кбит/секПрограмма кодирования : TMPGEnc Video Mastering Works 5 Version. 5.0.6.38
ВидеоИдентификатор : 2Формат : AVCФормат/Информация : Advanced Video CodecПрофиль формата : [email protected]Параметр CABAC формата : ДаПараметр ReFrames формата : 3 кадраИдентификатор кодека : avc1Идентификатор кодека/Информация : Advanced Video CodingПродолжительность : 4 м. 49 с.Вид битрейта : ПостоянныйБитрейт : 2093 Кбит/секНоминальный битрейт : 2200 Кбит/сек / 2200 Кбит/секШирина : 1920 пикселейВысота : 1080 пикселейСоотношение сторон : 16:9Режим частоты кадров : ПостоянныйЧастота кадров : 25,000 кадров/секСтандарт вещания : NTSCЦветовое пространство : YUVСубдискретизация насыщенности : 4:2:0Битовая глубина : 8 битТип развёртки : ПрогрессивнаяБит/(Пиксели*Кадры) : 0.040Размер потока : 72,1 Мбайт (94%)Библиотека кодирования : x264 core 114Настройки программы : cabac=1 / ref=3 / deblock=1:0:0 / analyse=0x3:0x113 / me=hex / subme=7 / psy=1 / psy_rd=1.00:0.00 / mixed_ref=1 / me_range=16 / chroma_me=1 / trellis=1 / 8x8dct=1 / cqm=2 / deadzone=21,11 / fast_pskip=1 / chroma_qp_offset=-2 / threads=6 / sliced_threads=0 / slices=1 / nr=0 / decimate=1 / interlaced=0 / constrained_intra=0 / bframes=3 / b_pyramid=0 / b_adapt=1 / b_bias=0 / direct=1 / weightb=1 / open_gop=0 / weightp=2 / keyint=250 / keyint_min=25 / scenecut=40 / intra_refresh=0 / rc_lookahead=40 / rc=cbr / mbtree=1 / bitrate=2200 / ratetol=1.0 / qcomp=0.60 / qpmin=3 / qpmax=69 / qpstep=4 / vbv_maxrate=2200 / vbv_bufsize=2195 / nal_hrd=cbr / ip_ratio=1.40 / aq=1:1.00Основные цвета : BT.709Характеристики трансфера : BT.709Коэффициенты матрицы : BT.709colour_range : Limited
АудиоИдентификатор : 1Формат : AACФормат/Информация : Advanced Audio CodecПрофиль формата : LCИдентификатор кодека : 40Продолжительность : 4 м. 49 с.Вид битрейта : ПеременныйБитрейт : 128 Кбит/секМаксимальный битрейт : 576 Кбит/секКаналы : 2 каналаРасположение каналов : Front: L RЧастота : 48,0 КГцМетод сжатия : С потерямиРазмер потока : 4,41 Мбайт (6%)

+ Video: "Dark Revelation".mp4

MediaInfo

ОбщееПолное имя : C:\Users\Администратор\Desktop\Илиян\WOLFPAKK - Discography 2011-2013 (EAC-FLAC)\WOLFPAKK 2013 - Cry Wolf (EAC-FLAC)\Video\WP_Dark_Revelation.mp4Формат : MPEG-4Профиль формата : Base Media / Version 2Идентификатор кодека : mp42Размер файла : 78,0 МбайтПродолжительность : 3 м. 35 с.Режим общего битрейта : ПеременныйОбщий поток : 3034 Кбит/секПрограмма кодирования : TMPGEnc Video Mastering Works 5 Version. 5.0.6.38
ВидеоИдентификатор : 2Формат : AVCФормат/Информация : Advanced Video CodecПрофиль формата : [email protected]Параметр CABAC формата : ДаПараметр ReFrames формата : 3 кадраИдентификатор кодека : avc1Идентификатор кодека/Информация : Advanced Video CodingПродолжительность : 3 м. 35 с.Вид битрейта : ПостоянныйБитрейт : 3000 Кбит/сек / 3000 Кбит/секШирина : 1920 пикселейВысота : 1080 пикселейСоотношение сторон : 16:9Режим частоты кадров : ПостоянныйЧастота кадров : 25,000 кадров/секСтандарт вещания : NTSCЦветовое пространство : YUVСубдискретизация насыщенности : 4:2:0Битовая глубина : 8 битТип развёртки : ПрогрессивнаяБит/(Пиксели*Кадры) : 0.058Размер потока : 74,7 Мбайт (96%)Библиотека кодирования : x264 core 114Настройки программы : cabac=1 / ref=3 / deblock=1:0:0 / analyse=0x3:0x113 / me=hex / subme=7 / psy=1 / psy_rd=1.00:0.00 / mixed_ref=1 / me_range=16 / chroma_me=1 / trellis=1 / 8x8dct=1 / cqm=2 / deadzone=21,11 / fast_pskip=1 / chroma_qp_offset=-2 / threads=6 / sliced_threads=0 / slices=1 / nr=0 / decimate=1 / interlaced=0 / constrained_intra=0 / bframes=3 / b_pyramid=0 / b_adapt=1 / b_bias=0 / direct=1 / weightb=1 / open_gop=0 / weightp=2 / keyint=250 / keyint_min=25 / scenecut=40 / intra_refresh=0 / rc_lookahead=40 / rc=cbr / mbtree=1 / bitrate=3000 / ratetol=1.0 / qcomp=0.60 / qpmin=3 / qpmax=69 / qpstep=4 / vbv_maxrate=3000 / vbv_bufsize=2998 / nal_hrd=cbr / ip_ratio=1.40 / aq=1:1.00Основные цвета : BT.709Характеристики трансфера : BT.709Коэффициенты матрицы : BT.709colour_range : Limited
АудиоИдентификатор : 1Формат : AACФормат/Информация : Advanced Audio CodecПрофиль формата : LCИдентификатор кодека : 40Продолжительность : 3 м. 35 с.Вид битрейта : ПеременныйБитрейт : 128 Кбит/секМаксимальный битрейт : 576 Кбит/секКаналы : 2 каналаРасположение каналов : Front: L RЧастота : 48,0 КГцМетод сжатия : С потерямиРазмер потока : 3,29 Мбайт (4%)

Лог создания рипа

Exact Audio Copy V1.0 beta 3 from 29. August 2011
EAC extraction logfile from 21. February 2015, 13:01
Wolfpakk / Cry Wolf
Used drive : ATAPI iHAS122 W Adapter: 2 ID: 0
Read mode : SecureUtilize accurate stream : YesDefeat audio cache : YesMake use of C2 pointers : No
Read offset correction : 48Overread into Lead-In and Lead-Out : NoFill up missing offset samples with silence : YesDelete leading and trailing silent blocks : NoNull samples used in CRC calculations : YesUsed interface : Installed external ASPI interface
Used output format : User Defined EncoderSelected bitrate : 1024 kBit/sQuality : HighAdd ID3 tag : NoCommand line compressor : C:\Program Files\FLAC\flac.exeAdditional command line options : -V -8 -T "Date=%year%" -T "Genre=%genre%" -T"COMMENT=Ripped by Ilijan" -8 -V %source%
TOC of the extracted CD
Track | Start | Length | Start sector | End sector --------------------------------------------------------- 1 | 0:00.00 | 4:36.64 | 0 | 20763 2 | 4:36.64 | 4:36.06 | 20764 | 41469 3 | 9:12.70 | 3:35.15 | 41470 | 57609 4 | 12:48.10 | 4:43.25 | 57610 | 78859 5 | 17:31.35 | 5:02.73 | 78860 | 101582 6 | 22:34.33 | 4:36.51 | 101583 | 122333 7 | 27:11.09 | 4:40.56 | 122334 | 143389 8 | 31:51.65 | 4:06.57 | 143390 | 161896 9 | 35:58.47 | 5:30.46 | 161897 | 186692 10 | 41:29.18 | 10:03.56 | 186693 | 231973 11 | 51:32.74 | 3:54.36 | 231974 | 249559 12 | 57:59.35 | 17:40.57 | 260960 | 340516
Range status and errors
Selected range
Filename D:\ИЛИЯН\Wolfpakk - Cry Wolf.wav
Peak level 97.7 % Extraction speed 4.3 X Range quality 100.0 % Test CRC 66D373F6 Copy CRC 66D373F6 Copy OK
No errors occurred
AccurateRip summary
Track 1 accurately ripped (confidence 7) [8C79A5EA] (AR v2)Track 2 accurately ripped (confidence 7) [4E8134CD] (AR v2)Track 3 accurately ripped (confidence 7) [6C5B81E2] (AR v2)Track 4 accurately ripped (confidence 7) [A266A7D7] (AR v2)Track 5 accurately ripped (confidence 7) [1D3B6E43] (AR v2)Track 6 accurately ripped (confidence 7) [5ACB534E] (AR v2)Track 7 accurately ripped (confidence 7) [B4A99E62] (AR v2)Track 8 accurately ripped (confidence 7) [5B1F42A7] (AR v2)Track 9 accurately ripped (confidence 7) [249FDB15] (AR v2)Track 10 accurately ripped (confidence 7) [E262D5CC] (AR v2)Track 11 accurately ripped (confidence 7) [C0423346] (AR v2)
All tracks accurately ripped
End of status report
---- CUETools DB Plugin V2.1.3
[CTDB TOCID: ePedL0sF3Yo5RB87_RWWGB4oUgA-] found, Submit result: already submitted[b806784f] (5/5) Accurately ripped
==== Log checksum 83AD4EB471F89E9A9447C34D5A473E5F25165628DDB7DD7833A598AF7B79DD8D ====
-

Dracula

Пост 26-Фев-2015 10:29

[Цитировать]

Топик был перенесен из форума Metal в форум Metal


RUGUI

Omen

Пост 26-Фев-2015 06:00

[Цитировать]


FireForce - Дискография

Жанр: Power Metal Носитель: CD Год издания: 2011-2014
Страна исполнителя (группы): Belgium Продолжительность: 01:44:24
Аудиокодек: FLAC (*.flac) Тип рипа: image+.cue Битрейт аудио: lossless
Источник: CD собственной коллекции Наличие сканов: Да (Complete 600 DPI)
Highland Charge (official video) Deathbringer (official video) Thunder Will Roll (official video)
-

Об исполнителе (группе)

FIREFORCE started their Battle for Freedom at the end of the year 2008.
Very quickly, the band became well-known for their excellent live gigs, and their 2009 EP “Moonlight Lady” succeeded in attracting the attention of the recording industry.
As a result, 2010 was a very creative year for the band. Their debut album “March On”, which was released the end of March 2011 throughout Europe, propelled the band out of the underground Metal scene from which it emerged, and into the hearts of the larger public, i.e. Metal fans everywhere.
The strong drive of the band’s Heavy Metal roots constantly interacts with their obvious affinity with the Power Metal genre.
However, a melodious harmonic component is always present in their work. The twelve songs on the album are characterized by solid riff structures accompanied by an excellent drum baseline that keeps on driving them forward.
The vocals truly deserve to be described as authentically Metal and never falter once throughout the album.
Summing up, “March On” is a thrilling, well-structured Heavy Metal album with definite Old School tendencies complemented by the albums contemporary production.


The band had finalized their negotiations with 7Hard Records in Germany in 2010 and had found a willing producer in MYSTIC PROPHECY vocalist R.D.Liapakis
(producer for SUICIDAL ANGELS, CRYSTAL TEARS, WINTER`S VERGE, ELDRITCH and others).
The band were able to add the finishing touch to the album by adding a guest appearance by guitarist Constantine (MYSTIC PROPHECY, DESCENDING, PRIMAL FEAR). The finished masterpiece provided a new benchmark for the Belgian Heavy Metal scene.
“March On“ is pure Heavy Metal adrenaline. It’s an album that is being driven forward relentlessly by its riveting riffs and thundering drums and rhythms that grab you by the throat. The NWOBHM-like vocals in “Fly Arrow Fly (Crécy 1346)“ remind listeners instantaneously of the early feats of HELLOWEEN, while “Born To Play Metal“ is a speedy piece of raw steel reminiscent of RUNNING WILD, especially since it features an awesome chorus.
“The Only Way“ will definitely get your head moving, too, and the phat and groovy mid-tempo breaks that keep on popping up in this song will absolutely blow you away. None of these twelve songs seem to show any kind of weakness. On the contrary, the album grows and becomes more powerful with each song. With “March On” FIREFORCE deliver a calling card that proves their True Metal and Old School heritage worthy.
A small club tour with Pegazus brought them in Belgium, Holland, Austria and Switzerland. Even Cyprus was visited as a special guest for Mystic Prophecy. Other shows were played with Tokyo Blade, Girlschool, Blaze, Roxxcalibur, Skullfist, Iron Mask, Crimson Glory, Nightmare, Hell, Avantasia, Tygers Of PanTang etc…
PPM fest and R-Mine metalfest were played with a big success!
The recordings of the new album "Deathbringer" were started in march 2013, again under supervision of R.D. Liapakis and engineer Christian Schmid in the Music Factory Prophecy Studio's in Germany,
and was released on june 20th 2014.
Soon after the release, lead guitarist Yves Vermeersch traded places with Thierry van der Zanden and Christophe De Combe passed the drumsticks to Sepp Coeck.
Links:
http://fireforceband.com/bio
http://www.metal-archives.com/bands/FireForce/3540310937
-

2011 - March On [7hard Records 7H-047-2] (00:50:37)


01. Coastal Battery 04:17
02. The Only Way 04:59
03. Firestorm 04:02
04. Horus (Bringer of Order) 04:26
05. 1302 - Battle for Freedom 05:15
06. Moonlight Lady 04:27
07. Annihilation 04:37
08. Fly Arrow Fly (Crécy 1346) 03:31
09. Mona Lisa 03:47
10. Hold Your Ground 04:04
11. Born to Play Metal 03:31
12. Metal Rages On 03:29
Flype (Double Diamond) - Vocals
Steve Deleu (Gwyllion) - Guitars
Erwin Suetens (Double Diamond) - Guitars
MetalPat - Bass
Tom Heijnen (Influence) - Drums
R.D. Liapakis - Mastering, Mixing, Producer
Christian Schmid - Mastering, Mixing
Eric Philippe - Cover art

Лог создания рипа

Exact Audio Copy V1.0 beta 3 from 29. August 2011
EAC extraction logfile from 19. February 2015, 18:17
FireForce / March On
Used drive : ATAPI iHAS122 W Adapter: 2 ID: 0
Read mode : SecureUtilize accurate stream : YesDefeat audio cache : YesMake use of C2 pointers : No
Read offset correction : 48Overread into Lead-In and Lead-Out : NoFill up missing offset samples with silence : YesDelete leading and trailing silent blocks : NoNull samples used in CRC calculations : YesUsed interface : Installed external ASPI interface
Used output format : User Defined EncoderSelected bitrate : 1024 kBit/sQuality : HighAdd ID3 tag : NoCommand line compressor : C:\Program Files\FLAC\flac.exeAdditional command line options : -V -8 -T "Date=%year%" -T "Genre=%genre%" -T"COMMENT=Ripped by Ilijan" -8 -V %source%
TOC of the extracted CD
Track | Start | Length | Start sector | End sector --------------------------------------------------------- 1 | 0:00.00 | 4:18.13 | 0 | 19362 2 | 4:18.13 | 5:00.14 | 19363 | 41876 3 | 9:18.27 | 4:03.03 | 41877 | 60104 4 | 13:21.30 | 4:27.09 | 60105 | 80138 5 | 17:48.39 | 5:15.73 | 80139 | 103836 6 | 23:04.37 | 4:28.17 | 103837 | 123953 7 | 27:32.54 | 4:37.63 | 123954 | 144791 8 | 32:10.42 | 3:31.74 | 144792 | 160690 9 | 35:42.41 | 3:47.50 | 160691 | 177765 10 | 39:30.16 | 4:05.11 | 177766 | 196151 11 | 43:35.27 | 3:32.08 | 196152 | 212059 12 | 47:07.35 | 3:29.63 | 212060 | 227797
Range status and errors
Selected range
Filename D:\ИЛИЯН\FireForce - March On.wav
Peak level 100.0 % Extraction speed 3.8 X Range quality 100.0 % Test CRC 156B9C80 Copy CRC 156B9C80 Copy OK
No errors occurred
AccurateRip summary
Track 1 accurately ripped (confidence 2) [9EAC17BD] (AR v2)Track 2 accurately ripped (confidence 2) [EA9EC6B2] (AR v2)Track 3 accurately ripped (confidence 2) [B759001C] (AR v2)Track 4 accurately ripped (confidence 2) [25F41CDE] (AR v2)Track 5 accurately ripped (confidence 2) [F8C466BC] (AR v2)Track 6 accurately ripped (confidence 2) [7C67C37A] (AR v2)Track 7 accurately ripped (confidence 2) [9C86FEC6] (AR v2)Track 8 accurately ripped (confidence 2) [9337FB57] (AR v2)Track 9 accurately ripped (confidence 2) [D01D57EA] (AR v2)Track 10 accurately ripped (confidence 2) [8A770B6E] (AR v2)Track 11 accurately ripped (confidence 2) [F78E9BD9] (AR v2)Track 12 accurately ripped (confidence 2) [A83917FC] (AR v2)
All tracks accurately ripped
End of status report
---- CUETools DB Plugin V2.1.3
[CTDB TOCID: L.CgxEBgzhZ7EzWFAAdyAKvxlFw-] found, Submit result: L.CgxEBgzhZ7EzWFAAdyAKvxlFw- has been confirmed[ca3e63ce] (2/2) Accurately ripped
==== Log checksum 6E7D8350713484592FBD7166DD0F898939CD056D4F5012247CC53390B16CD9E9 ====

2014 - Deathbringer [Limb Music GmbH LMP 1406-144] (00:53:47)


01. Deathbringer 04:11
02. Highland Charge 03:56
03. Combat Metal 04:19
04. Thunder Will Roll 03:44
05. To the Battle 04:33
06. Attracted to Sin and Lust 04:01
07. Words of Hatred 03:09
08. King of Lies 04:36
09. Aeons 04:00
10. Anubis - Lord of the Dead 04:19
11. Sekhmet - Warrior Goddess 03:53
12. MN29 05:01
13. Gangland (Tygers of Pan Tang cover) 04:00
Flype (Double Diamond) - Vocals
Erwin Suetens (Double Diamond) - Guitars
Yves Vermeersch (Epsylon) - Guitars
Geert Van Dyck - Bass
Christophe De Combe - Drums
Olivier Bourgi - Photography
Jens de Haes - Photography
Anestis Goudas - Cover art, Artwork
Christian Schmid - Engineering, Mixing, Mastering
R.D. Liapakis - Producer, Mixing, Mastering

Лог создания рипа

Exact Audio Copy V1.0 beta 3 from 29. August 2011
EAC extraction logfile from 19. February 2015, 18:48
Fireforce / Deathbringer
Used drive : ATAPI iHAS122 W Adapter: 2 ID: 0
Read mode : SecureUtilize accurate stream : YesDefeat audio cache : YesMake use of C2 pointers : No
Read offset correction : 48Overread into Lead-In and Lead-Out : NoFill up missing offset samples with silence : YesDelete leading and trailing silent blocks : NoNull samples used in CRC calculations : YesUsed interface : Installed external ASPI interface
Used output format : User Defined EncoderSelected bitrate : 1024 kBit/sQuality : HighAdd ID3 tag : NoCommand line compressor : C:\Program Files\FLAC\flac.exeAdditional command line options : -V -8 -T "Date=%year%" -T "Genre=%genre%" -T"COMMENT=Ripped by Ilijan" -8 -V %source%
TOC of the extracted CD
Track | Start | Length | Start sector | End sector --------------------------------------------------------- 1 | 0:00.00 | 4:11.13 | 0 | 18837 2 | 4:11.13 | 3:56.29 | 18838 | 36566 3 | 8:07.42 | 4:19.26 | 36567 | 56017 4 | 12:26.68 | 3:44.32 | 56018 | 72849 5 | 16:11.25 | 4:33.11 | 72850 | 93335 6 | 20:44.36 | 4:01.67 | 93336 | 111477 7 | 24:46.28 | 3:09.40 | 111478 | 125692 8 | 27:55.68 | 4:36.01 | 125693 | 146393 9 | 32:31.69 | 4:00.64 | 146394 | 164457 10 | 36:32.58 | 4:19.37 | 164458 | 183919 11 | 40:52.20 | 3:53.18 | 183920 | 201412 12 | 44:45.38 | 5:01.24 | 201413 | 224011 13 | 49:46.62 | 4:00.18 | 224012 | 242029
Range status and errors
Selected range
Filename D:\ИЛИЯН\Fireforce - Deathbringer.wav
Peak level 99.9 % Extraction speed 3.8 X Range quality 99.9 % Test CRC EB851719 Copy CRC EB851719 Copy OK
No errors occurred
AccurateRip summary
Track 1 accurately ripped (confidence 2) [63EDB7DB] (AR v2)Track 2 accurately ripped (confidence 2) [202084F7] (AR v2)Track 3 accurately ripped (confidence 2) [79809645] (AR v2)Track 4 accurately ripped (confidence 2) [13538B23] (AR v2)Track 5 accurately ripped (confidence 2) [E7F52F35] (AR v2)Track 6 accurately ripped (confidence 2) [3538826F] (AR v2)Track 7 accurately ripped (confidence 2) [49C38D0D] (AR v2)Track 8 accurately ripped (confidence 2) [FEE1900C] (AR v2)Track 9 accurately ripped (confidence 2) [07CD84AA] (AR v2)Track 10 accurately ripped (confidence 2) [51513813] (AR v2)Track 11 accurately ripped (confidence 2) [BA36B1B7] (AR v2)Track 12 accurately ripped (confidence 2) [564F417C] (AR v2)Track 13 accurately ripped (confidence 2) [8AC0AF91] (AR v2)
All tracks accurately ripped
End of status report
---- CUETools DB Plugin V2.1.3
[CTDB TOCID: G2Yt26s.lMe_CjbQ1YFKmGJ48lI-] found, Submit result: G2Yt26s.lMe_CjbQ1YFKmGJ48lI- has been confirmed[8fbf7e7a] (3/3) Accurately ripped
==== Log checksum A103FA71E84044BBEA5C7082DBE8E6FA9FF54A9550B73D14704EE78A53F6299A ====
-

Dracula

Пост 26-Фев-2015 10:28

[Цитировать]

Топик был перенесен из форума Metal в форум Metal


RUGUI

Omen

Пост 26-Фев-2015 06:00

[Цитировать]


Ancient Bards - Дискография

Жанр: Symphonic Power Metal Носитель: CD Год издания: 2010-2014
Страна исполнителя (группы): Italy Продолжительность: 03:16:39
Аудиокодек: FLAC (*.flac) Тип рипа: image+.cue Битрейт аудио: lossless
Источник: CD собственной коллекции Наличие сканов: Да (Complete 600 DPI)
-

2010 - The Alliance Of The Kings [Limb Music GmbH LMP 1002-119 CD] (00:58:09)


01. Prelude 01:55
02. The Birth of Evil 05:31
03. Four Magic Elements 04:59
04. Only the Brave 06:15
05. Frozen Mind 07:24
06. Nightfall in Icy Forest 01:17
07. Lode al Padre 06:26
08. Daltor the Dragonhunter 08:42
09. Farewell My Hero 06:51
10. Faithful to Destiny 08:45
Sara Squadrani - Vocals
Daniele Mazza - Keyboards, Barbarian Choir
Claudio Pietronik - Guitars
Fabio Balducci - Guitars
Martino Garattoni - Bass
Alessandro Carichini - Drums
Simone Mularoni - Recording, Mixing, Producer (supervisor)
Gabriele Ravaglia - Mastering, Producer (supervisor)
Frusci Ursula - Photography

Лог создания рипа

Exact Audio Copy V1.0 beta 3 from 29. August 2011
EAC extraction logfile from 17. February 2015, 15:44
Ancient Bards / The Alliance Of The Kings
Used drive : ATAPI iHAS122 W Adapter: 2 ID: 0
Read mode : SecureUtilize accurate stream : YesDefeat audio cache : YesMake use of C2 pointers : No
Read offset correction : 48Overread into Lead-In and Lead-Out : NoFill up missing offset samples with silence : YesDelete leading and trailing silent blocks : NoNull samples used in CRC calculations : YesUsed interface : Installed external ASPI interface
Used output format : User Defined EncoderSelected bitrate : 1024 kBit/sQuality : HighAdd ID3 tag : NoCommand line compressor : C:\Program Files\FLAC\flac.exeAdditional command line options : -V -8 -T "Date=%year%" -T "Genre=%genre%" -T"COMMENT=Ripped by Ilijan" -8 -V %source%
TOC of the extracted CD
Track | Start | Length | Start sector | End sector --------------------------------------------------------- 1 | 0:00.00 | 1:55.07 | 0 | 8631 2 | 1:55.07 | 5:31.35 | 8632 | 33491 3 | 7:26.42 | 4:58.73 | 33492 | 55914 4 | 12:25.40 | 6:15.21 | 55915 | 84060 5 | 18:40.61 | 7:24.36 | 84061 | 117396 6 | 26:05.22 | 1:16.73 | 117397 | 123169 7 | 27:22.20 | 6:26.49 | 123170 | 152168 8 | 33:48.69 | 8:42.63 | 152169 | 191381 9 | 42:31.57 | 6:51.63 | 191382 | 222269 10 | 49:23.45 | 8:45.13 | 222270 | 261657
Range status and errors
Selected range
Filename D:\ИЛИЯН\Ancient Bards - The Alliance Of The Kings.wav
Peak level 100.0 % Extraction speed 4.0 X Range quality 100.0 % Test CRC C9A4BF37 Copy CRC C9A4BF37 Copy OK
No errors occurred
AccurateRip summary
Track 1 accurately ripped (confidence 4) [DD1129CE] (AR v2)Track 2 accurately ripped (confidence 4) [23DD372D] (AR v2)Track 3 accurately ripped (confidence 4) [F15D72C1] (AR v2)Track 4 accurately ripped (confidence 4) [A03A2831] (AR v2)Track 5 accurately ripped (confidence 4) [6E18AF38] (AR v2)Track 6 accurately ripped (confidence 4) [A750D494] (AR v2)Track 7 accurately ripped (confidence 4) [AB254575] (AR v2)Track 8 accurately ripped (confidence 4) [AE7DD936] (AR v2)Track 9 accurately ripped (confidence 4) [5D797008] (AR v2)Track 10 accurately ripped (confidence 3) [6971499C] (AR v2)
All tracks accurately ripped
End of status report
---- CUETools DB Plugin V2.1.3
[CTDB TOCID: 7slNtccWTahsUnztYLl9n6GNyVY-] found, Submit result: 7slNtccWTahsUnztYLl9n6GNyVY- has been confirmed[53db0311] (10/10) Accurately ripped
==== Log checksum 8B014A5C96E3511E93F51DF5D342E782950C4BFB07D7612F3C4DA83C005D0C40 ====

2011 - Soulless Child [Limb Music GmbH LMP 1111-129 CD] (01:06:35)


01. Struggle for Life 01:53
02. To the Master of Darkness 07:33
03. Gates of Noland 05:130
04. Broken Illusion 05:110
05. All That Is True 09:550
06. Valiant Ride 04:130
07. Dinanzi al flagello 01:290
08. Soulless Child 09:150
09. Through My Veins 07:190
10. Hope Dies Last 14:31
Sara Squadrani - Vocals
Claudio Pietronik - Guitars
Fabio Balducci - Guitars
Daniele Mazza - Keyboards, The Ancient Bards Choir, Barbarian Choir on track 6
Martino Garattoni - Bass
Federico Gatti - Drums
Felipe Machado Franco - Cover art
Matteo Ermeti - Photography
Simone Mularoni - Mixing, Mastering, Producer (supervisor), Engineering

Лог создания рипа

Exact Audio Copy V1.0 beta 3 from 29. August 2011
EAC extraction logfile from 17. February 2015, 16:26
Ancient Bards / Soulless Child
Used drive : ATAPI iHAS122 W Adapter: 2 ID: 0
Read mode : SecureUtilize accurate stream : YesDefeat audio cache : YesMake use of C2 pointers : No
Read offset correction : 48Overread into Lead-In and Lead-Out : NoFill up missing offset samples with silence : YesDelete leading and trailing silent blocks : NoNull samples used in CRC calculations : YesUsed interface : Installed external ASPI interface
Used output format : User Defined EncoderSelected bitrate : 1024 kBit/sQuality : HighAdd ID3 tag : NoCommand line compressor : C:\Program Files\FLAC\flac.exeAdditional command line options : -V -8 -T "Date=%year%" -T "Genre=%genre%" -T"COMMENT=Ripped by Ilijan" -8 -V %source%
TOC of the extracted CD
Track | Start | Length | Start sector | End sector --------------------------------------------------------- 1 | 0:00.00 | 1:53.13 | 0 | 8487 2 | 1:53.13 | 7:33.50 | 8488 | 42512 3 | 9:26.63 | 5:13.10 | 42513 | 65997 4 | 14:39.73 | 5:11.49 | 65998 | 89371 5 | 19:51.47 | 9:55.47 | 89372 | 134043 6 | 29:47.19 | 4:13.14 | 134044 | 153032 7 | 34:00.33 | 1:29.43 | 153033 | 159750 8 | 35:30.01 | 9:15.55 | 159751 | 201430 9 | 44:45.56 | 7:19.48 | 201431 | 234403 10 | 52:05.29 | 14:29.68 | 234404 | 299646
Range status and errors
Selected range
Filename D:\ИЛИЯН\Ancient Bards - Soulless Child.wav
Peak level 100.0 % Extraction speed 3.4 X Range quality 99.9 % Test CRC 19F3ED22 Copy CRC 19F3ED22 Copy OK
No errors occurred
AccurateRip summary
Track 1 accurately ripped (confidence 7) [C6EC6739] (AR v2)Track 2 accurately ripped (confidence 7) [B7625CBC] (AR v2)Track 3 accurately ripped (confidence 7) [2B0EAAD8] (AR v2)Track 4 accurately ripped (confidence 7) [122EF43B] (AR v2)Track 5 accurately ripped (confidence 7) [B2B88EB1] (AR v2)Track 6 accurately ripped (confidence 7) [EAE0055D] (AR v2)Track 7 accurately ripped (confidence 7) [8FF12A32] (AR v2)Track 8 accurately ripped (confidence 7) [1824EE89] (AR v2)Track 9 accurately ripped (confidence 7) [5182F0E6] (AR v2)Track 10 accurately ripped (confidence 7) [4B54FB3D] (AR v2)
All tracks accurately ripped
End of status report
---- CUETools DB Plugin V2.1.3
[CTDB TOCID: MrlfIrEzkEqzSZSVupXCJFyGAY8-] found, Submit result: MrlfIrEzkEqzSZSVupXCJFyGAY8- has been confirmed[da71fe00] (9/9) Accurately ripped
==== Log checksum 38C1A66484E6228C22ABC4B3F73EABEADFE34C4DE9B116CA9EB96E1EA6FD1D92 ====

2014 - A New Dawn Ending [Limb Music GmbH LMP 1404-145 CD] (01:11:54)


01. Before the Storm 01:39
02. A Greater Purpose 07:55
03. Flaming Heart 06:52
04. Across This Life 04:31
05. In My Arms 05:25
06. The Last Resort 06:06
07. Showdown 12:48
08. In the End 05:11
09. Spiriti Liberi 04:49
10. A New Dawn Ending 16:37
Sara Squadrani - Vocals, Vocals (choirs)
Claudio Pietronik - Guitars
Daniele Mazza - Keyboards, Vocals (choirs)
Martino Garattoni - Bass, Vocals (choirs)
Federico Gatti - Drums
Nicola Serafini - Photography
Matteo Ermeti - Photography
Daniele Mazza - Producer
Simone Mularoni - Producer, Engineering, Mixing, Mastering
Felipe Machado Franco - Artwork

+ Video - In My Arms.mp4

MediaInfo

ОбщееПолное имя : C:\Users\Администратор\Desktop\Илиян\ANCIENT BARDS - Discography 2010-2014 (EAC-FLAC)\ANCIENT BARDS 2014 - A New Dawn Ending (EAC-FLAC)\Video\Ancient Bards - In My Arms.mp4Формат : MPEG-4Профиль формата : Base Media / Version 2Идентификатор кодека : mp42Размер файла : 43,4 МбайтПродолжительность : 5 м. 39 с.Режим общего битрейта : ПеременныйОбщий поток : 1072 Кбит/секДата кодирования : UTC 2014-03-11 09:48:07Дата пометки : UTC 2014-03-11 09:48:07©TIM : 00:00:00:15©TSC : 25©TSZ : 1
ВидеоИдентификатор : 1Формат : AVCФормат/Информация : Advanced Video CodecПрофиль формата : [email protected]Параметр CABAC формата : ДаПараметр ReFrames формата : 3 кадраИдентификатор кодека : avc1Идентификатор кодека/Информация : Advanced Video CodingПродолжительность : 5 м. 39 с.Битрейт : 797 Кбит/секШирина : 1280 пикселейВысота : 720 пикселейСоотношение сторон : 16:9Режим частоты кадров : ПостоянныйЧастота кадров : 25,000 кадров/секСтандарт вещания : PALЦветовое пространство : YUVСубдискретизация насыщенности : 4:2:0Битовая глубина : 8 битТип развёртки : ПрогрессивнаяБит/(Пиксели*Кадры) : 0.035Размер потока : 32,3 Мбайт (74%)Язык : EnglishДата кодирования : UTC 2014-03-11 09:48:07Дата пометки : UTC 2014-03-11 09:48:07Основные цвета : BT.709Характеристики трансфера : BT.709Коэффициенты матрицы : BT.709colour_range : Limited
АудиоИдентификатор : 2Формат : AACФормат/Информация : Advanced Audio CodecПрофиль формата : LCИдентификатор кодека : 40Продолжительность : 5 м. 39 с.Продолжительность оригинала : 5 м. 39 с.Вид битрейта : ПеременныйБитрейт : 253 Кбит/секМаксимальный битрейт : 375 Кбит/секКаналы : 2 каналаРасположение каналов : Front: L RЧастота : 48,0 КГцМетод сжатия : С потерямиРазмер потока : 10,3 Мбайт (24%)Размер потока оригинала : 10,3 Мбайт (24%)Язык : EnglishДата кодирования : UTC 2014-03-11 09:48:07Дата пометки : UTC 2014-03-11 09:48:07mdhd_Duration : 339925

Лог создания рипа

Exact Audio Copy V1.0 beta 3 from 29. August 2011
EAC extraction logfile from 17. February 2015, 17:03
Ancient Bards / A New Dawn Ending
Used drive : ATAPI iHAS122 W Adapter: 2 ID: 0
Read mode : SecureUtilize accurate stream : YesDefeat audio cache : YesMake use of C2 pointers : No
Read offset correction : 48Overread into Lead-In and Lead-Out : NoFill up missing offset samples with silence : YesDelete leading and trailing silent blocks : NoNull samples used in CRC calculations : YesUsed interface : Installed external ASPI interface
Used output format : User Defined EncoderSelected bitrate : 1024 kBit/sQuality : HighAdd ID3 tag : NoCommand line compressor : C:\Program Files\FLAC\flac.exeAdditional command line options : -V -8 -T "Date=%year%" -T "Genre=%genre%" -T"COMMENT=Ripped by Ilijan" -8 -V %source%
TOC of the extracted CD
Track | Start | Length | Start sector | End sector --------------------------------------------------------- 1 | 0:00.00 | 1:37.67 | 0 | 7341 2 | 1:37.67 | 7:55.14 | 7342 | 42980 3 | 9:33.06 | 6:51.15 | 42981 | 73820 4 | 16:24.21 | 4:30.71 | 73821 | 94141 5 | 20:55.17 | 5:25.39 | 94142 | 118555 6 | 26:20.56 | 6:06.50 | 118556 | 146055 7 | 32:27.31 | 12:48.63 | 146056 | 203718 8 | 45:16.19 | 5:11.26 | 203719 | 227069 9 | 50:27.45 | 4:48.70 | 227070 | 248739 10 | 55:16.40 | 16:37.46 | 248740 | 323560 11 | 74:26.11 | 4:59.54 | 334961 | 357439
Range status and errors
Selected range
Filename D:\ИЛИЯН\Ancient Bards - A New Dawn Ending.wav
Peak level 100.0 % Extraction speed 4.6 X Range quality 100.0 % Test CRC 0B0053F1 Copy CRC 0B0053F1 Copy OK
No errors occurred
AccurateRip summary
Track 1 accurately ripped (confidence 6) [FBC6CD3A] (AR v2)Track 2 accurately ripped (confidence 6) [025330DF] (AR v2)Track 3 accurately ripped (confidence 6) [185880DF] (AR v2)Track 4 accurately ripped (confidence 6) [442CFDDE] (AR v2)Track 5 accurately ripped (confidence 6) [262F19A5] (AR v2)Track 6 accurately ripped (confidence 6) [E42FA490] (AR v2)Track 7 accurately ripped (confidence 6) [E8DBFBE5] (AR v2)Track 8 accurately ripped (confidence 6) [7A972655] (AR v2)Track 9 accurately ripped (confidence 6) [1D703095] (AR v2)Track 10 accurately ripped (confidence 5) [7E4B3CB3] (AR v2)
All tracks accurately ripped
End of status report
---- CUETools DB Plugin V2.1.3
[CTDB TOCID: .a27Q9tNZOhnpTGc8UkQr2HEK8M-] found, Submit result: already submitted[52b1147d] (6/6) Accurately ripped
==== Log checksum 5962EDF266FC2E6FFC93C92492185A8A24D2EA2FA8310ACAC5C8B71E36E07338 ====
-- The Official Website - Encyclopaedia Metallum --

Dracula

Пост 26-Фев-2015 10:28

[Цитировать]

Топик был перенесен из форума Metal в форум Metal


RUGUI

Omen

Пост 26-Фев-2015 06:00

[Цитировать]


Sanctuary - Дискография

Жанр: Heavy Metal Носитель: CD Год издания: 1987-2014
Страна исполнителя: United States Продолжительность: 03:14:01
Аудиокодек: FLAC (*.flac) Тип рипа: image+.cue Битрейт аудио: lossless
Источник: CD собственной коллекции Наличие сканов: Да (Complete 600 DPI)
Sanctuary - Frozen (Official Video) Sanctuary - Future Tense (Official Video)
-

1987 - Refuge Denied (Reissued 2014) [Epic ‎EK 40920] (00:39:47)


01. Battle Angels 04:51
02. Termination Force 03:41
03. Die for My Sins 03:43
04. Soldiers of Steel 05:32
05. Sanctuary 03:59
06. White Rabbit (Jefferson Airplane cover) 03:13
07. Ascension to Destiny 04:59
08. The Third War 03:54
09. Veil of Disguise 05:55
Warrel Dane - Vocals
Sean Blosl - Guitars, Vocals (additional)
Lenny Rutledge - Guitars, Vocals (additional)
Jim Sheppard - Bass
Dave Budbill - Drums, Vocals (additional)
Ed Repka - Cover art
Paul Lani - Producer #6, Mixing
Mike Amstadt - Engineering assistant
Terry Date - Engineering
Dave Mustaine - Producer
Don Grierson - Executive producer

Лог создания рипа

Exact Audio Copy V1.0 beta 3 from 29. August 2011
EAC extraction logfile from 17. February 2015, 21:42
Sanctuary / Refuge Denied
Used drive : ATAPI iHAS122 W Adapter: 2 ID: 0
Read mode : SecureUtilize accurate stream : YesDefeat audio cache : YesMake use of C2 pointers : No
Read offset correction : 48Overread into Lead-In and Lead-Out : NoFill up missing offset samples with silence : YesDelete leading and trailing silent blocks : NoNull samples used in CRC calculations : YesUsed interface : Installed external ASPI interface
Used output format : User Defined EncoderSelected bitrate : 1024 kBit/sQuality : HighAdd ID3 tag : NoCommand line compressor : C:\Program Files\FLAC\flac.exeAdditional command line options : -V -8 -T "Date=%year%" -T "Genre=%genre%" -T"COMMENT=Ripped by Ilijan" -8 -V %source%
TOC of the extracted CD
Track | Start | Length | Start sector | End sector --------------------------------------------------------- 1 | 0:00.00 | 4:51.52 | 0 | 21876 2 | 4:51.52 | 3:40.25 | 21877 | 38401 3 | 8:32.02 | 3:43.25 | 38402 | 55151 4 | 12:15.27 | 5:31.45 | 55152 | 80021 5 | 17:46.72 | 3:59.18 | 80022 | 97964 6 | 21:46.15 | 3:12.62 | 97965 | 112426 7 | 24:59.02 | 4:58.60 | 112427 | 134836 8 | 29:57.62 | 3:54.15 | 134837 | 152401 9 | 33:52.02 | 5:54.55 | 152402 | 179006
Range status and errors
Selected range
Filename D:\ИЛИЯН\Sanctuary - Refuge Denied.wav
Peak level 100.0 % Extraction speed 3.5 X Range quality 99.9 % Test CRC 10351297 Copy CRC 10351297 Copy OK
No errors occurred
AccurateRip summary
Track 1 accurately ripped (confidence 3) [6673A1E7] (AR v2)Track 2 accurately ripped (confidence 3) [FB9CBF68] (AR v2)Track 3 accurately ripped (confidence 3) [F7BE4EE8] (AR v2)Track 4 accurately ripped (confidence 3) [9C0C3303] (AR v2)Track 5 accurately ripped (confidence 3) [F832BFEF] (AR v2)Track 6 accurately ripped (confidence 3) [7E5B246A] (AR v2)Track 7 accurately ripped (confidence 3) [927D75F6] (AR v2)Track 8 accurately ripped (confidence 3) [58844153] (AR v2)Track 9 accurately ripped (confidence 3) [F2BD9E41] (AR v2)
All tracks accurately ripped
End of status report
---- CUETools DB Plugin V2.1.3
[CTDB TOCID: 0RUcjy3GoYVSbyTnk0disf3EUKw-] found, Submit result: 0RUcjy3GoYVSbyTnk0disf3EUKw- has been confirmed[3c62c2d6] (3/3) Accurately ripped
==== Log checksum 465BAF65F6B2022000E0DE9ECFE712701F797A039D00743956677054329F583E ====

1989 - Into The Mirror Black (Reissued 2014) [Epic ‎EK 45085] (00:46:56)


01. Future Tense 05:07
02. Taste Revenge 05:03
03. Long Since Dark 05:06
04. Epitaph 06:03
05. Eden Lies Obscured 05:23
06. The Mirror Black 05:06
07. Seasons of Destruction 04:51
08. One More Murder 04:20
09. Communion 05:38
Warrel Dane - Vocals
Sean Blosl - Guitars
Lenny Rutledge - Guitars
Jim Sheppard - Bass
Dave Budbill - Drums, Percussion
John Halpern - Photography
Joel Zimmerman - Art direction
Joe Barresi - Engineering (assistant)
Bruce Barris - Engineering, Mixing
Howard Benson - Producer, Mixing
Gene Kirkland - Photography

Лог создания рипа

Exact Audio Copy V1.0 beta 3 from 29. August 2011
EAC extraction logfile from 17. February 2015, 22:11
Sanctuary / Into The Mirror Black
Used drive : ATAPI iHAS122 W Adapter: 2 ID: 0
Read mode : SecureUtilize accurate stream : YesDefeat audio cache : YesMake use of C2 pointers : No
Read offset correction : 48Overread into Lead-In and Lead-Out : NoFill up missing offset samples with silence : YesDelete leading and trailing silent blocks : NoNull samples used in CRC calculations : YesUsed interface : Installed external ASPI interface
Used output format : User Defined EncoderSelected bitrate : 1024 kBit/sQuality : HighAdd ID3 tag : NoCommand line compressor : C:\Program Files\FLAC\flac.exeAdditional command line options : -V -8 -T "Date=%year%" -T "Genre=%genre%" -T"COMMENT=Ripped by Ilijan" -8 -V %source%
TOC of the extracted CD
Track | Start | Length | Start sector | End sector --------------------------------------------------------- 1 | 0:00.00 | 5:10.02 | 0 | 23251 2 | 5:10.02 | 5:03.30 | 23252 | 46006 3 | 10:13.32 | 5:07.38 | 46007 | 69069 4 | 15:20.70 | 6:05.40 | 69070 | 96484 5 | 21:26.35 | 5:23.72 | 96485 | 120781 6 | 26:50.32 | 5:09.65 | 120782 | 144021 7 | 32:00.22 | 4:53.63 | 144022 | 166059 8 | 36:54.10 | 4:23.60 | 166060 | 185844 9 | 41:17.70 | 5:38.32 | 185845 | 211226
Range status and errors
Selected range
Filename D:\ИЛИЯН\Sanctuary - Into The Mirror Black.wav
Peak level 100.0 % Extraction speed 3.7 X Range quality 99.9 % Test CRC 9595417C Copy CRC 9595417C Copy OK
No errors occurred
AccurateRip summary
Track 1 accurately ripped (confidence 1) [D6C5D54D] (AR v2)Track 2 accurately ripped (confidence 1) [6C7334C6] (AR v2)Track 3 accurately ripped (confidence 1) [4EE4D65B] (AR v2)Track 4 accurately ripped (confidence 1) [79FD1D9A] (AR v2)Track 5 accurately ripped (confidence 1) [EC4402B4] (AR v2)Track 6 accurately ripped (confidence 1) [7D763A6D] (AR v2)Track 7 accurately ripped (confidence 1) [A141D049] (AR v2)Track 8 accurately ripped (confidence 1) [A04640E4] (AR v2)Track 9 accurately ripped (confidence 1) [A2832BF4] (AR v2)
All tracks accurately ripped
End of status report
---- CUETools DB Plugin V2.1.3
[CTDB TOCID: bErG2mzg8Cks18CSv4XxQ8BO1Uo-] found, Submit result: bErG2mzg8Cks18CSv4XxQ8BO1Uo- has been confirmed[7cbd2359] (2/2) Accurately ripped
==== Log checksum F2D054778AA53C286BCD0CF08B1AD97789D5A609B40B4E949049FD2A344D8C55 ====

2014 - The Year The Sun Died (Japanese Edition) [Avalon MICP-11176] (00:53:39)


01. Arise and Purify 04:13
02. Let the Serpent Follow Me 04:46
03. Exitium (Anthem of the Living) 04:52
04. Question Existence Fading 04:20
05. I Am Low 05:15
06. Frozen 05:46
07. One Final Day (Sworn to Believe) 03:30
08. The World Is Wired 05:08
09. The Dying Age 04:52
10. Ad Vitam Aeternam 01:30
11. The Year the Sun Died 05:33
12. Waiting for the Sun (The Doors cover) 03:48
Warrel Dane - Vocals
Brad Hull - Guitars
Lenny Rutledge - Guitars
Jim Sheppard - Bass
Dave Budbill - Drums
Travis Smith - Artwork
Zeuss - Producer

Лог создания рипа

Exact Audio Copy V1.0 beta 3 from 29. August 2011
EAC extraction logfile from 17. February 2015, 20:44
Sanctuary / The Year The Sun Died (Japan)
Used drive : ATAPI iHAS122 W Adapter: 2 ID: 0
Read mode : SecureUtilize accurate stream : YesDefeat audio cache : YesMake use of C2 pointers : No
Read offset correction : 48Overread into Lead-In and Lead-Out : NoFill up missing offset samples with silence : YesDelete leading and trailing silent blocks : NoNull samples used in CRC calculations : YesUsed interface : Installed external ASPI interface
Used output format : User Defined EncoderSelected bitrate : 1024 kBit/sQuality : HighAdd ID3 tag : NoCommand line compressor : C:\Program Files\FLAC\flac.exeAdditional command line options : -V -8 -T "Date=%year%" -T "Genre=%genre%" -T"COMMENT=Ripped by Ilijan" -8 -V %source%
TOC of the extracted CD
Track | Start | Length | Start sector | End sector --------------------------------------------------------- 1 | 0:00.00 | 4:13.53 | 0 | 19027 2 | 4:13.53 | 4:46.51 | 19028 | 40528 3 | 9:00.29 | 4:53.41 | 40529 | 62544 4 | 13:53.70 | 4:20.11 | 62545 | 82055 5 | 18:14.06 | 5:15.27 | 82056 | 105707 6 | 23:29.33 | 5:46.12 | 105708 | 131669 7 | 29:15.45 | 3:30.61 | 131670 | 147480 8 | 32:46.31 | 5:08.38 | 147481 | 170618 9 | 37:54.69 | 4:52.41 | 170619 | 192559 10 | 42:47.35 | 1:30.22 | 192560 | 199331 11 | 44:17.57 | 5:33.28 | 199332 | 224334 12 | 49:51.10 | 3:47.68 | 224335 | 241427
Range status and errors
Selected range
Filename D:\ИЛИЯН\Sanctuary - The Year The Sun Died (Japan).wav
Peak level 99.6 % Extraction speed 3.9 X Range quality 100.0 % Test CRC 85A5666F Copy CRC 85A5666F Copy OK
No errors occurred
AccurateRip summary
Track 1 cannot be verified as accurate (confidence 15) [7B6BB227], AccurateRip returned [A6928AD4] (AR v2)Track 2 cannot be verified as accurate (confidence 15) [974A3867], AccurateRip returned [CC582624] (AR v2)Track 3 cannot be verified as accurate (confidence 15) [849653B9], AccurateRip returned [93C6A736] (AR v2)Track 4 cannot be verified as accurate (confidence 15) [564F250C], AccurateRip returned [C942D2C9] (AR v2)Track 5 cannot be verified as accurate (confidence 15) [78AE0BAF], AccurateRip returned [CB980602] (AR v2)Track 6 cannot be verified as accurate (confidence 15) [0252F8F0], AccurateRip returned [436A802A] (AR v2)Track 7 cannot be verified as accurate (confidence 15) [47ED8392], AccurateRip returned [2C9F8551] (AR v2)Track 8 cannot be verified as accurate (confidence 15) [9F3095D8], AccurateRip returned [522EE06B] (AR v2)Track 9 cannot be verified as accurate (confidence 15) [1B42AB32], AccurateRip returned [AB23DAC2] (AR v2)Track 10 cannot be verified as accurate (confidence 15) [265E7107], AccurateRip returned [47DFE7A6] (AR v2)Track 11 cannot be verified as accurate (confidence 15) [7DE0C10A], AccurateRip returned [AC105AAF] (AR v2)Track 12 cannot be verified as accurate (confidence 15) [8A507E3B], AccurateRip returned [D0CFEB87] (AR v2)
No tracks could be verified as accurateYou may have a different pressing from the one(s) in the database
End of status report
---- CUETools DB Plugin V2.1.3
[CTDB TOCID: Edn_GyD2Bal6wb8jfSHN3pBNJik-] found, Submit result: Edn_GyD2Bal6wb8jfSHN3pBNJik- has been confirmed[91f2a2bf] (22/22) Accurately ripped
==== Log checksum 44C32231D9864D4CC6A2555F24701BA0E66697E5CDB976943B848D2F032AE5E1 ====

2014 - The Year The Sun Died (Limited Edition) [Century Media Records Ltd. 9983390] (00:53:39)


01. Arise and Purify 04:13
02. Let the Serpent Follow Me 04:46
03. Exitium (Anthem of the Living) 04:52
04. Question Existence Fading 04:20
05. I Am Low 05:15
06. Frozen 05:46
07. One Final Day (Sworn to Believe) 03:30
08. The World Is Wired 05:08
09. The Dying Age 04:52
10. Ad Vitam Aeternam 01:30
11. The Year the Sun Died 05:33
12. Waiting for the Sun (The Doors cover) 03:48
Warrel Dane - Vocals
Brad Hull - Guitars
Lenny Rutledge - Guitars
Jim Sheppard - Bass
Dave Budbill - Drums
Travis Smith - Artwork
Zeuss - Producer

Лог создания рипа

Exact Audio Copy V1.0 beta 3 from 29. August 2011
EAC extraction logfile from 17. February 2015, 21:15
Sanctuary / The Year The Sun Died
Used drive : ATAPI iHAS122 W Adapter: 2 ID: 0
Read mode : SecureUtilize accurate stream : YesDefeat audio cache : YesMake use of C2 pointers : No
Read offset correction : 48Overread into Lead-In and Lead-Out : NoFill up missing offset samples with silence : YesDelete leading and trailing silent blocks : NoNull samples used in CRC calculations : YesUsed interface : Installed external ASPI interface
Used output format : User Defined EncoderSelected bitrate : 1024 kBit/sQuality : HighAdd ID3 tag : NoCommand line compressor : C:\Program Files\FLAC\flac.exeAdditional command line options : -V -8 -T "Date=%year%" -T "Genre=%genre%" -T"COMMENT=Ripped by Ilijan" -8 -V %source%
TOC of the extracted CD
Track | Start | Length | Start sector | End sector --------------------------------------------------------- 1 | 0:00.00 | 4:13.53 | 0 | 19027 2 | 4:13.53 | 4:46.51 | 19028 | 40528 3 | 9:00.29 | 4:53.41 | 40529 | 62544 4 | 13:53.70 | 4:20.11 | 62545 | 82055 5 | 18:14.06 | 5:15.27 | 82056 | 105707 6 | 23:29.33 | 5:46.12 | 105708 | 131669 7 | 29:15.45 | 3:30.61 | 131670 | 147480 8 | 32:46.31 | 5:08.38 | 147481 | 170618 9 | 37:54.69 | 4:52.41 | 170619 | 192559 10 | 42:47.35 | 1:30.22 | 192560 | 199331 11 | 44:17.57 | 5:33.28 | 199332 | 224334 12 | 49:51.10 | 3:47.68 | 224335 | 241427
Range status and errors
Selected range
Filename D:\ИЛИЯН\Sanctuary - The Year The Sun Died.wav
Peak level 99.6 % Extraction speed 4.0 X Range quality 100.0 % Test CRC 73B876AA Copy CRC 73B876AA Copy OK
No errors occurred
AccurateRip summary
Track 1 accurately ripped (confidence 15) [A6928AD4] (AR v2)Track 2 accurately ripped (confidence 15) [CC582624] (AR v2)Track 3 accurately ripped (confidence 15) [93C6A736] (AR v2)Track 4 accurately ripped (confidence 15) [C942D2C9] (AR v2)Track 5 accurately ripped (confidence 15) [CB980602] (AR v2)Track 6 accurately ripped (confidence 15) [436A802A] (AR v2)Track 7 accurately ripped (confidence 15) [2C9F8551] (AR v2)Track 8 accurately ripped (confidence 15) [522EE06B] (AR v2)Track 9 accurately ripped (confidence 15) [AB23DAC2] (AR v2)Track 10 accurately ripped (confidence 15) [47DFE7A6] (AR v2)Track 11 accurately ripped (confidence 15) [AC105AAF] (AR v2)Track 12 accurately ripped (confidence 15) [D0CFEB87] (AR v2)
All tracks accurately ripped
End of status report
---- CUETools DB Plugin V2.1.3
[CTDB TOCID: Edn_GyD2Bal6wb8jfSHN3pBNJik-] found, Submit result: already submitted[91f2a2bf] (23/23) Accurately ripped
==== Log checksum 082A4D07106D411952CB5ADC5D1A1343A89159DBE045C4743430C677ABFDE44B ====
-- Encyclopaedia Metallum --

Dracula

Пост 26-Фев-2015 10:27

[Цитировать]

Топик был перенесен из форума Metal в форум Metal


RUGUI

Omen

Пост 26-Фев-2015 06:00

[Цитировать]


Nightmare - Коллекция

Жанр: Heavy/Power Metal Носитель: CD Год издания: 2001-2014
Страна исполнителя (группы): France Продолжительность: 06:58:47
Аудиокодек: FLAC (*.flac) Тип рипа: image+.cue Битрейт аудио: lossless
Источник (релизер): Да (Complete 600 DPI) Наличие сканов: Да (Complete 600 DPI)
Nightmare - Queen of Love & Pain (video) Nightmare - Final Procession (official video)
-

Об исполнителе (группе)

Свою историю французская метал-банда «Nightmare» ведет с аж 1979 года. Правда, музыкантам пришлось ждать более четырех лет, перед тем как в жизни группы начались кое-какие подвижки. Когда в марте 1983-го «Def leppard» в ходе своего турне «Pyromania» посетили Гренобль, «Nightmare» удалось попасть на разогрев к маститым британцам. На концерте присутствовало около 4000 зрителей, и это дало возможность команде засветиться перед рекорд-лейблами. После записи всего лишь одной демки группа получила контракт от английской фирмы «Ebony records». Уже в 1984 году на свет появился дебютник «Waiting for the twilight», вызвавший положительную реакцию прессы. Например «Enfer magazine» назвал «Nightmare» самым многообещающим французским актом.
К своему второму альбому «кошмарная» группа пришла в следующем составе: Жан-Мари Буэ (вокал), Жан Стрипполи (гитара), Николас Де Доминикис (гитара), Ив Сампьон (бас) и Джо Амор (ударные). Запись «Power of the universe» вновь проходила на севере Англии. Там же состоялись и первые концерты в поддержку альбома. Кстати, именно благодаря своей «живой» деятельности «Nightmare» получили благосклонность жителей Британских островов.
Далее события начали развиваться стремительно. Коллектив ушел с «Ebony» и перебазировался на французский «Dream records», где планировалось выпустить третий альбом. Однако этого не произошло, поскольку у лейбла начались финансовые трудности. Музыканты погрязли в контрактной неразберихе, а вдобавок ко всему вскоре Жан-Мари объявил о своем уходе. В 1987 году менеджмент настоял на принятии в группу англоязычного вокалиста и отрекомендовал на эту должность шотландца Тома Джексона. Сплочению коллектива это никоим образом не способствовало, и вскоре из старичков в нем остались только Ив и Николас.
«Nightmare» отыграли серию концертов во Франции и Англии, записали одну демку, но постоянные междоусобицы привели к распаду команды. Спустя двенадцать лет бывших участников «Кошмара» обуяла сильная ностальгия по прошлому, и в результате проект получил вторую жизнь. Состав банды теперь был таков: Джо Амор (вокал), Доминикис (гитара), Стрипполи (гитара), Сампьон (бас), Дэвид Амор (ударные) и Стефан Рабилло (клавишные).
По поводу реюниона 30 октября 1999-го в Гренобле состоялось грандиозное шоу, а следом были переизданы два первых альбома с большим количеством бонусов. Летом того же года музыканты записали EP «Astral deliverance», посвященный памяти Жана-Мари Буэ (он умер 19 апреля 1999 года). На пороге миллениума «Nightmare» стали первой французской металлической командой, удосужившейся выпустить двойной концертник. Альбом послужил хорошим трамплином для группы, начавшей вновь активно гастролировать. Сначала команда угодила на разогрев к «Saxon», а затем получила доступ на ряд фестивалей, включая знаменитый «Wacken open air».
К творчеству французов вновь начали проявлять интерес различные лейблы, и через некоторое время «Nightmare» получили контракт от «Napalm records». Наконец, в 2001 году вышла в свет третья, долгожданная студийная работа металлистов из Гренобля. В пылу раскрутки альбома команда добралась аж до берегов Америки, где неплохо выступила на «Metal Meltdown IV Festival». Ну а по возвращении в Европу музыкантов ожидали концерты в компании с «Blind guardian», очередные фестивали и… запись очередного альбома.
Links:
http://www.nightmare-metal.com/
[url=http://en.wikipedia.org/wiki/Nightmare_(French_band)]http://en.wikipedia.org/wiki/Nightmare_(French_band)[/url]
http://www.metal-archives.com/bands/Nightmare/2727
-

2001 - Cosmovision (Re-Released 2013) [AFM Records AFM 452-2] (01:13:34)


01. Roads to Nazca 00:59
02. Cosmovision 03:48
03. Corridors of Knowledge 03:46
04. Spirits of the Sunset 03:54
05. The Church 03:47
06. Behold the Nighttime 04:53
07. Necropolis 04:14
08. The Cemetary Road 04:53
09. Kill for the New Messiah 04:09
10. The Spiral of Madness 06:20
11. Last Flight to Sirius 05:22
12. Riddle in the Ocean 05:25
Re-released in 2013 by AFM Records and includes 6 bonus tracks:
13. War Addict 04:33
14. Astral Deliverance 00:46
15. The Legend 04:39
16. Heart of Fire 04:02
17. Princess of the Rising Sun 03:52
18. Howlers of Insanity 04:08
Jo Amore (Now or Never) - Vocals
Jeannot Stripolli - Guitars, Vocals
Nicolas De Dominicis - Guitars, Vocals
Yves Campion - Bass, Vocals
David Amore - Drums, Vocals
Iside Occella - Design
Jean-Pascal Fournier - Cover art
Hors Norm - Photography
Ulf Horbelt - Mastering
Terje Refsnes - Producer, Mixing

Лог создания рипа

Exact Audio Copy V1.0 beta 3 from 29. August 2011
EAC extraction logfile from 19. February 2015, 12:22
Nightmare / Cosmovision (Re-Released 2013)
Used drive : ATAPI iHAS122 W Adapter: 2 ID: 0
Read mode : SecureUtilize accurate stream : YesDefeat audio cache : YesMake use of C2 pointers : No
Read offset correction : 48Overread into Lead-In and Lead-Out : NoFill up missing offset samples with silence : YesDelete leading and trailing silent blocks : NoNull samples used in CRC calculations : YesUsed interface : Installed external ASPI interface
Used output format : User Defined EncoderSelected bitrate : 1024 kBit/sQuality : HighAdd ID3 tag : NoCommand line compressor : C:\Program Files\FLAC\flac.exeAdditional command line options : -V -8 -T "Date=%year%" -T "Genre=%genre%" -T"COMMENT=Ripped by Ilijan" -8 -V %source%
TOC of the extracted CD
Track | Start | Length | Start sector | End sector --------------------------------------------------------- 1 | 0:00.00 | 0:58.73 | 0 | 4422 2 | 0:58.73 | 3:47.20 | 4423 | 21467 3 | 4:46.18 | 3:46.26 | 21468 | 38443 4 | 8:32.44 | 3:53.55 | 38444 | 55973 5 | 12:26.24 | 3:47.36 | 55974 | 73034 6 | 16:13.60 | 4:53.12 | 73035 | 95021 7 | 21:06.72 | 4:14.06 | 95022 | 114077 8 | 25:21.03 | 4:53.26 | 114078 | 136078 9 | 30:14.29 | 4:09.36 | 136079 | 154789 10 | 34:23.65 | 6:19.56 | 154790 | 183270 11 | 40:43.46 | 5:21.55 | 183271 | 207400 12 | 46:05.26 | 5:24.52 | 207401 | 231752 13 | 51:30.03 | 4:33.06 | 231753 | 252233 14 | 56:03.09 | 0:46.01 | 252234 | 255684 15 | 56:49.10 | 4:38.57 | 255685 | 276591 16 | 61:27.67 | 4:01.49 | 276592 | 294715 17 | 65:29.41 | 3:56.47 | 294716 | 312462 18 | 69:26.13 | 4:07.61 | 312463 | 331048
Range status and errors
Selected range
Filename D:\ИЛИЯН\Nightmare - Cosmovision (Re-Released 2013).wav
Peak level 96.6 % Extraction speed 4.7 X Range quality 100.0 % Test CRC B54689DA Copy CRC B54689DA Copy OK
No errors occurred
AccurateRip summary
Track 1 accurately ripped (confidence 1) [F2B9575C] (AR v2)Track 2 accurately ripped (confidence 1) [3061B0D2] (AR v2)Track 3 accurately ripped (confidence 1) [2F4028A5] (AR v2)Track 4 accurately ripped (confidence 1) [11A67DE9] (AR v2)Track 5 accurately ripped (confidence 1) [200572F3] (AR v2)Track 6 accurately ripped (confidence 1) [359058FF] (AR v2)Track 7 accurately ripped (confidence 1) [3D85BCE4] (AR v2)Track 8 accurately ripped (confidence 1) [CF80A301] (AR v2)Track 9 accurately ripped (confidence 1) [4E174C18] (AR v2)Track 10 accurately ripped (confidence 1) [7F655B75] (AR v2)Track 11 accurately ripped (confidence 1) [1F164E16] (AR v2)Track 12 accurately ripped (confidence 1) [69C38630] (AR v2)Track 13 accurately ripped (confidence 1) [3F40C128] (AR v2)Track 14 accurately ripped (confidence 1) [806F8D52] (AR v2)Track 15 accurately ripped (confidence 1) [2FEED466] (AR v2)Track 16 accurately ripped (confidence 1) [72F9C8A2] (AR v2)Track 17 accurately ripped (confidence 1) [23002AD1] (AR v2)Track 18 accurately ripped (confidence 1) [9A13495C] (AR v2)
All tracks accurately ripped
End of status report
---- CUETools DB Plugin V2.1.3
[CTDB TOCID: VHECeMcIPrk5NrUjjzqmBG6fpmg-] found, Submit result: VHECeMcIPrk5NrUjjzqmBG6fpmg- has been confirmed[0f83dbfd] (1/1) Accurately ripped
==== Log checksum B0624CAA537548213D7345B71C4D639A80B37CA1FE70D96B88211D293B4348B0 ====

2005 - The Dominion Gate (Original Recording) [Regain Records RR 073] (01:05:40)


01. Temple of Tears 04:05
02. A Taste of Armageddon 04:12
03. Messenger of Faith 05:01
04. Secret Rules (Beati Paoli) 04:53
05. The Dressmaker 06:18
06. Endless Agony 04:31
07. Paranormal Magnitude (Part II) 02:14
08. Circle of the Dark 04:19
09. Haunting Memories 05:13
10. Heretic 05:40
11. The Dominion Gate 08:12
12. The Watchtower 05:24
13. K-141 05:31
Jo Amore (Now or Never) - Vocals
Franck Milleliri - Guitars
Alex Hilbert (Lonewolf, My Doppelgänger) - Guitars
Yves Campion - Bass
David Amore - Drums
Patrick Liotard - Mastering
Iside Occella - Artwork
Brigitte Charles - Photography
Damien Flammarion - Engineering (additional)
Terje Refsnes - Producer, Engineering, Mixing
Jean-Pascal Fournier - Cover art

Лог создания рипа

Exact Audio Copy V1.0 beta 3 from 29. August 2011
EAC extraction logfile from 18. February 2015, 20:10
Nightmare / The Dominion Gate
Used drive : ATAPI iHAS122 W Adapter: 2 ID: 0
Read mode : SecureUtilize accurate stream : YesDefeat audio cache : YesMake use of C2 pointers : No
Read offset correction : 48Overread into Lead-In and Lead-Out : NoFill up missing offset samples with silence : YesDelete leading and trailing silent blocks : NoNull samples used in CRC calculations : YesUsed interface : Installed external ASPI interface
Used output format : User Defined EncoderSelected bitrate : 1024 kBit/sQuality : HighAdd ID3 tag : NoCommand line compressor : C:\Program Files\FLAC\flac.exeAdditional command line options : -V -8 -T "Date=%year%" -T "Genre=%genre%" -T"COMMENT=Ripped by Ilijan" -8 -V %source%
TOC of the extracted CD
Track | Start | Length | Start sector | End sector --------------------------------------------------------- 1 | 0:00.00 | 4:05.04 | 0 | 18378 2 | 4:05.04 | 4:12.20 | 18379 | 37298 3 | 8:17.24 | 5:01.40 | 37299 | 59913 4 | 13:18.64 | 4:53.55 | 59914 | 81943 5 | 18:12.44 | 6:18.56 | 81944 | 110349 6 | 24:31.25 | 4:31.68 | 110350 | 130742 7 | 29:03.18 | 2:14.23 | 130743 | 140815 8 | 31:17.41 | 4:19.62 | 140816 | 160302 9 | 35:37.28 | 5:13.34 | 160303 | 183811 10 | 40:50.62 | 5:40.59 | 183812 | 209370 11 | 46:31.46 | 8:12.22 | 209371 | 246292 12 | 54:43.68 | 5:24.18 | 246293 | 270610 13 | 60:08.11 | 5:31.64 | 270611 | 295499
Range status and errors
Selected range
Filename D:\ИЛИЯН\Nightmare - The Dominion Gate.wav
Peak level 97.1 % Extraction speed 4.1 X Range quality 100.0 % Test CRC 1F672EF3 Copy CRC 1F672EF3 Copy OK
No errors occurred
AccurateRip summary
Track 1 accurately ripped (confidence 2) [C450095C] (AR v2)Track 2 accurately ripped (confidence 2) [9020D2F2] (AR v2)Track 3 accurately ripped (confidence 2) [90025D39] (AR v2)Track 4 accurately ripped (confidence 2) [9D36A43E] (AR v2)Track 5 accurately ripped (confidence 2) [F170FE54] (AR v2)Track 6 accurately ripped (confidence 2) [AD5DD0A5] (AR v2)Track 7 accurately ripped (confidence 2) [A370F56B] (AR v2)Track 8 accurately ripped (confidence 2) [0D2B7074] (AR v2)Track 9 accurately ripped (confidence 2) [87E73A3F] (AR v2)Track 10 accurately ripped (confidence 2) [6262FBE5] (AR v2)Track 11 accurately ripped (confidence 2) [A57E92B0] (AR v2)Track 12 accurately ripped (confidence 2) [138AB59E] (AR v2)Track 13 accurately ripped (confidence 2) [7EF85867] (AR v2)
All tracks accurately ripped
End of status report
---- CUETools DB Plugin V2.1.3
[CTDB TOCID: brpFglxzfiTZyE82xB88XF5GyT0-] found, Submit result: brpFglxzfiTZyE82xB88XF5GyT0- has been confirmed[d6f72a7b] (6/6) Accurately ripped
==== Log checksum DDC9E2BC67DC9F267A8F1D99E743B679DA57E416ED26FE91947630EDF279AD5A ====

2007 - Genetic Disorder (Original Recording) [Regain Records RR 129] (00:57:03)


01. Nothing Left Behind 05:15
02. Battleground for Suicide 04:16
03. Queen of Love & Pain 03:46
04. Conspiracy 04:09
05. Leader of the Masquerade 04:22
06. Final Procession 05:01
07. The Dominion Gate (Part II) 06:21
08. The Winds of Sin 04:28
09. Forsaken Child 04:33
10. A Thrill of Death 04:58
11. Wicked White Demon 03:41
12. Dawn of Darkness 06:08
Jo Amore (Now or Never) - Vocals
Alex Hilbert (Lonewolf, My Doppelgänger) - Guitars
Franck Milleliri - Guitars
Yves Campion - Bass, Vocals
David Amore - Drums
Henrik Udd - Producer, Mixing, Engineering
Fredrik Nordström - Producer, Mixing
Pär Olofsson - Artwork
Thierry Cormery - Photography
Patrick Liotard - Mastering

Лог создания рипа

Exact Audio Copy V1.0 beta 3 from 29. August 2011
EAC extraction logfile from 18. February 2015, 20:47
Nightmare / Genetic Disorder
Used drive : ATAPI iHAS122 W Adapter: 2 ID: 0
Read mode : SecureUtilize accurate stream : YesDefeat audio cache : YesMake use of C2 pointers : No
Read offset correction : 48Overread into Lead-In and Lead-Out : NoFill up missing offset samples with silence : YesDelete leading and trailing silent blocks : NoNull samples used in CRC calculations : YesUsed interface : Installed external ASPI interface
Used output format : User Defined EncoderSelected bitrate : 1024 kBit/sQuality : HighAdd ID3 tag : NoCommand line compressor : C:\Program Files\FLAC\flac.exeAdditional command line options : -V -8 -T "Date=%year%" -T "Genre=%genre%" -T"COMMENT=Ripped by Ilijan" -8 -V %source%
TOC of the extracted CD
Track | Start | Length | Start sector | End sector --------------------------------------------------------- 1 | 0:00.00 | 5:15.12 | 0 | 23636 2 | 5:15.12 | 4:16.30 | 23637 | 42866 3 | 9:31.42 | 3:46.36 | 42867 | 59852 4 | 13:18.03 | 4:09.43 | 59853 | 78570 5 | 17:27.46 | 4:22.20 | 78571 | 98240 6 | 21:49.66 | 5:01.56 | 98241 | 120871 7 | 26:51.47 | 6:21.23 | 120872 | 149469 8 | 33:12.70 | 4:28.05 | 149470 | 169574 9 | 37:41.00 | 4:33.19 | 169575 | 190068 10 | 42:14.19 | 4:58.26 | 190069 | 212444 11 | 47:12.45 | 3:41.49 | 212445 | 229068 12 | 50:54.19 | 6:08.65 | 229069 | 256733
Range status and errors
Selected range
Filename D:\ИЛИЯН\Nightmare - Genetic Disorder.wav
Peak level 94.5 % Extraction speed 4.2 X Range quality 100.0 % Test CRC 93C56B47 Copy CRC 93C56B47 Copy OK
No errors occurred
AccurateRip summary
Track 1 accurately ripped (confidence 3) [3C97FBF7] (AR v1)Track 2 accurately ripped (confidence 3) [C3E11FB8] (AR v1)Track 3 accurately ripped (confidence 3) [593588C7] (AR v1)Track 4 accurately ripped (confidence 3) [95F27396] (AR v1)Track 5 accurately ripped (confidence 3) [FA897FED] (AR v1)Track 6 accurately ripped (confidence 3) [D89CA966] (AR v1)Track 7 accurately ripped (confidence 3) [3CD95576] (AR v1)Track 8 accurately ripped (confidence 3) [1F0D9290] (AR v1)Track 9 accurately ripped (confidence 3) [50F9AA23] (AR v1)Track 10 accurately ripped (confidence 3) [F2A28CAC] (AR v1)Track 11 accurately ripped (confidence 3) [4C0BF903] (AR v1)Track 12 accurately ripped (confidence 3) [31C06F41] (AR v1)
All tracks accurately ripped
End of status report
---- CUETools DB Plugin V2.1.3
[CTDB TOCID: NtgqpKzNM8ztRPI7rDzJmCw_d.I-] found, Submit result: NtgqpKzNM8ztRPI7rDzJmCw_d.I- has been confirmed[23ce1767] (7/7) Accurately ripped
==== Log checksum A1A47DDEBE6BA64DA29042795DCDB436699AF4CE6A9A7F6FCA0717E5A6865EB8 ====

2009 - Insurrection (Original Recording) [AFM Records AFM 295-2] (00:54:20)


01. Eternal Winter 05:09
02. The Gospel of Judas 04:14
03. Insurrection 04:55
04. Legions of the Rising Sun 05:01
05. Three Miles Island 08:43
06. Mirrors of Damnation 05:25
07. Decameron 04:50
08. Target for Revenge 06:20
09. Cosa Nostra (Part I: The Light) 05:20
10. Angels of Glass 04:19
Jo Amore (Now or Never) - Vocals
Franck Milleliri - Guitars
J.C. Lefevre (J.C.Jess, Hiemperium) - Guitars
Yves Campion - Bass
David Amore - Drums
J.C. Lefevre - Engineering
Eric Bagnaro - Photography
Oliver Szczypula - Engineering
Pär Olofsson - Cover art
Patrick Liotard - Producer, Engineering, Mastering
Achim "Akeem" Köhler - Producer, Engineering, Mixing
Hiko - Artwork, Design

Лог создания рипа

Exact Audio Copy V1.0 beta 3 from 29. August 2011
EAC extraction logfile from 18. February 2015, 21:21
Nightmare / Insurrection
Used drive : ATAPI iHAS122 W Adapter: 2 ID: 0
Read mode : SecureUtilize accurate stream : YesDefeat audio cache : YesMake use of C2 pointers : No
Read offset correction : 48Overread into Lead-In and Lead-Out : NoFill up missing offset samples with silence : YesDelete leading and trailing silent blocks : NoNull samples used in CRC calculations : YesUsed interface : Installed external ASPI interface
Used output format : User Defined EncoderSelected bitrate : 1024 kBit/sQuality : HighAdd ID3 tag : NoCommand line compressor : C:\Program Files\FLAC\flac.exeAdditional command line options : -V -8 -T "Date=%year%" -T "Genre=%genre%" -T"COMMENT=Ripped by Ilijan" -8 -V %source%
TOC of the extracted CD
Track | Start | Length | Start sector | End sector --------------------------------------------------------- 1 | 0:00.00 | 5:09.03 | 0 | 23177 2 | 5:09.03 | 4:14.41 | 23178 | 42268 3 | 9:23.44 | 4:55.40 | 42269 | 64433 4 | 14:19.09 | 5:01.26 | 64434 | 87034 5 | 19:20.35 | 8:43.38 | 87035 | 126297 6 | 28:03.73 | 5:25.63 | 126298 | 150735 7 | 33:29.61 | 4:50.37 | 150736 | 172522 8 | 38:20.23 | 6:20.18 | 172523 | 201040 9 | 44:40.41 | 5:20.29 | 201041 | 225069 10 | 50:00.70 | 4:19.22 | 225070 | 244516
Range status and errors
Selected range
Filename D:\ИЛИЯН\Nightmare - Insurrection.wav
Peak level 98.8 % Extraction speed 3.8 X Range quality 99.9 % Test CRC DE833382 Copy CRC DE833382 Copy OK
No errors occurred
AccurateRip summary
Track 1 accurately ripped (confidence 4) [D9810E88] (AR v2)Track 2 accurately ripped (confidence 4) [0E783A62] (AR v2)Track 3 accurately ripped (confidence 4) [A4E6A083] (AR v2)Track 4 accurately ripped (confidence 4) [801768DB] (AR v2)Track 5 accurately ripped (confidence 4) [0F755D3D] (AR v2)Track 6 accurately ripped (confidence 4) [6A6D78D4] (AR v2)Track 7 accurately ripped (confidence 4) [24811639] (AR v2)Track 8 accurately ripped (confidence 4) [5F243159] (AR v2)Track 9 accurately ripped (confidence 4) [D5550E1D] (AR v2)Track 10 accurately ripped (confidence 4) [B9241939] (AR v2)
All tracks accurately ripped
End of status report
---- CUETools DB Plugin V2.1.3
[CTDB TOCID: bd5lRFlSG9_BF.Mxy2ExvIr4_lo-] found, Submit result: bd5lRFlSG9_BF.Mxy2ExvIr4_lo- has been confirmed[e535a2a3] (6/6) Accurately ripped
==== Log checksum E98E9D242B9974926012390614D04F875085C4FA3E6CF03036B203B88AB6BA52 ====

2011 - One Night Of Insurrection [live] (Original Recording) [AFM Records AFM 350-7] (01:05:53)


01. Intro 01:49
02. Eternal Winter 04:58
03. White Wicked Demon 03:45
04. Heretic 05:49
05. Legions of the Rising Sun 05:19
06. Secret Rules 04:58
07. Queen of Love and Pain 04:03
08. Three Miles Island 08:45
09. Cosmovision 04:00
10. The Wind of Sin 04:32
11. Target For Revenge 06:22
12. The Gospel of Judas 04:19
13. The Watchtower 07:11
Jo Amore (Now or Never) - Vocals
Franck Milleliri - Guitars
J.C. Lefevre (J.C.Jess, Hiemperium) - Guitars
Yves Campion - Bass
David Amore - Drums

Лог создания рипа

Exact Audio Copy V1.0 beta 3 from 29. August 2011
EAC extraction logfile from 18. February 2015, 22:33
Nightmare / One Night Of Insurrection
Used drive : ATAPI iHAS122 W Adapter: 2 ID: 0
Read mode : SecureUtilize accurate stream : YesDefeat audio cache : YesMake use of C2 pointers : No
Read offset correction : 48Overread into Lead-In and Lead-Out : NoFill up missing offset samples with silence : YesDelete leading and trailing silent blocks : NoNull samples used in CRC calculations : YesUsed interface : Installed external ASPI interface
Used output format : User Defined EncoderSelected bitrate : 1024 kBit/sQuality : HighAdd ID3 tag : NoCommand line compressor : C:\Program Files\FLAC\flac.exeAdditional command line options : -V -8 -T "Date=%year%" -T "Genre=%genre%" -T"COMMENT=Ripped by Ilijan" -8 -V %source%
TOC of the extracted CD
Track | Start | Length | Start sector | End sector --------------------------------------------------------- 1 | 0:00.00 | 1:49.37 | 0 | 8211 2 | 1:49.37 | 4:58.37 | 8212 | 30598 3 | 6:47.74 | 3:45.00 | 30599 | 47473 4 | 10:32.74 | 5:49.37 | 47474 | 73685 5 | 16:22.36 | 5:19.37 | 73686 | 97647 6 | 21:41.73 | 4:58.00 | 97648 | 119997 7 | 26:39.73 | 4:03.00 | 119998 | 138222 8 | 30:42.73 | 8:45.00 | 138223 | 177597 9 | 39:27.73 | 4:00.00 | 177598 | 195597 10 | 43:27.73 | 4:32.00 | 195598 | 215997 11 | 47:59.73 | 6:22.37 | 215998 | 244684 12 | 54:22.35 | 4:19.37 | 244685 | 264146 13 | 58:41.72 | 7:11.00 | 264147 | 296471
Range status and errors
Selected range
Filename D:\ИЛИЯН\Nightmare - One Night Of Insurrection.wav
Peak level 100.0 % Extraction speed 4.3 X Range quality 100.0 % Test CRC 97A0D43A Copy CRC 97A0D43A Copy OK
No errors occurred
AccurateRip summary
Track 1 accurately ripped (confidence 2) [8C13E692] (AR v2)Track 2 accurately ripped (confidence 2) [15975DE4] (AR v2)Track 3 accurately ripped (confidence 2) [14FD3FE5] (AR v2)Track 4 accurately ripped (confidence 2) [0E27DE5C] (AR v2)Track 5 accurately ripped (confidence 2) [24906D23] (AR v2)Track 6 accurately ripped (confidence 2) [48077DC4] (AR v2)Track 7 accurately ripped (confidence 2) [F08EE821] (AR v2)Track 8 accurately ripped (confidence 2) [43602671] (AR v2)Track 9 accurately ripped (confidence 2) [1A765254] (AR v2)Track 10 accurately ripped (confidence 2) [C0EDC1DF] (AR v2)Track 11 accurately ripped (confidence 2) [0D6708B7] (AR v2)Track 12 accurately ripped (confidence 2) [8614801A] (AR v2)Track 13 accurately ripped (confidence 2) [97379E8E] (AR v2)
All tracks accurately ripped
End of status report
---- CUETools DB Plugin V2.1.3
[CTDB TOCID: ZJHqJe2QGEreahT0MdvtCarr7KQ-] disk not present in database, Submit result: ZJHqJe2QGEreahT0MdvtCarr7KQ- has been uploaded
==== Log checksum 9D1A06720343A7D1F710AD7A8E4C9A41E6155938E8DD0B7C6EE027B7CB3D5E67 ====

2012 - The Burden Of God (Original Recording) [AFM Records AFM 391-2] (00:52:51)


01. Gateways to the Void 02:26
02. Sunrise in Hell 05:04
03. The Burden of God 04:02
04. Crimson Empire 05:04
05. Children of the Nation 04:40
06. The Preacher 05:43
07. Shattered Hearts 05:45
08. The Doomsday Prediction 04:20
09. The Dominion Gate (Part III) 07:32
10. Final Outcome 04:23
11. Afterlife 03:50
Jo Amore (Now or Never) - Vocals
Franck Milleliri - Guitars
Matt Asselberghs (Architekt, Fire Wizzard) - Guitars
Yves Campion - Bass
David Amore - Drums
Jonathan - Orchestral arrangements, Choir arrangements
Mori Gena - Photography
Will Hien - Photography
Kostic Dusan - Cover art
Iside Occella - Cover concept, Artwork
Maor Appelbaum - Mastering
Patrick Liotard - Producer, Engineering, Mixing

Лог создания рипа

Exact Audio Copy V1.0 beta 3 from 29. August 2011
EAC extraction logfile from 18. February 2015, 21:52
Nightmare / The Burden Of God
Used drive : ATAPI iHAS122 W Adapter: 2 ID: 0
Read mode : SecureUtilize accurate stream : YesDefeat audio cache : YesMake use of C2 pointers : No
Read offset correction : 48Overread into Lead-In and Lead-Out : NoFill up missing offset samples with silence : YesDelete leading and trailing silent blocks : NoNull samples used in CRC calculations : YesUsed interface : Installed external ASPI interface
Used output format : User Defined EncoderSelected bitrate : 1024 kBit/sQuality : HighAdd ID3 tag : NoCommand line compressor : C:\Program Files\FLAC\flac.exeAdditional command line options : -V -8 -T "Date=%year%" -T "Genre=%genre%" -T"COMMENT=Ripped by Ilijan" -8 -V %source%
TOC of the extracted CD
Track | Start | Length | Start sector | End sector --------------------------------------------------------- 1 | 0:00.00 | 2:25.54 | 0 | 10928 2 | 2:25.54 | 5:03.61 | 10929 | 33714 3 | 7:29.40 | 4:02.35 | 33715 | 51899 4 | 11:32.00 | 5:06.14 | 51900 | 74863 5 | 16:38.14 | 4:39.61 | 74864 | 95849 6 | 21:18.00 | 5:42.45 | 95850 | 121544 7 | 27:00.45 | 5:45.02 | 121545 | 147421 8 | 32:45.47 | 4:20.05 | 147422 | 166926 9 | 37:05.52 | 7:31.71 | 166927 | 200822 10 | 44:37.48 | 4:23.00 | 200823 | 220547 11 | 49:00.48 | 3:50.09 | 220548 | 237806
Range status and errors
Selected range
Filename D:\ИЛИЯН\Nightmare - The Burden Of God.wav
Peak level 100.0 % Extraction speed 3.9 X Range quality 100.0 % Test CRC 28EC6732 Copy CRC 28EC6732 Copy OK
No errors occurred
AccurateRip summary
Track 1 accurately ripped (confidence 5) [C75D9F40] (AR v2)Track 2 accurately ripped (confidence 5) [F98F16D0] (AR v2)Track 3 accurately ripped (confidence 5) [96A2E532] (AR v2)Track 4 accurately ripped (confidence 5) [6C9EF5E6] (AR v2)Track 5 accurately ripped (confidence 5) [13126C15] (AR v2)Track 6 accurately ripped (confidence 5) [33DD0E84] (AR v2)Track 7 accurately ripped (confidence 5) [6064A2CE] (AR v2)Track 8 accurately ripped (confidence 5) [232A0AF4] (AR v2)Track 9 accurately ripped (confidence 5) [D15298B1] (AR v2)Track 10 accurately ripped (confidence 5) [75B74FB3] (AR v2)Track 11 accurately ripped (confidence 5) [6E868D37] (AR v2)
All tracks accurately ripped
End of status report
---- CUETools DB Plugin V2.1.3
[CTDB TOCID: 6t5stZTkKhAimTp_xvX8sGjhmjw-] found, Submit result: 6t5stZTkKhAimTp_xvX8sGjhmjw- has been confirmed[ec024677] (4/4) Accurately ripped
==== Log checksum BE5F7B118671C9516D43011A56421B62236BC0BA002D63582B8E5E84D74965CA ====

2014 - The Aftermath (Original Recording) [AFM Records AFM 493-2] (00:49:36)


01. The Aftermath (Intro) 00:56
02. Bringers of a No Man's Land 04:30
03. Forbidden Tribe 04:26
04. Necromancer 04:54
05. Invoking Demons 05:07
06. I Am Immortal 04:56
07. Digital DNA 04:39
08. Ghost in the Mirror 05:20
09. The Bridge Is Burning 05:41
10. Mission for God 04:42
11. Alone in the Distance 04:27
Jo Amore (Now or Never) - Vocals
Franck Milleliri - Guitars
Matt Asselberghs (Architekt, Fire Wizzard) - Guitars
Yves Campion - Bass
David Amore - Drums
Anthony Mouchet - Cover art, Artwork, Photography
Patrick Liotard - Recording (vocals)
Jan Vacik - Producer, Recording, Mixing, Mastering
Mario Lochert - Producer, Recording, Mixing, Mastering

Лог создания рипа

Exact Audio Copy V1.0 beta 3 from 29. August 2011
EAC extraction logfile from 19. February 2015, 12:53
Nightmare / The Aftermath
Used drive : ATAPI iHAS122 W Adapter: 2 ID: 0
Read mode : SecureUtilize accurate stream : YesDefeat audio cache : YesMake use of C2 pointers : No
Read offset correction : 48Overread into Lead-In and Lead-Out : NoFill up missing offset samples with silence : YesDelete leading and trailing silent blocks : NoNull samples used in CRC calculations : YesUsed interface : Installed external ASPI interface
Used output format : User Defined EncoderSelected bitrate : 1024 kBit/sQuality : HighAdd ID3 tag : NoCommand line compressor : C:\Program Files\FLAC\flac.exeAdditional command line options : -V -8 -T "Date=%year%" -T "Genre=%genre%" -T"COMMENT=Ripped by Ilijan" -8 -V %source%
TOC of the extracted CD
Track | Start | Length | Start sector | End sector --------------------------------------------------------- 1 | 0:00.00 | 0:55.48 | 0 | 4172 2 | 0:55.48 | 4:30.13 | 4173 | 24435 3 | 5:25.61 | 4:26.00 | 24436 | 44385 4 | 9:51.61 | 4:54.03 | 44386 | 66438 5 | 14:45.64 | 5:06.50 | 66439 | 89438 6 | 19:52.39 | 4:55.45 | 89439 | 111608 7 | 24:48.09 | 4:38.60 | 111609 | 132518 8 | 29:26.69 | 5:19.57 | 132519 | 156500 9 | 34:46.51 | 5:40.39 | 156501 | 182039 10 | 40:27.15 | 4:42.07 | 182040 | 203196 11 | 45:09.22 | 4:27.07 | 203197 | 223228
Range status and errors
Selected range
Filename D:\ИЛИЯН\Nightmare - The Aftermath.wav
Peak level 99.9 % Extraction speed 3.7 X Range quality 99.9 % Test CRC 061F5517 Copy CRC 061F5517 Copy OK
No errors occurred
AccurateRip summary
Track 1 accurately ripped (confidence 3) [EDB77F3A] (AR v2)Track 2 accurately ripped (confidence 3) [3AFB13D4] (AR v2)Track 3 accurately ripped (confidence 3) [31D02E7D] (AR v2)Track 4 accurately ripped (confidence 3) [E1E00CA3] (AR v2)Track 5 accurately ripped (confidence 3) [D24793F1] (AR v2)Track 6 accurately ripped (confidence 3) [7FFBF90D] (AR v2)Track 7 accurately ripped (confidence 3) [7816CB4E] (AR v2)Track 8 accurately ripped (confidence 3) [9017CB6E] (AR v2)Track 9 accurately ripped (confidence 3) [27192843] (AR v2)Track 10 accurately ripped (confidence 3) [8E428477] (AR v2)Track 11 accurately ripped (confidence 3) [8F31F3D5] (AR v2)
All tracks accurately ripped
End of status report
---- CUETools DB Plugin V2.1.3
[CTDB TOCID: xHHRmcnNqY6HbbMLicofn4sUTMU-] found, Submit result: already submitted[f05f7de0] (7/7) Accurately ripped
==== Log checksum 3A91C624A95BB5FCA2360489963162E52C6F3412344076EAA90E3AE08D7C5927 ====
-

Dracula

Пост 26-Фев-2015 10:17

[Цитировать]

Топик был перенесен из форума Metal в форум Metal


RUGUI
 

Текущее время: Сегодня 10:30

Часовой пояс: GMT + 3