Сегодня идет свободное скачивание без начисления Download

Результатов поиска: 169

Автор Сообщение

RUGUI

Пост 13-Мар-2015 09:43

[Цитировать]

Праздничный концерт к Дню защитника Отечества -- Производство: Первый канал, Россия
Жанр: Праздничный концерт
Описание:
Первый канал представляет грандиозное зрелище - концерт, посвящённый Дню защитника Отечества, который состоялся в Театре Советской армии.
На сцену выйдут солисты сводных военных хоров Военно-морского флота, Военно-воздушных сил, хора им. Пятницкого, ансамбля Александрова, духовых оркестров. В концерте также участвуют:Иосиф Кобзон («Однажды вечером»), Тамара Гвердцетели («Белорусский вокзал»), Кристина Орбакайте («Тучи в голубом»), Александр Буйнов («Крейсера»), Валерия («Мы вместе»), Александра Пахмутова и многие другие.
Ведущие концерта – Екатерина Стриженова и Валдис Пельш.
Дата российской премьеры: 23.02.2015
Продолжительность: 01:43:54
Качество видео: HDTV [1080i]
Видеокодек: MPEG-4 AVC/H.264
Битрейт видео: ~10300 kb/s
Размер кадра: 1920х1080
Аудио 1: MPEG Layer 2, 2 ch, 48 kHz, 224 kbps
Аудио 2: АС-3, 6 ch, 48 kHz, 384 kbps
Язык субтитров: Русский
Вид субтитров: Вшитые отключаемые (888-я страница телетекста)
Сэмпл: http://sendfile.su/1089602

Mediainfo:

Код:
Общее
Идентификатор                            : 16 (0x10)
Полное имя                               : concert for the Day of Defender of the Fatherland_HD.ts
Формат                                   : MPEG-TS
Размер файла                             : 8,32 Гбайт
Продолжительность                        : 1 ч. 43 м.
Режим общего битрейта                    : Переменный
Общий поток                              : 11,5 Мбит/сек
Видео
Идентификатор                            : 1902 (0x76E)
Идентификатор меню                       : 92 (0x5C)
Формат                                   : AVC
Формат/Информация                        : Advanced Video Codec
Профиль формата                          : [url=mailto:[email protected]][email protected][/url]
Параметр CABAC формата                   : Да
Параметр ReFrames формата                : 3 кадра
Параметр GOP формата                     : M=4, N=32
Идентификатор кодека                     : 27
Продолжительность                        : 1 ч. 43 м.
Битрейт                                  : 10,3 Мбит/сек
Ширина                                   : 1920 пикселей
Высота                                   : 1080 пикселей
Соотношение сторон                       : 16:9
Частота кадров                           : 25,000 кадров/сек
Стандарт вещания                         : PAL
Цветовое пространство                    : YUV
Субдискретизация насыщенности            : 4:2:0
Битовая глубина                          : 8 бит
Тип развёртки                            : Чересстрочная
Порядок развёртки                        : Верхнее поле первое
Бит/(Пиксели*Кадры)                      : 0.198
Размер потока                            : 7,46 Гбайт (90%)
Основные цвета                           : BT.709
Характеристики трансфера                 : BT.709
Коэффициенты матрицы                     : BT.709
Аудио #1
Идентификатор                            : 2902 (0xB56)
Идентификатор меню                       : 92 (0x5C)
Формат                                   : MPEG Audio
Версия формата                           : Version 1
Профиль формата                          : Layer 2
Идентификатор кодека                     : 4
Продолжительность                        : 1 ч. 43 м.
Вид битрейта                             : Постоянный
Битрейт                                  : 224 Кбит/сек
Каналы                                   : 2 канала
Частота                                  : 48,0 КГц
Метод сжатия                             : С потерями
Задержка видео                           : 16 мс.
Размер потока                            : 166 Мбайт (2%)
Язык                                     : std
Язык, дополнительно                      : Clean effects
Аудио #2
Идентификатор                            : 3902 (0xF3E)
Идентификатор меню                       : 92 (0x5C)
Формат                                   : AC-3
Формат/Информация                        : Audio Coding 3
Расширение режима                        : CM (complete main)
Параметр Endianness формата              : Big
Идентификатор кодека                     : 6
Продолжительность                        : 1 ч. 43 м.
Вид битрейта                             : Постоянный
Битрейт                                  : 384 Кбит/сек
Каналы                                   : 6 каналов
Расположение каналов                     : Front: L C R, Side: L R, LFE
Частота                                  : 48,0 КГц
Битовая глубина                          : 16 бит
Метод сжатия                             : С потерями
Задержка видео                           : 126 мс.
Размер потока                            : 285 Мбайт (3%)
Язык                                     : std
Язык, дополнительно                      : Clean effects
Текст
Идентификатор                            : 33 (0x21)-100
Идентификатор меню                       : 92 (0x5C)
Формат                                   : Teletext
Меню
Идентификатор                            : 902 (0x386)
Идентификатор меню                       : 92 (0x5C)
Продолжительность                        : 1 ч. 43 м.
Список                                   : 1902 (0x76E) (AVC) / 2902 (0xB56) (MPEG Audio, std) / 3902 (0xF3E) (AC-3, std) / 33 (0x21) ()
Язык                                     :  / std / std
Скриншоты:        Время раздачи: Пн-Пт с 18:00 до 22:00

pandiani

Пост 03-Янв-2015 16:21

[Цитировать]

Раздайте пожалуйста

Геннадич

Пост 20-Апр-2014 08:57

[Цитировать]

Mad1966, Ерунда. С праздником!!!

Mad1966

Пост 20-Апр-2014 08:55

[Цитировать]

Геннадич- прошу прощения просто не нашёл нужную рубрику!

Dracula

Пост 19-Апр-2014 18:54

[Цитировать]

Топик был перенесен из форума Наше кино в форум New Concert Recording


Геннадич

Геннадич

Пост 19-Апр-2014 18:51

[Цитировать]

С почином, Mad1966,

Mad1966

Пост 19-Апр-2014 18:48

[Цитировать]

Браво 30 лет. Концерт в Stadium Live (2014) Blu-Ray- Год выпуска: 2014
Жанр: Концерт
Лейбл: ООО "Союз Мьюзик"
Продолжительность: 02:00:40
Описание фильма:
10 ноября 2013 года состоялся грандиозный юбилейный концерт группы "Браво". Легендарному коллективу исполнилось 30 лет. На сцене столичного клуба Stadium Live музыканты исполнили как старые, так и новые песни. Группа живет, развивается, работает, ее творчество остается востребованным и актуальным на протяжении десятилетий! И торжество в честь ее 30-летия - лишь очередной этап на творческом пути "Браво".
Качество видео: Blu-Ray
Видеокодек: MPEG-4 AVC/H.264
Битрейт видео: ~21000 kbps
Размер кадра: 1920x1080
Аудио кодек: AC3
Аудио 1: Russian/Dolby Digital Audio/5.1/48 kHz/640 kbps/DN -4dB
Аудио 2: Russian/Dolby TrueHD Audio/5.1/48 kHz/4601 kbps/24-bit (AC3 Embedded: 5.1/48 kHz/320 kbps)

Треклист:

Треклист:
01. Добрый вечер, Москва
02. Мода
03. Мне грустно и легко
04. Если бы на Марсе
05. Вот и я
06. Нет предела
07. Ветер знает
08. Плохой, хороший, злой
09. 36.6
10. Замок из песка
11. Любите, девушки
12. Держись, пижон
13. Вася
14. Король Оранжевое лето
15. Как жаль
16. Стильный оранжевый галстук
17. Московский бит
18. Бег
13. Любовь не горит
20. Дорога в облака
21. На лунный свет
22. Это за окном рассвет
23. Ленинградский Рок-н-ролл
24. От Таганки до Кузьминок
25. Whole Lotta Shakin' Coin' On
26. Этот город
27. Старый отель

Дополнительно:

Intro. Желтые ботинки
Stand By Me
Гитаромания
Фотоотчет
Издание содержит 16-страничный буклет с фотографиями

BDInfo

DISC INFO:
Disc Title: BRAVO_HDCLUB
Disc Size: 42 940 713 600 bytes
Protection: AACS
BD-Java: Yes
Extras: 50Hz Content
BDInfo: 0.5.8
PLAYLIST REPORT:
Name: 00003.MPLS
Length: 2:00:40.120 (h:m:s.ms)
Size: 25 915 398 144 bytes
Total Bitrate: 28,64 Mbps
VIDEO:
Codec Bitrate Description
----- ------- -----------
MPEG-4 AVC Video 21000 kbps 1080i / 25 fps / 16:9 / High Profile 4.1
AUDIO:
Codec Language Bitrate Description
----- -------- ------- -----------
Dolby TrueHD Audio Russian 4601 kbps 5.1 / 48 kHz / 4601 kbps / 24-bit (AC3 Embedded: 5.1 / 48 kHz / 320 kbps)
Dolby Digital Audio Russian 640 kbps 5.1 / 48 kHz / 640 kbps / DN -4dB
SUBTITLES:
Codec Language Bitrate Description
----- -------- ------- -----------
Presentation Graphics Russian 0,034 kbps
FILES:
Name Time In Length Size Total Bitrate
---- ------- ------ ---- -------------
00005.M2TS 0:00:00.000 2:00:40.120 25 915 398 144 28 635
Скриншоты:
     
     

UndegraundMen

Пост 13-Дек-2013 11:01

[Цитировать]

Scorpions - MTV Unplugged In Athens (2013) DVD9- Год выпуска: 2013
Страна: Германия
Жанр: Hard Rock/Acoustic
Перевод: Отсутствует
Субтитры: Отсутствуют
Описание фильма:
В сентябре Scorpions отыграли концерты в Афинах в рамках "MTV Unplugged - Scorpions Live In Athens" в Lycabettus Theatre. Впервые в истории проведения "MTV Unplugged", концерт состоится на открытом воздухе. В ходе выступления коллектив исполнил свои самые громкие хиты, альбомную классику и ряд эксклюзивных новых композиций в традиционной для "MTV Unplugged" аранжировки. "MTV Unplugged - Scorpions Live In Athens" будет выпущен до конца года на CD, DVD и Blu-ray disc.
Состав:
Klaus Meine - вокал
Rudolf Schenker - гитара
Matthias Jabs - гитара
Pawel Maciwoda - бас
James Kottak - ударные
Продолжительность: 02:09:44+00:41:41
Качество видео: DVD9
Видеокодек: MPEG-2
Битрейт видео: ~4485 kbps
Размер кадра: NTSC 16:9 (720x480)
Аудио 1: AC3, 2 ch, 224 kbps
Аудио 2: AC3, 6 ch, 448 kbps
Аудио 3: DTS, 6 ch, 755 kbps
Дополнительно: Making of Documentary

Треклист:

Треклист:
01. Sting In The Tail
02. Can't Live Without You
03. Pictured Life
04. Speedy's Coming
05. Born To Touch Your Feelings
06. The Best Is Yet to Come
07. Dancing With The Moonlight
08. In Trance (with Cäthe)
09. When You Came Into My Life
10. Delicate Dance (Matthias Solo)
11. Love Is The Answer (Rudolf Solo)
12. Follow Your Heart (Klaus Solo)
13. Send Me An Angel
14. Where The River Flows
15. Passion Rules The Game
16. Rock You Like A Hurricane (with Johannes Strate)
17. Hit Between The Eyes
18. Drum-Athenica, PiTTi vs. James
19. Rock 'n' Roll Band
20. Blackout
21. Still Loving You
22. Big City Nights
23. Wind Of Change (with Morten Harket)
24. No One Like You
25. When The Smoke Is Going Down
26. Credits

MediaInfo:

Общее
Полное имя : Scorpions.MTV.Unplugged.2013.DVD9\VIDEO_TS\VTS_01_1.VOB
Формат : MPEG-PS
Размер файла : 1024 Мбайт
Продолжительность : 23 м.
Режим общего битрейта : Переменный
Общий поток : 6031 Кбит/сек
Видео
Идентификатор : 224 (0xE0)
Формат : MPEG Video
Версия формата : Version 2
Профиль формата : [email protected]
Параметр BVOP формата : Да
Параметр матрицы формата : Выборочная
Параметр GOP формата : Variable
Продолжительность : 23 м.
Вид битрейта : Переменный
Битрейт : 4485 Кбит/сек
Максимальный битрейт : 9800 Кбит/сек
Ширина : 720 пикселей
Высота : 480 пикселей
Соотношение сторон : 16:9
Частота кадров : 29,970 кадров/сек
Стандарт вещания : NTSC
Цветовое пространство : YUV
Субдискретизация насыщенности : 4:2:0
Битовая глубина : 8 бит
Тип развёртки : Прогрессивная
Порядок развёртки : Верхнее поле первое
Метод сжатия : С потерями
Бит/(Пиксели*Кадры) : 0.433
TimeCode_FirstFrame : 00:00:00;00
TimeCode_Source : Group of pictures header
Размер потока : 761 Мбайт (74%)
Аудио #1
Идентификатор : 189 (0xBD)-128 (0x80)
Формат : AC-3
Формат/Информация : Audio Coding 3
Расширение режима : CM (complete main)
Параметр Endianness формата : Big
Режим смешивания : DVD-Video
Продолжительность : 23 м.
Вид битрейта : Постоянный
Битрейт : 224 Кбит/сек
Каналы : 2 канала
Расположение каналов : Front: L R
Частота : 48,0 КГц
Битовая глубина : 16 бит
Метод сжатия : С потерями
Размер потока : 38,0 Мбайт (4%)
Аудио #2
Идентификатор : 189 (0xBD)-129 (0x81)
Формат : AC-3
Формат/Информация : Audio Coding 3
Расширение режима : CM (complete main)
Параметр Endianness формата : Big
Режим смешивания : DVD-Video
Продолжительность : 23 м.
Вид битрейта : Постоянный
Битрейт : 448 Кбит/сек
Каналы : 6 каналов
Расположение каналов : Front: L C R, Side: L R, LFE
Частота : 48,0 КГц
Битовая глубина : 16 бит
Метод сжатия : С потерями
Размер потока : 76,0 Мбайт (7%)
Аудио #3
Идентификатор : 189 (0xBD)-138 (0x8A)
Формат : DTS
Формат/Информация : Digital Theater Systems
Режим : 16
Параметр Endianness формата : Big
Режим смешивания : DVD-Video
Продолжительность : 23 м.
Вид битрейта : Постоянный
Битрейт : 755 Кбит/сек
Каналы : 6 каналов
Расположение каналов : Front: L C R, Side: L R, LFE
Частота : 48,0 КГц
Битовая глубина : 24 бит
Метод сжатия : С потерями
Размер потока : 128 Мбайт (13%)
Меню

DVDInfo:

Title: Scorpions.MTV.Unplugged.2013.DVD9
Size: 7.04 Gb ( 7 385 934,00 KBytes ) - DVD-9
Enabled regions: 1, 2, 3, 4, 5, 6, 7, 8
VTS_01 :
Play Length: 02:09:44
Video: NTSC 16:9 (720x480) VBR, Auto Letterboxed
Audio:
  • English (Dolby AC3, 2 ch)
  • English (Dolby AC3, 6 ch)
  • English (DTS, 6 ch)
    VTS_02 :
    Play Length: 00:41:41
    Video: NTSC 16:9 (720x480) VBR, Auto Letterboxed
    Audio:
  • English (Dolby AC3, 2 ch)
    VTS_03 :
    Play Length: 00:00:22
    Video: NTSC 16:9 (720x480) VBR, Auto Letterboxed
    * Menus Information *
    VIDEO_TS Menu
    Video:
  • NTSC 16:9 (720x480) VBR
  • Auto Letterboxed
    Audio:
  • Not specified (Dolby AC3, 2 ch)
    English Language Unit :
  • Title Menu
    VTS_01 Menu
    Video:
  • NTSC 16:9 (720x480) VBR
  • Auto Letterboxed
    Audio:
  • Not specified (Dolby AC3, 2 ch)
    English Language Unit :
  • Root Menu
  • Audio Menu
  • Chapter (PTT) Menu
    VTS_02 Menu
    Video:
  • NTSC 16:9 (720x480) VBR
  • Auto Letterboxed
    English Language Unit :
  • Root Menu
    VTS_03 Menu
    Video:
  • NTSC 4:3 (720x480) VBR
  • Auto Pan&Scan, Auto Letterboxed
    Language Unit :
  • Chapter (PTT) Menu

Меню DVD:

     
Скриншоты:
       
       
Время раздачи: Обычно с 19:00 до 00:00

UndegraundMen

Пост 13-Дек-2013 11:01

[Цитировать]

The Mahavishnu Orchestra / Live At Montreux 1984 (2007) DVD9- Год выпуска: 2007
Жанр: Jazz Fusion, Progressive Rock, Psychedelic Rock, Raga Rock
Треклист:
01 Radio-Activity
02 Nostalgia
03 East Side, West Side
04 Clarendon Hills
05 Medley:
Blues For L.W.
It's The Pits
Living On The Crest Of A Wave
Jozy
Pacific Express
Mitch Match
Mitch Match (Reprise)
Состав:
Bass – Jonas Hellborg
Drums – Danny Gottlieb
Guitar – John McLaughlin
Keyboards – Mitchell Forman
Saxophone – Bill Evans
Описание:
Предлагаемое издание состоит из двух дисков : один - в 1984 году (есть), второй - в 1974 году (которого нет, увы!)
Из Википедии:
The Mahavishnu Orchestra — влиятельная группа прогрессивного рока, образованная в Нью-Йорке в 1971 году британским гитаристом Джоном Маклафлином. Группа находилась в авангарде движения джаз-рок-фьюжн и исполняла сложную многоплановую музыку (с элементами тяжелого психоделического рока и индийских влияний), отмеченную импровизационным разнообразием и виртуозностью всех её участников. Джон Маклафлин, барабанщик Билли Кобэм, скрипач Жан-Люк Понти в 1970-х годах неоднократно возглавляли списки лучших инструменталистов каждый в своей категории. The Mahavishnu Orchestra, выпустив пять альбомов (первые два из которых, The Inner Mounting Flame и Birds of Fire считаются классикой направления джаз-фьюжн), распались в 1976 году. В 1984 году Маклафлин возродил состав, который просуществовал три года.
Музыкальное мировоззрение Маклафлина было во многом сформировано его занятиями с индийским гуру Шри Чинмоем, который и дал ему духовное имя «Махавишну». У Маклафлина были собственные, необычные для того времени идеи композиционных структур и роли тех или иных инструментов в них. В частности, он считал, что скрипка должна играть равную с другими инструментами роль в аранжировках.
По мере развития группы гитарист перешел на ставшую впоследствии фирменной для него гитарой с двойным грифом (шесть струн и 12 струн) что позволило ему достичь необычайно разнообразия и размаха в звучании. Хаммер кроме того был одним из первых, кто использовал мини-муг синтезатор, на котором нередко исполнял сольные партии, соперничавшие по степени значимости с гитарными и скрипичными.
Продолжительность: 01:53:53
Качество видео: DVD9
Видеокодек: MPEG-2
Битрейт видео: ~5403 kb/s
Размер кадра: 720x576 (4:3) PAL
Audio#1: PCM 2.0, 1536 kb/s
Audio#2: DTS 6.0, 755 kb/s
Audio#3: AC3 6.0, 448 kb/s
Скриншоты:              

Скриншоты меню:

     

Covers, Inside, Inlay:

MediaInfo:

Общее
Полное имя : D:\The Mahavishnu Orchestra\VIDEO_TS\VTS_03_3.VOB
Формат : MPEG-PS
Размер файла : 1024 Мбайт
Продолжительность : 19 м.
Режим общего битрейта : Переменный
Общий поток : 7450 Кбит/сек
Видео
Идентификатор : 224 (0xE0)
Формат : MPEG Video
Версия формата : Version 2
Профиль формата : [email protected]
Параметр BVOP формата : Да
Параметр матрицы формата : Выборочная
Параметр GOP формата : M=3, N=12
Продолжительность : 19 м.
Вид битрейта : Переменный
Битрейт : 4563 Кбит/сек
Максимальный битрейт : 7500 Кбит/сек
Ширина : 720 пикселей
Высота : 576 пикселей
Соотношение сторон : 4:3
Частота кадров : 25,000 кадров/сек
Стандарт вещания : PAL
Цветовое пространство : YUV
Субдискретизация насыщенности : 4:2:0
Битовая глубина : 8 бит
Тип развёртки : Чересстрочная
Порядок развёртки : Верхнее поле первое
Метод сжатия : С потерями
Бит/(Пиксели*Кадры) : 0.440
Временной код первого кадра : 00:34:14:22
Оригинал временного кода : Group of pictures header
Размер потока : 627 Мбайт (61%)
Основные цвета : BT.601 PAL
Характеристики трансфера : BT.470 System B, BT.470 System G
Коэффициенты матрицы : BT.601
Аудио #1
Идентификатор : 189 (0xBD)-129 (0x81)
Формат : AC-3
Формат/Информация : Audio Coding 3
Расширение режима : CM (complete main)
Параметр Endianness формата : Big
Режим смешивания : DVD-Video
Продолжительность : 19 м.
Вид битрейта : Постоянный
Битрейт : 448 Кбит/сек
Каналы : 6 каналов
Расположение каналов : Front: L C R, Side: L R, LFE
Частота : 48,0 КГц
Битовая глубина : 16 бит
Метод сжатия : С потерями
Задержка видео : -224 мс.
Размер потока : 61,6 Мбайт (6%)
Аудио #2
Идентификатор : 189 (0xBD)-138 (0x8A)
Формат : DTS
Формат/Информация : Digital Theater Systems
Режим : 16
Параметр Endianness формата : Big
Режим смешивания : DVD-Video
Продолжительность : 19 м.
Вид битрейта : Постоянный
Битрейт : 755 Кбит/сек
Каналы : 6 каналов
Расположение каналов : Front: L C R, Side: L R, LFE
Частота : 48,0 КГц
Битовая глубина : 24 бит
Метод сжатия : С потерями
Задержка видео : -309 мс.
Размер потока : 104 Мбайт (10%)
Аудио #3
Идентификатор : 189 (0xBD)-160 (0xA0)
Формат : PCM
Параметр Endianness формата : Big
Параметр Sign формата : Signed
Режим смешивания : DVD-Video
Продолжительность : 19 м.
Вид битрейта : Постоянный
Битрейт : 1536 Кбит/сек
Каналы : 2 канала
Частота : 48,0 КГц
Битовая глубина : 16 бит
Задержка видео : -328 мс.
Размер потока : 211 Мбайт (21%)
Меню
Время раздачи: 18:00 - 23:00

UndegraundMen

Пост 07-Дек-2013 07:28

[Цитировать]

Deep Purple - They All Game Down To Moscow. (2013, Олимпийский) CAMRip->DVD9- Год выпуска: 2013
Жанр: Progressive, Hard rock, Heavy metall
Продолжительность: 01:49:07
Язык: Английский
Перевод: Отсутствует
Cубтитры: Отсутствуют
Состав группы:
Иэн Гиллан (вокал),
Стив Морс (гитара),
Дон Эйри (клавиши),
Роджер Гловер (бас),
Иэн Пэйс (ударные)
Описание:
Выступление легендарной группы Deep Purple, в рамках осенне-зимнего гастрольного тура в Москве, 6 ноября 2013 года, СК Олимпийский. Cьёмка фан-клуба "PurpleShade" с трёх камер.
Релиз группа: PurpleShade
Качество видео: CAMRip->DVD9
Видеокодек: MPEG-2
Битрейт видео: ~ 7465.29 Кбит/сек
Размер кадра: NTSC 16:9, 720х480
Аудио: AC3, 2/0 (L,R) ch, 192 kbps

Треклист

Треклист:
01. Apres Vous
02. Into the Fire
03. Hard Lovin' Man
04. Vincent Price
05. Strange Kind of Woman
06. Contact Lost
07. Uncommon Man
08. The Well-Dressed Guitar
09. The Mule
10. Above and Beyond
11. Lazy
12. Hell to Pay
13. Keyboard Solo
14. Perfect Strangers
15. Space Truckin'
16. Smoke on the Water
17. Green Onions
18. Hush
19. Bass Solo
20. Black Night
Скриншоты:
         -

Дополнительные скриншоты:

         

DVDInfo:

Title: DVD
Size: 6.74 Gb ( 7 067 386,00 KBytes ) - DVD-9
Enabled regions: 1, 2, 3, 4, 5, 6, 7, 8
VTS_01 :
Play Length: 00:00:08
Video: NTSC 4:3 (720x480) VBR
Audio:
  • Not specified (Dolby AC3, 2 ch)
    VTS_02 :
    Play Length: 01:49:06
    Video: NTSC 16:9 (720x480) VBR, Auto Letterboxed
    Audio:
  • Not specified (Dolby AC3, 2 ch)
    VTS_03 :
    Play Length: 00:09:08
    Video: NTSC 16:9 (720x480) VBR, Auto Letterboxed
    Audio:
  • Not specified (Dolby AC3, 2 ch)
    VTS_04 :
    Play Length: 00:12:07
    Video: NTSC 16:9 (720x480) VBR, Auto Letterboxed
    Audio:
  • Not specified (Dolby AC3, 2 ch)
    * Menus Information *
    VIDEO_TS Menu
    Video:
  • NTSC 16:9 (720x480) VBR
  • Auto Pan&Scan
    Audio:
  • Not specified (LinearPCM, 2 ch)
    English Language Unit :
  • Title Menu
    VTS_01 Menu
    Video:
  • NTSC 16:9 (720x480) VBR
  • Auto Letterboxed
    Audio:
  • Not specified (Dolby AC3, 2 ch)
    English Language Unit :
  • Root Menu
  • Chapter (PTT) Menu
    VTS_02 Menu
    Video:
  • NTSC 4:3 (720x480) VBR
  • Auto Pan&Scan, Auto Letterboxed
    English Language Unit :
  • Root Menu
  • Chapter (PTT) Menu
    VTS_03 Menu
    Video:
  • NTSC 4:3 (720x480) VBR
  • Auto Pan&Scan, Auto Letterboxed
    English Language Unit :
  • Root Menu
  • Chapter (PTT) Menu
    VTS_04 Menu
    Video:
  • NTSC 4:3 (720x480) VBR
  • Auto Pan&Scan, Auto Letterboxed
    English Language Unit :
  • Root Menu
  • Chapter (PTT) Menu
    Audio #1: AC3, 2/0 (L,R) ch, 192 kbps, Delay 0 mSec

Дополнительная информация:

В год своего 45-летнего юбилея культовая группа Deep Purple выпускает новый альбом «Now What?!» и отправляется в грандиозный мировой тур, охватывающий без малого всю планету. Москва может ликовать – у них есть шанс воочию оценить всю мощь родоначальников хард-рока!
«Now What?!» стал первым альбомом за «семь лет счастливого гастролирования», по словам Яна Гиллана, и этот диск, «записанный вне каких-либо музыкальных правил», отражает весь масштаб гения патриархов тяжелой музыки. Идеально сыгранная команда Deep Purple «зарядила» каждый из 11 новых треков по настоящему ядерной энергией, заставив их звучать свежо и актуально, без ущерба для своего фирменного саунда!
Продав более ста миллионов (!) пластинок, сыграв ключевую роль в развитии тяжелой музыки и оказав влияние на миллионы музыкантов и тысячи рок-групп, Deep Purple по-прежнему остается одним из самых ярких живых коллективов на планете. Каждый их концерт – это масштабное действо, наполненное импровизациями, неожиданными мелодичными ходами и невероятной энергией настоящего рока! И если при звуках раскатистых гитар ваше сердце начинает неровно биться, то вы просто обязаны посетить их концерт, чтобы понять, что у рока есть имя. И имя это - Deep Purple!
-Время раздачи: до первых 5 сидов, далее по возможности-

UndegraundMen

Пост 07-Дек-2013 07:28

[Цитировать]

Nightwish - Showtime, Storytime (2013) 2*DVD9- Год выпуска: 2013
Жанр: Symphonic Metal
Описание фильма:
Очередной DVD финских симфо-металистов Nightwish
На "Showtime, Storytime" содержится полная запись выступления NIGHTWISH на фестивале “Wacken Open Air” в немецком городе Вакен, состоявшееся 3 августа этого года в присутствии 85 тыс. зрителей. Режиссером выступил Вилле Липиайнен (Ville Lipiäinen), который задействовал для съемок 17 камер. Общая продолжительность концертной программы составляет 85 минут. Второй диск содержит 120-минутный документальный фильм о гастролях, который получил название "Please Learn The Setlist In 48 Hours". Его режиссером также выступил Вилле Липиайнен, который не поскупился на драматические и безумные моменты. Кроме того, на этом диске представлена 16-минутная запись турнира по настольному хоккею среди участников NIGHTWISH, сделанная на гастролях, и два видеоклипа "I Want My Tears Back" (концертная запись, сделанная в “Hartwall Arena” в Хельсинки) и "Ghost Love Score" (концертная запись, сделанная в Буэнос-Айресе).
Выступление на “Wacken Open Air” было первым из трех последних шоу мирового тура NIGHTWISH в поддержку альбома "Imaginaerum”, в ходе которого группа и ее голландская вокалистка Флор Янсен (Floor Jansen, REVAMP, ex-AFTER FOREVER) дали 104 концерта в 34 странах, а общее число посмотревших выступления зрителей превысило 1,5 млн. человек.
Режиссер: Вилле Липиайнен
Состав: Флор Янсен, Туомас Холопайнен, Марко Хиетала, Эрно Вуоринен, Юкка Невалайнен, Трой Донокли
Продолжительность: концерт 01:34:11, документальный фильм 1:55:20
Качество видео: DVD9
Перевод: Отсутствует
Язык: Английский, Финский
Язык субтитров: Английский
Вид субтитров: Вшитые отключаемые
Дата выхода DVD релиза: 29.11.13
Видеокодек: MPEG-2
Битрейт видео: ~9000 kb/s
Размер кадра: [email protected]:9 (1024x576)
Аудио №1: AC3, 6ch, 48 kHz, 448 kb/s
Аудио №2: LPCM, 2ch, 48 kHz, 1536 kb/s

MediaInfo

DVD 1

Title: DVD 1
Size: 6.82 Gb ( 7 147 404,00 KBytes ) - DVD-9
Enabled regions: 1, 2, 3, 4, 5, 6
VTS_01 :
Play Length: 00:00:10+00:00:43
Video: PAL 16:9 (720x576) VBR, Auto Letterboxed
Audio:
  • Not specified (LinearPCM, 2 ch)
    VTS_02 :
    Play Length: 01:34:11
    Video: PAL 16:9 (720x576) VBR, Auto Letterboxed
    Audio:
  • Not specified (LinearPCM, 2 ch)
  • Not specified (Dolby AC3, 6 ch)
    VTS_03 :
    Play Length: 00:05:14+00:10:34
    Video: PAL 16:9 (720x576) VBR, Auto Letterboxed
    Audio:
  • Not specified (LinearPCM, 2 ch)

DVD 2

Title: DVD 2
Size: 7.49 Gb ( 7 854 478,00 KBytes ) - DVD-9
Enabled regions: 1, 2, 3, 4, 5, 6
VTS_01 :
Play Length: 00:00:10+00:00:43
Video: PAL 16:9 (720x576) VBR, Auto Letterboxed
Audio:
  • Not specified (LinearPCM, 2 ch)
    VTS_02 :
    Play Length: 01:55:23
    Video: PAL 16:9 (720x576) VBR, Auto Letterboxed
    Audio:
  • Not specified (LinearPCM, 2 ch)
    Subtitles:
  • English
    VTS_03 :
    Play Length: 00:15:54+00:03:31
    Video: PAL 16:9 (720x576) VBR, Auto Letterboxed
    Audio:
  • Not specified (LinearPCM, 2 ch)
    Subtitles:
  • English

Треклист

DVD 1:
Треклист:
1."Dark Chest Of Wonders" 4:33
2."Wish I Had An Angel"-4:49
3."She Is My Sin"-4:55
4."Ghost River" -6:05
5."Ever Dream"-5:21
6."Storytime"-5:38
7."I Want My Tears Back"-6:44
8."Nemo"-4:45
9."Last Of The Wilds"-6:32
10."Bless The Child"-7:06
11."Romanticide"-5:40
12."Amaranth"-4:26
13."Ghost Love Score"-10:31
14."Song Of Myself"-7:53
15."Last Ride Of The Day"-4:34
16."Outro: Imaginaerum"-6:16
Бонус:
17. "I Want My Tears Back" (Live From Helsinki)
18. "Ghost Love Score" (Live From Buenos Aires)
DVD 2:
1."Please Learn The Setlist In 48 Hours (Док.фильм "Пожалуйста, выучи сэт-лист за 48 часов")-1:57:41
2."Nightwish Table Hockey Tournament" (Bonus)-15:53
3."Christmas Song For A Lonely Documentarist" (Bonus)-3:31
Скриншоты:

Меню

     
             
Время раздачи: c 10:00 до 14:00 и с 22:00 до 24:00

UndegraundMen

Пост 28-Ноя-2013 16:42

[Цитировать]

Black Sabbath - Live... Gathered In Their Masses (2013) DVD9- Год выпуска: 2013
Жанр: Heavy Metal/Hard Rock
Перевод: Отсутствует
Субтитры: Отсутствуют
Описание фильма:
После камбэка с альбомом "13" Black Sabbath отправились в гастрольное турне. Одним из самых запоминающихся концертов в туре стали выступления на Зелёном Континенте. 29 апреля и 1 мая 2013 года у музыкантов прошло 2 концерта в Мельбурне, которые надолго запомнились всем австралийцам. Black Sabbath решили, что было бы замечательно выпустить CD/DVD и Blu-ray с записью этих выступлений. Уникальный диск под названием «Black Sabbath: Live…Gathered in Their Masses» вышел в ноябре. На нём великолепно передана неповторимая атмосфера живого концерта, когда музыка Black Sabbath встречает живой отклик в сердцах поклонников.
Состав:
Tony Iommi – гитара
Geezer Butler – бас
Ozzy Osbourne – вокал
Приглашённые музыканты:
Adam Wakeman – клавишные
Tommy Clufetos – ударные
Продолжительность: 01:46:53
Качество видео: DVD9
Видеокодек: MPEG-2
Битрейт видео: ~6000 kbps
Размер кадра: NTSC 16:9 (720x480)
Аудио 1: LPCM, 2 ch, 1536 kbps
Аудио 2: AC3, 6 ch, 448 kbps
Аудио 3: DTS, 6 ch, 1510 kbps

Треклист:

Треклист:
01. Introduction
02. War Pigs
03. Into the Void
04. Loner
05. Snowblind
06. Black Sabbath
07. Behind the Wall of Sleep
08. N.I.B.
09. Methademic
10. Fairies Wear Boots
11. Symptom of the Universe
12. Iron Man
13. End of the Beginning
14. Children of the Grave
15. God is Dead?
16. Sabbath Bloody Sabbath (Intro)/Paranoid
17. Credits

MediaInfo:

Общее
Полное имя : Black.Sabbath.Live.Gathered.In.Their.Masses.2013.DVD9\VIDEO_TS\VTS_01_2.VOB
Формат : MPEG-PS
Размер файла : 1024 Мбайт
Продолжительность : 14 м.
Общий поток : 9680 Кбит/сек
Видео
Идентификатор : 224 (0xE0)
Формат : MPEG Video
Версия формата : Version 2
Профиль формата : [email protected]
Параметр BVOP формата : Да
Параметр матрицы формата : Выборочная
Параметр GOP формата : Variable
Продолжительность : 14 м.
Битрейт : 6000 Кбит/сек
Ширина : 720 пикселей
Высота : 480 пикселей
Соотношение сторон : 16:9
Частота кадров : 29,970 кадров/сек
Стандарт вещания : NTSC
Цветовое пространство : YUV
Субдискретизация насыщенности : 4:2:0
Битовая глубина : 8 бит
Тип развёртки : Чересстрочная
Порядок развёртки : Нижнее поле первое
Метод сжатия : С потерями
Бит/(Пиксели*Кадры) : 0.579
TimeCode_FirstFrame : 01:14:46:29
TimeCode_Source : Group of pictures header
Размер потока : 634 Мбайт (62%)
Аудио #1
Идентификатор : 189 (0xBD)-129 (0x81)
Формат : AC-3
Формат/Информация : Audio Coding 3
Расширение режима : CM (complete main)
Параметр Endianness формата : Big
Режим смешивания : DVD-Video
Продолжительность : 14 м.
Вид битрейта : Постоянный
Битрейт : 448 Кбит/сек
Каналы : 6 каналов
Расположение каналов : Front: L C R, Side: L R, LFE
Частота : 48,0 КГц
Битовая глубина : 16 бит
Метод сжатия : С потерями
Задержка видео : -688 мс.
Размер потока : 47,4 Мбайт (5%)
Аудио #2
Идентификатор : 189 (0xBD)-138 (0x8A)
Формат : DTS
Формат/Информация : Digital Theater Systems
Режим : 16
Параметр Endianness формата : Big
Режим смешивания : DVD-Video
Продолжительность : 14 м.
Вид битрейта : Постоянный
Битрейт : 1510 Кбит/сек
Каналы : 6 каналов
Расположение каналов : Front: L C R, Side: L R, LFE
Частота : 48,0 КГц
Битовая глубина : 24 бит
Метод сжатия : С потерями
Задержка видео : -731 мс.
Размер потока : 160 Мбайт (16%)
Аудио #3
Идентификатор : 189 (0xBD)-160 (0xA0)
Формат : PCM
Параметр Endianness формата : Big
Параметр Sign формата : Signed
Режим смешивания : DVD-Video
Продолжительность : 14 м.
Вид битрейта : Постоянный
Битрейт : 1536 Кбит/сек
Каналы : 2 канала
Частота : 48,0 КГц
Битовая глубина : 16 бит
Задержка видео : -742 мс.
Размер потока : 162 Мбайт (16%)
Меню

DVDInfo:

Title: VIDEO_TS
Size: 7.56 Gb ( 7 929 236,00 KBytes ) - DVD-9
Enabled regions: 1, 2, 3, 4, 5, 6, 7, 8
VTS_01 :
Play Length: 01:46:53
Video: NTSC 16:9 (720x480) VBR, Auto Letterboxed
Audio:
  • English (LinearPCM, 2 ch)
  • English (Dolby AC3, 6 ch)
  • English (DTS, 6 ch)
    VTS_02 :
    Play Length: 00:00:06+00:00:12+00:00:06
    Video: NTSC 16:9 (720x480) VBR, Auto Letterboxed
    Audio:
  • English (Dolby AC3, 2 ch)
    * Menus Information *
    VIDEO_TS Menu
    Video:
  • NTSC 16:9 (720x480) VBR
  • Auto Letterboxed
    English Language Unit :
  • Title Menu
    VTS_01 Menu
    Video:
  • NTSC 16:9 (720x480) VBR
  • Auto Letterboxed
    Audio:
  • Not specified (Dolby AC3, 6 ch)
    English Language Unit :
  • Root Menu
    VTS_02 Menu
    Video:
  • NTSC 16:9 (720x480) VBR
  • Auto Letterboxed
    English Language Unit :
  • Root Menu

Меню DVD:

     
Скриншоты:
       
       
Время раздачи: Обычно с 19:00 до 00:00

UndegraundMen

Пост 27-Ноя-2013 11:08

[Цитировать]

Doro - 25 Years In Rock... And Still Going Strong (2010) 2хDVD5- Жанр: Heavy Metal
Продолжительность: 04:55:16
Год выпуска: 2010
Лейбл: Nuclear Blast
Разбивка на главы по трекам: есть
Качество : 2хDVD5 (сжатый)
Формат: DVD video
Видео: 720 x [email protected] (NTSC 16:9) at 23.976 fps, ~4021 Kbps
Аудио: 48 kHz AC-3 Dolby Digital 6 ch 448.00 kbps avg
Процент сжатия: DVD 1 34% DVD 2 30%
Язык субтитров: Немецкий, Английский
Описание:
На этот двойной DVD вошла полная запись (два с половиной часа) концерта в Дюссельдорфе, посвящённого 25-летию сценической деятельности Доро. Певица вышла на сцену вместе с такими "гостями", как Klaus Meine & Rudolf Schenker (The Scorpions), Tarja Turunen (ex-Nightwish), Bobby Blitz (Overkill), Warrel Dane (Nevermore), Axel Rudi Pell, Chris Boltendahl (Grave Digger), Marc Storace (Krokus), Schmier [hide=Дополнительные материалы] Kristine (Leaves Eyes), Sabina Classen & Holy Moses, Floor Jansen (ReVamp), Tom Angelripper, Enid Williams (Girlscbool) и др.

Дополнительные материалы

На втором DVD - ещё два часа интереснейшего материала, включающего специальные съемки из Китая, фрагменты выступлений на фестивалях и на телевидении, интервью.

Треклист

DVD -1: 02:35:17
The Concert Треклист:
01. Intro
02. Earthshaker Rock
03. I Rule The Ruins
04. You're My Family
05. The Night Of The Warlock
06. Hellraiser
07. Always Live To Win (feat. Bobby Blitz)
08. Above The Ashes
09. She's Like Thunder
10. Herzblut
11. Fur Immer
12. Burn It Up (feat. Jean Beauvoir)
13. Metal Tango
14. Drum Solo by Johnny Dee
15. Celebrate (Full Metal Female Version) (feat.Sabina Classen, Floor Jansen, Liv Kristine, Ji-In Cho, Liv Jagrell, Jackie Chambers, Enid Williams)
16. Love Me In Black
17. Walking With The Angels (feat. Tarja Turunen)
18. East Meets West (feat. Chris Boltendahl and Axel Rudi Pell)
19. Breaking The Law
20. Big City Nights (feat. Klaus Meine and Rudolf Schenker)
21. Rock You Like A Hurricane (feat. Klaus Meine and Rudolf Schenker)
22. Fight For Rock (Warlock Line-Up 1986)
23. Burning The Witches (Warlock Line-Up 1986)
24. True As Steel (Warlock Line-Up 1986) (feat. Warrel Dane)
25. Unholy Love (feat. Honza K. Behunek)
26. Fight
27. All We Are (feat. all guests of this special night and a lot of good friends)
28. Outro
DVD-2: 02:19:59
The Documentary
01. Intro
02. From Concept To Creation
03. Soundcheck
04. Ready to Go
05. Earthshaker Rock
06. I Rule The Ruins
07. You're My Family
08. Making Of The Warlock
09. The Night Of The Warlock
10. Always Live To Win
11. Above The Ashes
12. She's Like Thunder
13. Herzblut
14. Fur Immer
15. Burn It Up
16. Celebrate (Full Metal Female Version)
17. Love Me In Black
18. Walking With The Angels
19. East Meets West
20. Big City Nights
21. Rock You Like A Hurricane
22. Fight For Rock
23. True As Steel
24. Hellbound
25. Unholy Love
26. Fans International
27. All We Are / Grand Finale
28. The Show Is Over
29. After The Show
30. Outro
Extra Features, Highlights & Bonus Goodies:
* 2500th Concert Special (feat. extracts
of I Rule The Ruins, Danke, Burning The Witches
(with Andy Brings), Burn Bitch Burn, We Are The
Metalheads (with Schmier), On My Own (with Luke
Gasser and Marc Storace), You_re My Family &
Unholy Love)
* China Special
Wacken Open Air 2009:
1. I Rule The Ruins
2. Burning The Witches
3. Burn It Up
Bang Your Head 2010:
1. Egypt [The Chains Are On]
2. Running From The Devil
Summer Breeze 2007:
1. You're My Family (feat. Chris Caffery)
Metal Female Voices Fest 2009:
1. True As Steel
2. Hellbound
3. We Are The Metalheads
* TV Special: 2500th Concert
* TV Special: A tattoo from Doro at Germany Ink

Медиаинфо

DVD1

Общее
Полное имя : D:\DORO\DVD 1\VIDEO_TS\VTS_04_2.VOB
Формат : MPEG-PS
Размер файла : 1024 Мегабайт
Продолжительность : 35 м.
Общий поток : 4021 Кбит/сек
Видео
Идентификатор : 224 (0xE0)
Формат : MPEG Video
Версия формата : Version 2
Профайл формата : [email protected]
Параметры матрицы формата : По умолчанию
Продолжительность : 35 м.
Вид битрейта : Переменный
Битрейт : 3413 Кбит/сек
Номинальный битрейт : 7700 Кбит/сек
Ширина : 720 пикс.
Высота : 480 пикс.
Соотношение кадра : 16:9
Частота кадров : 23,976 кадр/сек
Стандарт вещания : NTSC
Колориметрия : 4:2:0
Тип развёртки : Прогрессивная
Порядок развёртки : 2:3 Pulldown
Бит/(Пиксели*Кадры) : 0.412
Размер потока : 869 Мегабайт (85%)
Аудио
Идентификатор : 129 (0x81)
Формат : AC-3
Формат/Информация : Audio Coding 3
Продолжительность : 35 м.
Вид битрейта : Постоянный
Битрейт : 448 Кбит/сек
Канал(ы) : 6 канала(ов)
Расположение каналов : Front: L C R, Surround: L R, LFE
Частота : 48,0 КГц
Задержка видео : -363 мс.
Размер потока : 114 Мегабайт (11%)

DVD2

Общее
Полное имя : D:\DORO\DVD 2\VIDEO_TS\VTS_04_2.VOB
Формат : MPEG-PS
Размер файла : 1024 Мегабайт
Продолжительность : 31 м.
Общий поток : 4573 Кбит/сек
Видео
Идентификатор : 224 (0xE0)
Формат : MPEG Video
Версия формата : Version 2
Профайл формата : [email protected]
Параметры матрицы формата : По умолчанию
Продолжительность : 31 м.
Вид битрейта : Переменный
Битрейт : 3944 Кбит/сек
Номинальный битрейт : 7600 Кбит/сек
Ширина : 720 пикс.
Высота : 480 пикс.
Соотношение кадра : 16:9
Частота кадров : 23,976 кадр/сек
Стандарт вещания : NTSC
Колориметрия : 4:2:0
Тип развёртки : Прогрессивная
Порядок развёртки : 2:3 Pulldown
Бит/(Пиксели*Кадры) : 0.476
Размер потока : 883 Мегабайт (86%)
Аудио
Идентификатор : 129 (0x81)
Формат : AC-3
Формат/Информация : Audio Coding 3
Продолжительность : 31 м.
Вид битрейта : Постоянный
Битрейт : 448 Кбит/сек
Канал(ы) : 6 канала(ов)
Расположение каналов : Front: L C R, Surround: L R, LFE
Частота : 48,0 КГц
Задержка видео : -620 мс.
Размер потока : 100 Мегабайт (10%)
Скриншоты:

Скриншоты с меню:

DVD1
     
DVD2
         
DVD1          

DVD2

         

Полноразмерный скан обложки

Время раздачи: 24/7 (круглосуточно)

UndegraundMen

Пост 20-Ноя-2013 23:08

[Цитировать]

VA - 30 Jahre Formel Eins (Die Jubiläumsedition) (2013) 3xDVD9- Год выпуска: 2013
Жанр: Музыка
Производство: Sony Music
Описание:
5 апреля 1983 года на западном немецком телевидении появилась FORMEL EINS, пожалуй одна из лучших музыкальных передач. Она существовала с 5 апреля 1983 по 15 декабря 1990 года. В 1983 году передача напоминала дискотеку, только видео.Тогда появился один из символов - старая машина времён 50-х или 60-х годов. Первым ведущим был Питер Илманн. В 1984 году программа изменилась - теперь для практически для каждой группы ставился маленький спектакль - с декоррациями и, иногда, с актёрами. Именно тогда появились группа Ригера, Gazebo спел песню I LIKE SHOPIN (в клипе были задействованы актёры, один из которых изображал Шопена).
На смену Питеру в 1985 году пришёл Инголф Лак. В передаче выступают Modern Talking, Mico Mission, Moti Special (Thiers,Cretu). С 1986 по 1987 ведущая Стефани Тэкинг. Появляется пёс-хулиган Тизи, которого Стефани постоянно пытается наставить на путь истинный. Передача приобретает свой окончательный вид. Она нравиться всем, и детям (регулярно проводятся конкурсы на лучшее изображение Тизи), и взрослым. Выступают: Sandra, Mixed Emotions, ITALO DISCO. В 1988 году приходит Кай Бокинг. Тизи начинает распускаться (+ у него появляется девушка), чему ведущий потворствует. Выступают: Thiers+Cretu, Blue System, Thomas Anders. В 1990 году передача сильно упрощается - в эфире, в основном, видео-клипы напоминающие современные, студии уже практически не видно, Тизи прхлождается в тропиках. С января 1990 в Америке Кай Бокинг начинает мировое турне (Америка, Англия, Куба, Голландия, Франция, Венгрия, Испания, Синай, Египет, Лисабон, Германия и Гонконг). 15 декабря 1990 года (данные разнятся, есть сведения, что последний эфир был 08.12.1990 года, по другим 21.12.1990 года) в Гонконге FORMEL EINS последний раз вышла в эфир. Кай в караоке-баре в Гонконге, берет микрофон и поёт песню Фрэнка Синатры - My Way. Показаны видеоряды из 3-х лет Formel Eins с Каем. Затем Кай произносит: "... и больше, намного больше, чем это, я сделал этот путь Кая, пока!". Таким образом, последний эпизод Формулы 1 подходит к концу. Последней песней которая получила статус Хита была первая песня группы Enigma - Sadeness (12.11.90). Так один проект сменил другой. Несмотря на то, что с декабря 1990 года передача не выходила в эфир, клипы возглавлявшие хит парады с 1991 года по 1997 год выходили на видеосборниках Formel Eins. Видимо до 1997 года надеялись возобновить выпуски передачи, но потом, к сожалению, от этой идеи отказались. В 2004 году в Германии прошло шоу The Best Of FORMEL EINS со старыми музыкантами и ведущими (само шоу вёл Томас Андерс из Modern Talking). Заездами там был Тизи, последний раз его можно было увидеть вместе Каем Бокингом в 2009 году в рекламе коллекционного CD издания - Formel Eins Das Beste (грустный ролик вышел). В этом, 2013 году, к 5 апреля был выпущен документальный фильм про передачу с Питером Иллманном и коллекционное DVD издание - 30 Jahre Formel Eins, которое и предлагается Вашему вниманию. Это настоящая находка для ценителей и настоящих гурманов зарубежной популярной музыки восьмидесятых.
Продолжительность: 02:34:57 + 02:23:25 + 02:24:42
Качество видео: DVD9
Видеокодек: MPEG-2
Битрейт видео: ~7005.97 kbps avg
Размер кадра: PAL 4:3 (720x576) 25.000 fps
Аудиокодек: PCM
Битрейт аудио: 536 Kbps,48.0 KHz,2 channels

DVDinfo

DVD1

Size: 7.69 Gb ( 8 066 402,00 KBytes ) - DVD-9
Enabled regions: 1, 2, 3, 4, 5, 6, 7, 8
VTS_01 :
Play Length: 01:38:58+00:11:04+00:25:10+00:14:08+00:05:39+{02:34:57}
Video: PAL 4:3 (720x576) VBR
Audio:
  • Deutsch, LPCM, Delay = 0 mSec
    * Menus Information *
    VIDEO_TS Menu
    Video:
  • PAL 4:3 (720x576) VBR
    Audio:
  • Not specified (LinearPCM, 2 ch)
    Deutsch Language Unit :
  • Title Menu
    VTS_01 Menu
    Video:
  • PAL 4:3 (720x576) VBR
    Audio:
  • Not specified (LinearPCM, 2 ch)
    Deutsch Language Unit :
  • Root Menu
  • Subpicture Menu
  • Chapter (PTT) Menu

DVD2

Size: 7.09 Gb ( 7 439 596,00 KBytes ) - DVD-9
Enabled regions: 1, 2, 3, 4, 5, 6, 7, 8
VTS_01 :
Play Length: 01:51:48+00:07:33+00:16:17+02:23:25+{00:07:49}
Video: PAL 4:3 (720x576) VBR
Audio:
  • Deutsch, LPCM, Delay = 0 mSec
    * Menus Information *
    VIDEO_TS Menu
    Video:
  • PAL 4:3 (720x576) VBR
    Audio:
  • Not specified (LinearPCM, 2 ch)
    Deutsch Language Unit :
  • Title Menu
    VTS_01 Menu
    Video:
  • PAL 4:3 (720x576) VBR
    Deutsch Language Unit :
  • Root Menu
  • Subpicture Menu
  • Chapter (PTT) Menu

DVD3

Size: 7.78 Gb ( 8 154 522,00 KBytes ) - DVD-9
Enabled regions: 1, 2, 3, 4, 5, 6, 7, 8
VTS_01 :
Play Length: 02:05:57+00:04:01+00:14:45+{00:00:01}+{02:24:42}
Video: PAL 4:3 (720x576) VBR
Audio:
  • Deutsch, LPCM, Delay = 0 mSec
    VTS_02 :
    Play Length: 00:09:00+{00:09:00}
    Video: PAL 16:9 (720x576) VBR, Auto Letterboxed
    Audio:
  • Deutsch, LPCM, Delay = 0 mSec
    * Menus Information *
    VIDEO_TS Menu
    Video:
  • PAL 4:3 (720x576) VBR
    Audio:
  • Not specified (LinearPCM, 2 ch)
    Deutsch Language Unit :
  • Title Menu
    VTS_01 Menu
    Video:
  • PAL 4:3 (720x576) VBR
    Deutsch Language Unit :
  • Root Menu
  • Subpicture Menu
  • Chapter (PTT) Menu
    VTS_02 Menu
    Video:
  • PAL 16:9 (720x576) VBR
  • Auto Letterboxed
    Deutsch Language Unit :
  • Root Menu

Треклист

30 Jahre Formel Eins Vol.1

Треклист:
01 Last Night A D.J. Saved My Live - Indeep
02 Kleine Taschenlampe brenn' - Markus
03 Leuchtturm - Nena
04 Hey Matrosen - UKW
05 The Safety Dance - Men Without Hats
06 Codo (... duse im Sauseschritt) - DOF
07 Club Tropicana - Wham!
08 I Like Chopin - Gazebo
09 Dolce Vita - Ryan Paris
10 Rendezvous - Ich hab' Dich seit langem nicht gesehen - Jawoll
11 Katharine Katharine - Steinwolke
12 Hypnotic Tango - My Mine
13 25 Years - The Catch
14 Union Of The Snake - Duran Duran
15 Waterfront - Simple Minds
16 Din daa daa - George Kranz
17 Relax - Frankie Goes To Hollywood
18 Talking In Your Sleep - The Romantics
19 Girls Just Want To Have Fun - Cyndi Lauper
20 Break My Stride - Matthew Wilder
21 The Politics Of Dancing - Re-Flex
22 (Feels Like) Heaven - Fiction Factory
23 White Horse - Laid Back
24 Junge Roemer - Falco
25 25 Lovers - Jennifer Rush
26 Sounds Like A Melody - Alphaville
27 Two Tribes - Frankie Goes To Hollywood
28 Such A Shame - Talk Talk
29 Radio - Spliff
30 Disco Band - Scotch

30 Jahre Formel Eins Vol.2

01 You're My Heart, You're My Soul - Modern Talking
02 Cold Days, Hot Nights - Moti Special
03 Computerliebe (Die Module spielen verruckt) - Paso Doble
04 Our Darkness - Anne Clark
05 We Close Our Eyes - Go West
06 You're A Woman - Bad Boys Blue
07 19 - Paul Hardcastle
08 The Power Of Love - Huey Lewis & The News
09 Verliebte Jungs - Purple Schulz
10 On My Way In L.A. - Phil Carmen
11 Blue Night Shadow - Two Of Us
12 The Captain Of Her Heart - Double
13 Sonne in der Nacht - Peter Maffay
14 Faust auf Faust (Schimanski) - Klaus Lage Band
15 Shilly Shally - Fritz Brause
16 Sayonara (Don't Stop) - Lee Marrow
17 Ohne Dich (schlaf ich heut nacht nicht ein) - Munchener Freiheit
18 Kyrie - Mr. Mister
19 Love Missile F1-11 - Sigue Sigue Sputnik
20 Konig von Deutschland - Rio Reiser
21 The Sound of Musik - Falco
22 In The Army Now - Status Quo
23 (I Just) Died In Your Arms - Cutting Crew
24 Rock The Night - Europe
25 You Want Love (Maria, Maria...) - Mixed Emotions
26 Always The Sun - The Stranglers
27 Ich liebe Dich - Clowns & Helden
28 Walking Down Your Street - Bangles
29 Pressure Down - John Farnham
30 Just Around The Corner - Cock Robin

30 Jahre Formel Eins Vol.3

01 The Great Commandment - Camouflage
02 Uberdosis Gluck - Fux
03 Dance Little Sister - Terence Trent D'Arby
04 The Right Stuff - Bryan Ferry
05 Hot Girl - Sabrina
06 Here I Am - Dominoe
07 Okay! - O.K.
08 Sign Your Name - Terence Trent D'Arby
09 When Will I Be Famous? - Bros
10 She's A Lady - Les McKeown
11 Doctorin The House - Coldcut
12 Senza perderci di vista - Eros Ramazzotti
13 Boys And Girls - Mandy
14 I'm Not Scared - Eighth Wonder
15 Stop! - Sam Brown
16 Baby Don't Forget My Number - Milli Vanilli
17 Riding On A Train - The Pasadenas
18 Waiting For A Star To Fall - Boy Meets Girl
19 Baby I Love Your Way / Free Bird - Will To Power
20 Ain't No Sunshine - Bill Withers
21 Cuddly Toy - Roachford
22 The Way To Your Heart - Soulsister
23 The Look - Roxette
24 If Only I Could - Sydney Youngblood
25 Licence To Chill - Billy Ocean
26 All Around The World - Lisa Stansfield
27 Grand Piano - The Mixmaster

Дополнительные материалы

Disk 1

  • Joe Cocker - There Goes My Baby
  • Nena - Iegendwie, irgendwo, irgendwann
  • Jennifer Rush - Ring Of Ice
  • Feltman Tromelt - Healing
Полные версии видео
  • Cyndi Lauper - She Bop / Duran Duran - The Wild Boys
  • Jermanie Jackson & Pia Zadora - When Thea Rain Begins To Fall
  • Lionel Richie - Hello / Daryl Hall & John Oates - Out Of Touch
Бонус-видео
  • Michael jackson - Thriller

Disk 2

  • Moti Special - Don't Be Shy
  • Paso Doble - Herz an Herz
  • Rio Reiser - Junimond
Полные версии видео
  • Dead Or Alive - You Spin Me Round (Like A record)
  • Modern Talking Cheru, Cheri Lady
  • Mr. Mister Briken Wings
  • Whitney Houston - I Wanna Dance With Somebody
Depeche Mode
  • Everything Counts
  • Strangelove

Disk 3

  • Taylor Dayne - Prove Your Love
Полные версии видео
  • Bangles - Eternal Flame
  • David Hasselhoff - Looking For Freedom
  • Rick Astley - Never Gonna Give You Up
  • Blue System - My Bed Is Too Big
Интервью с Питером Иллманом (Peter Illmann)

Полноразмерные обложки

Скриншоты:

Скриншоты меню

Ещё скриншоты

Время раздачи: Сб-Вс с 09:00 до 23:30

UndegraundMen

Пост 20-Ноя-2013 11:41

[Цитировать]

The Rolling Stones: Sweet Summer Sun - Hyde Park Live (2013) DVD9- Выпущено: UK / Eagle Vision (EAGDV 027)
Год выпуска: 2013
Жанр: Classic Rock
Описание:
Историческое и триумфальное возвращение Ролинг Стоунз в Гайд-Парк вне всяких сомнений было событием лета. Более 100 тысяч исступлённых фанатов всех возрастов набились в парк на два захватывающих концерта под открытым небом, чтобы увидеть то, что Мик Джаггер, Кейт Ричардс, Чарли Уотс и Рони Вуд делают лучше всего. «Камни» представили 5 звёздных концертов, которым обе стороны – и фанаты, и критики - воздали свою хвалу. Запись собрана хит за хитом, где также присутствовал в качестве специального гостя бывший гитарист группы Мик Тэйлор в двух песнях. Этот ошеломляющий фильм-концерт – отличный путь, чтобы отпраздновать возвращение Ролинг Стоунз туда, где они воистину свои - живьём на сцене в своём родном городе.
Запись сделана в Гайд-Парке 6 и 13 июля 2013 года, дата официального релиза в Великобритании 11 ноября 2013 года.

Исполнители:
Mick Jagger – вокал, гитара, губная гармошка
Keith Richards – гитара, вокал
Ronnie Wood – гитара
Charlie Watts – ударные

Приглашённые исполнители:

Darryl Jones – бас-гитара
Chuck Leavell – клавишные, перкуссия, бэк-вокал
Bernard Fowler - перкуссия, бэк-вокал
Lisa Fischer - бэк-вокал
Bobby Keys - саксофон
Tim Ries - саксофон, клавишные
Matt Clifford - валторна, клавишные
Mick Taylor - гитара в "Midnight Rambler" и "(I Can't Get No) Satisfaction"

Треклист:

Треклист:
01. Start Me Up
02. It s Only Rock n Roll
03. Street Fighting Man
04. Ruby Tuesday
05. Doom And Gloom
06. Honky Tonk Women
07. You Got The Silver
08. Happy
09.Miss You
10. Midnight Rambler
11. Gimme Shelter
12. Jumpin Jack Flash
13. Sympathy For The Devil
14. Brown Sugar
15. You Can t Always Get What You Want
16. (I Can t Get No) Satisfaction.
Bonus Tracks:
1. Emotional Rescue
2. Paint It Black
3. Before They Make Me Run
Продолжительность: 01:57:39
Качество видео: DVD9
Формат: DVD video
Видео: MPEG2, NTSC 16:9 (720x480) VBR, ~5409 Kbps, 29.970 fps
Аудио #1: AC3 Dolby Digital, 2/0 (L,R) ch, 224 kbps, 48 kHz
Аудио #2: AC3 Dolby Digital, 3/2 (L,C,R,l,r) + LFE ch, 448 kbps, 48 kHz
Аудио #3: DTS, 3/2 (L,C,R,l,r) + LFE ch, 755 kbps, 48 kHz
-

DVDInfo

Код:
Title: The Rolling Stones - Sweet Summer Sun - Hyde Park Live (2013) DVD9
Size: 6.76 Gb ( 7 086 822,00 KBytes ) - DVD-9
Enabled regions: 1, 2, 3, 4, 5, 6, 7, 8
VTS_01 :
  Play Length: 00:00:17
  Video: NTSC 16:9 (720x480) VBR, Auto Letterboxed
  Audio:
      English (Dolby AC3, 2 ch)
VTS_02 :
  Play Length: 01:57:38+00:00:10+00:00:10
  Video: NTSC 16:9 (720x480) VBR, Auto Letterboxed
  Audio:
      English (Dolby AC3, 2 ch)
      English (Dolby AC3, 6 ch)
      English (DTS, 6 ch)
VTS_03 :
  Play Length: 00:14:51+{00:05:34}+00:05:09+{00:04:11}
  Video: NTSC 16:9 (720x480) VBR, Auto Letterboxed
  Audio:
      English (Dolby AC3, 2 ch)
      English (Dolby AC3, 6 ch)
      English (DTS, 6 ch)

MediaInfo

Код:
General
Complete name                            : R:\...\The Rolling Stones - Sweet Summer Sun - Hyde Park Live (2013) DVD9\VIDEO_TS\VTS_02_1.VOB
Format                                   : MPEG-PS
File size                                : 1 024 MiB
Duration                                 : 20mn 31s
Overall bit rate mode                    : Variable
Overall bit rate                         : 6 974 Kbps
Video
ID                                       : 224 (0xE0)
Format                                   : MPEG Video
Format version                           : Version 2
Format profile                           : [email protected]
Format settings, BVOP                    : Yes
Format settings, Matrix                  : Custom
Duration                                 : 20mn 31s
Bit rate mode                            : Variable
Bit rate                                 : 5 409 Kbps
Width                                    : 720 pixels
Height                                   : 480 pixels
Display aspect ratio                     : 16:9
Frame rate                               : 29.970 fps
Standard                                 : NTSC
Color space                              : YUV
Chroma subsampling                       : 4:2:0
Bit depth                                : 8 bits
Compression mode                         : Lossy
Bits/(Pixel*Frame)                       : 0.522
Stream size                              : 794 MiB (78%)
Audio #1
ID                                       : 189 (0xBD)-128 (0x80)
Format                                   : AC-3
Format/Info                              : Audio Coding 3
Mode extension                           : CM (complete main)
Format settings, Endianness              : Big
Muxing mode                              : DVD-Video
Duration                                 : 20mn 31s
Bit rate mode                            : Constant
Bit rate                                 : 224 Kbps
Channel(s)                               : 2 channels
Channel positions                        : Front: L R
Sampling rate                            : 48.0 KHz
Bit depth                                : 16 bits
Compression mode                         : Lossy
Delay relative to video                  : -49ms
Stream size                              : 32.9 MiB (3%)
Audio #2
ID                                       : 189 (0xBD)-129 (0x81)
Format                                   : AC-3
Format/Info                              : Audio Coding 3
Mode extension                           : CM (complete main)
Format settings, Endianness              : Big
Muxing mode                              : DVD-Video
Duration                                 : 20mn 31s
Bit rate mode                            : Constant
Bit rate                                 : 448 Kbps
Channel(s)                               : 6 channels
Channel positions                        : Front: L C R, Side: L R, LFE
Sampling rate                            : 48.0 KHz
Bit depth                                : 16 bits
Compression mode                         : Lossy
Delay relative to video                  : -49ms
Stream size                              : 65.8 MiB (6%)
Audio #3
ID                                       : 189 (0xBD)-138 (0x8A)
Format                                   : DTS
Format/Info                              : Digital Theater Systems
Muxing mode                              : DVD-Video
Duration                                 : 20mn 31s
Bit rate mode                            : Constant
Bit rate                                 : 755 Kbps
Channel(s)                               : 6 channels
Channel positions                        : Front: L C R, Side: L R, LFE
Sampling rate                            : 48.0 KHz
Bit depth                                : 16 bits
Compression mode                         : Lossy
Delay relative to video                  : -49ms
Stream size                              : 111 MiB (11%)
Menu
-Скриншоты:
       
-

Ещё скриншоты:

       

Скриншоты меню:

       

Коврики

       
       
-
 

Текущее время: Сегодня 09:04

Часовой пояс: GMT + 3