Сегодня идет свободное скачивание без начисления Download

Результатов поиска: 5

Автор Сообщение

Владимирский

Пост 03-Июл-2015 22:40

[Цитировать]

Первые Европейские игры в Баку 2015. Церемония закрытия

Год выпуска: 2015
Вид спорта: летние виды спорта
Участники: 50 стран мира
Продолжительность: 02:02:41
Комментарий: Профессиональный (дублированный) | Дмитрий губерниев, канал Спорт 1 HD
Язык: русский
Описание: На олимпийском стадионе в Баку, в воскресенье вечером, состоялась церемония закрытия Европейский игр. В незабываемом театральном представлении участвовало около 1500 тысяч задействованных артистов и волонтеров. А днем в воскресенье разыгрывались последние комплекты медалей. России завоевала 3 медали, одну из них — медаль высшей пробы в пляжном футболе. Итог: у российской сборной 164 медали, что дает право называться страной-победительницей в общекомандном медальном зачете.
Итоговая игра по пляжному футболу эффектно завершила общую картину соревнований на Европиаде в Баку: у решающего матча была драматическая ситуация, когда итальянцы в финальном поединке победили россиян, но в заключительный день игр подопечные Михаила Лихачева чувствовали настоящий подъем от тяжелейшей победы в полуфинале над португальцами. В начале второго периода выигрывали 3 : 0. Однако итальянцы сократили разрыв до минимума и обеспечили матчу интригу, и победа все-таки досталась сборной России.
Для российских дзюдоистов и волейболистов заключительный день соревнований принес бронзовые медали. Российская сборная завоевала в Баку 79 золотых медалей – ни одна другая европейская сборная не взяла такое количество даже в общем числе. Подавляющее преимущество налицо. Самое большое количество медалей у российской сборной в плавании: одна только Арина Опёнышева стала 7-кратной чемпионкой Игр, а Мария Каменева завоевала 9 медалей в общей сложности.
Качество: HDTVRip 720p
Формат: MKV
Видео кодек: H.264
Аудио кодек: AC3
Видео: AVC/H.264, 1280x720, ~3 576 Kbps
Аудио: AC3, 2 ch, 192 kbps, CBR
Доп. информация: RIP by багга
Скриншоты        

Владимирский

Пост 29-Июн-2015 11:45

[Цитировать]

Первые Европейские игры в Баку 2015. Церемония открытия

Год выпуска: 2015
Вид спорта: летние виды спорта
Участники: 50 стран мира
Продолжительность: 02:09:11
Комментарий: Профессиональный (одноголосый закадровый)
Комментатор: Дмитрий Губерниев
Язык: русский (в перерывах на рекламу - английский.)
Описание: 12 июня в Баку пройдет торжественная церемония открытия первых Европейских игр-2015. В азербайджанскую столицу съехались 6000 спортсменов из 50 стран Старого Света. Россия, которую будут представлять 360 спортсменов, в том числе и несколько олимпийских чемпионов, претендует на высокие места в командном зачете.
Отметим, что подобные игры или чемпионаты (называются они по-разному) есть в Азии, странах Тихоокеанского региона, странах Британского Содружества и т.д. А вот Европейские игры состоятся впервые в истории.
В программу Европейских игр вошло 20 видов спорта, 16 олимпийских и четыре не-олимпийских.
Среди тех видов спорта, которые вошли в программу соревнования, и рейтинговые летние виды: легкая атлетика, бокс, плавание. Правда, в последнем (нетипичный случай для Европейских игр в нынешнем формате) будут соревноваться спортсмены не старше 18 лет и спортсменки не старше 16. Связано это с тем, что уже во второй половине июля представителей водных видов спорта ожидает летний чемпионат мира, который пройдет в Казани.
В некоторых видах спорта спортсмены получат возможность квалифицироваться на Олимпиаду-2016 в Рио-де-Жанейро. А в дзюдо и борьбе соревнования в Баку будут считаться чемпионатами Европы.
Качество: HDTV
Формат: MKV
Видео кодек: H.264
Аудио кодек: AC3
Видео: AVC/H.264, 1280x720, ~3000 kbps
Аудио: AC3, 2 ch, 224 kbps, CBR

Mediainfo:

Код:
General
Unique ID                   : 161497868768020548903959671701825332222 (0x797F5BAF2963B6EB98BE0E9B9C8723FE)
Complete name               : G:\Видео\Новая папка\2015 Церемония открытия Первых Европейских игр в Баку HDTVRip_720p.mkv
Format                      : Matroska
Format version              : Version 2
File size                   : 2.91 GiB
Duration                    : 2h 9mn
Overall bit rate            : 3 228 Kbps
Writing application         : Lavf54.63.104
Writing library             : Lavf54.63.104
Video
ID                          : 1
Format                      : AVC
Format/Info                 : Advanced Video Codec
Format profile              : [email protected]
Format settings, CABAC      : Yes
Format settings, ReFrames   : 1 frame
Codec ID                    : V_MPEG4/ISO/AVC
Duration                    : 2h 9mn
Bit rate                    : 3 000 Kbps
Width                       : 1 280 pixels
Height                      : 720 pixels
Display aspect ratio        : 16:9
Frame rate mode             : Constant
Frame rate                  : 25.000 fps
Color space                 : YUV
Chroma subsampling          : 4:2:0
Bit depth                   : 8 bits
Scan type                   : Progressive
Bits/(Pixel*Frame)          : 0.130
Stream size                 : 2.65 GiB (91%)
Writing library             : x264 core 129
Encoding settings           : cabac=1 / ref=1 / deblock=1:0:0 / analyse=0x1:0x131 / me=dia / subme=2 / psy=1 / psy_rd=1.00:0.00 / mixed_ref=0 / me_range=16 / chroma_me=1 / trellis=0 / 8x8dct=0 / cqm=0 / deadzone=21,11 / fast_pskip=1 / chroma_qp_offset=0 / threads=4 / lookahead_threads=1 / sliced_threads=0 / nr=0 / decimate=1 / interlaced=0 / bluray_compat=0 / constrained_intra=0 / bframes=0 / weightp=2 / keyint=250 / keyint_min=25 / scenecut=40 / intra_refresh=0 / rc_lookahead=40 / rc=abr / mbtree=1 / bitrate=3000 / ratetol=1.0 / qcomp=0.60 / qpmin=10 / qpmax=51 / qpstep=4 / ip_ratio=1.41 / aq=1:1.00
Default                     : Yes
Forced                      : No
Audio
ID                          : 2
Format                      : AC-3
Format/Info                 : Audio Coding 3
Mode extension              : CM (complete main)
Format settings, Endianness : Big
Codec ID                    : A_AC3
Duration                    : 2h 9mn
Bit rate mode               : Constant
Bit rate                    : 224 Kbps
Channel(s)                  : 2 channels
Channel positions           : Front: L R
Sampling rate               : 48.0 KHz
Bit depth                   : 16 bits
Compression mode            : Lossy
Stream size                 : 207 MiB (7%)
Default                     : Yes
Forced                      : No
Скриншоты
       

Omen

Пост 29-Июл-2012 07:30

[Цитировать]

Спасибо за релиз!

cataman

Пост 28-Июл-2012 19:29

[Цитировать]

Церемония открытия летних олимпийских игр 2012 в Лондоне
Комментарий: Профессиональный одноголосый
Язык комментариев: Русский (Дмитрий Губерниев)
Продолжительность: 03:54:09
Описание:
Церемония открытия летних олимпийских игр 2012 в Лондоне, прошедшая на Олимпийском Стадионе 27 июля 2012 года.
Автор рипа: sanchez2011
Качество: IPTVRip
Формат: AVI
Видео кодек: XviD
Аудио кодек: MP3
Видео: XviD 720x400 (16:9) 25.00fps 2000kbps
Аудио: MPEG Audio Layer 3 48000Hz stereo 128kbps

Скриншоты

         

MediaInfo

Код:
[pre]
General
Complete name                            : D:\Церемония Открытия Олимпиады в лондоне 2012.avi
Format                                   : AVI
Format/Info                              : Audio Video Interleave
Format profile                           : OpenDML
File size                                : 3.49 GiB
Duration                                 : 3h 54mn
Overall bit rate                         : 2 137 Kbps
Writing application                      : VirtualDubMod 1.5.10.2 (build 2540/release)
Writing library                          : VirtualDubMod build 2540/release
Video
ID                                       : 0
Format                                   : MPEG-4 Visual
Format profile                           : Advanced [email protected]
Format settings, BVOP                    : 2
Format settings, QPel                    : No
Format settings, GMC                     : No warppoints
Format settings, Matrix                  : Default (H.263)
Muxing mode                              : Packed bitstream
Codec ID                                 : XVID
Codec ID/Hint                            : XviD
Duration                                 : 3h 54mn
Bit rate                                 : 1 999 Kbps
Width                                    : 720 pixels
Height                                   : 400 pixels
Display aspect ratio                     : 16:9
Frame rate                               : 25.000 fps
Color space                              : YUV
Chroma subsampling                       : 4:2:0
Bit depth                                : 8 bits
Scan type                                : Progressive
Compression mode                         : Lossy
Bits/(Pixel*Frame)                       : 0.278
Stream size                              : 3.27 GiB (94%)
Writing library                          : XviD 64
Audio
ID                                       : 1
Format                                   : MPEG Audio
Format version                           : Version 1
Format profile                           : Layer 3
Mode                                     : Joint stereo
Mode extension                           : MS Stereo
Codec ID                                 : 55
Codec ID/Hint                            : MP3
Duration                                 : 3h 54mn
Bit rate mode                            : Constant
Bit rate                                 : 128 Kbps
Channel(s)                               : 2 channels
Sampling rate                            : 48.0 KHz
Compression mode                         : Lossy
Stream size                              : 214 MiB (6%)
Alignment                                : Aligned on interleaves
Interleave, duration                     : 40 ms (1.00 video frame)
Interleave, preload duration             : 504 ms
[/pre]

cataman

Пост 28-Июл-2012 19:11

[Цитировать]

Церемония открытия летних Олимпийских игр 2012
Вид спорта: Открытие Олимпиады
Продолжительность: 3:51:02
Дата/Год выпуска: 27/07/2012
Язык комментариев: английский (audio description), русский (Губерниев), русский (Швецов, Дмитриева)
Описание:Главная церемония открытия игр Олимпиады 2012 в городе Лондоне будет начинаться с ударов в гигантский колокол.
Известный кинорежиссер Бойл поведал, что во время работы над проектом церемонии открытия его вдохновляла известная пьеса «Буря» Уильяма Шекспира. На стадионе Олимпиады во время церемонии открытия будет «звучать гигантский колокол», сообщил режиссёр Бойл. Сам крупный колокол сделан по специальному заказу.
Режиссер таких фильмов как «На игле» и фильм «Миллионер из трущоб» дал признание , что перед ним стояла очень сложная задача после прошедших церемоний торжественного открытия и закрытия Олимпийских Игр-2008 в городе Пекине.Кинорежиссер Бойл, имеющий в своём распоряжении бюджет в порядочные 96 миллионов евро, объяснил журналистам, что другие подробности он откроет позже.
«Шоу будет потрясающе эффектным, хоть мы и сделали сокращение расходов из-за общих мировых и внутренних проблем в экономике с финансами», — заявил Бойл.
Автор рипа/записи: dm8000
Качество: HDTV
Формат видео: TS
Видео: 1.78:1 1920x1080i50 H.264 16.28Mpbs
Аудио: Mpeg Audio 2.0 48kHz 192kbps, Mpeg Audio 2.0 48kHz 192kbps, DD2.0 48kHz 448kbps

Скриншоты

         
 

Текущее время: Сегодня 02:45

Часовой пояс: GMT + 3