Сегодня идет свободное скачивание без начисления Download

Результатов поиска: 500

Автор Сообщение

}{@R0N

Пост 14-Окт-2017 17:07

[Цитировать]

Битва экстрасенсов - Телекомпания: ТНТ
Жанр: Реалити Шоу
Ведущий: Марат Башаров
Описание:
С 23 сентября на ТНТ стартует долгожданный 18-й сезон «Битвы экстрасенсов» — самого мистического, непредсказуемого и загадочного проекта российского ТВ. Масштабный кастинг, новые яркие участники и высокие технологии в мире экстрасенсорики. Новый сезон обещает стать самым необычным и удивительным в истории шоу. «Мне бы очень хотелось, чтобы в новом сезоне экстрасенсы поменьше обращали бы внимание на свою самореализацию, а больше помогали людям. Ведь каждый сезон к нам обращаются те, кто действительно ждет помощи. И это, по-моему, для людей со сверхспособностями должно быть приоритетным!», — Марат Башаров, ведущий проекта.
Продолжительность: ~ 01:10:12
Качество видео: SATRip
Субтитры: Отсутствуют
Реклама: Присутствуют вставки текстовой рекламы
Видео: MPEG4, XviD, 720x400 (16:9), 25.000 fps, 1 800 Kbps (0.250 bit/pixel)
Аудио: MP3, 48.0 KHz, 2 ch, 128 Kbps, CBR

Mediainfo:

Код:
Общее
Полное имя                               : D:\[1]\Битва экстрасенсов\Битва экстрасенсов. Сезон 18. Выпуск 04 (2017.10.14).avi
Формат                                   : AVI
Формат/Информация                        : Audio Video Interleave
Размер файла                             : 975 Мбайт
Продолжительность                        : 1 ч. 10 м.
Общий поток                              : 1941 Кбит/сек
Видео
Идентификатор                            : 0
Формат                                   : MPEG-4 Visual
Профиль формата                          : Advanced [email protected]
Параметр BVOP формата                    : 2
Параметр QPel формата                    : Нет
Параметр GMC формата                     : Без точки перехода
Параметр матрицы формата                 : Default (H.263)
Идентификатор кодека                     : XVID
Идентификатор кодека/Подсказка           : XviD
Продолжительность                        : 1 ч. 10 м.
Битрейт                                  : 1800 Кбит/сек
Ширина                                   : 720 пикселей
Высота                                   : 400 пикселей
Соотношение сторон                       : 16:9
Частота кадров                           : 25,000 кадров/сек
Цветовое пространство                    : YUV
Субдискретизация насыщенности            : 4:2:0
Битовая глубина                          : 8 бит
Тип развёртки                            : Прогрессивная
Метод сжатия                             : С потерями
Бит/(Пиксели*Кадры)                      : 0.250
Размер потока                            : 904 Мбайт (93%)
Библиотека кодирования                   : XviD 1.2.1 (UTC 2008-12-04)
Аудио
Идентификатор                            : 1
Формат                                   : MPEG Audio
Версия формата                           : Version 1
Профиль формата                          : Layer 3
Режим                                    : Joint stereo
Расширение режима                        : MS Stereo
Идентификатор кодека                     : 55
Идентификатор кодека/Подсказка           : MP3
Продолжительность                        : 1 ч. 10 м.
Вид битрейта                             : Постоянный
Битрейт                                  : 128 Кбит/сек
Каналы                                   : 2 канала
Частота                                  : 48,0 КГц
Метод сжатия                             : С потерями
Размер потока                            : 64,3 Мбайт (7%)
Выравнивание                             : Соединение по промежуткам
Продолжительность промежутка             : 24  мс. (0,60 видеокадр)
Библиотека кодирования                   : LAME3.99r
Настройки программы                      : -m j -V 4 -q 9 -lowpass 17 -b 128
Скриншоты:
       

siabr

Пост 03-Авг-2017 16:25

[Цитировать]

Где остальные 8 сезонов?

victorhulcko

Пост 23-Июл-2017 10:45

[Цитировать]

Малороссия
Дата выхода: 18 июля 2017
Страна: Украина ДНР
Жанр: Документальный, Реальные события
Продолжительность: 00:57:30- Описание: 18 июля 2017 года, в столице Донецкой Народной Республики рассмотрели политическую декларацию о создании нового государства, которое сможет стать правопреемником «Украины». Новое государственное образование предположительно будет состоять из 19 областей бывшей Украины и носить название Малороссия с центром нового государства в Донецке. Об этом с места проведения форума «Донбасс говорит» сообщает корреспондент официального сайта ДНР. «Все мы здесь собрались говорить о будущем. Мы предлагаем план реинтеграции страны через закон и Конституцию. Мы должны построить новую страну, в которой не забыты понятия совести и чести. Мы предлагаем жителям Украины мирный выход из тяжелой сложившейся ситуации, без войны. Это наше последнее предложение не только украинцам, но и всем странам, которые поддержали гражданскую войну в Донбассе. Я убежден, что мы сделаем все возможное и невозможное», — сказал присутствующим Глава ДНР Александр Захарченко. На мероприятии присутствовали Глава ДНР Александр Захарченко, советник Главы Захар Прилепин, заместитель Председателя Совета министров, министр доходов и сборов Республики Александр Тимофеев, а также представители большинства областей, ранее входивших в состав Украины. Все присутствующие делегаты проголосовали на открытом голосовании единогласно за подписание политической декларации о создании Малороссии с центром в Донецке. «Малороссия — федеративное государство с широкой автономией регионов. Право региональных языков гарантированно сохраняется, государственным флагом признается флаг Богдана Хмельницкого» , — процитировал конституционный акт Александр Тимофеев.
В ходе собрания подписантов политической декларации о создании нового государства Малороссии выступили делегаты из разных областей бывшей Украины, которые выразили надежду на то, что провозглашенное федеративное государство с центром в Донецке поможет избавить исконно русские земли от преступного киевского режима. Об этом сообщает корреспондент официального сайта Донецкой Народной Республики. «Мы долгих три года ждали этого дня! Просто верьте в нас — и мы вас не подведем, — сошлись во мнении представители разных областей бывшей Украины. — Мы вернем былое могущество своей страны. Ради нашей земли и памяти наших предков стоит сражаться». Глава ДНР Александр Захарченко заявил, что ситуация на Украине зашла в глухой тупик, и выходом из сложившейся ситуации может стать создание на переходный период до трех лет нового государства — Малороссии. «Чтобы остановить гражданскую войну, мы обсудили ситуацию и пришли к выводу, что Украина показала себя как несостоявшееся государство. Киевский режим не в состоянии оставить гражданскую войну», — сказал Захарченко. По словам Александра Захарченко, Малороссия сможет стать независимым молодым федеративным государством. Главнокомандующий ДНР уверен, что создание Малороссии поможет остановить конфликт в Донбассе, но для этого потребуется поддержка международного сообщества и жителей Республик. Он также назвал создание нового независимого государства последним предложением для выхода из гражданской войны. В свою очередь секретарь исполкома Александр Казаков отметил, что провозглашение Малороссии не противоречит Минским договоренностям: «Наоборот, наше предложение украинскому народу восполняет Соглашения. Война теперь невозможна, мы один народ», — отметил он. «Придется нашим оппонентам перезагружать свою риторику, потому что люди, живущие здесь и на территории теперь уже бывшей Украины, — не сепаратисты и не террористы. Это люди, мирным путем принявшие решение менять ситуацию на благо. У Донецкой Народной Республики есть все основания сегодня и здесь объявить о точке отсчета нового государства», — сказал Захар Прилепин.- Размер: 2.70 Гб
Качество: WEBRip
Формат: MKV
Видео: MPEG4 AVC, 1280x720 (16:9), 6 586 kb/s, 25.000 fps
Аудио: AAC, 128 kb/s, 2 channels, 44.1 kHz
Официальный сайт Донецкой Народной Республики ©

Видео: Глава ДНР заявил о создании государства Малороссия

Скриншоты

                               

Фотографии

                         

MediaInfo

Код:
General
Unique ID                   : 174836494791439296104568406495708559014 (0x838848B8BFDEFD5083B2B3B7195BB6A6)
Format                      : Matroska
Format version              : Version 4 / Version 2
File size                   : 2.70 GiB
Duration                    : 57 min 30 s
Overall bit rate            : 6 714 kb/s
Encoded date                : UTC 2017-07-21 04:37:34
Writing application         : mkvmerge v12.0.0 ('Trust / Lust') 64bit
Writing library             : libebml v1.3.4 + libmatroska v1.4.5
Video
ID                          : 1
Format                      : AVC
Format/Info                 : Advanced Video Codec
Format profile              : [email protected]
Format settings, CABAC      : Yes
Format settings, RefFrames  : 4 frames
Codec ID                    : V_MPEG4/ISO/AVC
Duration                    : 57 min 30 s
Bit rate                    : 6 586 kb/s
Width                       : 1 280 pixels
Height                      : 720 pixels
Display aspect ratio        : 16:9
Frame rate mode             : Constant
Frame rate                  : 25.000 FPS
Standard                    : PAL
Color space                 : YUV
Chroma subsampling          : 4:2:0
Bit depth                   : 8 bits
Scan type                   : Progressive
Bits/(Pixel*Frame)          : 0.286
Stream size                 : 2.65 GiB (98%)
Language                    : English
Default                     : Yes
Forced                      : No
Color range                 : Limited
Color primaries             : BT.709
Transfer characteristics    : BT.709
Matrix coefficients         : BT.709
Audio
ID                          : 2
Format                      : AAC
Format/Info                 : Advanced Audio Codec
Format profile              : LC
Codec ID                    : A_AAC
Duration                    : 57 min 30 s
Bit rate                    : 126 kb/s
Channel(s)                  : 2 channels
Channel positions           : Front: L R
Sampling rate               : 44.1 kHz
Frame rate                  : 43.066 FPS (1024 SPF)
Compression mode            : Lossy
Stream size                 : 51.7 MiB (2%)
Language                    : English
Default                     : Yes
Forced                      : No

}{@R0N

Пост 10-Май-2017 09:37

[Цитировать]

Парад Победы, посвященный 72-ой годовщине Победы в ВОВ 1941-1945г. (Москва)- Жанр: Документальный, военный парад
Описание:
Военный парад, посвященный 72-й годовщине Победы в Великой Отечественной войне.
Каждый год 9 мая во многих странах мира отмечают День Победы над немецко-фашистскими захватчиками. Но нигде этот праздник не празднуют с таким размахом, как в России. В 2017 году отмечается 72 год со Дня Победы.
Релиз от: svlesin
Продолжительность: 00:55:01
Качество видео: WEB-DL
Субтитры: Отсутствуют
Видео: AVC, 1920x1080 (16:9), 25.000 fps, 3 950 Kbps (0.076 bit/pixel)
Аудио: AC-3, 44.1 KHz, 2 ch, 192 Kbps, CBR

Mediainfo:

Код:
Общее
Уникальный идентификатор                 : 226876941065365677860686223969708965955 (0xAAAEE8D1A43E57329AC37B8754EC8043)
Полное имя                               : D:\[1]\Парад победы\Парад Победы. Москва (2017.05.09)_1080.mkv
Формат                                   : Matroska
Версия формата                           : Version 4 / Version 2
Размер файла                             : 1,62 Гбайт
Продолжительность                        : 55 м.
Режим общего битрейта                    : Переменный
Общий поток                              : 4226 Кбит/сек
Название фильма                          : Парад Победы. Москва (2017.05.09)_1080_nnmclub.to
Дата кодирования                         : UTC 2017-05-09 08:31:22
Программа кодирования                    : mkvmerge v7.6.0 ('Garden of Dreams') 64bit built on Feb  8 2015 13:04:34
Библиотека кодирования                   : libebml v1.3.1 + libmatroska v1.4.2
DURATION                                 : 00:55:01.878000000
NUMBER_OF_FRAMES                         : 94800
NUMBER_OF_BYTES                          : 79245060
_STATISTICS_WRITING_APP                  : mkvmerge v7.6.0 ('Garden of Dreams') 64bit built on Feb  8 2015 13:04:34
_STATISTICS_WRITING_DATE_UTC             : 2017-05-09 08:31:22
_STATISTICS_TAGS                         : BPS DURATION NUMBER_OF_FRAMES NUMBER_OF_BYTES
Видео
Идентификатор                            : 1
Формат                                   : AVC
Формат/Информация                        : Advanced Video Codec
Профиль формата                          : [url=mailto:[email protected]][email protected][/url]
Параметр CABAC формата                   : Да
Параметр ReFrames формата                : 4 кадра
Идентификатор кодека                     : V_MPEG4/ISO/AVC
Продолжительность                        : 55 м.
Вид битрейта                             : Переменный
Битрейт                                  : 3950 Кбит/сек
Максимальный битрейт                     : 4500 Кбит/сек
Ширина                                   : 1920 пикселей
Высота                                   : 1080 пикселей
Соотношение сторон                       : 16:9
Режим частоты кадров                     : Постоянный
Частота кадров                           : 25,000 кадров/сек
Цветовое пространство                    : YUV
Субдискретизация насыщенности            : 4:2:0
Битовая глубина                          : 8 бит
Тип развёртки                            : Прогрессивная
Бит/(Пиксели*Кадры)                      : 0.076
Размер потока                            : 1,52 Гбайт (93%)
Default                                  : Да
Forced                                   : Нет
Аудио
Идентификатор                            : 2
Формат                                   : AC-3
Формат/Информация                        : Audio Coding 3
Расширение режима                        : CM (complete main)
Параметр Endianness формата              : Big
Идентификатор кодека                     : A_AC3
Продолжительность                        : 55 м.
Вид битрейта                             : Постоянный
Битрейт                                  : 192 Кбит/сек
Каналы                                   : 2 канала
Расположение каналов                     : Front: L R
Частота                                  : 44,1 КГц
Битовая глубина                          : 16 бит
Метод сжатия                             : С потерями
Размер потока                            : 75,6 Мбайт (5%)
Default                                  : Да
Forced                                   : Нет
Скриншоты:
       

}{@R0N

Пост 28-Мар-2017 12:25

[Цитировать]

Хунань. Реальный мир Аватара / Hunan, l'autre monde d'Avatar- Телекомпания: Франция / France 5
Жанр: Документальный
Автор сценария и режиссер: Laurence Thiriat
Описание:
Многие из нас смотрели знаменитый фильм Джеймса Кэмерона "Аватар" и были в восхищении от изумительной красоты мира Пандоры. Однако, не многие знают, что мир Аватара - это далеко не визуализированный компьютерными гениями вымысел художников. Все это существует на самом деле и не на другой планете, а на нашей родной планете Земля. Реальный мир Пандоры существует! Парящие горы есть в Китае!
Добро пожаловать в мир по другую сторону от "Аватара" - мир, существующий между небом и землей. Мир невероятных историй и традиций, мир под названием Хунань.
Продолжительность: 00:52:37
Качество видео: HDTVRip
Перевод: Двухголосый закадровый, профессиональный (Видеофильм ТВ)
Видео: AVC/H.264, 1280 x 720, ~10000 Kbps
Аудио: AAC, 2 ch, 192 Kbps

Mediainfo:

Общее
Уникальный идентификатор : 279498568335251836389009377681120567274 (0xD2457759FFAFE0EA45CA7A6E58761FEA)
Полное имя : F:\КИНО\Хунань. Реальный мир Аватара.mkv
Формат : Matroska
Версия формата : Version 4 / Version 2
Размер файла : 1,90 Гбайт
Продолжительность : 52 м. 37 с.
Режим общего битрейта : Переменный
Общий поток : 5158 Кбит/сек
Программа кодирования : Lavf56.15.102
Библиотека кодирования : Lavf56.15.102 / Lavf56.15.102
Видео
Идентификатор : 1
Формат : AVC
Формат/Информация : Advanced Video Codec
Профиль формата : [url=mailto:[email protected]3.1][email protected][/url]
Параметр CABAC формата : Нет
Параметр ReFrames формата : 1 кадр
Параметр GOP формата : M=1, N=12
Идентификатор кодека : V_MPEG4/ISO/AVC
Продолжительность : 52 м. 37 с.
Вид битрейта : Переменный
Максимальный битрейт : 10 Mбит/сек
Ширина : 1280 пикселей
Высота : 720 пикселей
Соотношение сторон : 16:9
Режим частоты кадров : Постоянный
Частота кадров : 25,000 кадров/сек
Цветовое пространство : YUV
Субдискретизация насыщенности : 4:2:0
Битовая глубина : 8 бит
Тип развёртки : Прогрессивная
Default : Да
Forced : Нет
Аудио
Идентификатор : 2
Формат : AAC
Формат/Информация : Advanced Audio Codec
Профиль формата : LC
Идентификатор кодека : A_AAC
Продолжительность : 52 м. 37 с.
Каналы : 2 канала
Расположение каналов : Front: L R
Частота : 44,1 КГц
Частота кадров : 43,066 кадра/сек (1024 spf)
Метод сжатия : С потерями
Задержка видео : -63 мс.
Default : Да
Forced : Нет

Это интересно!

Чжанцзяцзе — национальный лесной парк в городском округе Чжанцзяцзе, провинция Хунань, Китай. Парк расположен на живописной территории Улинъюань, признанной ЮНЕСКО объектом Всемирного наследия. Парк примечателен большим количеством пиков-столбов из песчаника и кварца, самый живописный из них — "Колонна Южное Небо" высотой 1080 метров, который в январе 2010 года официально был переименован в "гора Аватар-Аллилуйя" в честь известного фильма "Аватар".
Создатели фильма заявили, что на создание в ленте летающих скал их вдохновили разные горы мира, в том числе и находящиеся в парке Чжанцзяцзе. Всего в парке более 3000 подобных геологических образований, в том числе треть из них имеют высоту более 200 метров. Высшая точка парка — гора Doupeng высотой 1890 метров.
Скриншоты:
       

Дополнительные скриншоты:

       
       

}{@R0N

Пост 15-Мар-2017 21:34

[Цитировать]

Оружие, которое изменило мир / Triggers: Weapons That Changed the World - Телекомпания: США, Morningstar Enterteiment
Жанр: Документальный, вооружение, история
Участники: Уилл Уиллис
Описание:
Мало что до такой степени повлияло на ход истории, как изобретение и применение огнестрельного оружия. Огневая мощь - ни что лучше не определяет военный потенциал. Документальный сериал прослеживает историю огнестрельного оружия и то, как появление каждого нового вида необратимо изменяло мир. Каждая серия рассказывает об отдельном знаменитом виде оружия, о том, что было до и после, и как появление одного вида оружия влияло на создание последующего. Помимо испытания оружия, в каждой серии воссозданы знаменитые сражения, в которых оно применялось. Ведущий Уилл Уиллис, бывший американский спецназовец, тщательно обследует, характеризует и испытывает каждый вид оружия.

Релиз от: alf62
Большое спасибо ПЕЧАЛЬ, за предоставленный постер!
Продолжительность: 5 х ~ 00:47:00
Качество видео: HDTVRip Сэмпл
Перевод: Одноголосый закадровый, профессиональный
Видео: AVC/H.264, 1280x720, ~3500 kbps
Аудио: AC3, 2 ch, 192 kbps

Список выпусков/серий

1. Браунинг М2 / Browning M2
Это второе оружие, после винтовки, изменившие методы видения боевых действий. Станковый пулемет 50-калибра (12,7 мм) Browning M2, прозванный «Ma Deuce» («Двойной М»), уже более восьмидесяти лет служит на поле боя. Уилл Уиллис тестирует это легендарное оружие и другие крупнокалиберные пулеметы.
2. Дробовые ружья / Combat Shotguns
Смертельные в непосредственной близости дробовые ружья являются мощным инструментом любой армии. Уилл Уиллис расскажет историю дробового ружья, от мушкетона до современных Benelli M4 и Mossburg 590.
3. Гатлинг и A-10 / Gatling and the A-10
Мировой рекордсмен по скорострельности среди пулеметов снова в бою. Авиационная пушка Гатлинга имеет самый высокий темп стрельбы по сравнению с любым стрелковым оружием в мире.
4. Пистолеты для спецподразделений / Spec Ops Pistols
Специальные подразделения, часто работают в глубоком тылу противника, выполняя секретные операции и когда развергается ад, личный пистолет – последнее спасение. Уиллис опробует пистолет SIG Sauer P226, состоящий на вооружении «морских котиков» США, а затем его предшественников: Walther PPK Джеймса Бонда, советского ТТ и тяжелого Desert Eagle.
5. Танк «Абрамс» / The Abrams Tank
В этом эпизоде прослеживается история развития танков .Танк M1 «Абрамс» («Abrams») является самым тяжелым танком в мире. Мы будем отслеживать его развитие с помощью его предшественников - танка M18 Hellcat времен Второй мировой и советского Т-55 из эпохи холодной войны и постараемся понять, почему эти «звери» правили на земле войны на протяжении десятилетий.
6.Ручные пулеметы / The SAW
Пехота использует в бою не только винтовки, но и легкие (ручные) пулеметы. Мы проследим эволюцию этого революционного оружия от его использования в Первой мировой войне в своем современном воплощении.

Mediainfo:

Оружие.которое.изменило.мир.(2.сезон).2013.AVC.720p.x264.HDTVRip.alf62\1.серия.Браунинг.М2.2013.AVC.720p.x264.HDTVRip.alf62.mkv
Формат : Matroska
Версия формата : Version 2
Размер файла : 1,20 Гбайт
Продолжительность : 46 м.
Общий поток : 3692 Кбит/сек
Дата кодирования : UTC 2017-02-13 14:03:48
Программа кодирования : mkvmerge v7.8.0 ('River Man') 32bit built on Apr 3 2015 12:11:22
Библиотека кодирования : libebml v1.3.1 + libmatroska v1.4.2
Видео
Идентификатор : 1
Формат : AVC
Формат/Информация : Advanced Video Codec
Профиль формата : [url=mailto:[email protected]][email protected][/url]
Параметр CABAC формата : Да
Параметр ReFrames формата : 9 кадров
Идентификатор кодека : V_MPEG4/ISO/AVC
Продолжительность : 46 м.
Битрейт : 3500 Кбит/сек
Ширина : 1280 пикселей
Высота : 720 пикселей
Соотношение сторон : 16:9
Режим частоты кадров : Постоянный
Частота кадров : 25,000 кадров/сек
Цветовое пространство : YUV
Субдискретизация насыщенности : 4:2:0
Битовая глубина : 8 бит
Тип развёртки : Прогрессивная
Бит/(Пиксели*Кадры) : 0.152
Размер потока : 1,11 Гбайт (93%)
Библиотека кодирования : x264 core 146 r2538 121396c
Настройки программы : cabac=1 / ref=9 / deblock=1:-2:-2 / analyse=0x3:0x113 / me=umh / subme=10 / psy=1 / psy_rd=1.00:0.00 / mixed_ref=1 / me_range=32 / chroma_me=1 / trellis=2 / 8x8dct=1 / cqm=0 / deadzone=21,11 / fast_pskip=0 / chroma_qp_offset=-2 / threads=6 / lookahead_threads=1 / sliced_threads=0 / nr=0 / decimate=0 / interlaced=0 / bluray_compat=0 / constrained_intra=0 / bframes=9 / b_pyramid=2 / b_adapt=2 / b_bias=0 / direct=3 / weightb=1 / open_gop=0 / weightp=2 / keyint=250 / keyint_min=25 / scenecut=40 / intra_refresh=0 / rc_lookahead=40 / rc=2pass / mbtree=0 / bitrate=3500 / ratetol=1.0 / qcomp=0.60 / qpmin=10 / qpmax=51 / qpstep=4 / cplxblur=20.0 / qblur=0.5 / vbv_maxrate=14000 / vbv_bufsize=14000 / nal_hrd=none / filler=0 / ip_ratio=1.40 / pb_ratio=1.30 / aq=1:0.80
Default : Да
Forced : Нет
Аудио
Идентификатор : 2
Формат : AC-3
Формат/Информация : Audio Coding 3
Расширение режима : CM (complete main)
Параметр Endianness формата : Big
Идентификатор кодека : A_AC3
Продолжительность : 46 м.
Вид битрейта : Постоянный
Битрейт : 192 Кбит/сек
Каналы : 2 канала
Расположение каналов : Front: L R
Частота : 48,0 КГц
Битовая глубина : 16 бит
Метод сжатия : С потерями
Размер потока : 63,7 Мбайт (5%)
Default : Да
Forced : Нет
Скриншоты:
       

Дополнительные скриншоты:

       
 

}{@R0N

Пост 12-Мар-2017 20:37

[Цитировать]

Воскресный вечер с Владимиром Соловьевым (2017.03.12) - Телекомпания: Россия
Жанр: Телепередача
Ведущий: Владимир Соловьёв
Описание:
"Мы ставили задачу сделать программу для умного, неравнодушного зрителя, которая позволит обсуждать актуальные проблемы в разных форматах: от интервью "один на один" до "круглого стола". Надеемся, она будет такой же острой, как политическое ток-шоу "Поединок". Но если в "Поединке" сталкиваются две полярные точки зрения, то здесь мы намерены представить более широкий спектр мнений: ведь в обществе обсуждается множество тем, которые вызывают не только однозначные реакции", - сказал автор проекта Владимир Соловьев.
Релиз от: -=DeMoH=-
Продолжительность: ~ 02:50:54
Качество видео: SATRip
Субтитры: Отсутствуют
Видео: MPEG4, XviD, 720x400 (16:9), 25.000 fps, 1 799 Kbps (0.250 bit/pixel)
Аудио: AC-3, 48.0 KHz, 2 ch, 192 Kbps, CBR

Mediainfo:

Код:
Общее
Полное имя                               : D:\[1]\Воскресный вечер с Владимиром Соловьевым\Воскресный вечер с Владимиром Соловьевым (2017.03.12).avi
Формат                                   : AVI
Формат/Информация                        : Audio Video Interleave
Профиль формата                          : OpenDML
Размер файла                             : 2,39 Гбайт
Продолжительность                        : 2 ч. 50 м.
Общий поток                              : 2003 Кбит/сек
Программа кодирования                    : VirtualDubMod 1.5.10.3 | [url=http://www.virtualdub-fr.org]www.virtualdub-fr.org[/url] || (build 2550/release)
Библиотека кодирования                   : VirtualDub build 35491/release
Видео
Идентификатор                            : 0
Формат                                   : MPEG-4 Visual
Профиль формата                          : Advanced [email protected]
Параметр BVOP формата                    : 2
Параметр QPel формата                    : Нет
Параметр GMC формата                     : Без точки перехода
Параметр матрицы формата                 : Default (H.263)
Идентификатор кодека                     : XVID
Идентификатор кодека/Подсказка           : XviD
Продолжительность                        : 2 ч. 50 м.
Битрейт                                  : 1799 Кбит/сек
Ширина                                   : 720 пикселей
Высота                                   : 400 пикселей
Соотношение сторон                       : 16:9
Частота кадров                           : 25,000 кадров/сек
Цветовое пространство                    : YUV
Субдискретизация насыщенности            : 4:2:0
Битовая глубина                          : 8 бит
Тип развёртки                            : Прогрессивная
Метод сжатия                             : С потерями
Бит/(Пиксели*Кадры)                      : 0.250
Размер потока                            : 2,15 Гбайт (90%)
Библиотека кодирования                   : XviD 1.2.1 (UTC 2008-12-04)
Аудио
Идентификатор                            : 1
Формат                                   : AC-3
Формат/Информация                        : Audio Coding 3
Расширение режима                        : CM (complete main)
Параметр Endianness формата              : Big
Идентификатор кодека                     : 2000
Продолжительность                        : 2 ч. 50 м.
Вид битрейта                             : Постоянный
Битрейт                                  : 192 Кбит/сек
Каналы                                   : 2 канала
Расположение каналов                     : Front: L R
Частота                                  : 48,0 КГц
Битовая глубина                          : 16 бит
Метод сжатия                             : С потерями
Размер потока                            : 235 Мбайт (10%)
Выравнивание                             : Разделение по промежуткам
Продолжительность промежутка             : 40  мс. (1,00 видеокадр)
Время предзагрузки промежутка            : 500  мс.
Скриншоты:
       

}{@R0N

Пост 20-Фев-2017 23:11

[Цитировать]

Из жизни ёжика в период глобального потепления
Climate Change: A Talk with the Animals, The Hedgehog
- Телекомпания: Франция
Жанр: Документальный
Режиссер: Мари-Элен Баконэ
Описание:
В Версальском парке живет ёж. Его предки поселились там при Людовике XIV, во времена строительства дворца. Зимы тогда были долгими и суровыми, и животные проводили их в безмятежной спячке. Но теперь глобальное потепление все изменило. Впрочем, и в капризах климата есть свои плюсы. Подробнее об этом в фильме расскажет... сам французский ёжик.
Продолжительность: 00:51:59
Качество видео: SATRip
Перевод: Двуголосый закадровый, профессиональный
Видео: Xvid, 720x400, ~1431 Kbps
Аудио: MP3, 2 ch, 192kbps

Mediainfo:

Общее
Полное имя : F:\КИНО\Из жизни ёжика в период глобального потепления.avi
Формат : AVI
Формат/Информация : Audio Video Interleave
Размер файла : 632 Мбайт
Продолжительность : 51 м. 59 с.
Общий поток : 1699 Кбит/сек
Программа кодирования : VirtualDubMod 1.5.10.3 | www.virtualdub-fr.org || (build 2550/release)
Библиотека кодирования : VirtualDubMod build 2550/release
IsTruncated : Yes
Видео
Идентификатор : 0
Формат : MPEG-4 Visual
Профиль формата : Advanced [email protected]
Параметр BVOP формата : 1
Параметр QPel формата : Нет
Параметр GMC формата : Без точки перехода
Параметр матрицы формата : Default (H.263)
Идентификатор кодека : XVID
Идентификатор кодека/Подсказка : XviD
Продолжительность : 51 м. 59 с.
Битрейт : 1431 Кбит/сек
Ширина : 720 пикселей
Высота : 400 пикселей
Соотношение сторон : 16:9
Частота кадров : 25,000 кадров/сек
Цветовое пространство : YUV
Субдискретизация насыщенности : 4:2:0
Битовая глубина : 8 бит
Тип развёртки : Прогрессивная
Метод сжатия : С потерями
Бит/(Пиксели*Кадры) : 0.199
Размер потока : 532 Мбайт (84%)
Библиотека кодирования : XviD 1.2.1 (UTC 2008-12-04)
Аудио
Идентификатор : 1
Формат : MPEG Audio
Версия формата : Version 1
Профиль формата : Layer 3
Идентификатор кодека : 55
Идентификатор кодека/Подсказка : MP3
Продолжительность : 51 м. 59 с.
Вид битрейта : Постоянный
Битрейт : 192 Кбит/сек
Каналы : 2 канала
Частота : 48,0 КГц
Метод сжатия : С потерями
Размер потока : 71,4 Мбайт (11%)
Выравнивание : Соединение по промежуткам
Библиотека кодирования : LAME3.99r
Настройки программы : -m s -V 4 -q 0 -lowpass 18.6 -b 192
Скриншоты:
       

}{@R0N

Пост 17-Фев-2017 13:24

[Цитировать]

Из жизни животных / Tendresses animales - Телекомпания: Франция
Жанр: Документальный, познавательный, флора, фауна
Режиссёр: Лоран Шарбонне
Описание:
Разнообразие живых существ, населяющих нашу планету, поражает воображение. Гигантские и крошечные, пушистые и колючие, хищные и травоядные, безобидные и опасные - они веками живут рядом с нами. Казалось бы, что в них удивительного? Однако интерес к изучению и наблюдению за животными постоянно растет, и человеческий ум все время пытается постигнуть таинственный мир обитателей дикой природы. Оригинальная коллекция сюжетов из жизни диких животных дает возможность зрителю на расстоянии вытянутой руки понаблюдать за поведением представителей мировой фауны. Вы увидите самых необычных, самых умных, самых опасных и самых редких животных со всех уголков земного шара, которые даже не подозревают, что за ними подглядывают! Особенности поведения многих из них и взаимоотношения друг с другом очень часто напоминают человеческие, что непременно позабавит зрителя
Качество видео: SATRip
Перевод: Одноголосый закадровый, профессиональный
Видео: Xvid, 640 x 480, ~1 875 Kbps
Аудио: MP3, 2 ch, 192 Kbps

Mediainfo: (тех. данные всех серий идентичны)

Общее
Полное имя : F:\КИНО\Из жизни животных\01 серия Правила общежития в лесу.avi
Формат : AVI
Формат/Информация : Audio Video Interleave
Размер файла : 822 Мбайт
Продолжительность : 52 м. 4 с.
Общий поток : 2206 Кбит/сек
Программа кодирования : Lavf56.15.100
Видео
Идентификатор : 0
Формат : xvid
Идентификатор кодека : xvid
Продолжительность : 52 м. 4 с.
Битрейт : 2001 Кбит/сек
Ширина : 640 пикселей
Высота : 480 пикселей
Соотношение сторон : 4:3
Частота кадров : 25,000 кадров/сек
Тип развёртки : Прогрессивная
Бит/(Пиксели*Кадры) : 0.261
Размер потока : 745 Мбайт (91%)
Аудио
Идентификатор : 1
Формат : MPEG Audio
Версия формата : Version 1
Профиль формата : Layer 3
Режим : Joint stereo
Расширение режима : MS Stereo
Идентификатор кодека : 55
Идентификатор кодека/Подсказка : MP3
Продолжительность : 52 м. 4 с.
Вид битрейта : Постоянный
Битрейт : 192 Кбит/сек
Каналы : 2 канала
Частота : 44,1 КГц
Метод сжатия : С потерями
Размер потока : 71,5 Мбайт (9%)
Выравнивание : Соединение по промежуткам
Продолжительность промежутка : 26 мс. (0,65 видеокадр)
Время предзагрузки промежутка : 26 мс.
Библиотека кодирования : LAME3.99.5
Скриншоты:
       

Дополнительные скриншоты:

       

}{@R0N

Пост 12-Фев-2017 09:55

[Цитировать]

Чудо техники - Телекомпания: НТВ
Жанр: Телепередача
Ведущий: Сергей Малозёмов
Описание:
«Чудо техники» — это доходчивый и интересный рассказ о новейших научных разработках, которые способны поменять или уже меняют нашу повседневную жизнь. Автор проекта — Сергей Малозёмов — хорошо знаком зрителям НТВ по репортажам программы «Сегодня», касающимся новых технологий, гаджетов, медицины. Он в курсе последних научных разработок и одним из первых узнает о значимых изобретениях. Теперь обо всем, что происходит на передовой научно-технического прогресса, узнают и зрители НТВ. Новинки и открытия со всего мира создатели проекта подвергнут самому тщательному анализу: что-то протестируют на себе или специально приглашенных героях, узнают мнения экспертов, постараются проникнуть в саму суть вещей при помощи компьютерной графики и экспериментов в лаборатории. Когда можно будет попробовать мясо из пробирки и каково оно будет на вкус? Можно ли доверить уборку дома роботу и правда ли инфракрасный обогреватель лучше греет? Скоро ли нам будут доступны безболезненные уколы? Ответы на эти и многие другие вопросы – в каждом выпуске проекта «Чудо техники».
Релиз от: -=FOX=-
Продолжительность: ~ 00:39:28
Качество видео: SATRip
Субтитры: Отсутствуют
Видео: MPEG4, XviD, 720x448 (1.607), 25.000 fps, 1 800 Kbps (0.223 bit/pixel)
Аудио: MP3, 48.0 KHz, 2 ch, 128 Kbps, CBR

Mediainfo:

Код:
Общее
Полное имя                               : D:\[1]\Чудо техники\Чудо техники (2017.02.12).avi
Формат                                   : AVI
Формат/Информация                        : Audio Video Interleave
Размер файла                             : 547 Мбайт
Продолжительность                        : 39 м.
Общий поток                              : 1938 Кбит/сек
Программа кодирования                    : VirtualDubMod 1.5.10.3 | [url=http://www.virtualdub-fr.org]www.virtualdub-fr.org[/url] || (build 2550/release)
Библиотека кодирования                   : VirtualDubMod build 2550/release
Видео
Идентификатор                            : 0
Формат                                   : MPEG-4 Visual
Профиль формата                          : Advanced [email protected]
Параметр BVOP формата                    : 2
Параметр QPel формата                    : Нет
Параметр GMC формата                     : Без точки перехода
Параметр матрицы формата                 : Default (MPEG)
Идентификатор кодека                     : XVID
Идентификатор кодека/Подсказка           : XviD
Продолжительность                        : 39 м.
Битрейт                                  : 1800 Кбит/сек
Ширина                                   : 720 пикселей
Высота                                   : 448 пикселей
Соотношение сторон                       : 16:10
Частота кадров                           : 25,000 кадров/сек
Цветовое пространство                    : YUV
Субдискретизация насыщенности            : 4:2:0
Битовая глубина                          : 8 бит
Тип развёртки                            : Прогрессивная
Метод сжатия                             : С потерями
Бит/(Пиксели*Кадры)                      : 0.223
Размер потока                            : 508 Мбайт (93%)
Библиотека кодирования                   : XviD 73
Аудио
Идентификатор                            : 1
Формат                                   : MPEG Audio
Версия формата                           : Version 1
Профиль формата                          : Layer 3
Идентификатор кодека                     : 55
Идентификатор кодека/Подсказка           : MP3
Продолжительность                        : 39 м.
Вид битрейта                             : Постоянный
Битрейт                                  : 128 Кбит/сек
Каналы                                   : 2 канала
Частота                                  : 48,0 КГц
Метод сжатия                             : С потерями
Размер потока                            : 36,1 Мбайт (7%)
Выравнивание                             : Соединение по промежуткам
Продолжительность промежутка             : 40  мс. (1,00 видеокадр)
Время предзагрузки промежутка            : 504  мс.
Библиотека кодирования                   : LAME3.99r
Настройки программы                      : -m s -V 4 -q 2 -lowpass 17 -b 128

В выпуске:

- Приборы, приносящие тепло в дом: стоит ли их бояться? Они "сжирают" кислород в квартире! Они воспламеняются! Миф или правда о современных обогревателях в рубрике "Тайны явлений и вещей"
- Заменит ли спортивный уголок дома целый тренажер зал? Правда ли, что все спортивные уголки травмоопасны? Что делать со старыми стенками, кольцами и горками, если дети подросли? И что предлагают производители оборудования инновационного и безопасного?
- Вакуумный очиститель для ушей, автоматический помешиватель для еды и шлем для плавания - тестируем сами и честно. И рекомендуем только то, что реально работает! В рубрике "Чудо-товары"
- Снять обувь, не наклоняясь, собрать ягоды, не нагибаясь и другие необычные приспособления от Умельца из Чувашии Вячеслава Васильева.
Все самое интересное — в программе «Чудо техники».
Скриншоты:
       

}{@R0N

Пост 12-Фев-2017 09:54

[Цитировать]

Теория заговора. Как хранить продукты. Модные новинки - Телекомпания: Первый канал
Жанр: Документальный
Производство: Россия
Описание:
Вы заметили, что мы давно живем в том будущем, о котором еще недавно смотрели фантастические фильмы? Разговариваем по телефону и видим лицо собеседника, можем найти любую информацию и практически любого человека в интернете, можем отследить местоположение мужа или жены, без использования шпионских датчиков.
Релиз от: -=DeMoH=-
Продолжительность: 00:45:04
Качество видео: SATRip
Субтитры: Отсутствуют
Видео: MPEG4, XviD, 704x448 (1.571), 25.000 fps, 1 800 Kbps (0.228 bit/pixel)
Аудио: AC-3, 48.0 KHz, 2 ch, 192 Kbps, CBR

Mediainfo:

Код:
Общее
Полное имя                               : D:\[1]\Теория заговора\Теория заговора. Как хранить продукты. Модные новинки (2017.02.12).avi
Формат                                   : AVI
Формат/Информация                        : Audio Video Interleave
Размер файла                             : 645 Мбайт
Продолжительность                        : 45 м.
Общий поток                              : 2002 Кбит/сек
Программа кодирования                    : VirtualDubMod 1.5.10.3 | [url=http://www.virtualdub-fr.org]www.virtualdub-fr.org[/url] || (build 2550/release)
Библиотека кодирования                   : VirtualDubMod build 2550/release
Видео
Идентификатор                            : 0
Формат                                   : MPEG-4 Visual
Профиль формата                          : Advanced [email protected]
Параметр BVOP формата                    : 2
Параметр QPel формата                    : Нет
Параметр GMC формата                     : Без точки перехода
Параметр матрицы формата                 : Default (H.263)
Идентификатор кодека                     : XVID
Идентификатор кодека/Подсказка           : XviD
Продолжительность                        : 45 м.
Битрейт                                  : 1800 Кбит/сек
Ширина                                   : 704 пикселя
Высота                                   : 448 пикселей
Соотношение сторон                       : 16:10
Частота кадров                           : 25,000 кадров/сек
Цветовое пространство                    : YUV
Субдискретизация насыщенности            : 4:2:0
Битовая глубина                          : 8 бит
Тип развёртки                            : Прогрессивная
Метод сжатия                             : С потерями
Бит/(Пиксели*Кадры)                      : 0.228
Размер потока                            : 580 Мбайт (90%)
Библиотека кодирования                   : XviD 1.2.1 (UTC 2008-12-04)
Аудио
Идентификатор                            : 1
Формат                                   : AC-3
Формат/Информация                        : Audio Coding 3
Расширение режима                        : CM (complete main)
Параметр Endianness формата              : Big
Идентификатор кодека                     : 2000
Продолжительность                        : 45 м.
Вид битрейта                             : Постоянный
Битрейт                                  : 192 Кбит/сек
Каналы                                   : 2 канала
Расположение каналов                     : Front: L R
Частота                                  : 48,0 КГц
Битовая глубина                          : 16 бит
Метод сжатия                             : С потерями
Размер потока                            : 61,9 Мбайт (10%)
Выравнивание                             : Разделение по промежуткам
Продолжительность промежутка             : 40  мс. (1,00 видеокадр)
Время предзагрузки промежутка            : 500  мс.
Скриншоты:
       

}{@R0N

Пост 11-Фев-2017 12:05

[Цитировать]

Научное расследование Сергея Малозёмова. Еда живая и мертвая (2017.02.11) - Производство: НТВ
Жанр: Документальный
Ведущие: Сергей Малозёмов
Описание:
«Еда живая и мертвая» – новый научно-популярный цикл Сергея Малозёмова, репортера с медицинским образованием, автора и ведущего программы «Чудо техники» и научных расследований о климате, технологиях, бессмертии и экологии.
Релиз от: -=FOX=-
Продолжительность: 00:41:21
Качество видео: SATRip
Субтитры: Отсутствуют
Видео: MPEG4, XviD, 720x448 (1.607), 25.000 fps, 1 800 Kbps (0.223 bit/pixel)
Аудио: MP3, 48.0 KHz, 2 ch, 128 Kbps, CBR

Mediainfo:

Код:
Общее
Полное имя                               : D:\[1]\Еда живая и мертвая\Еда живая и мертвая (2017.02.11).avi
Формат                                   : AVI
Формат/Информация                        : Audio Video Interleave
Размер файла                             : 573 Мбайт
Продолжительность                        : 41 м.
Общий поток                              : 1938 Кбит/сек
Программа кодирования                    : VirtualDubMod 1.5.10.3 | [url=http://www.virtualdub-fr.org]www.virtualdub-fr.org[/url] || (build 2550/release)
Библиотека кодирования                   : VirtualDubMod build 2550/release
Видео
Идентификатор                            : 0
Формат                                   : MPEG-4 Visual
Профиль формата                          : Advanced [email protected]
Параметр BVOP формата                    : 2
Параметр QPel формата                    : Нет
Параметр GMC формата                     : Без точки перехода
Параметр матрицы формата                 : Default (MPEG)
Идентификатор кодека                     : XVID
Идентификатор кодека/Подсказка           : XviD
Продолжительность                        : 41 м.
Битрейт                                  : 1800 Кбит/сек
Ширина                                   : 720 пикселей
Высота                                   : 448 пикселей
Соотношение сторон                       : 16:10
Частота кадров                           : 25,000 кадров/сек
Цветовое пространство                    : YUV
Субдискретизация насыщенности            : 4:2:0
Битовая глубина                          : 8 бит
Тип развёртки                            : Прогрессивная
Метод сжатия                             : С потерями
Бит/(Пиксели*Кадры)                      : 0.223
Размер потока                            : 532 Мбайт (93%)
Библиотека кодирования                   : XviD 73
Аудио
Идентификатор                            : 1
Формат                                   : MPEG Audio
Версия формата                           : Version 1
Профиль формата                          : Layer 3
Идентификатор кодека                     : 55
Идентификатор кодека/Подсказка           : MP3
Продолжительность                        : 41 м.
Вид битрейта                             : Постоянный
Битрейт                                  : 128 Кбит/сек
Каналы                                   : 2 канала
Частота                                  : 48,0 КГц
Метод сжатия                             : С потерями
Размер потока                            : 37,9 Мбайт (7%)
Выравнивание                             : Соединение по промежуткам
Продолжительность промежутка             : 40  мс. (1,00 видеокадр)
Время предзагрузки промежутка            : 504  мс.
Библиотека кодирования                   : LAME3.99r
Настройки программы                      : -m s -V 4 -q 2 -lowpass 17 -b 128

В выпуске:

- Каши. Действительно ли полезно есть каши по утрам? Каши с огурцом, шоколадом, зеленью и другие варианты гастрономического креатива - новый тренд современной кухни. В каком виде каша приносит больше всего пользы? Почему манную лучше детям не давать? Есть ли польза в овсянке быстрого приготовления? И последние исследования ученых - каши негативно влияют на мужское здоровье! Вся правда о кашах.
- Можно ли с помощью питания улучшить зрение? Печень трески и другие продукты для того, чтобы справиться с глазными болезнями. И помогает ли сладкое в борьбе за хорошее зрение?
- Что такое современная высокая кухня. Репортаж из французского Лиона с финала мирового поварского искусства.
А также необычный и вкусный рецепт недели.
Скриншоты:
       

}{@R0N

Пост 09-Фев-2017 23:42

[Цитировать]

Поединок с Владимиром Соловьевым (2017.02.09) (выпуск 145) - Телекомпания: Россия
Жанр: ТВ-Шоу
Режиссер/Ведущий: Владимир Соловьев
Описание:
Актуальный разговор Владимира Соловьева на общественно-политические темы.
Сегодня, 09 февраля на телеканале «Россия-1» в программе «Поединок с Владимиром Соловьевым» Владимир Жириновский против Сергея Кургиняна.
Тема выпуска: Как стабилизировать Украину?
Релиз от: -=DeMoH=-
Продолжительность: ~ 01:35:48
Качество видео: SATRip
Субтитры: Отсутствуют
Видео: MPEG4, XviD, 720x400 (16:9), 25.000 fps, 1 800 Kbps (0.250 bit/pixel)
Аудио: AC-3, 48.0 KHz, 2 ch, 192 Kbps, CBR

Mediainfo:

Код:
Общее
Полное имя                               : D:\[1]\Поединок с Владимиром Соловьёвым\Поединок с Владимиром Соловьевым. Выпуск 145 (2017.02.09).avi
Формат                                   : AVI
Формат/Информация                        : Audio Video Interleave
Размер файла                             : 1,34 Гбайт
Продолжительность                        : 1 ч. 35 м.
Общий поток                              : 2001 Кбит/сек
Программа кодирования                    : VirtualDubMod 1.5.10.3 | [url=http://www.virtualdub-fr.org]www.virtualdub-fr.org[/url] || (build 2550/release)
Библиотека кодирования                   : VirtualDub build 35491/release
Видео
Идентификатор                            : 0
Формат                                   : MPEG-4 Visual
Профиль формата                          : Advanced [email protected]
Параметр BVOP формата                    : 2
Параметр QPel формата                    : Нет
Параметр GMC формата                     : Без точки перехода
Параметр матрицы формата                 : Default (H.263)
Идентификатор кодека                     : XVID
Идентификатор кодека/Подсказка           : XviD
Продолжительность                        : 1 ч. 35 м.
Битрейт                                  : 1800 Кбит/сек
Ширина                                   : 720 пикселей
Высота                                   : 400 пикселей
Соотношение сторон                       : 16:9
Частота кадров                           : 25,000 кадров/сек
Цветовое пространство                    : YUV
Субдискретизация насыщенности            : 4:2:0
Битовая глубина                          : 8 бит
Тип развёртки                            : Прогрессивная
Метод сжатия                             : С потерями
Бит/(Пиксели*Кадры)                      : 0.250
Размер потока                            : 1,20 Гбайт (90%)
Библиотека кодирования                   : XviD 1.2.1 (UTC 2008-12-04)
Аудио
Идентификатор                            : 1
Формат                                   : AC-3
Формат/Информация                        : Audio Coding 3
Расширение режима                        : CM (complete main)
Параметр Endianness формата              : Big
Идентификатор кодека                     : 2000
Продолжительность                        : 1 ч. 35 м.
Вид битрейта                             : Постоянный
Битрейт                                  : 192 Кбит/сек
Каналы                                   : 2 канала
Расположение каналов                     : Front: L R
Частота                                  : 48,0 КГц
Битовая глубина                          : 16 бит
Метод сжатия                             : С потерями
Размер потока                            : 132 Мбайт (10%)
Выравнивание                             : Разделение по промежуткам
Продолжительность промежутка             : 40  мс. (1,00 видеокадр)
Время предзагрузки промежутка            : 500  мс.
Скриншоты:
       

}{@R0N

Пост 05-Фев-2017 20:01

[Цитировать]

Воскресный вечер с Владимиром Соловьевым (2017.02.05) SATRip - Телекомпания: Россия
Жанр: Телепередача
Ведущий: Владимир Соловьёв
Описание:
"Мы ставили задачу сделать программу для умного, неравнодушного зрителя, которая позволит обсуждать актуальные проблемы в разных форматах: от интервью "один на один" до "круглого стола". Надеемся, она будет такой же острой, как политическое ток-шоу "Поединок". Но если в "Поединке" сталкиваются две полярные точки зрения, то здесь мы намерены представить более широкий спектр мнений: ведь в обществе обсуждается множество тем, которые вызывают не только однозначные реакции", - сказал автор проекта Владимир Соловьев.
В выпуске: Уже неделю длится тяжелейшая эскалация на Донбассе, по неофициальным данным украинская армия потеряла более двухсот военных. Назвать количество погибших мирных жителей ОБСЕ пока не может. Пётр Порошенко поговорил по телефону с Дональдом Трампом и услышал неприятную для себя новость, Америка готова помогать с урегулированием на границе всем странам, среди которых названа и Россия. В Совбезе ООН риторика и тон нового представителя США относительно России тоже стали существенно мягче. Тогда почему Трамп не уверен, что сможет поладить с Путиным? Будет ли Вашингтон поставлять оружие Киеву и как остановить хотя бы гуманитарную катастрофу на Донбассе, если прекратить огонь пока не получается?
Релиз от: -=DeMoH=-
Продолжительность: ~ 01:42:29
Качество видео: SATRip
Субтитры: Отсутствуют
Видео: MPEG4, XviD, 720x400 (16:9), 25.000 fps, 1 800 Kbps (0.250 bit/pixel)
Аудио: AC-3, 48.0 KHz, 2 ch, 192 Kbps, CBR

Mediainfo:

Код:
Общее
Полное имя                               : D:\[1]\Воскресный вечер с Владимиром Соловьевым\Воскресный вечер с Владимиром Соловьевым (2017.02.05).avi
Формат                                   : AVI
Формат/Информация                        : Audio Video Interleave
Размер файла                             : 1,43 Гбайт
Продолжительность                        : 1 ч. 42 м.
Общий поток                              : 2001 Кбит/сек
Программа кодирования                    : VirtualDubMod 1.5.10.3 | [url=http://www.virtualdub-fr.org]www.virtualdub-fr.org[/url] || (build 2550/release)
Библиотека кодирования                   : VirtualDub build 35491/release
Видео
Идентификатор                            : 0
Формат                                   : MPEG-4 Visual
Профиль формата                          : Advanced [email protected]
Параметр BVOP формата                    : 2
Параметр QPel формата                    : Нет
Параметр GMC формата                     : Без точки перехода
Параметр матрицы формата                 : Default (H.263)
Идентификатор кодека                     : XVID
Идентификатор кодека/Подсказка           : XviD
Продолжительность                        : 1 ч. 42 м.
Битрейт                                  : 1800 Кбит/сек
Ширина                                   : 720 пикселей
Высота                                   : 400 пикселей
Соотношение сторон                       : 16:9
Частота кадров                           : 25,000 кадров/сек
Цветовое пространство                    : YUV
Субдискретизация насыщенности            : 4:2:0
Битовая глубина                          : 8 бит
Тип развёртки                            : Прогрессивная
Метод сжатия                             : С потерями
Бит/(Пиксели*Кадры)                      : 0.250
Размер потока                            : 1,29 Гбайт (90%)
Библиотека кодирования                   : XviD 1.2.1 (UTC 2008-12-04)
Аудио
Идентификатор                            : 1
Формат                                   : AC-3
Формат/Информация                        : Audio Coding 3
Расширение режима                        : CM (complete main)
Параметр Endianness формата              : Big
Идентификатор кодека                     : 2000
Продолжительность                        : 1 ч. 42 м.
Вид битрейта                             : Постоянный
Битрейт                                  : 192 Кбит/сек
Каналы                                   : 2 канала
Расположение каналов                     : Front: L R
Частота                                  : 48,0 КГц
Битовая глубина                          : 16 бит
Метод сжатия                             : С потерями
Размер потока                            : 141 Мбайт (10%)
Выравнивание                             : Разделение по промежуткам
Продолжительность промежутка             : 40  мс. (1,00 видеокадр)
Время предзагрузки промежутка            : 500  мс.
Скриншоты:
       

}{@R0N

Пост 31-Янв-2017 21:43

[Цитировать]

Тайный мир ракообразных / The Secret World of Crustaceans - Телекомпания: Франция
Жанр: Документальный, морская фауна
Режиссер: Мануэль Лефевр
Описание:
Морское дно - дом для многих странных существ. Среди морских обитателей встречается одна довольно необычная группа - ракообразные, которые веками оставались для человека загадкой. Этим животным несколько миллионов лет, они насчитывают около 50 тысяч видов, большинство из которых водные обитатели. Наблюдать их в естественной среде непросто, ведь днем они прячутся в норах".
Продолжительность: 00:50:28
Качество видео: SATRip
Перевод: Одноголосый закадровый, профессиональный
Видео: Xvid, 720x400, ~1 497 Kbps
Аудио: MP3, 2 ch, 128 Kbps, CBR

Mediainfo:

Общее
Полное имя : F:\КИНО\Тайный мир ракообразных.avi
Формат : AVI
Формат/Информация : Audio Video Interleave
Размер файла : 591 Мбайт
Продолжительность : 50 м. 28 с.
Общий поток : 1637 Кбит/сек
Программа кодирования : Lavf56.40.101
Видео
Идентификатор : 0
Формат : xvid
Идентификатор кодека : xvid
Продолжительность : 50 м. 28 с.
Битрейт : 1497 Кбит/сек
Ширина : 720 пикселей
Высота : 400 пикселей
Соотношение сторон : 16:9
Частота кадров : 25,000 кадров/сек
Тип развёртки : Прогрессивная
Бит/(Пиксели*Кадры) : 0.208
Размер потока : 540 Мбайт (91%)
Аудио
Идентификатор : 1
Формат : MPEG Audio
Версия формата : Version 1
Профиль формата : Layer 3
Режим : Joint stereo
Расширение режима : MS Stereo
Идентификатор кодека : 55
Идентификатор кодека/Подсказка : MP3
Продолжительность : 50 м. 28 с.
Вид битрейта : Постоянный
Битрейт : 128 Кбит/сек
Каналы : 2 канала
Частота : 44,1 КГц
Метод сжатия : С потерями
Размер потока : 46,2 Мбайт (8%)
Выравнивание : Соединение по промежуткам
Продолжительность промежутка : 26 мс. (0,65 видеокадр)
Время предзагрузки промежутка : 52 мс.
Скриншоты:
       
 

Текущее время: Сегодня 02:17

Часовой пояс: GMT + 3