Сегодня идет свободное скачивание без начисления Download

Результатов поиска: 429

Автор Сообщение

}{@R0N

Пост 28-Мар-2017 22:51

[Цитировать]

Чудеса заводного мира
Mechanical Marvels. Clockwork Dreams
- Телекомпания: Великобритания, Furnace, British Broadcasting Corporation (BBC)
Жанр: Документальный, история, техника
Режиссер: Ник Стейси
Участники: Саймон Шаффер
Описание:
Профессор Саймон Шаффер рассказывает историю появления и объясняет принципы работы замечательных творений Пьера Жаке-Дро и других мастеров создававших автоматоны. Эти механизмы приводятся в движение с помощью кривошипно-шатунной заводной пружины, благодаря этому мудрёному механизму такие удивительные конструкции как «мальчик-калиграф», «девушка-музыкант», «мальчик-художник» словно оживают, создавая у зрителя эффект, будто в куклу вдохнули жизнь.
Механика была создана давно и сейчас она применяется почти во всех систематически работающих и преуспевающих сферах жизни. Тем самым, благодаря ей, получается экономить свое время, силы, все усовершенствуется с огромнейшей скоростью и спустя год, можно видеть значительные изменения практически во всем. Автоматоны, работающие благодаря пружине, делают любого робота и неживой предмет живым, способным работать как только его включат.

Продолжительность: 00:59:16
Качество видео: HDTVRip
Перевод: Одноголосый закадровый, профессиональный (Видеофильм ТВ)
Язык субтитров: Английский
Вид субтитров: Вшитые
Видео: AVC/H.264, 1280x720, ~3009 Kbps
Аудио#1: Русский, AC3, 2 ch, 192 Kbps
Аудио#2: Английский, AAC, 2 ch, 148 Kbps

Mediainfo:

Общее
Уникальный идентификатор : 252021124831847002115365482625772485342 (0xBD9980CAB6F641C9BA9077B8B6EAFADE)
Полное имя : F:\КИНО\Чудеса заводного мира.mkv
Формат : Matroska
Версия формата : Version 4 / Version 2
Размер файла : 1,39 Гбайт
Продолжительность : 59 м. 16 с.
Общий поток : 3352 Кбит/сек
Название фильма : BBC.Mechanical Marvels: Clockwork Dreams (2014)
Дата кодирования : UTC 2014-12-13 11:03:05
Программа кодирования : mkvmerge v7.4.0 ('Circles') 64bit built on Dec 12 2014 12:19:56
Библиотека кодирования : libebml v1.3.0 + libmatroska v1.4.1
Видео
Идентификатор : 1
Формат : AVC
Формат/Информация : Advanced Video Codec
Профиль формата : [url=mailto:[email protected]][email protected][/url]
Параметр CABAC формата : Нет
Параметр ReFrames формата : 1 кадр
Параметр GOP формата : M=1, N=12
Идентификатор кодека : V_MPEG4/ISO/AVC
Продолжительность : 59 м. 16 с.
Битрейт : 3009 Кбит/сек
Ширина : 1280 пикселей
Высота : 720 пикселей
Соотношение сторон : 16:9
Режим частоты кадров : Постоянный
Частота кадров : 25,000 кадров/сек
Цветовое пространство : YUV
Субдискретизация насыщенности : 4:2:0
Битовая глубина : 8 бит
Тип развёртки : Прогрессивная
Бит/(Пиксели*Кадры) : 0.131
Размер потока : 1,25 Гбайт (90%)
Default : Да
Forced : Нет
Аудио #1
Идентификатор : 2
Формат : AC-3
Формат/Информация : Audio Coding 3
Параметр Endianness формата : Big
Идентификатор кодека : A_AC3
Продолжительность : 59 м. 16 с.
Вид битрейта : Постоянный
Битрейт : 192 Кбит/сек
Каналы : 2 канала
Расположение каналов : Front: L R
Частота : 48,0 КГц
Частота кадров : 31,250 кадров/сек (1536 spf)
Битовая глубина : 16 бит
Метод сжатия : С потерями
Размер потока : 81,4 Мбайт (6%)
Язык : Russian
ServiceKind/String : Complete Main
Default : Да
Forced : Нет
Аудио #2
Идентификатор : 3
Формат : AAC
Формат/Информация : Advanced Audio Codec
Профиль формата : LC
Идентификатор кодека : A_AAC
Продолжительность : 59 м. 16 с.
Битрейт : 148 Кбит/сек
Каналы : 2 канала
Расположение каналов : Front: L R
Частота : 48,0 КГц
Частота кадров : 46,875 кадров/сек (1024 spf)
Метод сжатия : С потерями
Размер потока : 62,6 Мбайт (4%)
Язык : English
Default : Нет
Forced : Нет
Текст
Идентификатор : 4
Формат : UTF-8
Идентификатор кодека : S_TEXT/UTF8
Идентификатор кодека/Информация : UTF-8 Plain Text
Продолжительность : 59 м. 10 с.
Битрейт : 64 бит/сек
ElementCount : 575
Размер потока : 28,0 Кбайт (0%)
Язык : English
Default : Нет
Forced : Нет
Скриншоты:
       

Дополнительные скриншоты:

       

}{@R0N

Пост 17-Фев-2017 13:21

[Цитировать]

Загадки острова Пасхи / The mystery of Easter Island - Телекомпания: Великобритания
Жанр: Документальный
Режиссер: Джонатан Ренуф
Описание:
Остров Пасхи долгие годы был загадкой для ученых. Кто создатель этой удивительной цивилизации? Кто и зачем воздвиг знаменитые каменные истуканы? Куда исчезли эти загадочные скульпторы? Современная наука начинает постепенно разгадывать тайны острова Пасхи.

Продолжительность: 00:49:03
Качество видео: TVRip
Перевод: Одноголосый закадровый, профессиональный
Видео: Xvid, 480 x 360, ~1 127 Kbps
Аудио: MP3, 2 ch, 128 Kbps

Mediainfo:

Общее
Полное имя : F:\КИНО\Загадки Острова Пасхи..avi
Формат : AVI
Формат/Информация : Audio Video Interleave
Размер файла : 445 Мбайт
Продолжительность : 49 м. 3 с.
Общий поток : 1267 Кбит/сек
Программа кодирования : Lavf56.15.102
Видео
Идентификатор : 0
Формат : xvid
Идентификатор кодека : xvid
Продолжительность : 49 м. 3 с.
Битрейт : 1127 Кбит/сек
Ширина : 480 пикселей
Высота : 360 пикселей
Соотношение сторон : 4:3
Частота кадров : 25,000 кадров/сек
Тип развёртки : Прогрессивная
Бит/(Пиксели*Кадры) : 0.261
Размер потока : 396 Мбайт (89%)
Аудио
Идентификатор : 1
Формат : MPEG Audio
Версия формата : Version 1
Профиль формата : Layer 3
Режим : Joint stereo
Расширение режима : MS Stereo
Идентификатор кодека : 55
Идентификатор кодека/Подсказка : MP3
Продолжительность : 49 м. 3 с.
Вид битрейта : Постоянный
Битрейт : 128 Кбит/сек
Каналы : 2 канала
Частота : 44,1 КГц
Метод сжатия : С потерями
Размер потока : 44,9 Мбайт (10%)
Выравнивание : Соединение по промежуткам
Продолжительность промежутка : 26 мс. (0,65 видеокадр)
Время предзагрузки промежутка : 26 мс.
Библиотека кодирования : LAME3.98.4
Скриншоты:
       

}{@R0N

Пост 19-Янв-2017 14:35

[Цитировать]

BBC. Электронные сигареты: чудо или угроза
BBC Horizon - E-Cigarettes: Miracle or Menace
- Телекомпания: BBS
Жанр: Телепередача
Участники: Michael Mosley
Описание:
Телепередача на канале BBC. Фильм про электронные парогенераторы.
Исследования, эксперименты, интервью, мнения специалистов и парильщиков.
Продолжительность: 58:17
Качество видео: HDRip
Перевод: Одноголосый закадровый, любительский
Язык: Русский
Видео: MPEG-1, 1280x720, ~1190
Аудио: AAC, 2 ch, 126kbps, CBR

Mediainfo:

General
Complete name сигареты- чудо или угроза 1-3..mp4
Format : MPEG-4
Format profile : Base Media / Version 2
Codec ID : mp42
File size : 169 MiB
Duration : 19mn 46s
Overall bit rate mode : Variable
Overall bit rate : 1 193 Kbps
Encoded date : UTC 2016-06-11 11:53:55
Tagged date : UTC 2016-06-11 11:53:55
gsst : 0
gstd : 1186307
Video
ID : 1
Format : AVC
Format/Info : Advanced Video Codec
Format profile : [url=mailto:[email protected]][email protected][/url]
Format settings, CABAC : Yes
Format settings, ReFrames : 3 frames
Codec ID : avc1
Codec ID/Info : Advanced Video Coding
Duration : 19mn 46s
Bit rate : 1 064 Kbps
Width : 1 280 pixels
Height : 720 pixels
Display aspect ratio : 16:9
Frame rate mode : Constant
Frame rate : 25.000 fps
Color space : YUV
Chroma subsampling : 4:2:0
Bit depth : 8 bits
Scan type : Progressive
Bits/(Pixel*Frame) : 0.046
Stream size : 151 MiB (89%)
Title : ISO Media file produced by Google Inc.
Encoded date : UTC 2016-06-11 11:53:55
Tagged date : UTC 2016-06-11 11:53:55
Color primaries : BT.709
Transfer characteristics : BT.709
Matrix coefficients : BT.709
Audio
ID : 2
Format : AAC
Format/Info : Advanced Audio Codec
Format profile : LC
Codec ID : 40
Duration : 19mn 46s
Bit rate mode : Variable
Bit rate : 126 Kbps
Channel(s) : 2 channels
Channel positions : Front: L R
Sampling rate : 44.1 KHz
Compression mode : Lossy
Stream size : 17.8 MiB (11%)
Title : ISO Media file produced by Google Inc.
Encoded date : UTC 2016-06-11 11:53:55
Tagged date : UTC 2016-06-11 11:53:55
Скриншоты:
       

}{@R0N

Пост 29-Авг-2016 20:47

[Цитировать]

BBC. Большой Барьерный риф с Дэвидом Аттенборо
Great Barrier Reef with David Attenborough
(серия 3)
- Страна: Великобритания
Режиссер / Телекомпания: Майкл Дэвис, BBC
Жанр: Документальный, научно-познавательный, природа, флора, фауна
Описание:
В этом фильме Дэвид Аттенборо с помощью научно-исследовательского судна Алюсия расскрывает историю и тайны богатого биоразнообразием самого волшебного места на Земле - Большого Барьерного рифа.
В выпуске: Выживание / Survival

Ведущий: Дэвид Аттенборо
Продолжительность: 00:58:11
Качество видео: BDRip
Перевод: Одноголосый закадровый, любительский (Ю. Онищенко)
Вид субтитров: Вшитые, отключаемые
Язык субтитров: Русский, английский
Видео: MPEG-4 AVC/H.264, 1280x720 (16:9), ~5000 Кбит/сек
Аудио #1: AC-3, 6 ch, 448 kbps (Русский)
Аудио #2: AC-3, 6 ch, 448 kbps (Английский)

MediaInfo

Код:
Общее
Уникальный идентификатор                 : 175152597650363111324326838697538920004 (0x83C529CBBF995AB1AF338AFB4E989E44)
Полное имя                               : Большой Барьерный риф. Выживание.mkv
Формат                                   : Matroska
Версия формата                           : Version 1
Размер файла                             : 2,40 Гбайт
Продолжительность                        : 58 м.
Общий поток                              : 5900 Кбит/сек
Дата кодирования                         : UTC 2016-08-23 17:21:16
Программа кодирования                    : mkvmerge v2.1.0 ('Another Place To Fall') built on Aug 19 2007 13:40:07
Библиотека кодирования                   : libebml v0.7.7 + libmatroska v0.8.1
Видео
Идентификатор                            : 1
Формат                                   : AVC
Формат/Информация                        : Advanced Video Codec
Профиль формата                          : [url=mailto:[email protected]][email protected][/url]
Параметр CABAC формата                   : Да
Параметр ReFrames формата                : 10 кадров
Идентификатор кодека                     : V_MPEG4/ISO/AVC
Продолжительность                        : 58 м.
Битрейт                                  : 5000 Кбит/сек
Ширина                                   : 1280 пикселей
Высота                                   : 720 пикселей
Соотношение сторон                       : 16:9
Режим частоты кадров                     : Постоянный
Частота кадров                           : 25,000 кадров/сек
Цветовое пространство                    : YUV
Субдискретизация насыщенности            : 4:2:0
Битовая глубина                          : 8 бит
Тип развёртки                            : Прогрессивная
Бит/(Пиксели*Кадры)                      : 0.217
Размер потока                            : 1,99 Гбайт (83%)
Библиотека кодирования                   : x264 core 130 r2273 b3065e6
Настройки программы                      : cabac=1 / ref=10 / deblock=1:-3:-3 / analyse=0x3:0x133 / me=umh / subme=10 / psy=1 / psy_rd=1.00:0.10 / mixed_ref=1 / me_range=48 / chroma_me=1 / trellis=2 / 8x8dct=1 / cqm=0 / deadzone=21,11 / fast_pskip=0 / chroma_qp_offset=-3 / threads=6 / lookahead_threads=1 / sliced_threads=0 / nr=0 / decimate=1 / interlaced=0 / bluray_compat=0 / constrained_intra=0 / bframes=7 / b_pyramid=2 / b_adapt=2 / b_bias=0 / direct=3 / weightb=1 / open_gop=0 / weightp=2 / keyint=250 / keyint_min=25 / scenecut=40 / intra_refresh=0 / rc_lookahead=40 / rc=2pass / mbtree=1 / bitrate=5000 / ratetol=1.0 / qcomp=0.60 / qpmin=10 / qpmax=51 / qpstep=4 / cplxblur=20.0 / qblur=0.5 / ip_ratio=1.40 / aq=1:1.00
Default                                  : Да
Forced                                   : Нет
Аудио #1
Идентификатор                            : 2
Формат                                   : AC-3
Формат/Информация                        : Audio Coding 3
Расширение режима                        : CM (complete main)
Параметр Endianness формата              : Big
Идентификатор кодека                     : A_AC3
Продолжительность                        : 58 м.
Вид битрейта                             : Постоянный
Битрейт                                  : 448 Кбит/сек
Каналы                                   : 6 каналов
Расположение каналов                     : Front: L C R, Side: L R, LFE
Частота                                  : 48,0 КГц
Частота кадров                           : 31,250 кадров/сек (1536 spf)
Метод сжатия                             : С потерями
Размер потока                            : 186 Мбайт (8%)
Заголовок                                : Ю. Онищенко
Язык                                     : Russian
Default                                  : Да
Forced                                   : Нет
Аудио #2
Идентификатор                            : 3
Формат                                   : AC-3
Формат/Информация                        : Audio Coding 3
Расширение режима                        : CM (complete main)
Параметр Endianness формата              : Big
Идентификатор кодека                     : A_AC3
Продолжительность                        : 58 м.
Вид битрейта                             : Постоянный
Битрейт                                  : 448 Кбит/сек
Каналы                                   : 6 каналов
Расположение каналов                     : Front: L C R, Side: L R, LFE
Частота                                  : 48,0 КГц
Частота кадров                           : 31,250 кадров/сек (1536 spf)
Метод сжатия                             : С потерями
Размер потока                            : 186 Мбайт (8%)
Язык                                     : English
Default                                  : Нет
Forced                                   : Нет
Текст #1
Идентификатор                            : 4
Формат                                   : UTF-8
Идентификатор кодека                     : S_TEXT/UTF8
Идентификатор кодека/Информация          : UTF-8 Plain Text
Язык                                     : Russian
Default                                  : Да
Forced                                   : Нет
Текст #2
Идентификатор                            : 5
Формат                                   : UTF-8
Идентификатор кодека                     : S_TEXT/UTF8
Идентификатор кодека/Информация          : UTF-8 Plain Text
Язык                                     : English
Default                                  : Нет
Forced                                   : Нет
Скриншоты:
       

}{@R0N

Пост 29-Авг-2016 20:47

[Цитировать]

BBC. Большой Барьерный риф с Дэвидом Аттенборо
Great Barrier Reef with David Attenborough
(серия 2)
- Страна: Великобритания
Режиссер / Телекомпания: Майкл Дэвис, BBC
Жанр: Документальный, научно-познавательный, природа, флора, фауна
Описание:
В этом фильме Дэвид Аттенборо с помощью научно-исследовательского судна Алюсия расскрывает историю и тайны богатого биоразнообразием самого волшебного места на Земле - Большого Барьерного рифа.
В выпуске: Гости рифа / Visitors

Ведущий: Дэвид Аттенборо
Продолжительность: 00:58:11
Качество видео: BDRip
Перевод: Одноголосый закадровый, любительский (Ю. Онищенко)
Вид субтитров: Вшитые, отключаемые
Язык субтитров: Русский, английский
Видео: MPEG-4 AVC/H.264, 1280x720 (16:9), ~5000 Кбит/сек
Аудио #1: AC-3, 6 ch, 448 kbps (Русский)
Аудио #2: AC-3, 6 ch, 448 kbps (Английский)

MediaInfo

Код:
Общее
Уникальный идентификатор                 : 237873633050327356908952643434250179182 (0xB2F4CB97F0CFE97E8E18F3177C47126E)
Полное имя                               : Большой Барьерный риф. Гости рифа.mkv
Формат                                   : Matroska
Версия формата                           : Version 1
Размер файла                             : 2,40 Гбайт
Продолжительность                        : 58 м.
Общий поток                              : 5900 Кбит/сек
Дата кодирования                         : UTC 2016-08-23 13:50:28
Программа кодирования                    : mkvmerge v2.1.0 ('Another Place To Fall') built on Aug 19 2007 13:40:07
Библиотека кодирования                   : libebml v0.7.7 + libmatroska v0.8.1
Видео
Идентификатор                            : 1
Формат                                   : AVC
Формат/Информация                        : Advanced Video Codec
Профиль формата                          : [url=mailto:[email protected]][email protected][/url]
Параметр CABAC формата                   : Да
Параметр ReFrames формата                : 10 кадров
Идентификатор кодека                     : V_MPEG4/ISO/AVC
Продолжительность                        : 58 м.
Битрейт                                  : 5000 Кбит/сек
Ширина                                   : 1280 пикселей
Высота                                   : 720 пикселей
Соотношение сторон                       : 16:9
Режим частоты кадров                     : Постоянный
Частота кадров                           : 25,000 кадров/сек
Цветовое пространство                    : YUV
Субдискретизация насыщенности            : 4:2:0
Битовая глубина                          : 8 бит
Тип развёртки                            : Прогрессивная
Бит/(Пиксели*Кадры)                      : 0.217
Размер потока                            : 1,99 Гбайт (83%)
Библиотека кодирования                   : x264 core 130 r2273 b3065e6
Настройки программы                      : cabac=1 / ref=10 / deblock=1:-3:-3 / analyse=0x3:0x133 / me=umh / subme=10 / psy=1 / psy_rd=1.00:0.10 / mixed_ref=1 / me_range=48 / chroma_me=1 / trellis=2 / 8x8dct=1 / cqm=0 / deadzone=21,11 / fast_pskip=0 / chroma_qp_offset=-3 / threads=6 / lookahead_threads=1 / sliced_threads=0 / nr=0 / decimate=1 / interlaced=0 / bluray_compat=0 / constrained_intra=0 / bframes=7 / b_pyramid=2 / b_adapt=2 / b_bias=0 / direct=3 / weightb=1 / open_gop=0 / weightp=2 / keyint=250 / keyint_min=25 / scenecut=40 / intra_refresh=0 / rc_lookahead=40 / rc=2pass / mbtree=1 / bitrate=5000 / ratetol=1.0 / qcomp=0.60 / qpmin=10 / qpmax=51 / qpstep=4 / cplxblur=20.0 / qblur=0.5 / ip_ratio=1.40 / aq=1:1.00
Default                                  : Да
Forced                                   : Нет
Аудио #1
Идентификатор                            : 2
Формат                                   : AC-3
Формат/Информация                        : Audio Coding 3
Расширение режима                        : CM (complete main)
Параметр Endianness формата              : Big
Идентификатор кодека                     : A_AC3
Продолжительность                        : 58 м.
Вид битрейта                             : Постоянный
Битрейт                                  : 448 Кбит/сек
Каналы                                   : 6 каналов
Расположение каналов                     : Front: L C R, Side: L R, LFE
Частота                                  : 48,0 КГц
Частота кадров                           : 31,250 кадров/сек (1536 spf)
Метод сжатия                             : С потерями
Размер потока                            : 186 Мбайт (8%)
Заголовок                                : Ю. Онищенко
Язык                                     : Russian
Default                                  : Да
Forced                                   : Нет
Аудио #2
Идентификатор                            : 3
Формат                                   : AC-3
Формат/Информация                        : Audio Coding 3
Расширение режима                        : CM (complete main)
Параметр Endianness формата              : Big
Идентификатор кодека                     : A_AC3
Продолжительность                        : 58 м.
Вид битрейта                             : Постоянный
Битрейт                                  : 448 Кбит/сек
Каналы                                   : 6 каналов
Расположение каналов                     : Front: L C R, Side: L R, LFE
Частота                                  : 48,0 КГц
Частота кадров                           : 31,250 кадров/сек (1536 spf)
Метод сжатия                             : С потерями
Размер потока                            : 186 Мбайт (8%)
Язык                                     : English
Default                                  : Нет
Forced                                   : Нет
Текст #1
Идентификатор                            : 4
Формат                                   : UTF-8
Идентификатор кодека                     : S_TEXT/UTF8
Идентификатор кодека/Информация          : UTF-8 Plain Text
Язык                                     : Russian
Default                                  : Да
Forced                                   : Нет
Текст #2
Идентификатор                            : 5
Формат                                   : UTF-8
Идентификатор кодека                     : S_TEXT/UTF8
Идентификатор кодека/Информация          : UTF-8 Plain Text
Язык                                     : English
Default                                  : Нет
Forced                                   : Нет
Скриншоты:
       

}{@R0N

Пост 29-Авг-2016 20:46

[Цитировать]

BBC. Большой Барьерный риф с Дэвидом Аттенборо
Great Barrier Reef with David Attenborough
(серия 1)
- Страна: Великобритания
Режиссер / Телекомпания: Майкл Дэвис, BBC
Жанр: Документальный, научно-познавательный, природа, флора, фауна
Описание:
В этом фильме Дэвид Аттенборо с помощью научно-исследовательского судна Алюсия расскрывает историю и тайны богатого биоразнообразием самого волшебного места на Земле - Большого Барьерного рифа.
В выпуске: Строители. Builders.

Релиз от: Fандорин
Ведущий: Дэвид Аттенборо
Продолжительность: 00:58:11
Качество видео: BDRip
Перевод: Одноголосый закадровый, любительский (Ю. Онищенко)
Вид субтитров: Вшитые, отключаемые
Язык субтитров: Русский, английский
Видео: MPEG-4 AVC/H.264, 1280x720 (16:9), ~5000 Кбит/сек
Аудио #1: AC-3, 6 ch, 448 kbps (Русский)
Аудио #2: AC-3, 6 ch, 448 kbps (Английский)

MediaInfo

Код:
Общее
Уникальный идентификатор                 : 208544004289671945543988643217952652911 (0x9CE41D4009B0122CBA68ADC38866BE6F)
Полное имя                               : Большой Барьерный риф. Строители.mkv
Формат                                   : Matroska
Версия формата                           : Version 1
Размер файла                             : 2,40 Гбайт
Продолжительность                        : 58 м.
Общий поток                              : 5901 Кбит/сек
Название фильма                          : Great Barrier Reef with David Attenborough (2016)
Дата кодирования                         : UTC 2016-03-28 08:27:52
Программа кодирования                    : mkvmerge v2.1.0 ('Another Place To Fall') built on Aug 19 2007 13:40:07
Библиотека кодирования                   : libebml v0.7.7 + libmatroska v0.8.1
Видео
Идентификатор                            : 1
Формат                                   : AVC
Формат/Информация                        : Advanced Video Codec
Профиль формата                          : [url=mailto:[email protected]][email protected][/url]
Параметр CABAC формата                   : Да
Параметр ReFrames формата                : 10 кадров
Идентификатор кодека                     : V_MPEG4/ISO/AVC
Продолжительность                        : 58 м.
Битрейт                                  : 5000 Кбит/сек
Ширина                                   : 1280 пикселей
Высота                                   : 720 пикселей
Соотношение сторон                       : 16:9
Режим частоты кадров                     : Постоянный
Частота кадров                           : 25,000 кадров/сек
Цветовое пространство                    : YUV
Субдискретизация насыщенности            : 4:2:0
Битовая глубина                          : 8 бит
Тип развёртки                            : Прогрессивная
Бит/(Пиксели*Кадры)                      : 0.217
Размер потока                            : 1,99 Гбайт (83%)
Заголовок                                : rip by Fандорин [Kinozal.TV]
Библиотека кодирования                   : x264 core 130 r2273 b3065e6
Настройки программы                      : cabac=1 / ref=10 / deblock=1:-3:-3 / analyse=0x3:0x133 / me=umh / subme=10 / psy=1 / psy_rd=1.00:0.10 / mixed_ref=1 / me_range=48 / chroma_me=1 / trellis=2 / 8x8dct=1 / cqm=0 / deadzone=21,11 / fast_pskip=0 / chroma_qp_offset=-3 / threads=6 / lookahead_threads=1 / sliced_threads=0 / nr=0 / decimate=1 / interlaced=0 / bluray_compat=0 / constrained_intra=0 / bframes=7 / b_pyramid=2 / b_adapt=2 / b_bias=0 / direct=3 / weightb=1 / open_gop=0 / weightp=2 / keyint=250 / keyint_min=25 / scenecut=40 / intra_refresh=0 / rc_lookahead=40 / rc=2pass / mbtree=1 / bitrate=5000 / ratetol=1.0 / qcomp=0.60 / qpmin=10 / qpmax=51 / qpstep=4 / cplxblur=20.0 / qblur=0.5 / ip_ratio=1.40 / aq=1:1.00
Язык                                     : English
Default                                  : Да
Forced                                   : Нет
Аудио #1
Идентификатор                            : 2
Формат                                   : AC-3
Формат/Информация                        : Audio Coding 3
Расширение режима                        : CM (complete main)
Параметр Endianness формата              : Big
Идентификатор кодека                     : A_AC3
Продолжительность                        : 58 м.
Вид битрейта                             : Постоянный
Битрейт                                  : 448 Кбит/сек
Каналы                                   : 6 каналов
Расположение каналов                     : Front: L C R, Side: L R, LFE
Частота                                  : 48,0 КГц
Частота кадров                           : 31,250 кадров/сек (1536 spf)
Метод сжатия                             : С потерями
Размер потока                            : 186 Мбайт (8%)
Заголовок                                : Ю. Онищенко
Язык                                     : Russian
Default                                  : Да
Forced                                   : Нет
Аудио #2
Идентификатор                            : 3
Формат                                   : AC-3
Формат/Информация                        : Audio Coding 3
Расширение режима                        : CM (complete main)
Параметр Endianness формата              : Big
Идентификатор кодека                     : A_AC3
Продолжительность                        : 58 м.
Вид битрейта                             : Постоянный
Битрейт                                  : 448 Кбит/сек
Каналы                                   : 6 каналов
Расположение каналов                     : Front: L C R, Side: L R, LFE
Частота                                  : 48,0 КГц
Частота кадров                           : 31,250 кадров/сек (1536 spf)
Метод сжатия                             : С потерями
Размер потока                            : 186 Мбайт (8%)
Язык                                     : English
Default                                  : Нет
Forced                                   : Нет
Текст #1
Идентификатор                            : 4
Формат                                   : UTF-8
Идентификатор кодека                     : S_TEXT/UTF8
Идентификатор кодека/Информация          : UTF-8 Plain Text
Заголовок                                : Burn in The USSR
Язык                                     : Russian
Default                                  : Да
Forced                                   : Нет
Statistics Tags Issue                    : mkvmerge v8.8.0 ('Wind at my back') 64bit 2016-03-10 18:55:17 / mkvmerge v2.1.0 ('Another Place To Fall') built on Aug 19 2007 13:40:07 2016-03-28 08:27:52
FromStats_BitRate                        : 128
FromStats_Duration                       : 00:57:49.400000000
FromStats_FrameCount                     : 693
FromStats_StreamSize                     : 55562
Текст #2
Идентификатор                            : 5
Формат                                   : UTF-8
Идентификатор кодека                     : S_TEXT/UTF8
Идентификатор кодека/Информация          : UTF-8 Plain Text
Язык                                     : English
Default                                  : Нет
Forced                                   : Нет
Statistics Tags Issue                    : mkvmerge v8.8.0 ('Wind at my back') 64bit 2016-03-10 18:55:17 / mkvmerge v2.1.0 ('Another Place To Fall') built on Aug 19 2007 13:40:07 2016-03-28 08:27:52
FromStats_BitRate                        : 74
FromStats_Duration                       : 00:57:26.720000000
FromStats_FrameCount                     : 709
FromStats_StreamSize                     : 32047
Меню
00:00:00.000                             : en:00:00:00.000
00:07:03.400                             : en:00:07:03.400
00:16:49.760                             : en:00:16:49.760
00:26:45.880                             : en:00:26:45.880
00:38:21.960                             : en:00:38:21.960
00:49:31.960                             : en:00:49:31.960
Скриншоты:
       

}{@R0N

Пост 06-Авг-2016 23:12

[Цитировать]

Хиросима / Hiroshima - Телекомпания: BBC
Жанр: Документальный, История, Реконструкция
Описание:
6 августа 1945 года американский военный самолет Б-29 «Энола Гей», пилотируемый Томасом Фереби, в 8:15 по местному времени сбросил атомную бомбу "Малыш" на японский город Хиросима. Бомба мощностью 20 тыс. тонн тротилового эквивалента взорвалась на высоте 600 метров над городом… В результате этой бомбардировки до конца 1945 года в Хиросиме погибли около 140 тысяч человек - почти половина населения города. Тысячи других жителей умерли от полученных ранений и лучевой болезни в последовавшие годы.
Что заставило США пойти на такой шаг? Почему человечество допустило эту трагедию и что будут помнить об этой ошибке следующие поколения? Смотрите уникальные документальные кадры и реконструкцию событий одной из самых ужасных бомбардировок в истории человечества.

Продолжительность: 01:29:06
Качество видео: HDTV
Перевод: Двуголосый закадровый, профессиональный
Язык субтитров: Английский
Вид субтитров: Вшитые, неотключаемые (форсированные, на японскую речь)
Видео: AVC/H.264, 1920x1080, ~7825 kbps
Аудио 1: AC3, 2 ch, 192 kbps, Русский (Двуголосый закадровый)
Аудио 2: AC3, 2 ch, 192 kbps, Украинский (Многоголосый закадровый)
Аудио 3: AC3, 2 ch, 192 kbps, Английский

Mediainfo:

Код:
Общее
Уникальный идентификатор                 : 174789824075796888153406817964973606956 (0x837F4BAD806D9D44BF5187EC7C43C82C)
Полное имя                               : D:\TORRENT\FILMS\DOC\Hiroshima.2005.HDTV.1080i.Rus.Ukr.Eng.mkv
Формат                                   : Matroska
Версия формата                           : Version 4 / Version 2
Размер файла                             : 5,34 Гбайт
Продолжительность                        : 1 ч. 29 м.
Режим общего битрейта                    : Переменный
Общий поток                              : 8572 Кбит/сек
Дата кодирования                         : UTC 2015-10-10 10:54:47
Программа кодирования                    : mkvmerge v6.9.1 ('Blue Panther') 32bit built on Apr 18 2014 18:15:44
Библиотека кодирования                   : libebml v1.3.0 + libmatroska v1.4.1
Видео
Идентификатор                            : 1
Формат                                   : AVC
Формат/Информация                        : Advanced Video Codec
Профиль формата                          : [url=mailto:[email protected]][email protected][/url]
Параметр CABAC формата                   : Да
Параметр ReFrames формата                : 4 кадра
Параметр GOP формата                     : M=4, N=32
Идентификатор кодека                     : V_MPEG4/ISO/AVC
Продолжительность                        : 1 ч. 29 м.
Вид битрейта                             : Переменный
Битрейт                                  : 7825 Кбит/сек
Максимальный битрейт                     : 20,0 Мбит/сек
Ширина                                   : 1920 пикселей
Высота                                   : 1080 пикселей
Соотношение сторон                       : 16:9
Режим частоты кадров                     : Постоянный
Частота кадров                           : 25,000 кадров/сек
Цветовое пространство                    : YUV
Субдискретизация насыщенности            : 4:2:0
Битовая глубина                          : 8 бит
Тип развёртки                            : Чересстрочная
Порядок развёртки                        : Верхнее поле первое
Бит/(Пиксели*Кадры)                      : 0.151
Размер потока                            : 4,87 Гбайт (91%)
Default                                  : Да
Forced                                   : Нет
Основные цвета                           : BT.709
Характеристики трансфера                 : BT.709
Коэффициенты матрицы                     : BT.709
colour_range                             : Limited
Аудио #1
Идентификатор                            : 2
Формат                                   : AC-3
Формат/Информация                        : Audio Coding 3
Расширение режима                        : CM (complete main)
Параметр Endianness формата              : Big
Идентификатор кодека                     : A_AC3
Продолжительность                        : 1 ч. 29 м.
Вид битрейта                             : Постоянный
Битрейт                                  : 192 Кбит/сек
Каналы                                   : 2 канала
Расположение каналов                     : Front: L R
Частота                                  : 48,0 КГц
Битовая глубина                          : 16 бит
Метод сжатия                             : С потерями
Размер потока                            : 122 Мбайт (2%)
Заголовок                                : Двуголосый закадровый
Язык                                     : Russian
Default                                  : Да
Forced                                   : Нет
Аудио #2
Идентификатор                            : 3
Формат                                   : AC-3
Формат/Информация                        : Audio Coding 3
Расширение режима                        : CM (complete main)
Параметр Endianness формата              : Big
Идентификатор кодека                     : A_AC3
Продолжительность                        : 1 ч. 29 м.
Вид битрейта                             : Постоянный
Битрейт                                  : 192 Кбит/сек
Каналы                                   : 2 канала
Расположение каналов                     : Front: L R
Частота                                  : 48,0 КГц
Битовая глубина                          : 16 бит
Метод сжатия                             : С потерями
Размер потока                            : 122 Мбайт (2%)
Заголовок                                : Многоголосый закадровый
Язык                                     : Ukrainian
Default                                  : Нет
Forced                                   : Нет
Аудио #3
Идентификатор                            : 4
Формат                                   : AC-3
Формат/Информация                        : Audio Coding 3
Расширение режима                        : CM (complete main)
Параметр Endianness формата              : Big
Идентификатор кодека                     : A_AC3
Продолжительность                        : 1 ч. 29 м.
Вид битрейта                             : Постоянный
Битрейт                                  : 192 Кбит/сек
Каналы                                   : 2 канала
Расположение каналов                     : Front: L R
Частота                                  : 48,0 КГц
Битовая глубина                          : 16 бит
Метод сжатия                             : С потерями
Размер потока                            : 122 Мбайт (2%)
Заголовок                                : Original
Язык                                     : English
Default                                  : Нет
Forced                                   : Нет
Скриншоты:
       

Omen

Пост 12-Окт-2015 01:02

[Цитировать]

BBC Horizon: Человек на Марсе.
Экспедиция на красную планету
Man on Mars. Mission to the Red Planet
-
Телекомпания: BBC
Страна: Великобритания
Жанр: Телепередача, Документальный
Фильм из цикла: BBC Horizon
Режиссер: Эндрю Скотт
Описание:
Красная планета Марс - обитаема она или нет? Вот уже более 40 лет НАСА мечтает о путешествии к Марсу, которое займет, по подсчетам ученых, два года. Чтобы это сделать, нужны специальные ракеты и новое поколение астронавтов, способное выжить в космосе в условиях полета. Сможет ли НАСА осуществить эту мечту?

Продолжительность: 00:49:42
Качество видео: IPTVRip
Перевод: Двуголосый закадровый, профессиональный - Видеофильм ТВ
Видео: Xvid, 720 x 384 (1.875),, ~1523 Kbps
Аудио: MP3, 48 KHz, 2 ch, 128 Kbps

Mediainfo:

Код:
Общее
Полное имя                               : D:\torrent\Научные\Человек на Марсе. Экспедиция на красную планету (2014).avi
Формат                                   : AVI
Формат/Информация                        : Audio Video Interleave
Размер файла                             : 590 Мбайт
Продолжительность                        : 49 м.
Общий поток                              : 1660 Кбит/сек
Программа кодирования                    : VirtualDubModRus 1.5.10.2 (build 2542/release)
Библиотека кодирования                   : VirtualDubMod build 2542/release
Видео
Идентификатор                            : 0
Формат                                   : MPEG-4 Visual
Профиль формата                          : Advanced [email protected]
Параметр BVOP формата                    : 2
Параметр QPel формата                    : Нет
Параметр GMC формата                     : Без точки перехода
Параметр матрицы формата                 : Default (H.263)
Идентификатор кодека                     : XVID
Идентификатор кодека/Подсказка           : XviD
Продолжительность                        : 49 м.
Битрейт                                  : 1523 Кбит/сек
Ширина                                   : 720 пикселей
Высота                                   : 384 пикселя
Соотношение сторон                       : 1,85:1
Частота кадров                           : 25,000 кадров/сек
Цветовое пространство                    : YUV
Субдискретизация насыщенности            : 4:2:0
Битовая глубина                          : 8 бит
Тип развёртки                            : Прогрессивная
Метод сжатия                             : С потерями
Бит/(Пиксели*Кадры)                      : 0.220
Размер потока                            : 541 Мбайт (92%)
Библиотека кодирования                   : XviD 1.2.1 (UTC 2008-12-04)
Аудио
Идентификатор                            : 1
Формат                                   : MPEG Audio
Версия формата                           : Version 1
Профиль формата                          : Layer 3
Идентификатор кодека                     : 55
Идентификатор кодека/Подсказка           : MP3
Продолжительность                        : 49 м.
Вид битрейта                             : Постоянный
Битрейт                                  : 128 Кбит/сек
Каналы                                   : 2 канала
Частота                                  : 48,0 КГц
Метод сжатия                             : С потерями
Размер потока                            : 45,5 Мбайт (8%)
Выравнивание                             : Соединение по промежуткам
Продолжительность промежутка             : 40  мс. (1,00 видеокадр)
Время предзагрузки промежутка            : 504  мс.
Скриншоты:
       

Omen

Пост 30-Сен-2015 22:28

[Цитировать]

BBC: Нацизм: Предостережение истории - Жанр: Документальный, Хроники, История
Описание:
Сочетание военной кинохроники (часть которой представлена никогда не публиковавшимися ранее цветными (!) материалами), красочных карт и схем, а также компьютерной графики и специально аранжированной музыки великих композиторов — все это позволяет современному зрителю ярче и рельефнее представить и понять события тех далеких дней.
Второй фильм серии разоблачает широко распространенные мифы и домыслы, окружающие историю гитлеровской Германии. Это поистине фундаментальное исследование вопросов прихода нацистов к власти, введения ими «нового порядка» на оккупированных территориях, взаимоотношений между немецким народом и Партией, а также об ответственности «культурной нации» за все зверства фашизма…
Фильмы лежат целиком, в формате .avi
Видеокодек: DivX 5
Размер кадра: 576x432
Качество видео: DVDRip
Битрейт видео: 245 kbps
Аудиокодек: AC3
Битрейт аудио: 224 kbps

MediaInfo:

Код:
Общее
Полное имя                               :BBC - The Nazis A Warning from History\Fighting to the End.avi
Формат                                   : AVI
Формат/Информация                        : Audio Video Interleave
Размер файла                             : 700 Мбайт
Продолжительность                        : 48 м.
Общий поток                              : 2010 Кбит/сек
Программа кодирования                    : VirtualDubMod 1.5.1.1a (build 1639/release)
Библиотека кодирования                   : VirtualDubMod build 1639/release
Видео
Идентификатор                            : 0
Формат                                   : MPEG-4 Visual
Параметр BVOP формата                    : 1
Параметр QPel формата                    : Нет
Параметр GMC формата                     : 2 точки перехода
Параметр матрицы формата                 : Default (H.263)
Режим смешивания                         : Сжатый битовый поток
Идентификатор кодека                     : DX50
Идентификатор кодека/Подсказка           : DivX 5
Продолжительность                        : 48 м.
Битрейт                                  : 1776 Кбит/сек
Ширина                                   : 576 пикселей
Высота                                   : 432 пикселя
Соотношение сторон                       : 4:3
Частота кадров                           : 25,000 кадров/сек
Цветовое пространство                    : YUV
Субдискретизация насыщенности            : 4:2:0
Битовая глубина                          : 8 бит
Тип развёртки                            : Прогрессивная
Метод сжатия                             : С потерями
Бит/(Пиксели*Кадры)                      : 0.286
Размер потока                            : 619 Мбайт (88%)
Библиотека кодирования                   : DivX 5.0.5 (UTC 2003-04-24)
Аудио
Идентификатор                            : 1
Формат                                   : AC-3
Формат/Информация                        : Audio Coding 3
Расширение режима                        : CM (complete main)
Параметр Endianness формата              : Big
Идентификатор кодека                     : 2000
Продолжительность                        : 48 м.
Вид битрейта                             : Постоянный
Битрейт                                  : 224 Кбит/сек
Каналы                                   : 2 канала
Расположение каналов                     : Front: L R
Частота                                  : 48,0 КГц
Битовая глубина                          : 16 бит
Метод сжатия                             : С потерями
Задержка видео                           : 295 мс.
Размер потока                            : 78,0 Мбайт (11%)
Выравнивание                             : Разделение по промежуткам
Продолжительность промежутка             : 40  мс. (1,00 видеокадр)
Время предзагрузки промежутка            : 500  мс.
Скриншоты:
       

Aikivas

Пост 09-Авг-2015 21:41

[Цитировать]

PQ-17: Катастрофа арктического конвоя / PQ17: An Arctic Convoy Disaster - Телекомпания: Великобритания, BBC
Жанр: Документальный, война, история
Режиссер: Ричард Пирсон
Участники: Джереми Кларксон, Джим Кейрнс, Рон Бетли
Описание:
Английский телеведущий и журналист Джереми Кларксон рассказывает об арктических конвоях времён Второй Мировой. Их миссия - доставить жизненно важные продукты и боеприпасы в сражающийся Советский Союз сквозь шторм и снующие повсюду подводные лодки. Посредством рассказов очевидцев, архивных видеоматериалов и даже личного опыта, Джереми раскроет историю смелости в невероятно тяжёлые моменты.

Продолжительность: 00:58:56
Качество видео: HDTVRip
Перевод: Многоголосый закадровый, профессиональный
Озвучено на студии AlexFilm
Видео: AVC/H.264, 1280x720, ~3197 kbps
Аудио: AC3, 2 ch, 192 kbps, CBR

Mediainfo:

Код:
PQ-17.Катастрофа.арктического.конвоя.2014.720p.hdtv.x264.alf62.mkv
Формат                                   : Matroska
Версия формата                           : Version 4 / Version 2
Размер файла                             : 1,42 Гбайт
Продолжительность                        : 58 м.
Общий поток                              : 3458 Кбит/сек
Дата кодирования                         : UTC 2015-08-08 19:33:10
Программа кодирования                    : mkvmerge v6.0.0 ('Coming Up For Air') built on Jan 20 2013 09:52:00
Библиотека кодирования                   : libebml v1.3.0 + libmatroska v1.4.0
Видео
Идентификатор                            : 1
Формат                                   : AVC
Формат/Информация                        : Advanced Video Codec
Профиль формата                          : [url=mailto:[email protected]][email protected][/url]
Параметр CABAC формата                   : Да
Параметр ReFrames формата                : 6 кадров
Идентификатор кодека                     : V_MPEG4/ISO/AVC
Продолжительность                        : 58 м.
Битрейт                                  : 3197 Кбит/сек
Ширина                                   : 1280 пикселей
Высота                                   : 720 пикселей
Соотношение сторон                       : 16:9
Режим частоты кадров                     : Постоянный
Частота кадров                           : 25,000 кадров/сек
Цветовое пространство                    : YUV
Субдискретизация насыщенности            : 4:2:0
Битовая глубина                          : 8 бит
Тип развёртки                            : Прогрессивная
Бит/(Пиксели*Кадры)                      : 0.139
Размер потока                            : 1,32 Гбайт (92%)
Библиотека кодирования                   : x264 core 140 r2377 1ca7bb9
Настройки программы                      : cabac=1 / ref=6 / deblock=1:0:0 / analyse=0x3:0x113 / me=umh / subme=9 / psy=1 / psy_rd=1.00:0.00 / mixed_ref=1 / me_range=24 / chroma_me=1 / trellis=1 / 8x8dct=1 / cqm=0 / deadzone=21,11 / fast_pskip=0 / chroma_qp_offset=-2 / threads=3 / lookahead_threads=1 / sliced_threads=0 / nr=0 / decimate=1 / interlaced=0 / bluray_compat=0 / constrained_intra=0 / bframes=3 / b_pyramid=2 / b_adapt=1 / b_bias=0 / direct=1 / weightb=1 / open_gop=0 / weightp=2 / keyint=250 / keyint_min=15 / scenecut=40 / intra_refresh=0 / rc_lookahead=40 / rc=crf / mbtree=1 / crf=19.0 / qcomp=0.60 / qpmin=0 / qpmax=69 / qpstep=4 / ip_ratio=1.40 / aq=1:1.00
Язык                                     : English
Default                                  : Да
Forced                                   : Нет
Аудио
Идентификатор                            : 2
Формат                                   : AC-3
Формат/Информация                        : Audio Coding 3
Расширение режима                        : CM (complete main)
Параметр Endianness формата              : Big
Идентификатор кодека                     : A_AC3
Продолжительность                        : 58 м.
Вид битрейта                             : Постоянный
Битрейт                                  : 192 Кбит/сек
Каналы                                   : 2 канала
Расположение каналов                     : Front: L R
Частота                                  : 48,0 КГц
Битовая глубина                          : 16 бит
Метод сжатия                             : С потерями
Размер потока                            : 81,0 Мбайт (6%)
Default                                  : Да
Forced                                   : Нет
Скриншоты:
       

Дополнительные скриншоты:

       
       
     

Omen

Пост 07-Июн-2015 14:37

[Цитировать]

BBC: Магия грибов (Тайная жизнь грибов)
The Magic of Mushrooms
- Телекомпания: BBC
Режиссер: Russell Leven
Жанр: Документальный, научно-познавательный
Участники: Ведущий - профессор Ричард Форти / Richard Fortey
Описание:
Из всего живого на Земле есть нечто загадочное, а также и жизненно необходимое для нашего существования... Он стремительно размножается, большая часть его жизни проходит под землёй и только под конец своего жизненного цикла он показывается на поверхности. Это - гриб.
Многие люди считают грибы съедобными и они известны нам по народным сказкам но это далеко от истины. Они ведут тайную жизнь настолько магическую и таинственную, что это потрясает воображение. В этом фильме мы впервые увидим её такой, какая она есть. В специальной лаборатории с помощью эксперта мы узнаем тайну грибов, исследуем их удивительные способности, узнаем, что делает их самыми сильными, самыми большими и самыми устрашающими живыми организмами на планете. Мы познакомимся с людьми, которые получат выгоду, используя их могущество для создания новых лекарств и новых материалов. Для того, чтобы понять откуда у грибов такие большие способности мы понаблюдаем за их развитием: от рождения до самой смерти. Это настолько необычно, что кажется инопланетным. Мы выясним, почему от грибов напрямую зависит жизнь на планете и почему у нас с ними существует такая прочная связь.
Продолжительность: 00:49:20
Качество видео: HDTVRip
Перевод: Одноголосый закадровый, профессиональный, компания Видеофильм ТВ
Видео: AVC/H.264, 1280x720, ~3500 Kbps
Аудио: AC3, 2 ch, 192 kbps, 48 kHz

Mediainfo:

Код:
Format                         : Matroska
Format version                 : Version 4 / Version 2
File size                      : 1.27 GiB
Duration                       : 49mn 19s
Overall bit rate mode          : Variable
Overall bit rate               : 3 690 Kbps
Encoded date                   : UTC 2015-05-23 22:36:41
Writing application            : mkvmerge v7.9.0 ('Birds') 64bit
Writing library                : libebml v1.3.1 + libmatroska v1.4.2
DURATION                       : 00:49:19.519000000
NUMBER_OF_FRAMES               : 73988
NUMBER_OF_BYTES                : 1293222753
_STATISTICS_WRITING_APP        : mkvmerge v7.9.0 ('Birds') 64bit
_STATISTICS_WRITING_DATE_UTC   : 2015-05-23 22:36:41
_STATISTICS_TAGS               : BPS DURATION NUMBER_OF_FRAMES NUMBER_OF_BYTES
Video
ID                             : 2
Format                         : AVC
Format/Info                    : Advanced Video Codec
Format profile                 : [url=mailto:[email protected]][email protected][/url]
Format settings, CABAC         : Yes
Format settings, ReFrames      : 3 frames
Codec ID                       : V_MPEG4/ISO/AVC
Duration                       : 49mn 19s
Bit rate mode                  : Variable
Bit rate                       : 3 500 Kbps
Maximum bit rate               : 8 000 Kbps
Width                          : 1 280 pixels
Height                         : 720 pixels
Display aspect ratio           : 16:9
Frame rate mode                : Constant
Frame rate                     : 25.000 fps
Standard                       : NTSC
Color space                    : YUV
Chroma subsampling             : 4:2:0
Bit depth                      : 8 bits
Scan type                      : Progressive
Bits/(Pixel*Frame)             : 0.152
Stream size                    : 1.18 GiB (93%)
Writing library                : x264 core 114
Encoding settings              : cabac=1 / ref=3 / deblock=1:0:0 / analyse=0x3:0x113 / me=hex / subme=7 / psy=1 / psy_rd=1.00:0.00 / mixed_ref=1 / me_range=16 / chroma_me=1 / trellis=1 / 8x8dct=1 / cqm=2 / deadzone=21,11 / fast_pskip=1 / chroma_qp_offset=-4 / threads=6 / sliced_threads=0 / slices=1 / nr=0 / decimate=1 / interlaced=0 / constrained_intra=0 / bframes=3 / b_pyramid=0 / b_adapt=1 / b_bias=0 / direct=1 / weightb=1 / open_gop=0 / weightp=2 / keyint=250 / keyint_min=25 / scenecut=40 / intra_refresh=0 / rc_lookahead=40 / rc=2pass / mbtree=1 / bitrate=3500 / ratetol=1.0 / qcomp=0.60 / qpmin=5 / qpmax=69 / qpstep=4 / cplxblur=20.0 / qblur=0.5 / vbv_maxrate=8000 / vbv_bufsize=7995 / nal_hrd=vbr / ip_ratio=1.40 / aq=1:1.00
Default                        : Yes
Forced                         : No
Color range                    : Limited
Color primaries                : BT.709
Transfer characteristics       : BT.709
Matrix coefficients            : BT.709
Audio
ID                             : 1
Format                         : AC-3
Format/Info                    : Audio Coding 3
Mode extension                 : CM (complete main)
Format settings, Endianness    : Big
Codec ID                       : A_AC3
Duration                       : 49mn 19s
Bit rate mode                  : Constant
Bit rate                       : 192 Kbps
Channel(s)                     : 2 channels
Channel positions              : Front: L R
Sampling rate                  : 48.0 KHz
Compression mode               : Lossy
Stream size                    : 67.7 MiB (5%)
Default                        : Yes
Forced                         : No
Скриншоты:
       

Дополнительные скриншоты:

         
         

Aikivas

Пост 26-Фев-2015 21:16

[Цитировать]

ВВС: История жизни / Life Story - Телекомпания: British Broadcasting Corporation (BBC)
Жанр: Документальный
Участники: Дэвид Аттенборо
Описание:
История Жизни, рассказанная Дэвидом Аттенборо, переносит нас в величайшее из всех приключений — путешествие по жизни. Любое животное, ведомое инстинктом, озабочено тем, чтобы оставить после себя потомство, передать свои гены последующим поколениям. Быть может для них это своеобразная, связующая нить между прошлым и будущим.

Продолжительность: 2 х ~00:58:00
Качество видео: HDTV 720p-LQ
Перевод: Одноголосый закадровый, любительский (Ю. Онищенко (Logos71)
Язык субтитров: Русский (Burn in The USSR), (Logos71), английский
Вид субтитров: Вшитые, отключаемые
Видео: MPEG-4/H.264 AVC, 1280x720 (16:9), 25.000 fps, 2 699 Kbps (0.117 bit/pixel)
Аудио #1: AC-3, 48.0 KHz, 6 ch, 640 Kbps, CBR (Русский)
Аудио #2: AC-3, 48.0 KHz, 6 ch, 384 Kbps, CBR (Английский)

Mediainfo:

Код:
Complete name                         \BBC - Life Story 2014 HDTV\01-Первые шаги.First Steps.2014.HDTV.720p.mkv
Format                                   : Matroska
Format version                           : Version 2
File size                                : 1.54 GiB
Duration                                 : 58mn 12s
Overall bit rate                         : 3 799 Kbps
Movie name                               : BBC - Life Story. Первые шаги - First Steps (2014)
Encoded date                             : UTC 2015-02-19 18:58:45
Writing application                      : mkvmerge v5.8.0 ('No Sleep / Pillow') built on Sep  2 2012 15:37:04
Writing library                          : libebml v1.2.3 + libmatroska v1.3.0
Video
ID                                       : 1
Format                                   : AVC
Format/Info                              : Advanced Video Codec
Format profile                           : [url=mailto:[email protected]][email protected][/url]
Format settings, CABAC                   : Yes
Format settings, ReFrames                : 5 frames
Codec ID                                 : V_MPEG4/ISO/AVC
Duration                                 : 58mn 12s
Bit rate                                 : 2 699 Kbps
Width                                    : 1 280 pixels
Height                                   : 720 pixels
Display aspect ratio                     : 16:9
Frame rate mode                          : Constant
Frame rate                               : 25.000 fps
Color space                              : YUV
Chroma subsampling                       : 4:2:0
Bit depth                                : 8 bits
Scan type                                : Progressive
Bits/(Pixel*Frame)                       : 0.117
Stream size                              : 1.10 GiB (71%)
Writing library                          : x264 core 142 r2479 dd79a61
Encoding settings                        : cabac=1 / ref=5 / deblock=1:0:0 / analyse=0x3:0x113 / me=umh / subme=8 / psy=1 / psy_rd=1.00:0.00 / mixed_ref=1 / me_range=16 / chroma_me=1 / trellis=1 / 8x8dct=1 / cqm=0 / deadzone=21,11 / fast_pskip=1 / chroma_qp_offset=-2 / threads=12 / lookahead_threads=2 / sliced_threads=0 / nr=0 / decimate=1 / interlaced=0 / bluray_compat=0 / constrained_intra=0 / bframes=3 / b_pyramid=2 / b_adapt=2 / b_bias=0 / direct=3 / weightb=1 / open_gop=0 / weightp=2 / keyint=250 / keyint_min=25 / scenecut=40 / intra_refresh=0 / rc_lookahead=50 / rc=crf / mbtree=1 / crf=21.0 / qcomp=0.60 / qpmin=0 / qpmax=69 / qpstep=4 / ip_ratio=1.40 / aq=1:1.00
Language                                 : English
Default                                  : Yes
Forced                                   : No
Audio #1
ID                                       : 2
Format                                   : AC-3
Format/Info                              : Audio Coding 3
Mode extension                           : CM (complete main)
Format settings, Endianness              : Big
Codec ID                                 : A_AC3
Duration                                 : 58mn 12s
Bit rate mode                            : Constant
Bit rate                                 : 640 Kbps
Channel(s)                               : 6 channels
Channel positions                        : Front: L C R, Side: L R, LFE
Sampling rate                            : 48.0 KHz
Bit depth                                : 16 bits
Compression mode                         : Lossy
Stream size                              : 266 MiB (17%)
Language                                 : Russian
Default                                  : Yes
Forced                                   : No
Audio #2
ID                                       : 3
Format                                   : AC-3
Format/Info                              : Audio Coding 3
Mode extension                           : CM (complete main)
Format settings, Endianness              : Big
Codec ID                                 : A_AC3
Duration                                 : 58mn 12s
Bit rate mode                            : Constant
Bit rate                                 : 384 Kbps
Channel(s)                               : 6 channels
Channel positions                        : Front: L C R, Side: L R, LFE
Sampling rate                            : 48.0 KHz
Bit depth                                : 16 bits
Compression mode                         : Lossy
Stream size                              : 160 MiB (10%)
Language                                 : English
Default                                  : No
Forced                                   : No
Text #1
ID                                       : 4
Format                                   : UTF-8
Codec ID                                 : S_TEXT/UTF8
Codec ID/Info                            : UTF-8 Plain Text
Title                                    : Burn in The USSR
Language                                 : Russian
Default                                  : No
Forced                                   : No
Text #2
ID                                       : 5
Format                                   : UTF-8
Codec ID                                 : S_TEXT/UTF8
Codec ID/Info                            : UTF-8 Plain Text
Title                                    : Logos71
Language                                 : Russian
Default                                  : No
Forced                                   : No
Text #3
ID                                       : 6
Format                                   : UTF-8
Codec ID                                 : S_TEXT/UTF8
Codec ID/Info                            : UTF-8 Plain Text
Language                                 : English
Default                                  : No
Forced                                   : No
Скриншоты:
       

Дополнительные скриншоты

       

O.S.A.

Пост 14-Дек-2014 19:00

[Цитировать]

--BBC. Морские гиганты / Ocean Giants-- Год выпуска: 2011
Страна: Великобритания
Производство:
Жанр: Документальный, природа
Продолжительность: 3 x ~00:52:00
Перевод: Профессиональный (двухголосый закадровый) [Студия "Омикрон"]-Режиссер: Ингрид Квале, Анушка Шофилд, Эллен Хусейн-В ролях: Стивен Фрай, Даг Аллен, Эндрю Армор, Вера Да Силва, Джим Дарлинг, Аша Де Воз, Джон Дурбан, Уолкер Дик, Тони Фрохофф...-Описание: В подводном мире киты и дельфины ведут необычный образ жизни. Их мир совершенно отличен от нашего, и мы можем лишь заглянуть туда. Синий кит - крупнейшее животное на планете. Более того, это крупнейшее животное из когда-либо живших на Земле. Миллионы лет эти гигантские киты и их сверхразумные братья - дельфины, царили в подводном мире.
Наши отношения с ними не всегда были дружественными. Ранее мы преследовали их. Но теперь мы протягиваем им руку и испытываем ощущение чуда. Вместе с исследователями, посвятившими им свою жизнь, мы встретим самых удивительных китов и дельфинов, раскроем их тайны, услышим их голоса. Загадочные голоса китов и дельфинов веками давали пищу воображению. Возможно, ученые когда-нибудь узнают правду о чудесных голосах океана. Но пока что частная жизнь гигантов океана покрыта тайной.-- --Качество видео: BDRip 1080p
Формат видео: MKV
Видео кодек: H.264
Аудио кодек: AC3
Видео: 1920x1080p (1.78:1), 25.000 fps, MPEG-4 AVC, ~10.0 Mbps avg, 0.193 bit/pixel
Аудио #1: [RUS] 48.0 kKHz, AC3 Dolby Digital, 2.0 (L,R) ch, ~640.00 kbps avg
Аудио #2: [ENG] 48.0 kKHz, AC3 Dolby Digital, 2.0 (L,R) ch, ~640.00 kbps avg
Субтитры: нет
Примечание: Технические данные всех серий идентичны.
--

Серия 1. Название и скриншоты

Жизнь гигантов / Giant Lives-          

Серия 2. Название и скриншоты

Мыслители глубин / Deep Thinkers-          

Серия 3. Название и скриншоты

Голоса океанов / Voices of the Sea-          

Media Info

Общее
Уникальный идентификатор : 232626752996365605734345179721405962229 (0xAF02486F284B915E969697AEF3EA17F5)
Полное имя : D:\Temp\Video\01.Giant.Lives.BDRip.1080p.mkv
Формат : Matroska
Версия формата : Version 2
Размер файла : 4,05 Гбайт
Продолжительность : 51 м.
Общий поток : 11,3 Мбит/сек
Название фильма : 00000
Дата кодирования : UTC 2014-12-07 10:06:37
Программа кодирования : DVDFab 9.1.6.8
Библиотека кодирования : libebml v0.7.8 + libmatroska v0.8.1
Видео
Идентификатор : 1
Формат : AVC
Формат/Информация : Advanced Video Codec
Профиль формата : [url=mailto:[email protected]][email protected][/url]
Параметр CABAC формата : Да
Параметр ReFrames формата : 2 кадра
Идентификатор кодека : V_MPEG4/ISO/AVC
Продолжительность : 51 м.
Битрейт : 10000 Кбит/сек
Ширина : 1920 пикселей
Высота : 1080 пикселей
Соотношение сторон : 16:9
Режим частоты кадров : Постоянный
Частота кадров : 25,000 кадров/сек
Цветовое пространство : YUV
Субдискретизация насыщенности : 4:2:0
Битовая глубина : 8 бит
Тип развёртки : Прогрессивная
Бит/(Пиксели*Кадры) : 0.193
Размер потока : 3,51 Гбайт (87%)
Библиотека кодирования : x264 core 142
Настройки программы : cabac=1 / ref=1 / deblock=1:-1:-1 / analyse=0x3:0 / me=hex / subme=5 / psy=0 / mixed_ref=0 / me_range=16 / chroma_me=1 / trellis=0 / 8x8dct=1 / cqm=0 / deadzone=21,11 / fast_pskip=1 / chroma_qp_offset=0 / threads=3 / lookahead_threads=1 / sliced_threads=0 / nr=0 / decimate=1 / interlaced=0 / bluray_compat=0 / constrained_intra=0 / bframes=2 / b_pyramid=0 / b_adapt=1 / b_bias=0 / direct=1 / weightb=1 / open_gop=0 / weightp=0 / keyint=24 / keyint_min=13 / scenecut=40 / intra_refresh=0 / rc=abr / mbtree=0 / bitrate=10000 / ratetol=1.0 / qcomp=0.60 / qpmin=0 / qpmax=69 / qpstep=4 / ip_ratio=1.40 / pb_ratio=1.30 / aq=1:1.00
Default : Да
Forced : Нет
Основные цвета : BT.709
Характеристики трансфера : BT.709
Коэффициенты матрицы : BT.709
Аудио #1
Идентификатор : 2
Формат : AC-3
Формат/Информация : Audio Coding 3
Расширение режима : CM (complete main)
Параметр Endianness формата : Big
Идентификатор кодека : A_AC3
Продолжительность : 51 м.
Вид битрейта : Постоянный
Битрейт : 640 Кбит/сек
Каналы : 2 канала
Расположение каналов : Front: L R
Частота : 48,0 КГц
Битовая глубина : 16 бит
Метод сжатия : С потерями
Размер потока : 236 Мбайт (6%)
Default : Да
Forced : Нет
Аудио #2
Идентификатор : 3
Формат : AC-3
Формат/Информация : Audio Coding 3
Расширение режима : CM (complete main)
Параметр Endianness формата : Big
Идентификатор кодека : A_AC3
Продолжительность : 51 м.
Вид битрейта : Постоянный
Битрейт : 640 Кбит/сек
Каналы : 2 канала
Расположение каналов : Front: L R
Частота : 48,0 КГц
Битовая глубина : 16 бит
Метод сжатия : С потерями
Размер потока : 236 Мбайт (6%)
Default : Нет
Forced : Нет

Благодарность

Озвучено студией «Омикрон» специально для HDCLUB. Русская дорожка получена наложением чистого голоса. Перевод и озвучивание осуществлено в рамках сервиса "Озвучивание". Спонсоры: lokolex, Magal, Der__Gott, Lissa, Radov, Ex1l, Steal, moonsea, Zergus, rmn84, Plesha, longru
-- --

Omen

Пост 13-Дек-2014 21:13

[Цитировать]

BBC. Восхождение животных. Триумф позвоночных
Rise of Animals: Triumph of the Vertebrates
- Режиссер / Телекомпания: Дэвид Ли /
Страна: Великобритания
Год выпуска: 2013
Жанр: Документальный, научно-познавательный, палеонтология
Описание: Дэвид Аттенборо отправляется в эпическое путешествие длиной 500 миллионов лет и исследует невероятный скачок в развитии позвоночных, породивший самых крупных, быстрых и умных существ, когда-либо живших на планете. Сначала он отправляется в Китай, страну, в которой он давно мечтал побывать, чтобы больше узнать о животных древности. Именно они считаются ключевыми недостающими звеньями в цепи нашей эволюции.

Продолжительность: 00:59:08
Перевод: Одноголосый закадровый (профессиональный)
Субтитры: вшитые
Язык субтитров: русский, английский
Контейнер: TS
Видеокодек: MPEG-4 AVC/H.264
Битрейт видео: ~8 970 Kбит/с
Размер кадра: 1920 x 1280
Качество видео: BDRip [1080p]
Аудио #1: AC-3, 48.0 KHz, 2 ch, 320 Kbps, CBR (Russian)
Аудио #2: AC-3, 48.0 KHz, 2 ch, 640 Kbps, CBR (English)

MediaInfo

Общее
Уникальный идентификатор : 201421461985487944616611005815310298684 (0x97885CCD53324BC2917370BA26E4AE3C)
Полное имя : D:\Релизы\BBC.Rise.of.Animals.Triumph.of.the.Vertebrates.BDRip.1080p\01.Rise.of.Animals.Triumph.of.the.Vertebrates.BDRip.1080p.(From.the.Seas.to.the.Skies).mkv
Формат : Matroska
Версия формата : Version 4 / Version 2
Размер файла : 4,10 Гбайт
Продолжительность : 59 м.
Общий поток : 9930 Кбит/сек
Дата кодирования : UTC 2014-12-09 12:46:22
Программа кодирования : mkvmerge v7.3.0 ('Nouages') 64bit built on Oct 22 2014 18:53:34
Библиотека кодирования : libebml v1.3.0 + libmatroska v1.4.1
Attachements : cover.jpg
_STATISTICS_WRITING_APP : mkvmerge v7.3.0 ('Nouages') 64bit built on Oct 22 2014 18:53:34
_STATISTICS_WRITING_DATE_UTC : 2014-12-09 12:46:22
_STATISTICS_TAGS : BPS DURATION NUMBER_OF_FRAMES NUMBER_OF_BYTES
DURATION : 00:59:02.640000000
NUMBER_OF_FRAMES : 759
NUMBER_OF_BYTES : 61877
Видео
Идентификатор : 1
Формат : AVC
Формат/Информация : Advanced Video Codec
Профиль формата : [url=mailto:[email protected]][email protected][/url]
Параметр CABAC формата : Да
Параметр ReFrames формата : 4 кадра
Идентификатор кодека : V_MPEG4/ISO/AVC
Продолжительность : 59 м.
Битрейт : 8968 Кбит/сек
Ширина : 1920 пикселей
Высота : 1080 пикселей
Соотношение сторон : 16:9
Режим частоты кадров : Постоянный
Частота кадров : 25,000 кадров/сек
Цветовое пространство : YUV
Субдискретизация насыщенности : 4:2:0
Битовая глубина : 8 бит
Тип развёртки : Прогрессивная
Бит/(Пиксели*Кадры) : 0.173
Размер потока : 3,62 Гбайт (88%)
Библиотека кодирования : x264 core 138 r2358 9e941d1
Настройки программы : cabac=1 / ref=4 / deblock=1:-2:-2 / analyse=0x3:0x113 / me=umh / subme=8 / psy=1 / psy_rd=1.00:0.00 / mixed_ref=1 / me_range=16 / chroma_me=1 / trellis=1 / 8x8dct=1 / cqm=0 / deadzone=21,11 / fast_pskip=1 / chroma_qp_offset=-2 / threads=12 / lookahead_threads=2 / sliced_threads=0 / nr=0 / decimate=1 / interlaced=0 / bluray_compat=0 / constrained_intra=0 / bframes=3 / b_pyramid=2 / b_adapt=2 / b_bias=0 / direct=3 / weightb=1 / open_gop=0 / weightp=2 / keyint=250 / keyint_min=25 / scenecut=40 / intra_refresh=0 / rc_lookahead=50 / rc=2pass / mbtree=1 / bitrate=8968 / ratetol=1.0 / qcomp=0.60 / qpmin=0 / qpmax=69 / qpstep=4 / cplxblur=20.0 / qblur=0.5 / ip_ratio=1.40 / aq=1:1.00
Язык : English
Default : Да
Forced : Нет
_STATISTICS_WRITING_APP : mkvmerge v7.3.0 ('Nouages') 64bit built on Oct 22 2014 18:53:34
_STATISTICS_WRITING_DATE_UTC : 2014-12-09 12:46:22
_STATISTICS_TAGS : BPS DURATION NUMBER_OF_FRAMES NUMBER_OF_BYTES
DURATION : 00:59:08.720000000
NUMBER_OF_FRAMES : 88718
NUMBER_OF_BYTES : 3977696154
Аудио #1
Идентификатор : 2
Формат : AC-3
Формат/Информация : Audio Coding 3
Расширение режима : CM (complete main)
Параметр Endianness формата : Big
Идентификатор кодека : A_AC3
Продолжительность : 59 м.
Вид битрейта : Постоянный
Битрейт : 320 Кбит/сек
Каналы : 2 канала
Расположение каналов : Front: L R
Частота : 48,0 КГц
Битовая глубина : 16 бит
Метод сжатия : С потерями
Размер потока : 135 Мбайт (3%)
Заголовок : Ю. Онищенко
Язык : Russian
Default : Да
Forced : Нет
Аудио #2
Идентификатор : 3
Формат : AC-3
Формат/Информация : Audio Coding 3
Расширение режима : CM (complete main)
Параметр Endianness формата : Big
Идентификатор кодека : A_AC3
Продолжительность : 59 м.
Вид битрейта : Постоянный
Битрейт : 640 Кбит/сек
Каналы : 2 канала
Расположение каналов : Front: L R
Частота : 48,0 КГц
Битовая глубина : 16 бит
Метод сжатия : С потерями
Размер потока : 271 Мбайт (6%)
Язык : English
Default : Нет
Forced : Нет
Текст #1
Идентификатор : 4
Формат : UTF-8
Идентификатор кодека : S_TEXT/UTF8
Идентификатор кодека/Информация : UTF-8 Plain Text
Заголовок : Ю. Онищенко
Язык : Russian
Default : Нет
Forced : Нет
Текст #2
Идентификатор : 5
Формат : UTF-8
Идентификатор кодека : S_TEXT/UTF8
Идентификатор кодека/Информация : UTF-8 Plain Text
Язык : English
Default : Нет
Forced : Нет
Меню
00:00:00.000 : en:00:00:00.000
00:10:39.400 : en:00:10:39.400
00:21:52.400 : en:00:21:52.400
00:28:32.000 : en:00:28:32.000
00:39:06.400 : en:00:39:06.400
00:46:13.720 : en:00:46:13.720
Скриншоты
       

Дополнительные скриншоты

           

O.S.A.

Пост 08-Дек-2014 13:50

[Цитировать]

--BBC. Глубина / Deep Blue-- Год выпуска: 2003
Страна: Великобритания, Германия
Производство:
Жанр: документальный
Продолжительность: 01:26:46
Перевод: Профессиональный (одноголосый закадровый) [О. Курдюков]-Режиссер Энди Биатт, Аластер Фовергилл-В ролях: Дэвид Аттэнборо, Пирс Броснан, Майкл Гэмбон, Франк Глаубрехт, Жак Перрен, Далик Волониц...-Описание: Уникальный документальный фильм о подводной жизни, ставший невероятно популярным во всём мире. Это чудесное путешествие под водой: от Северного полюса до тропиков, от мелководных коралловых рифов до глубочайших недр океана. Очаровательный мир океанской фауны: опасные акулы, величественные скаты, рыбы всех цветов радуги и захватывающие образы всевозможных форм жизни подводного рая. Этот фильм рассказывает о необычайной жизни в океане: дельфины, киты и акулы, впечатляющая растительность и морские птицы.-- --Качество видео: BDRip 1080p
Формат видео: MKV
Видео кодек: H.264
Аудио кодек: AC3, DTS
Видео: 1920x1080 (1.78:1), 29.970 fps, MPEG-4 AVC, ~10.5 Mbps avg, 0.169 bit/pixel
Аудио #1: [RUS] 48.0 kKHz, AC3 Dolby Digital, 2.0 (L,R) ch, ~192.00 kbps avg
Аудио #2: [ENG] 48.0 kKHz, DTS, 5.1 (L,C,R,l,r) + LFE ch, ~1510.00 kbps avg
Субтитры: нет
--

Media Info

Общее
Уникальный идентификатор : 252828442116284194900004393291873653923 (0xBE34FC9B6A5FA9368682DCFA665614A3)
Полное имя : D:\Релизы\BBC.Deep.Blue.2003.BDRip.1080p.mkv
Формат : Matroska
Версия формата : Version 4 / Version 2
Размер файла : 7,82 Гбайт
Продолжительность : 1 ч. 30 м.
Режим общего битрейта : Переменный
Общий поток : 12,4 Мбит/сек
Название фильма : ГОЛУБАЯ БЕЗДНА
Дата кодирования : UTC 2014-12-07 20:43:56
Программа кодирования : mkvmerge v7.3.0 ('Nouages') 64bit built on Oct 22 2014 18:53:34
Библиотека кодирования : libebml v1.3.0 + libmatroska v1.4.1
DURATION : 01:30:33.451000000
NUMBER_OF_FRAMES : 509386
NUMBER_OF_BYTES : 1520417944
_STATISTICS_WRITING_APP : mkvmerge v7.3.0 ('Nouages') 64bit built on Oct 22 2014 18:53:34
_STATISTICS_WRITING_DATE_UTC : 2014-12-07 20:43:56
_STATISTICS_TAGS : BPS DURATION NUMBER_OF_FRAMES NUMBER_OF_BYTES
Видео
Идентификатор : 1
Формат : AVC
Формат/Информация : Advanced Video Codec
Профиль формата : [url=mailto:[email protected]][email protected][/url]
Параметр CABAC формата : Да
Параметр ReFrames формата : 2 кадра
Параметр GOP формата : M=3, N=24
Идентификатор кодека : V_MPEG4/ISO/AVC
Продолжительность : 1 ч. 30 м.
Номинальный битрейт : 10,5 Мбит/сек
Ширина : 1920 пикселей
Высота : 1080 пикселей
Соотношение сторон : 16:9
Режим частоты кадров : Постоянный
Частота кадров : 29,970 кадров/сек
Цветовое пространство : YUV
Субдискретизация насыщенности : 4:2:0
Битовая глубина : 8 бит
Тип развёртки : Прогрессивная
Бит/(Пиксели*Кадры) : 0.169
Заголовок : by Отец Лоренцо (NNM-Club)
Библиотека кодирования : x264 core 142
Настройки программы : cabac=1 / ref=1 / deblock=1:-1:-1 / analyse=0x3:0 / me=hex / subme=5 / psy=0 / mixed_ref=0 / me_range=16 / chroma_me=1 / trellis=0 / 8x8dct=1 / cqm=0 / deadzone=21,11 / fast_pskip=1 / chroma_qp_offset=0 / threads=3 / lookahead_threads=1 / sliced_threads=0 / nr=0 / decimate=1 / interlaced=0 / bluray_compat=0 / constrained_intra=0 / bframes=2 / b_pyramid=0 / b_adapt=1 / b_bias=0 / direct=1 / weightb=1 / open_gop=0 / weightp=0 / keyint=24 / keyint_min=13 / scenecut=40 / intra_refresh=0 / rc=abr / mbtree=0 / bitrate=10500 / ratetol=1.0 / qcomp=0.60 / qpmin=0 / qpmax=69 / qpstep=4 / ip_ratio=1.40 / pb_ratio=1.30 / aq=1:1.00
Default : Да
Forced : Нет
Основные цвета : BT.709
Характеристики трансфера : BT.709
Коэффициенты матрицы : BT.709
Аудио #1
Идентификатор : 2
Формат : AC-3
Формат/Информация : Audio Coding 3
Расширение режима : CM (complete main)
Параметр Endianness формата : Big
Идентификатор кодека : A_AC3
Продолжительность : 1 ч. 30 м.
Вид битрейта : Постоянный
Битрейт : 192 Кбит/сек
Каналы : 2 канала
Расположение каналов : Front: L R
Частота : 48,0 КГц
Битовая глубина : 16 бит
Метод сжатия : С потерями
Размер потока : 124 Мбайт (2%)
Заголовок : Русская дорожка
Язык : Russian
Default : Да
Forced : Нет
Аудио #2
Идентификатор : 3
Формат : DTS
Формат/Информация : Digital Theater Systems
Профиль формата : MA / Core
Режим : 16
Параметр Endianness формата : Big
Идентификатор кодека : A_DTS
Продолжительность : 1 ч. 30 м.
Вид битрейта : Переменный
Битрейт : Неизвестно / 1509 Кбит/сек
Каналы : 6 каналов
Расположение каналов : Front: L C R, Side: L R, LFE
Частота : 48,0 КГц
Битовая глубина : 16 бит
Метод сжатия : Без потерь / Lossy
Заголовок : English
Язык : English
Default : Нет
Forced : Нет
-Скриншоты:
         
         
-- --
 

Текущее время: Сегодня 23:16

Часовой пояс: GMT + 3