Сегодня идет свободное скачивание без начисления Download

Результатов поиска: 76

Автор Сообщение

Omen

Пост 08-Дек-2016 01:01

[Цитировать]

-Лунный свет: Путешествие
Lichtmond: The Journey
- Год выпуска: 2016
Страна: Германия (Universal Music, Blu Phase Media GmbH)
Жанр: Анимация, Музыка, Фэнтези, Шоу
Продолжительность: 00:53:39
Перевод: Не требуется
Авторы: Giorgio & Martin Koppehele-Участники проекта:
Музыка: Giorgio, Suna, Martin, Gabi Koppehele, Meera Fé, Karen Kassulat, I Muvrini, Roberta Concina
Тексты песен: Gabi, Suna Koppehele, Meera Fé, Roberta Concina
Вокал: См. MediaInfo
Чтец: Thomas E. Killinger
Стихи: Gabi Koppehele
Хор: Suna & Gabi Koppehele, Meera Fé, Saskia Philipps, Karen Kassulat
Guitars: Manuel Lopez
Keyboards, Synthesizer, Bass, Drums, Strings, Piano, Organ, Percussion: Martin & Giorgio Koppehele-Описание: 4-й диск братьев Giorgio & Martin Koppehele из серии "Lichtmond".
Чувственное путешествие в фантастические миры - специальный музыкальный проект. Жизнь, как уникальное путешествие по эволюции и трансформации.
Потрясающее путешествие в фэнтези, в лучах лунного света через волшебные звуки. Погрузитесь в неординарную музыку и пусть Ваши экраны превратятся на один час в двери сказочных миров, которые до сих пор Вам не приходилось видеть, но наверняка Вы мечтали о них. Это удивительное Blu-ray издание, с уникальным звуковым рядом, как по качеству так и по наполнению невиданной красоты видеорядом футуристических 3D миров. Ни в коем случае не пропустите этот диск, пусть он наполнит Ваш дом, яркими красками и высококачественным божественным звучанием произведений Giorgio и Martin Koppehele.
-Доп. инфо: Трек-лист смотрите под спойлером MediaInfo.
3Д, как обычно на Lichtmond'ах, очень глубокое.
Желающим просто послушать эту музыку на своей аудиотехнике, версия в mp3 [stereo / 320 kbps / CBR] (+ 3 бонус-трека, отсутствующие в видео-версии):Композиции с видео-версии (53:38)
Бонус #1: Turn Back the Time (Vocal: Saskia Philipps) (5:38)
Бонус #2: Journey to Happiness (Vocal: Meera Fé) (6:56)
Бонус #3: Relasered XXL (9:30)
-
За исходный BD 3D спасибо BLUE_LIFE и
-Качество: BDRip (by Ash61)
Контейнер: MKV
Формат 3D: Half OverUnder / Вертикальная анаморфная стереопара
Порядок ракурсов: левый ракурс первый-Видео: AVC / 1920х1080p / 23,976 fps / 20.0 Mbps
Аудио:
#1 - Английский (и песни, и стихи) / AC3 / 48 KHz / 5.1 ch / 640 Kbps
#2 - Английский (и песни, и стихи) / Atmos Dolby TrueHD Audio / 6271 kbps / 7.1 / 48 kHz / 6271 kbps / 24-bit (AC3 Embedded: 5.1-EX / 48 kHz / 640 kbps) [отдельным файлом]
#3 - Английский (песни) / Немецкий (стихи) / DTS-HD MA / 6389 kbps / 7.1 / 48 kHz / 6389 kbps / 24-bit (DTS Core: 5.1 / 48 kHz / 1509 kbps / 24-bit) [отдельным файлом]
Субтитры: Отсутствуют

MediaInfo

General
Unique ID : 231946773724560355498430217207779106122 (0xAE7F52DE229C56D9ACA41DEC4E571D4A)
Complete name : E:\Lichtmond4(2016)3D-halfOU(Ash61)\Lichtmond4(2016)3D-halfOU(Ash61).mkv
Format : Matroska
Format version : Version 2
File size : 7.88 GiB
Duration : 53mn 38s
Overall bit rate : 21.0 Mbps
Movie name : Лунный свет: Путешествие / Lichtmond: The Journey (2016) в 3Д
Encoded date : UTC 2016-10-16 20:55:54
Writing application : mkvmerge v5.8.0 ('No Sleep / Pillow') built on Sep 2 2012 15:37:04
Writing library : libebml v1.2.3 + libmatroska v1.3.0
Video
ID : 1
Format : AVC
Format/Info : Advanced Video Codec
Format profile : [email protected]
Format settings, CABAC : Yes
Format settings, ReFrames : 4 frames
Codec ID : V_MPEG4/ISO/AVC
Duration : 53mn 38s
Bit rate : 20.0 Mbps
Width : 1 920 pixels
Height : 1 080 pixels
Display aspect ratio : 16:9
Frame rate mode : Constant
Frame rate : 23.976 fps
Color space : YUV
Chroma subsampling : 4:2:0
Bit depth : 8 bits
Scan type : Progressive
Bits/(Pixel*Frame) : 0.402
Stream size : 7.48 GiB (95%)
Title : BDRip by Ash61
Writing library : x264 core 146 r2538 121396c
Encoding settings : cabac=1 / ref=4 / deblock=1:-3:-3 / analyse=0x3:0x113 / me=umh / subme=10 / psy=1 / psy_rd=1.00:0.00 / mixed_ref=1 / me_range=32 / chroma_me=1 / trellis=2 / 8x8dct=1 / cqm=0 / deadzone=21,11 / fast_pskip=1 / chroma_qp_offset=-2 / threads=12 / lookahead_threads=3 / sliced_threads=0 / nr=0 / decimate=1 / interlaced=0 / bluray_compat=0 / constrained_intra=0 / bframes=12 / b_pyramid=2 / b_adapt=2 / b_bias=0 / direct=3 / weightb=1 / open_gop=0 / weightp=2 / keyint=250 / keyint_min=23 / scenecut=40 / intra_refresh=0 / rc_lookahead=60 / rc=crf / mbtree=1 / crf=15.5 / qcomp=0.70 / qpmin=0 / qpmax=69 / qpstep=4 / vbv_maxrate=40000 / vbv_bufsize=30000 / crf_max=0.0 / nal_hrd=none / filler=0 / frame-packing=4 / ip_ratio=1.40 / aq=1:0.70
Language : German
Default : Yes
Forced : No
Audio
ID : 2
Format : AC-3
Format/Info : Audio Coding 3
Mode extension : CM (complete main)
Format settings, Endianness : Big
Codec ID : A_AC3
Duration : 53mn 38s
Bit rate mode : Constant
Bit rate : 640 Kbps
Channel(s) : 6 channels
Channel positions : Front: L C R, Side: L R, LFE
Sampling rate : 48.0 KHz
Bit depth : 16 bits
Compression mode : Lossy
Stream size : 246 MiB (3%)
Title : Original - BD 3D Ger
Language : English
Default : Yes
Forced : No
Menu
00:00:00.000 : : 1. The Journey Part 1
00:01:43.103 : : 2. The Journey Part 2
00:04:13.670 : : 3. Flowing Like a River (vocal: Meera Fé)
00:11:01.077 : : 4. Nothing But Change (vocal: Martin Koppehele)
00:17:52.071 : : 5. Mind over Matter
00:24:28.676 : : 6. Secrets of Life (vocal: Meera Fé)
00:30:31.830 : : 7. True Destination (vocals: I Muvrini, Karen Kassulat, Meera Fé, Suna Koppehele)
00:37:22.657 : : 8. The World (vocal: Meera Fé)
00:44:06.269 : : 9. Children (Inner Vision) (vocals: Meera Fé, Saskia Philipps)
00:50:45.251 : : 10. The Journey Part 3

Для оценки 3Д - Анимированные скрины




















Фото участников данного проекта (и не только)






























Omen

Пост 26-Янв-2016 00:07

[Цитировать]

Панасоник Демо 3Д / Panasonic 3D Demonstration
Год выпуска: 2010
Страна: Япония
Жанр: Демо
Продолжительность: 00:32:00-Перевод: Не требуется
Русские субтитры: Нет-Описание:
Рекламный диск Панасоника, созданный для популяризации 3D и продвижения 3D телевизоров на рынке.Содержит несколько весьма красочных демонстрационных роликов.-++++++++++++++++++++++++++++++
Дополнительная информация по релизу:
Показывает и в 2D и в 3D
++++++++++++++++++++++++++++++-Содержание:
Key Visual (1:11) - 1080p
Full HD 3D Introduction (4:42) - 1080p
Rome, The Eternal City (2:38) - 1080p
Panasonic 3D Sports (1:27) - 1080p
Astro Boy (2:36) - 1080p
Grand Canyon (1:46) - 1080p
HIPIRA (2:19) - 1080p
Sync Future (1:43) - 1080p
Enjoying The Great Outdoors (3:35) - 720p
Beach Volleyball (2:41) - 720p
Coral Wonderland (2:06) - 720p
Mexico's Mariachi (1:31) - 720p
Sarah Brightman - Shall Be Done (2:42) - 720p-Сэмпл: http://depositfiles.com/files/7qnwm572s-Качество: BDrip
Контейнер: MKV
Формат 3D: SeparateFiles / Раздельная стереопара
Порядок ракурсов: левый ракурс первый
Видео кодек: x264
Аудио кодек: AC3
Видео_1080p: AVC / 1920 х 1080p / 23,976 fps / 12,0 Mbps
Видео_720p: AVC / 1280 х 720p / 60,000 fps / 12,0 Mbps
Аудио: AC3 / 6 ch / 448 Kbps / 48 KHz
Субтитры: Отсутствуют

MediaInfo - 1080p

Общее
Уникальный идентификатор : 107778144679315143168968647227749546895 (0x511550CC6570BD995C0B90BB2AADBB8F)
Полное имя : F:\Reliz\Panasonic 3D Demonstration Disc V1.2\06-Grand Canyon.mkv
Формат : Matroska
Версия формата : Version 4 / Version 2
Размер файла : 313 Мбайт
Продолжительность : 1 м. 47 с.
Общий поток : 24,5 Мбит/сек
Название фильма : Grand Canyon
Программа кодирования : Lavf55.44.100
Библиотека кодирования : Lavf55.44.100
Видео #1
Идентификатор : 1
Формат : AVC
Формат/Информация : Advanced Video Codec
Профиль формата : [email protected]
MultiView_Count : 2
MultiView_Layout : Both Eyes laced in one block (left eye first)
Параметр CABAC формата : Да
Параметр ReFrames формата : 4 кадра
Идентификатор кодека : V_MPEG4/ISO/AVC
Продолжительность : 1 м. 47 с.
Номинальный битрейт : 12,0 Мбит/сек
Ширина : 1920 пикселей
Высота : 1080 пикселей
Соотношение сторон : 16:9
Режим частоты кадров : Постоянный
Частота кадров : 23,976 кадра/сек
Цветовое пространство : YUV
Субдискретизация насыщенности : 4:2:0
Битовая глубина : 8 бит
Тип развёртки : Прогрессивная
Бит/(Пиксели*Кадры) : 0.241
Библиотека кодирования : x264 core 146 r2538 121396c
Настройки программы : cabac=1 / ref=3 / deblock=1:0:0 / analyse=0x3:0x113 / me=hex / subme=7 / psy=1 / psy_rd=1.00:0.00 / mixed_ref=1 / me_range=16 / chroma_me=1 / trellis=1 / 8x8dct=1 / cqm=0 / deadzone=21,11 / fast_pskip=1 / chroma_qp_offset=-2 / threads=3 / lookahead_threads=1 / sliced_threads=0 / nr=0 / decimate=1 / interlaced=0 / bluray_compat=0 / constrained_intra=0 / bframes=3 / b_pyramid=2 / b_adapt=1 / b_bias=0 / direct=1 / weightb=1 / open_gop=0 / weightp=2 / keyint=250 / keyint_min=23 / scenecut=40 / intra_refresh=0 / rc_lookahead=40 / rc=2pass / mbtree=1 / bitrate=12000 / ratetol=1.0 / qcomp=0.60 / qpmin=0 / qpmax=69 / qpstep=4 / cplxblur=20.0 / qblur=0.5 / ip_ratio=1.40 / aq=1:1.00
Default : Да
Forced : Нет
AUTHOR : BD3DRip by serj69
Видео #2
Идентификатор : 2
Формат : AVC
Формат/Информация : Advanced Video Codec
Профиль формата : [email protected]
MultiView_Count : 2
MultiView_Layout : Both Eyes laced in one block (left eye first)
Параметр CABAC формата : Да
Параметр ReFrames формата : 4 кадра
Идентификатор кодека : V_MPEG4/ISO/AVC
Продолжительность : 1 м. 47 с.
Номинальный битрейт : 12,0 Мбит/сек
Ширина : 1920 пикселей
Высота : 1080 пикселей
Соотношение сторон : 16:9
Режим частоты кадров : Постоянный
Частота кадров : 23,976 кадра/сек
Цветовое пространство : YUV
Субдискретизация насыщенности : 4:2:0
Битовая глубина : 8 бит
Тип развёртки : Прогрессивная
Бит/(Пиксели*Кадры) : 0.241
Библиотека кодирования : x264 core 146 r2538 121396c
Настройки программы : cabac=1 / ref=3 / deblock=1:0:0 / analyse=0x3:0x113 / me=hex / subme=7 / psy=1 / psy_rd=1.00:0.00 / mixed_ref=1 / me_range=16 / chroma_me=1 / trellis=1 / 8x8dct=1 / cqm=0 / deadzone=21,11 / fast_pskip=1 / chroma_qp_offset=-2 / threads=3 / lookahead_threads=1 / sliced_threads=0 / nr=0 / decimate=1 / interlaced=0 / bluray_compat=0 / constrained_intra=0 / bframes=3 / b_pyramid=2 / b_adapt=1 / b_bias=0 / direct=1 / weightb=1 / open_gop=0 / weightp=2 / keyint=250 / keyint_min=23 / scenecut=40 / intra_refresh=0 / rc_lookahead=40 / rc=2pass / mbtree=1 / bitrate=12000 / ratetol=1.0 / qcomp=0.60 / qpmin=0 / qpmax=69 / qpstep=4 / cplxblur=20.0 / qblur=0.5 / ip_ratio=1.40 / aq=1:1.00
Default : Да
Forced : Нет
AUTHOR : BD3DRip by serj69
Аудио
Идентификатор : 3
Формат : AC-3
Формат/Информация : Audio Coding 3
Расширение режима : CM (complete main)
Параметр Endianness формата : Big
Идентификатор кодека : A_AC3
Продолжительность : 1 м. 47 с.
Вид битрейта : Постоянный
Битрейт : 448 Кбит/сек
Каналы : 6 каналов
Расположение каналов : Front: L C R, Side: L R, LFE
Частота : 48,0 КГц
Битовая глубина : 16 бит
Метод сжатия : С потерями
Размер потока : 5,72 Мбайт (2%)
Язык : English
Default : Нет
Forced : Нет
-

MediaInfo - 720p

Общее
Уникальный идентификатор : 222257169578243173367721941343239071831 (0xA7352C7FC40155F37B64A7B9EDEAE857)
Полное имя : F:\Reliz\Panasonic 3D Demonstration Disc V1.2\11-Coral Wonderland.mkv
Формат : Matroska
Версия формата : Version 4 / Version 2
Размер файла : 371 Мбайт
Продолжительность : 2 м. 6 с.
Общий поток : 24,6 Мбит/сек
Название фильма : Coral Wonderland
Программа кодирования : Lavf55.44.100
Библиотека кодирования : Lavf55.44.100
Видео #1
Идентификатор : 1
Формат : AVC
Формат/Информация : Advanced Video Codec
Профиль формата : [email protected]
MultiView_Count : 2
MultiView_Layout : Both Eyes laced in one block (left eye first)
Параметр CABAC формата : Да
Параметр ReFrames формата : 4 кадра
Идентификатор кодека : V_MPEG4/ISO/AVC
Продолжительность : 2 м. 6 с.
Номинальный битрейт : 12,0 Мбит/сек
Ширина : 1280 пикселей
Высота : 720 пикселей
Соотношение сторон : 16:9
Режим частоты кадров : Постоянный
Частота кадров : 60,000 кадров/сек
Цветовое пространство : YUV
Субдискретизация насыщенности : 4:2:0
Битовая глубина : 8 бит
Тип развёртки : Прогрессивная
Бит/(Пиксели*Кадры) : 0.217
Библиотека кодирования : x264 core 146 r2538 121396c
Настройки программы : cabac=1 / ref=3 / deblock=1:0:0 / analyse=0x3:0x113 / me=hex / subme=7 / psy=1 / psy_rd=1.00:0.00 / mixed_ref=1 / me_range=16 / chroma_me=1 / trellis=1 / 8x8dct=1 / cqm=0 / deadzone=21,11 / fast_pskip=1 / chroma_qp_offset=-2 / threads=3 / lookahead_threads=1 / sliced_threads=0 / nr=0 / decimate=1 / interlaced=0 / bluray_compat=0 / constrained_intra=0 / bframes=3 / b_pyramid=2 / b_adapt=1 / b_bias=0 / direct=1 / weightb=1 / open_gop=0 / weightp=2 / keyint=250 / keyint_min=25 / scenecut=40 / intra_refresh=0 / rc_lookahead=40 / rc=2pass / mbtree=1 / bitrate=12000 / ratetol=1.0 / qcomp=0.60 / qpmin=0 / qpmax=69 / qpstep=4 / cplxblur=20.0 / qblur=0.5 / ip_ratio=1.40 / aq=1:1.00
Default : Да
Forced : Нет
AUTHOR : BD3DRip by serj69
Видео #2
Идентификатор : 2
Формат : AVC
Формат/Информация : Advanced Video Codec
Профиль формата : [email protected]
MultiView_Count : 2
MultiView_Layout : Both Eyes laced in one block (left eye first)
Параметр CABAC формата : Да
Параметр ReFrames формата : 4 кадра
Идентификатор кодека : V_MPEG4/ISO/AVC
Продолжительность : 2 м. 6 с.
Номинальный битрейт : 12,0 Мбит/сек
Ширина : 1280 пикселей
Высота : 720 пикселей
Соотношение сторон : 16:9
Режим частоты кадров : Постоянный
Частота кадров : 60,000 кадров/сек
Цветовое пространство : YUV
Субдискретизация насыщенности : 4:2:0
Битовая глубина : 8 бит
Тип развёртки : Прогрессивная
Бит/(Пиксели*Кадры) : 0.217
Библиотека кодирования : x264 core 146 r2538 121396c
Настройки программы : cabac=1 / ref=3 / deblock=1:0:0 / analyse=0x3:0x113 / me=hex / subme=7 / psy=1 / psy_rd=1.00:0.00 / mixed_ref=1 / me_range=16 / chroma_me=1 / trellis=1 / 8x8dct=1 / cqm=0 / deadzone=21,11 / fast_pskip=1 / chroma_qp_offset=-2 / threads=3 / lookahead_threads=1 / sliced_threads=0 / nr=0 / decimate=1 / interlaced=0 / bluray_compat=0 / constrained_intra=0 / bframes=3 / b_pyramid=2 / b_adapt=1 / b_bias=0 / direct=1 / weightb=1 / open_gop=0 / weightp=2 / keyint=250 / keyint_min=25 / scenecut=40 / intra_refresh=0 / rc_lookahead=40 / rc=2pass / mbtree=1 / bitrate=12000 / ratetol=1.0 / qcomp=0.60 / qpmin=0 / qpmax=69 / qpstep=4 / cplxblur=20.0 / qblur=0.5 / ip_ratio=1.40 / aq=1:1.00
Default : Да
Forced : Нет
AUTHOR : BD3DRip by serj69
Аудио
Идентификатор : 3
Формат : AC-3
Формат/Информация : Audio Coding 3
Расширение режима : CM (complete main)
Параметр Endianness формата : Big
Идентификатор кодека : A_AC3
Продолжительность : 2 м. 6 с.
Вид битрейта : Постоянный
Битрейт : 448 Кбит/сек
Каналы : 6 каналов
Расположение каналов : Front: L C R, Side: L R, LFE
Частота : 48,0 КГц
Битовая глубина : 16 бит
Метод сжатия : С потерями
Размер потока : 6,74 Мбайт (2%)
Язык : English
Default : Нет
Forced : Нет
-

Omen

Пост 20-Дек-2015 12:32

[Цитировать]

Киборг убийца 3D Трейлер
Год выпуска: 2016
Страна: Россия
Студия: Инейджел Юнайтед
Жанр: боевик, триллер, анимация
Продолжительность: 00:02:46
Перевод: Не требуется
Описание: Действие происходит в наши дни. Одна корпорация начала создавать военных киборгов, а вскоре решено было добавить в них искусственный интеллект, но один из создателей этих машин явно против этого, он всех пытается убедить, что это опасно и машины могут выйти из под контроля, но его не слушают и увольняют.
Позже он решает создать своего собственно киборга, который уничтожил бы всю корпорацию, включая все наработки, и при этом жертв быть не должно. "Пусть уж лучше вообще не будет роботов, чем роботы с искусственным интеллектом", - решает он, но про его планы узнают в самой корпорации и решают его задержать, но при задержании инженера случайно убивают и ещё и попадают в компьютер, из-за этого происходит сбой, т.к. учёный не успел ввести директивы,что нельзя убивать людей, у робота всего одна команда - "уничтожить корпорацию" и он начинает уничтожать всё и всех на своём пути, включая и людей. Теперь это уже неконтролируемый киборг-убийца...
Дополнительная информация по релизу: Если вы смотрите в анаглифе и в stereoscopic player, то выбирайте в настройках OPTIMIZED Anaglyph. Так 3D будет более объёмным, хотя и цветокоррекция будет незначительно изменена.
Это ПРОСТО нарезка различных фрагментов из анимационного сериала, который выйдет в январе 2016 года.
Буду выкладывать серии по 15-20 минут, хотя в 3D формате серии будут раза в 2 короче. Потом объединю их в полнометражный фильм.
Ролик создан с помощью The Movies и Sony Vegas, а для создания сериала так же задействованы графические редакторы и другие программы.
В этом трейлере - САМОДЕЛЬНАЯ музыка, но на youtube и vk есть этот 3D ролик с музыкой из оригинального Терминатора.
Качество: HDTVrip
Контейнер: MPEG Video
Формат 3D: Half SideBySide / Горизонтальная анаморфная стереопара
Порядок ракурсов: левый ракурс первый
Видео кодек: Mpeg
Аудио кодек: MPEG Audio
Видео: MPEG Video, 1280x720, 9800 Kbps, 25fps
Аудио: MPEG Audio, 48.0 KHz stereo, 384 Kbps

MediaInfo

General
Format : MPEG-PS
File size : 221 MiB
Duration : 2mn 46s
Overall bit rate : 11.1 Mbps
Video
ID : 224 (0xE0)
Format : MPEG Video
Commercial name : HDV 720p
Format version : Version 2
Format profile : [email protected] 1440
Format settings, BVOP : Yes
Format settings, Matrix : Default
Format settings, GOP : M=3, N=6
Duration : 2mn 46s
Bit rate : 10.5 Mbps
Maximum bit rate : 9 800 Kbps
Width : 1 280 pixels
Height : 720 pixels
Display aspect ratio : 16:9
Frame rate : 25.000 fps
Color space : YUV
Chroma subsampling : 4:2:0
Bit depth : 8 bits
Scan type : Progressive
Compression mode : Lossy
Bits/(Pixel*Frame) : 0.457
Time code of first frame : 00:00:00:00
Time code source : Group of pictures header
GOP, Open/Closed : Closed
Stream size : 209 MiB (95%)
Audio
ID : 192 (0xC0)
Format : MPEG Audio
Format version : Version 1
Format profile : Layer 2
Duration : 2mn 46s
Bit rate mode : Constant
Bit rate : 384 Kbps
Channel(s) : 2 channels
Sampling rate : 48.0 KHz
Compression mode : Lossy
Stream size : 7.63 MiB (3%)

Скриншоты




Omen

Пост 12-Дек-2015 18:45

[Цитировать]

Год выпуска: 2011
Страна: Россия
Жанр: Документальное любительское кино
Перевод: Не требуется
Русские субтитры: нет
Продолжительность: 0:09:30
Режиссёр: КИВ
Камера: Panasonic HDC-SDT750 - 3D
Описание: Фильм для любителей больших вылетов.-Двухдневная рыбалка на Оке в 3D,
Ловить рыбу по принципу; "CATCH and release"
Рыба: Жерех,Судак,Окунь,Щука,Берш,Голавль.
-Качество: HDTV
Контейнер: MPEG-PS
Формат 3D: Anamorph SideBySide / Горизонтальная анаморфная стереопара
Порядок ракурсов: левый ракурс первый
Видео кодек: MPEG Video
Аудиокодек: MPEG Audio
Видео: MPEG Video at 15,1 Мбит/сек 1934 x 1088 (1.778) at 25.000 fps
Аудио: MPEG Audio at 384 Кбит/сек 2 канала, 48,0 КГц,16 Бит

Скриншоты

Наилучшее качество достигается при просмотре на медиаплеере 3D-телевизора.

Omen

Пост 12-Дек-2015 18:48

[Цитировать]

Год выпуска: 2011
Страна: Россия
Жанр: Документальное любительское кино
Перевод: Не требуется
Русские субтитры: нет
Продолжительность: 0:09:30
Режиссёр: КИВ
Камера: Panasonic HDC-SDT750 - 3D
Описание: Фильм для любителей больших вылетов.-Двухдневная рыбалка на Оке в 3D,
Ловить рыбу по принципу; "CATCH and release"
Рыба: Жерех,Судак,Окунь,Щука,Берш,Голавль.
-Качество: HDTV
Контейнер: MPEG-PS
Формат 3D: Anamorph SideBySide / Горизонтальная анаморфная стереопара
Порядок ракурсов: левый ракурс первый
Видео кодек: MPEG Video
Аудиокодек: MPEG Audio
Видео: MPEG Video at 15,1 Мбит/сек 1934 x 1088 (1.778) at 25.000 fps
Аудио: MPEG Audio at 384 Кбит/сек 2 канала, 48,0 КГц,16 Бит

Скриншоты

Наилучшее качество достигается при просмотре на медиаплеере 3D-телевизора.

Omen

Пост 10-Дек-2015 18:04

[Цитировать]

Scorpions - Get Your Sting & Blackout - Live in 3D
Год выпуска: 2011
Страна: Германия (Sony Music)
Жанр: Музыка, Рок
Продолжительность: 01:53:58
Перевод: Не требуется
Русские субтитры: нетСостав:
Клаус Майне — вокал, тамбурин, гитара (1969—наши дни)
Рудольф Шенкер — гитара, бэк-вокал (1965—наши дни)
Маттиас Ябс — гитара, бэк-вокал (1978—наши дни)
Джеймс Коттак — ударные, бэк-вокал (1996—наши дни)
Павел Мончивода — бас-гитара, бэк-вокал (2004—наши дни)
Описание: Немецкая группа Scorpions, ветераны рока, представляют концерт "Get Your Sting & Blackout - Live In 3D" на Blu-ray при содействии компании Sony. Диск содержит запись концерта 15 апреля 2011 в Саарбрюкен, Германия снятый с использованием последних технологий 3D, одинадцатью камерами, звуком 5.1.
Сэмпл: http://sendfile.su/1176886
Качество: BDrip
Контейнер: MKV
Формат 3D: OverUnder / Вертикальная стереопара
Порядок ракурсов: левый ракурс первый
Видео кодек: x264
Аудио кодек: DTS
Видео: AVC / [email protected] / 23,976 fps / 1920х2160 /29,6 Мбит/сек
Аудио: Английский / DTS / 48 KHz / 5.1 ch / 1510 Кбит/сек
Релиз группы: ВНИМАНИЕ ! На встроенных ТВ-плеерах работать не будет!!!
ТВ Samsung в названии которого есть надпись Ultra HD , и LG Ultra HD 800 серии(исключение: LG UB850v не воспроизводит),Xiaomi Mi TV 2 воспроизводят полные стереопары встроенными плеерами
Железные плееры на которых воспроизводятся полные стереопары:Popcorn C-200 , Dune HD Smart D1 , Dune HD DUO , Dune HD Smart H1 , Dune HD Smart B1 , Dune HD Max , Dune HD TV-303D , Dune HD Base 3D, Philips HMP7001

MediaInfo

Общее
Уникальный идентификатор : 250596181851017148578405996416129847132 (0xBC8711ADC23E4814991AC161B0C84F5C)
Полное имя : E:\закачки\Scorpions Live - Get Your Sting & Blackout.Rip by SeRoGa00.mkv
Формат : Matroska
Версия формата : Version 2
Размер файла : 25,4 Гбайт
Продолжительность : 1 ч. 53 м.
Режим общего битрейта : Переменный
Общий поток : 31,8 Мбит/сек
Дата кодирования : UTC 2015-11-20 15:53:26
Программа кодирования : mkvmerge v3.4.0 ('Rapunzel') сборка от May 15 2010 09:38:20
Библиотека кодирования : libebml v0.8.0 + libmatroska v0.9.0
Видео
Идентификатор : 1
Формат : AVC
Формат/Информация : Advanced Video Codec
Профиль формата : [email protected]
Параметр CABAC формата : Да
Параметр ReFrames формата : 4 кадра
Идентификатор кодека : V_MPEG4/ISO/AVC
Продолжительность : 1 ч. 53 м.
Битрейт : 29,6 Мбит/сек
Ширина : 1920 пикселей
Высота : 2160 пикселей
Соотношение сторон : 0,889
Частота кадров : 23,976 кадра/сек
Цветовое пространство : YUV
Субдискретизация насыщенности : 4:2:0
Битовая глубина : 8 бит
Тип развёртки : Прогрессивная
Бит/(Пиксели*Кадры) : 0.298
Размер потока : 23,6 Гбайт (93%)
Заголовок : Rip by SeRoGa00
Библиотека кодирования : x264 core 148 r2638 7599210
Настройки программы : cabac=1 / ref=4 / deblock=1:-3:-3 / analyse=0x3:0x113 / me=umh / subme=9 / psy=1 / psy_rd=1.00:0.15 / mixed_ref=1 / me_range=32 / chroma_me=1 / trellis=2 / 8x8dct=1 / cqm=0 / deadzone=21,11 / fast_pskip=1 / chroma_qp_offset=-3 / threads=9 / lookahead_threads=2 / sliced_threads=0 / nr=0 / decimate=1 / interlaced=0 / bluray_compat=0 / constrained_intra=0 / bframes=10 / b_pyramid=2 / b_adapt=2 / b_bias=0 / direct=3 / weightb=1 / open_gop=0 / weightp=2 / keyint=250 / keyint_min=23 / scenecut=40 / intra_refresh=0 / rc_lookahead=60 / rc=crf / mbtree=1 / crf=18.0 / qcomp=0.60 / qpmin=10 / qpmax=69 / qpstep=4 / vbv_maxrate=30000 / vbv_bufsize=30000 / crf_max=0.0 / nal_hrd=none / filler=0 / ip_ratio=1.40 / aq=1:1.00
Язык : English
Default : Нет
Forced : Нет
Аудио
Идентификатор : 2
Формат : DTS
Формат/Информация : Digital Theater Systems
Профиль формата : MA / Core
Идентификатор кодека : A_DTS
Продолжительность : 1 ч. 53 м.
Вид битрейта : Переменный
Битрейт : 1576 Кбит/сек / 1510 Кбит/сек
Каналы : 6 каналов
Расположение каналов : Front: L C R, Side: L R, LFE
Частота : 48,0 КГц
Битовая глубина : 24 бит
Метод сжатия : Без потерь / Lossy
Язык : English
Default : Да
Forced : Нет

Трек-лист

01. Intro
02. Sting In The Tail
03. Make It Real
04. Bad Boys Running Wild
05. The Zoo
06. Coast To Coast
07. Loving You Sunday Morning
08. The Best Is Yet To Come
09. Send Me An Angel
10. Holiday
11. Raised On Rock
12. Tease Me Please Me
13. Dynamite
14. Kottak Attack
15. Blackout
16. Six String Sting
17. Big City Nights
18. Still Loving You
19. Wind Of Change
20. Rock You Like A Hurricane
21. When The Smoke Is Going Down

Скриншоты


Omen

Пост 29-Ноя-2015 12:07

[Цитировать]

С любовью из 80-х в 3D
Год выпуска: 2015
Страна: Россия
Студия: Enagel United
Жанр: анимация, любительский мультфильм, драма
Продолжительность: 00:15:36
Озвучка: Одноголосная (любительская) + субтитры (когда персонажи думают)
Режиссер: Евгений Жёлтиков
Описание: Действие происходит в 1988 году. История о 3-х молодых людях. Стив долгое время был влюблён в Джоанну, но когда решил признаться ей в своих чувствах, она ему отказала, но он не отступает... это может сильно не понравится Грэгу, парню Джоанны...
Дополнительная информация по релизу: Анимационный фильм создан в "The Movies", но там нет ни плагина, ни мода, ни функции по созданию 3D видео, поэтому всё делал вручную двумя виртуальными камерами.
Качество: HDTVrip
Контейнер: MP4
Формат 3D: Half SideBySide / Горизонтальная анаморфная стереопара
Порядок ракурсов: левый ракурс первый
Видео кодек: AVC
Аудио кодек: AAC
Видео: MP4, PAL, 1280x720, 16:9, 6714 Кбит/сек, 25,000 кадр/сек
Аудио: Русский, AAC, 2 канала, 48,0 КГц, 320 Кбит/сек

MediaInfo

General
Format : MPEG-4
Format profile : Base Media / Version 2
Codec ID : mp42
File size : 786 MiB
Duration : 15mn 36s
Overall bit rate mode : Variable
Overall bit rate : 7 039 Kbps
Encoded date : UTC 2015-11-07 12:57:12
Tagged date : UTC 2015-11-07 12:57:12
Video
ID : 2
Format : AVC
Format/Info : Advanced Video Codec
Format profile : [email protected]
Format settings, CABAC : Yes
Format settings, ReFrames : 2 frames
Muxing mode : Container [email protected]
Codec ID : avc1
Codec ID/Info : Advanced Video Coding
Duration : 15mn 36s
Bit rate mode : Variable
Bit rate : 6 714 Kbps
Maximum bit rate : 16.0 Mbps
Width : 1 280 pixels
Height : 720 pixels
Display aspect ratio : 16:9
Frame rate mode : Constant
Frame rate : 25.000 fps
Color space : YUV
Chroma subsampling : 4:2:0
Bit depth : 8 bits
Scan type : Progressive
Bits/(Pixel*Frame) : 0.291
Stream size : 750 MiB (95%)
Language : Russian
Encoded date : UTC 2015-11-07 12:57:12
Tagged date : UTC 2015-11-07 12:57:12
Audio
ID : 1
Format : AAC
Format/Info : Advanced Audio Codec
Format profile : LC
Codec ID : 40
Duration : 15mn 36s
Bit rate mode : Constant
Bit rate : 320 Kbps
Channel(s) : 2 channels
Channel positions : Front: L R
Sampling rate : 48.0 KHz
Compression mode : Lossy
Stream size : 35.7 MiB (5%)
Language : Russian
Encoded date : UTC 2015-11-07 12:57:12
Tagged date : UTC 2015-11-07 12:57:12

Скриншоты




Omen

Пост 29-Ноя-2015 12:07

[Цитировать]

Deep Purple ★ From the Setting Sun... (in Wacken)
Год выпуска: 2015
Страна: Германия
Жанр: Музыка, Hard Rock
Продолжительность: 01:35:29
Перевод: Не требуется
Русские субтитры: нетСостав группы:
Ian Gillan - Vocal
Roger Glover - Bass
Ian Paice - Drums
Steve Morse - Guitar
Don Airey - Keyboards
Описание: Deep Purple: From the Setting Sun (in Wacken) был снят на девять HD камер и отмечаем, что в первый раз Deep Purple выпустил 3D-фильм. Аудио для фильма смешивали в Гамбурге Эйке Фриз и Алекс Дитц под наблюдением Роджера Гловера.
Снято и записано в ходе мирового турне группы =NOW What?!= на фестивале Wacken Open Air (Германия) 1-го августа 2013г.
Сэмпл: http://sendfile.su/1174653
Качество: BDrip
Контейнер: MKV
Формат 3D: OverUnder / Вертикальная стереопара
Порядок ракурсов: левый ракурс первый
Видео кодек: x264
Аудио кодек: DTS
Видео: AVC / [email protected] / 23,976 fps / 1920х2160 / 24,2 Мбит/сек
Аудио: Английский / DTS / 48 KHz / 5.1 ch / 768 Кбит/сек
Релиз группы: ВНИМАНИЕ ! На встроенных ТВ-плеерах работать не будет!!!
ТВ Samsung в названии которого есть надпись Ultra HD , и LG Ultra HD 800 серии(исключение: LG UB850v не воспроизводит),Xiaomi Mi TV 2 воспроизводят полные стереопары встроенными плеерами
Железные плееры на которых воспроизводятся полные стереопары:Popcorn C-200 , Dune HD Smart D1 , Dune HD DUO , Dune HD Smart H1 , Dune HD Smart B1 , Dune HD Max , Dune HD TV-303D , Dune HD Base 3D, Philips HMP7001

MediaInfo

Общее
Уникальный идентификатор : 246885409961307987200698092017342308242 (0xB9BC667FCE9819F5986BA9070E395F92)
Полное имя : E:\закачки\Deep Purple ★ From the Setting Sun.Rip by SeRoGa00.mkv
Формат : Matroska
Версия формата : Version 2
Размер файла : 17,0 Гбайт
Продолжительность : 1 ч. 35 м.
Режим общего битрейта : Переменный
Общий поток : 25,5 Мбит/сек
Дата кодирования : UTC 2015-11-17 13:20:54
Программа кодирования : mkvmerge v3.4.0 ('Rapunzel') сборка от May 15 2010 09:38:20
Библиотека кодирования : libebml v0.8.0 + libmatroska v0.9.0
Видео
Идентификатор : 1
Формат : AVC
Формат/Информация : Advanced Video Codec
Профиль формата : [email protected]
Параметр CABAC формата : Да
Параметр ReFrames формата : 4 кадра
Идентификатор кодека : V_MPEG4/ISO/AVC
Продолжительность : 1 ч. 35 м.
Битрейт : 24,2 Мбит/сек
Ширина : 1920 пикселей
Высота : 2160 пикселей
Соотношение сторон : 0,889
Частота кадров : 23,976 кадра/сек
Цветовое пространство : YUV
Субдискретизация насыщенности : 4:2:0
Битовая глубина : 8 бит
Тип развёртки : Прогрессивная
Бит/(Пиксели*Кадры) : 0.243
Размер потока : 16,1 Гбайт (95%)
Заголовок : Rip by SeRoGa00
Библиотека кодирования : x264 core 148 r2638 7599210
Настройки программы : cabac=1 / ref=4 / deblock=1:-3:-3 / analyse=0x3:0x113 / me=umh / subme=9 / psy=1 / psy_rd=1.00:0.15 / mixed_ref=1 / me_range=32 / chroma_me=1 / trellis=2 / 8x8dct=1 / cqm=0 / deadzone=21,11 / fast_pskip=1 / chroma_qp_offset=-3 / threads=9 / lookahead_threads=2 / sliced_threads=0 / nr=0 / decimate=1 / interlaced=0 / bluray_compat=0 / constrained_intra=0 / bframes=10 / b_pyramid=2 / b_adapt=2 / b_bias=0 / direct=3 / weightb=1 / open_gop=0 / weightp=2 / keyint=250 / keyint_min=23 / scenecut=40 / intra_refresh=0 / rc_lookahead=60 / rc=crf / mbtree=1 / crf=18.0 / qcomp=0.60 / qpmin=10 / qpmax=69 / qpstep=4 / vbv_maxrate=30000 / vbv_bufsize=30000 / crf_max=0.0 / nal_hrd=none / filler=0 / ip_ratio=1.40 / aq=1:1.00
Язык : English
Default : Нет
Forced : Нет
Аудио
Идентификатор : 2
Формат : DTS
Формат/Информация : Digital Theater Systems
Профиль формата : MA / Core
Идентификатор кодека : A_DTS
Продолжительность : 1 ч. 35 м.
Вид битрейта : Переменный
Битрейт : 821 Кбит/сек / 768 Кбит/сек
Каналы : 6 каналов
Расположение каналов : Front: L C R, Side: L R, LFE
Частота : 48,0 КГц
Битовая глубина : 16 бит
Метод сжатия : Без потерь / Lossy
Язык : English
Default : Да
Forced : Нет

Скриншоты


Трек-лист

01. Highway Star
02. Into The Fire
03. Hard Lovin' Man
04. Vincent Price
05. Strange Kind of Woman
06. Contact Lost
07. The Well-Dressed Guitar
08. Hell To Pay
09. Lazy
10. Above And Beyond
11. No One Came
12. Don Airey's Solo
13. Perfect Strangers
14. Space Truckin'
15. Steve Morse and Uli Jon Roth - Improvisation
16. Smoke On The Water feat.Uli Jon Roth
17. Green Onions / Hush
18. Black Night

Omen

Пост 28-Окт-2015 00:08

[Цитировать]

-Deep Purple ★ From the Setting Sun... (in Wacken)- Год выпуска: 2015
Страна: Германия
Студия:
Жанр: Музыка, Hard Rock
Продолжительность: 01:35:29
Перевод: Не требуется-Состав группы:

Ian Gillan - Vocal
Roger Glover - Bass
Ian Paice - Drums
Steve Morse - Guitar
Don Airey - Keyboards

За всю историю и трек-лист - внизу под спойлерами.
-Описание: Deep Purple: From the Setting Sun (in Wacken) был снят на девять HD камер и отмечаем, что в первый раз Deep Purple выпустил 3D-фильм. Аудио для фильма смешивали в Гамбурге Эйке Фриз и Алекс Дитц под наблюдением Роджера Гловера.
Снято и записано в ходе мирового турне группы =NOW What?!= на фестивале Wacken Open Air (Германия) 1-го августа 2013г.
-
За исходный BD 3D спасибо meloman67!
-Качество: BDRip (by Ash61)
Контейнер: MKV
Формат 3D: Half OverUnder / Вертикальная анаморфная стереопара
Порядок ракурсов: левый ракурс первый-Видео: AVC / 23,976 fps / 1920х1080p / 16.8 Mbps
Аудио: Английский / AC3 / 48 KHz / 5.1 ch / 640 Kbps (Original - BD 3D)
Отдельным файлом - Английский / DTS-HD MA / 5.1 / 48 kHz / 2676 kbps / 16-bit (DTS Core: 5.1 / 48 kHz / 768 kbps / 16-bit / DN -4dB)
Субтитры (SRT):
Вшитые (softsub) - English Форсированные (Названия песен) [Color]
Внешние (UTF-8) - English Форсированные (Названия песен) [Color]

MediaInfo

General
Unique ID : 205186076109989557375117883453390761102 (0x9A5D669BD26D51E99212F9A4AEDCAC8E)
Complete name : E:\DeepPurple.FromTheSettingSun(2015)3D-halfOU(Ash61)\DeepPurple.FromTheSettingSun(2015)3D-halfOU(Ash61).mkv
Format : Matroska
Format version : Version 2
File size : 11.8 GiB
Duration : 1h 35mn
Overall bit rate : 17.7 Mbps
Movie name : Deep Purple ★ From the Setting Sun... in Wacken 2013 (2015) в 3Д
Encoded date : UTC 2015-10-14 19:56:02
Writing application : mkvmerge v5.8.0 ('No Sleep / Pillow') built on Sep 2 2012 15:37:04
Writing library : libebml v1.2.3 + libmatroska v1.3.0
Video
ID : 1
Format : AVC
Format/Info : Advanced Video Codec
Format profile : [email protected]
Format settings, CABAC : Yes
Format settings, ReFrames : 4 frames
Codec ID : V_MPEG4/ISO/AVC
Duration : 1h 35mn
Bit rate : 16.8 Mbps
Width : 1 920 pixels
Height : 1 080 pixels
Display aspect ratio : 16:9
Frame rate mode : Constant
Frame rate : 23.976 fps
Color space : YUV
Chroma subsampling : 4:2:0
Bit depth : 8 bits
Scan type : Progressive
Bits/(Pixel*Frame) : 0.337
Stream size : 11.2 GiB (94%)
Title : BDRip by Ash61
Writing library : x264 core 146 r2538 121396c
Encoding settings : cabac=1 / ref=4 / deblock=1:-3:-3 / analyse=0x3:0x113 / me=umh / subme=10 / psy=1 / psy_rd=1.00:0.00 / mixed_ref=1 / me_range=32 / chroma_me=1 / trellis=2 / 8x8dct=1 / cqm=0 / deadzone=21,11 / fast_pskip=1 / chroma_qp_offset=-2 / threads=12 / lookahead_threads=3 / sliced_threads=0 / nr=0 / decimate=1 / interlaced=0 / bluray_compat=0 / constrained_intra=0 / bframes=10 / b_pyramid=2 / b_adapt=2 / b_bias=0 / direct=3 / weightb=1 / open_gop=0 / weightp=2 / keyint=250 / keyint_min=23 / scenecut=40 / intra_refresh=0 / rc_lookahead=60 / rc=crf / mbtree=1 / crf=16.0 / qcomp=0.70 / qpmin=0 / qpmax=69 / qpstep=4 / vbv_maxrate=40000 / vbv_bufsize=30000 / crf_max=0.0 / nal_hrd=none / filler=0 / frame-packing=4 / ip_ratio=1.40 / aq=1:0.70
Language : English
Default : Yes
Forced : No
Audio
ID : 2
Format : AC-3
Format/Info : Audio Coding 3
Mode extension : CM (complete main)
Format settings, Endianness : Big
Codec ID : A_AC3
Duration : 1h 35mn
Bit rate mode : Constant
Bit rate : 640 Kbps
Channel(s) : 6 channels
Channel positions : Front: L C R, Side: L R, LFE
Sampling rate : 48.0 KHz
Bit depth : 16 bits
Compression mode : Lossy
Stream size : 437 MiB (4%)
Title : Original - BD 3D
Language : English
Default : Yes
Forced : No
Text
ID : 3
Format : UTF-8
Codec ID : S_TEXT/UTF8
Codec ID/Info : UTF-8 Plain Text
Title : Названия песен
Language : English
Default : Yes
Forced : No
Menu
00:00:00.000 : : 1. Intro
00:01:57.367 : : 2. Highway Star
00:08:26.881 : : 3. Into the Fire
00:11:52.921 : : 4. Hard Lovin' Man
00:18:27.940 : : 5. Vincent Price
00:22:52.955 : : 6. Strange Kind of Woman
00:28:41.803 : : 7. Contact Lost
00:31:37.729 : : 8. The Well-Dressed Guitar
00:34:16.137 : : 9. Hell to Pay
00:39:19.440 : : 10. Lazy
00:47:16.584 : : 11. Above and Beyond
00:52:25.476 : : 12. No One Came
00:57:43.502 : : 13. Don Airey's Solo
01:00:42.138 : : 14. Perfect Strangers
01:06:46.586 : : 15. Space Truckin'
01:11:40.463 : : 16. Steve Morse and Uli Jon Roth - Improvisation
01:13:12.179 : : 17. Smoke on the Water (featuring Uli Jon Roth)
01:21:13.744 : : 18. Green Onions / Hush
01:28:29.054 : : 19. Black Night

Скриншоты

Для оценки 3Д - Анимированные скрины










Трек-лист

1. Intro
2. Highway Star
3. Into the Fire
4. Hard Lovin' Man
5. Vincent Price
6. Strange Kind of Woman
7. Contact Lost
8. The Well-Dressed Guitar
9. Hell to Pay
10. Lazy
11. Above and Beyond
12. No One Came
13. Don Airey's Solo
14. Perfect Strangers
15. Space Truckin'
16. Steve Morse and Uli Jon Roth - Improvisation
17. Smoke on the Water (featuring Uli Jon Roth)
18. Green Onions / Hush
19. Black Night

Состав группы 1968г - 2015г

Omen

Пост 28-Окт-2015 00:09

[Цитировать]

-Deep Purple ★ From the Setting Sun... (in Wacken)- Год выпуска: 2015
Страна: Германия
Студия:
Жанр: Музыка, Hard Rock
Продолжительность: 01:35:29
Перевод: Не требуется-Состав группы:

Ian Gillan - Vocal
Roger Glover - Bass
Ian Paice - Drums
Steve Morse - Guitar
Don Airey - Keyboards

За всю историю и трек-лист - внизу под спойлерами.
-Описание: Deep Purple: From the Setting Sun (in Wacken) был снят на девять HD камер и отмечаем, что в первый раз Deep Purple выпустил 3D-фильм. Аудио для фильма смешивали в Гамбурге Эйке Фриз и Алекс Дитц под наблюдением Роджера Гловера.
Снято и записано в ходе мирового турне группы =NOW What?!= на фестивале Wacken Open Air (Германия) 1-го августа 2013г.
-
За исходный BD 3D спасибо meloman67!
-Качество: BDRip (by Ash61)
Контейнер: MKV
Формат 3D: Half OverUnder / Вертикальная анаморфная стереопара
Порядок ракурсов: левый ракурс первый-Видео: AVC / 23,976 fps / 1920х1080p / 16.8 Mbps
Аудио: Английский / AC3 / 48 KHz / 5.1 ch / 640 Kbps (Original - BD 3D)
Отдельным файлом - Английский / DTS-HD MA / 5.1 / 48 kHz / 2676 kbps / 16-bit (DTS Core: 5.1 / 48 kHz / 768 kbps / 16-bit / DN -4dB)
Субтитры (SRT):
Вшитые (softsub) - English Форсированные (Названия песен) [Color]
Внешние (UTF-8) - English Форсированные (Названия песен) [Color]

MediaInfo

General
Unique ID : 205186076109989557375117883453390761102 (0x9A5D669BD26D51E99212F9A4AEDCAC8E)
Complete name : E:\DeepPurple.FromTheSettingSun(2015)3D-halfOU(Ash61)\DeepPurple.FromTheSettingSun(2015)3D-halfOU(Ash61).mkv
Format : Matroska
Format version : Version 2
File size : 11.8 GiB
Duration : 1h 35mn
Overall bit rate : 17.7 Mbps
Movie name : Deep Purple ★ From the Setting Sun... in Wacken 2013 (2015) в 3Д
Encoded date : UTC 2015-10-14 19:56:02
Writing application : mkvmerge v5.8.0 ('No Sleep / Pillow') built on Sep 2 2012 15:37:04
Writing library : libebml v1.2.3 + libmatroska v1.3.0
Video
ID : 1
Format : AVC
Format/Info : Advanced Video Codec
Format profile : [email protected]
Format settings, CABAC : Yes
Format settings, ReFrames : 4 frames
Codec ID : V_MPEG4/ISO/AVC
Duration : 1h 35mn
Bit rate : 16.8 Mbps
Width : 1 920 pixels
Height : 1 080 pixels
Display aspect ratio : 16:9
Frame rate mode : Constant
Frame rate : 23.976 fps
Color space : YUV
Chroma subsampling : 4:2:0
Bit depth : 8 bits
Scan type : Progressive
Bits/(Pixel*Frame) : 0.337
Stream size : 11.2 GiB (94%)
Title : BDRip by Ash61
Writing library : x264 core 146 r2538 121396c
Encoding settings : cabac=1 / ref=4 / deblock=1:-3:-3 / analyse=0x3:0x113 / me=umh / subme=10 / psy=1 / psy_rd=1.00:0.00 / mixed_ref=1 / me_range=32 / chroma_me=1 / trellis=2 / 8x8dct=1 / cqm=0 / deadzone=21,11 / fast_pskip=1 / chroma_qp_offset=-2 / threads=12 / lookahead_threads=3 / sliced_threads=0 / nr=0 / decimate=1 / interlaced=0 / bluray_compat=0 / constrained_intra=0 / bframes=10 / b_pyramid=2 / b_adapt=2 / b_bias=0 / direct=3 / weightb=1 / open_gop=0 / weightp=2 / keyint=250 / keyint_min=23 / scenecut=40 / intra_refresh=0 / rc_lookahead=60 / rc=crf / mbtree=1 / crf=16.0 / qcomp=0.70 / qpmin=0 / qpmax=69 / qpstep=4 / vbv_maxrate=40000 / vbv_bufsize=30000 / crf_max=0.0 / nal_hrd=none / filler=0 / frame-packing=4 / ip_ratio=1.40 / aq=1:0.70
Language : English
Default : Yes
Forced : No
Audio
ID : 2
Format : AC-3
Format/Info : Audio Coding 3
Mode extension : CM (complete main)
Format settings, Endianness : Big
Codec ID : A_AC3
Duration : 1h 35mn
Bit rate mode : Constant
Bit rate : 640 Kbps
Channel(s) : 6 channels
Channel positions : Front: L C R, Side: L R, LFE
Sampling rate : 48.0 KHz
Bit depth : 16 bits
Compression mode : Lossy
Stream size : 437 MiB (4%)
Title : Original - BD 3D
Language : English
Default : Yes
Forced : No
Text
ID : 3
Format : UTF-8
Codec ID : S_TEXT/UTF8
Codec ID/Info : UTF-8 Plain Text
Title : Названия песен
Language : English
Default : Yes
Forced : No
Menu
00:00:00.000 : : 1. Intro
00:01:57.367 : : 2. Highway Star
00:08:26.881 : : 3. Into the Fire
00:11:52.921 : : 4. Hard Lovin' Man
00:18:27.940 : : 5. Vincent Price
00:22:52.955 : : 6. Strange Kind of Woman
00:28:41.803 : : 7. Contact Lost
00:31:37.729 : : 8. The Well-Dressed Guitar
00:34:16.137 : : 9. Hell to Pay
00:39:19.440 : : 10. Lazy
00:47:16.584 : : 11. Above and Beyond
00:52:25.476 : : 12. No One Came
00:57:43.502 : : 13. Don Airey's Solo
01:00:42.138 : : 14. Perfect Strangers
01:06:46.586 : : 15. Space Truckin'
01:11:40.463 : : 16. Steve Morse and Uli Jon Roth - Improvisation
01:13:12.179 : : 17. Smoke on the Water (featuring Uli Jon Roth)
01:21:13.744 : : 18. Green Onions / Hush
01:28:29.054 : : 19. Black Night

Скриншоты

Для оценки 3Д - Анимированные скрины










Трек-лист

1. Intro
2. Highway Star
3. Into the Fire
4. Hard Lovin' Man
5. Vincent Price
6. Strange Kind of Woman
7. Contact Lost
8. The Well-Dressed Guitar
9. Hell to Pay
10. Lazy
11. Above and Beyond
12. No One Came
13. Don Airey's Solo
14. Perfect Strangers
15. Space Truckin'
16. Steve Morse and Uli Jon Roth - Improvisation
17. Smoke on the Water (featuring Uli Jon Roth)
18. Green Onions / Hush
19. Black Night

Состав группы 1968г - 2015г

Omen

Пост 18-Окт-2015 21:05

[Цитировать]

-Metallica: Сквозь невозможное
Metallica Through the Never
Год выпуска: 2013
Страна: США (PictureHouse, Blackened)
Жанр: Музыка, Приключения
Продолжительность: 01:32:45
Перевод: Профессиональный многоголосый закадровый - ТНТ
Режиссер: Нимрод Антал / Nimród Antal-В фильме снимались:
......
Trip - Дэйн ДеХаан
Metallica:
James Hetfield - Lead Vocal, Guitar
Lars Ulrich - Drums, Vocal
Kirk Hammett - Guitar, Vocal
Robert Trujillo - Bass, Vocal
-Описание: Участник технической команды группы Metallica получает задание — привезти сумку, содержимое которой необходимо группе для выступления. Сопровождая таинственную сумку, он попадает в невероятные передряги. Картина представляет собой смесь игрового фильма и концерта.-Доп. инфо: Русская дорога получена наложением на центр оригинальной DTS-HD MA выделенных фраз озвучки ТНТ.
За исходную озвучку ТНТ спасибо miha2154!-Премьера: 9 сентября 2013 (26 сентября 2013)
Бюджет: $18 000 000

. .
-Качество: Blu-Ray Remux
Контейнер: ISO
Формат 3D: Blu-ray 3D
Порядок ракурсов: левый ракурс первый-Видео:
MPEG-4 AVC Video 24802 kbps 1080p / 23,976 fps / 16:9 / High Profile 4.1
MPEG-4 MVC Video 16868 kbps
Аудио:
#1 - Русский / DTS-HD MA / 5.1 / 48 kHz / 5072 kbps / 24-bit (DTS Core: 5.1 / 48 kHz / 1509 kbps / 24-bit) (MVO - ТНТ) (монтаж Ash61)
#2 - Английский / DTS-HD MA / 5.1 / 48 kHz / 5132 kbps / 24-bit (DTS Core: 5.1 / 48 kHz / 1509 kbps / 24-bit) (Original - BD 3D)
Субтитры
#1 - English Форсированные - названия песен (Цветные)
#2 - Русские Полные - с текстами песен (Цветные) [Andreas (edited)]
#3 - Русские Полные - без текстов песен [Smir (Нотабеноид)]
#4 - English Full - with texts of the songs (Color)

BDInfo

DISC INFO:
Disc Title: Metallica.ThroughTheNever(2013)(
Disc Size: 38 151 535 156 bytes
Protection: AACS
BD-Java: No
Extras: Blu-ray 3D
BDInfo: 0.5.8
PLAYLIST REPORT:
Name: 00000.MPLS
Length: 1:32:45.643 (h:m:s.ms)
Size: 38 151 346 176 bytes
Total Bitrate: 54,84 Mbps
VIDEO:
Codec Bitrate Description
----- ------- -----------
MPEG-4 AVC Video 24802 kbps 1080p / 23,976 fps / 16:9 / High Profile 4.1
MPEG-4 MVC Video 16868 kbps
AUDIO:
Codec Language Bitrate Description
----- -------- ------- -----------
DTS-HD Master Audio Russian 5072 kbps 5.1 / 48 kHz / 5072 kbps / 24-bit (DTS Core: 5.1 / 48 kHz / 1509 kbps / 24-bit)
DTS-HD Master Audio English 5132 kbps 5.1 / 48 kHz / 5132 kbps / 24-bit (DTS Core: 5.1 / 48 kHz / 1509 kbps / 24-bit)
SUBTITLES:
Codec Language Bitrate Description
----- -------- ------- -----------
Presentation Graphics Russian 1,026 kbps
Presentation Graphics Russian 22,836 kbps
Presentation Graphics Russian 2,988 kbps
Presentation Graphics English 21,123 kbps
FILES:
Name Time In Length Size Total Bitrate
---- ------- ------ ---- -------------
00000.SSIF 0:00:00.000 1:32:45.643 38 151 346 176 54 838
CHAPTERS:
Number Time In Length Avg Video Rate Max 1-Sec Rate Max 1-Sec Time Max 5-Sec Rate Max 5-Sec Time Max 10Sec Rate Max 10Sec Time Avg Frame Size Max Frame Size Max Frame Time
------ ------- ------ -------------- -------------- -------------- -------------- -------------- -------------- -------------- -------------- -------------- --------------
1 0:00:00.000 0:03:48.228 27 169 kbps 34 757 kbps 00:00:30.113 31 256 kbps 00:00:11.970 30 940 kbps 00:00:06.965 141 621 bytes 581 715 bytes 00:00:16.975
2 0:03:48.228 0:01:29.088 23 981 kbps 33 833 kbps 00:04:52.792 31 115 kbps 00:04:48.788 30 160 kbps 00:04:43.783 125 024 bytes 287 762 bytes 00:05:14.814
3 0:05:17.317 0:05:38.837 26 186 kbps 34 747 kbps 00:08:17.246 31 575 kbps 00:08:13.242 30 636 kbps 00:05:36.127 136 519 bytes 412 456 bytes 00:10:00.600
4 0:10:56.154 0:04:05.202 27 125 kbps 32 701 kbps 00:12:02.179 30 963 kbps 00:11:22.598 30 761 kbps 00:11:18.803 141 415 bytes 374 797 bytes 00:12:36.755
5 0:15:01.357 0:04:33.606 26 179 kbps 32 328 kbps 00:18:49.127 31 016 kbps 00:18:00.329 30 722 kbps 00:17:55.324 136 484 bytes 313 894 bytes 00:15:24.882
6 0:19:34.964 0:06:06.533 25 507 kbps 32 862 kbps 00:24:25.755 31 051 kbps 00:22:35.604 30 825 kbps 00:20:01.491 132 981 bytes 345 239 bytes 00:20:06.079
7 0:25:41.497 0:09:02.458 24 877 kbps 33 454 kbps 00:31:20.503 30 978 kbps 00:31:55.955 30 789 kbps 00:29:03.783 129 697 bytes 409 874 bytes 00:32:06.966
8 0:34:43.956 0:05:07.974 28 380 kbps 32 641 kbps 00:37:36.170 30 996 kbps 00:38:47.783 30 838 kbps 00:37:06.307 147 961 bytes 411 785 bytes 00:35:57.446
9 0:39:51.930 0:01:33.342 27 421 kbps 31 817 kbps 00:41:06.422 30 834 kbps 00:40:44.817 30 285 kbps 00:41:01.792 142 958 bytes 258 017 bytes 00:41:02.835
10 0:41:25.273 0:05:43.802 25 057 kbps 32 046 kbps 00:41:54.887 30 825 kbps 00:41:53.719 30 042 kbps 00:41:55.804 130 635 bytes 360 563 bytes 00:41:53.177
11 0:47:09.076 0:08:16.621 24 097 kbps 32 454 kbps 00:48:01.753 30 916 kbps 00:48:48.467 30 735 kbps 00:48:07.217 125 631 bytes 310 824 bytes 00:52:23.473
12 0:55:25.697 0:08:20.541 25 226 kbps 33 458 kbps 00:57:07.090 30 942 kbps 00:58:51.069 30 815 kbps 00:59:24.269 131 519 bytes 401 976 bytes 01:02:39.422
13 1:03:46.238 0:03:15.819 23 507 kbps 34 667 kbps 01:05:14.076 30 807 kbps 01:04:46.674 30 773 kbps 01:04:41.669 122 555 bytes 460 311 bytes 01:06:19.141
14 1:07:02.058 0:05:43.426 22 595 kbps 32 327 kbps 01:12:09.658 30 966 kbps 01:09:02.054 30 807 kbps 01:08:57.091 117 799 bytes 315 687 bytes 01:11:45.009
15 1:12:45.485 0:06:41.943 25 179 kbps 34 644 kbps 01:16:19.574 30 902 kbps 01:19:03.071 29 651 kbps 01:16:22.619 131 271 bytes 369 599 bytes 01:14:00.102
16 1:19:27.429 0:04:59.505 24 847 kbps 31 693 kbps 01:20:45.465 30 903 kbps 01:23:04.354 30 749 kbps 01:22:16.890 129 542 bytes 256 516 bytes 01:20:43.213
17 1:24:26.934 0:08:17.665 19 563 kbps 33 888 kbps 01:28:09.659 31 408 kbps 01:28:05.655 28 005 kbps 01:28:00.650 101 991 bytes 479 032 bytes 01:26:08.580
18 1:32:44.600 0:00:01.043 42 kbps 43 kbps 01:32:44.600 0 kbps 00:00:00.000 0 kbps 00:00:00.000 226 bytes 1 075 bytes 01:32:45.101
STREAM DIAGNOSTICS:
File PID Type Codec Language Seconds Bitrate Bytes Packets
---- --- ---- ----- -------- -------------- -------------- ------------- -----
00000.SSIF 4114 (0x1012) 0x20 MVC 5565,560 16 868 11 735 112 915 63 867 136
00000.SSIF 4113 (0x1011) 0x1B AVC 5565,560 24 802 17 254 572 443 93 855 207
00000.SSIF 4352 (0x1100) 0x86 DTS-HD MA rus (Russian) 5565,560 5 072 3 528 894 996 20 046 306
00000.SSIF 4353 (0x1101) 0x86 DTS-HD MA eng (English) 5565,560 5 132 3 570 538 164 20 273 116
00000.SSIF 4608 (0x1200) 0x90 PGS rus (Russian) 5565,560 1 713 963 3 994
00000.SSIF 4609 (0x1201) 0x90 PGS rus (Russian) 5565,560 23 15 887 039 90 132
00000.SSIF 4610 (0x1202) 0x90 PGS rus (Russian) 5565,560 3 2 078 900 11 665
00000.SSIF 4611 (0x1203) 0x90 PGS eng (English) 5565,560 21 14 695 673 83 669

Для оценки 3Д - Анимированные скрины















Трек-лист

1. Ecstasy of Gold (by Ennio Morricone) =S&M= 1999
2. Creeping Death =RIDE THE LIGHTNING= 1984
3. For Whom the Bell Tolls =RIDE THE LIGHTNING= 1984
4. Fuel =RELOAD= 1997
5. Ride the Lightning =RIDE THE LIGHTNING= 1984
6. One =…AND JUSTICE FOR ALL= 1988
7. The Memory Remains =RELOAD= 1997
8. Wherever I May Roam =METALLICA (BLACK ALBUM)= 1991
9. Cyanide =DEATH MAGNETIC= 2008
10. ...And Justice for All =…AND JUSTICE FOR ALL= 1988
11. Master of Puppets =MASTER OF PUPPETS= 1986
12. Battery =MASTER OF PUPPETS= 1986
13. Nothing Else Matters =METALLICA (BLACK ALBUM)= 1991
14. Enter Sandman =METALLICA (BLACK ALBUM)= 1991
15. Hit the Lights =KILL 'EM ALL= 1983
16. Orion =MASTER OF PUPPETS= 1986

Знаете ли вы, что...:

  • Фильм «Сквозь невозможное» назван в честь седьмого трека из альбома Metallica — Metallica (Black Album) 1991 года. Тем не менее в фильме его не исполняют.
  • Сценарий фильма занимает всего лишь 15 страниц, и в нём почти нет диалогов.
  • Голландскому режиссеру Антону Корбейну предлагали возглавить проект, но он был вынужден отказаться из-за несогласованности графиков съемок с его фильмом «Самый опасный человек» (2014).
  • В самом начале фильма парень падает со скейта. Интересен тот факт, что сам Джеймс Хетфилд не раз ломал себе руку из-за данного средства передвижения, из-за чего теперь концертный контракт содержит пункт «NO SKATEBOARDING».
  • Некоторые композиции, прозвучавшие на концерте, в фильм включены не были. Не включенные композиции: «Sad But True», «Welcome Home (Sanitarium)", «Fade to Black», «Seek and Destroy».
  • Съемки концерта, который запечатлен в фильме, проходили 24 августа 2012 г. на «Rogers Arena» в Ванкувере (Канада).
  • В фильме так и не раскрывается, что находится в сумке Трипа. Фанаты группы высказывают разные предположения о её содержимом. Одно из них: там находится душа Клиффа Бёртона, бывшего бас-гитариста Metallica, погибшего в автокатастрофе в 1986 году.
  • 27 сентября 2013 года (день старта проката фильма) исполняется 27 лет после трагической смерти Клиффа Бёртона.

История создания

В мае 2012 года Metallica объявила о том, что два концерта, которые должны будут пройти в августе того же года в Ванкувере, лягут в основу 3D-фильма о группе. Музыканты сами выбрали Нимрода Антала в качестве режиссёра, известного по фильмам «Хищники» и «Вакансия на жертву». Тот в свою очередь предложил проект, который не должен был отличаться от его же документального фильма Metallica: Some Kind of Monster 2004 года. 19 июля 2013 года на выставке Comic Con в Сан-Диего был представлен первый трейлер к фильму. Было также объявлено, что мировая премьера фильма состоится 27 сентября в IMAX 3D и 4 октября — в остальных кинотеатрах. 9 сентября состоялась закрытая премьера фильма на Международном кинофестивале в Торонто. 14 сентября в Москве в Государственном Кремлёвском дворце прошла российская премьера фильма, которую посетили Ларс Ульрих и Роберт Трухильо (соответственно барабанщик и бас-гитарист группы). Перед началом показа была организована встреча, в ходе которой любой желающий мог задать вопросы участникам группы. Вёл встречу известный российский актёр Иван Охлобыстин, являющийся фанатом Metallica. Также в тот же день в пресс-центре РИА Новости прошла пресс-конференция, посвящённая премьере фильма, в которой также приняли участие Ульрих и Трухильо.

Omen

Пост 01-Окт-2015 00:00

[Цитировать]

Pep-see - Концерт в Санкт-Петербурге (фрагменты)
Год выпуска: 2012
Страна: Россия
Жанр: Поп
Продолжительность: 00:55:14
Описание: Pep-See — группа «экстремального диско», образованная в 1992 году в Санкт-Петербурге. Первым продюсером группы становится Сергей Курёхин. Благодаря ему команда записывает на студии «Ленфильма» свою первую вещь «Тихий шелест шин». Вскоре после этого Сергей Курехин уходит от Pep-See, так как понимает, что с группой нужно ещё очень много работать.
Весной 1993 года в кинотеатре «Родина» группа впервые выступает публично. Состав группы постоянно меняется.
В 1995 году Pep-See выпускают свой первый настоящий хит «Парни, музыка, наркотики», попавший в ротации радиостанций и различные чарты. В 2012 году группа отметила свой двадцатилетний юбилей. В 2013 году группу покинули две бессменные бэк-вокалистки — Инесса Михайлова и Мария Волкова.
В этой раздаче представлены фрагменты концерта 2012 года.
Сэмпл: http://multi-up.com/1068365
Качество: SATrip
Контейнер: MKV
Формат 3D: Half SideBySide / Горизонтальная анаморфная стереопара
Порядок ракурсов: левый ракурс первый
Видео кодек: h.264
Аудио кодек: AAC
Видео: H264, 1920x1080, 16:9, ~4000 Kbps, 25fps
Аудио: Русский, AAC, 2ch, 48000Hz, 180 kbps

MediaInfo

General
Unique ID : 217691370570014228543337281120826560269
(0xA3C5D53A58BC82CBB97FB868A5EC0F0D)
Complete name : Pep-see.3D.2012.SatRip.mkv
Format : Matroska
Format version : Version 4 / Version 2
File size : 1.60 GiB
Duration : 55mn 14s
Overall bit rate : 4 146 Kbps
Encoded date : UTC 2015-09-24 17:57:46
Writing application : mkvmerge v8.3.0 ('Over the Horizon') 64bit
Writing library : Lavf54.63.104
Video
ID : 1
Format : AVC
Format/Info : Advanced Video Codec
Format profile : [email protected]
Format settings, CABAC : Yes
Format settings, ReFrames : 2 frames
Codec ID : V_MPEG4/ISO/AVC
Duration : 55mn 14s
Bit rate mode : Constant
Nominal bit rate : 4 000 Kbps
Width : 1 920 pixels
Height : 1 080 pixels
Display aspect ratio : 16:9
Frame rate mode : Constant
Frame rate : 25.000 fps
Standard : PAL
Color space : YUV
Chroma subsampling : 4:2:0
Bit depth : 8 bits
Scan type : Progressive
Bits/(Pixel*Frame) : 0.077
Default : No
Forced : No
Color primaries : BT.709
Transfer characteristics : BT.709
Matrix coefficients : BT.709
DURATION : 00:55:14.416000000
NUMBER_OF_FRAMES : 82860
NUMBER_OF_BYTES : 1638018367
_STATISTICS_WRITING_APP : mkvmerge v8.3.0 ('Over the Horizon') 64bit
_STATISTICS_WRITING_DATE_UTC : 2015-09-24 17:57:46
_STATISTICS_TAGS : BPS DURATION NUMBER_OF_FRAMES NUMBER_OF_BYTES
Audio
ID : 2
Format : AAC
Format/Info : Advanced Audio Codec
Format profile : LC
Codec ID : A_AAC
Duration : 55mn 14s
Channel(s) : 2 channels
Channel positions : Front: L R
Sampling rate : 48.0 KHz
Compression mode : Lossy
Language : English
Default : Yes
Forced : No
DURATION : 00:55:14.432000000
NUMBER_OF_FRAMES : 155364
NUMBER_OF_BYTES : 78497685
_STATISTICS_WRITING_APP : mkvmerge v8.3.0 ('Over the Horizon') 64bit
_STATISTICS_WRITING_DATE_UTC : 2015-09-24 17:57:46
_STATISTICS_TAGS : BPS DURATION NUMBER_OF_FRAMES NUMBER_OF_BYTES

Скриншоты

Omen

Пост 08-Авг-2015 21:00

[Цитировать]

3Д раритеты
3-D Rarities
В ознаменование 100-летия публичного кинопоказа 3Д Год выпуска: 2015
Страна: США (Flicker Alley, Greenbriar Picture Shows, 3-D Film Archive)
Жанр: Документальный
Продолжительность: 02:25:22
Перевод: Отсутствует (надписи, в основном, переведены русскими субтитрами)-Описание: Фильм, состоящий из раритетных 3Д роликов. Показана история развития 3Д кинематографа.-Доп. инфо.: Отдельными файлами идут пять роликов с диска. Четыре из них - слайд-шоу без звука. Полное содержание - внизу под спойлером.- . -Качество: BDRip (by Ash61)
Контейнер: MKV
Формат 3D: Half OverUnder / Вертикальная анаморфная стереопара
Порядок ракурсов: левый ракурс первый-Видео: AVC / 23,976 fps / 1920х1080p / 14.3 Mbps
Аудио: Английский / AC3 / 48 KHz / 5.1 ch / 640 Kbps (Original - BD 3D)
Субтитры (SRT):
Вшитые (softsub):
#1 - Русские Форсированные (включены по умолчанию)
Внешние (UTF-8):
#1 - Русские Форсированные (включены по умолчанию)

MediaInfo

General
Unique ID : 173270739354341691477371321320959293698 (0x825ABB04B9E05BFC829746EFFD82B902)
Complete name : E:\3dRarities(2015)3D-halfOU(Ash61)Eng\3dRarities(2015)3D-halfOU(Ash61)Eng.mkv
Format : Matroska
Format version : Version 2
File size : 15.5 GiB
Duration : 2h 25mn
Overall bit rate : 15.2 Mbps
Movie name : 3Д раритеты / 3-D Rarities (2015) в 3Д
Encoded date : UTC 2015-07-22 09:50:58
Writing application : mkvmerge v5.8.0 ('No Sleep / Pillow') built on Sep 2 2012 15:37:04
Writing library : libebml v1.2.3 + libmatroska v1.3.0
Video
ID : 1
Format : AVC
Format/Info : Advanced Video Codec
Format profile : [email protected]
Format settings, CABAC : Yes
Format settings, ReFrames : 4 frames
Codec ID : V_MPEG4/ISO/AVC
Duration : 2h 25mn
Bit rate : 14.3 Mbps
Width : 1 920 pixels
Height : 1 080 pixels
Display aspect ratio : 16:9
Frame rate mode : Constant
Frame rate : 23.976 fps
Color space : YUV
Chroma subsampling : 4:2:0
Bit depth : 8 bits
Scan type : Progressive
Bits/(Pixel*Frame) : 0.287
Stream size : 14.5 GiB (94%)
Title : BDRip by Ash61
Writing library : x264 core 138 r2358 9e941d1
Encoding settings : cabac=1 / ref=4 / deblock=1:-3:-3 / analyse=0x3:0x113 / me=umh / subme=10 / psy=1 / psy_rd=1.00:0.00 / mixed_ref=1 / me_range=32 / chroma_me=1 / trellis=2 / 8x8dct=1 / cqm=0 / deadzone=21,11 / fast_pskip=1 / chroma_qp_offset=-2 / threads=12 / lookahead_threads=3 / sliced_threads=0 / nr=0 / decimate=1 / interlaced=0 / bluray_compat=0 / constrained_intra=0 / bframes=12 / b_pyramid=2 / b_adapt=2 / b_bias=0 / direct=3 / weightb=1 / open_gop=0 / weightp=2 / keyint=250 / keyint_min=23 / scenecut=40 / intra_refresh=0 / rc_lookahead=60 / rc=crf / mbtree=1 / crf=17.0 / qcomp=0.70 / qpmin=10 / qpmax=51 / qpstep=4 / vbv_maxrate=40000 / vbv_bufsize=30000 / crf_max=0.0 / nal_hrd=none / frame-packing=4 / ip_ratio=1.40 / aq=1:0.70
Language : English
Default : Yes
Forced : No
Audio
ID : 2
Format : AC-3
Format/Info : Audio Coding 3
Mode extension : CM (complete main)
Format settings, Endianness : Big
Codec ID : A_AC3
Duration : 2h 25mn
Bit rate mode : Constant
Bit rate : 640 Kbps
Channel(s) : 6 channels
Channel positions : Front: L C R, Side: L R, LFE
Sampling rate : 48.0 KHz
Bit depth : 16 bits
Compression mode : Lossy
Stream size : 665 MiB (4%)
Title : Original - BD 3D
Language : English
Default : Yes
Forced : No
Text
ID : 3
Format : UTF-8
Codec ID : S_TEXT/UTF8
Codec ID/Info : UTF-8 Plain Text
Title : Форсированные (на основные надписи)
Language : Russian
Default : Yes
Forced : No
Menu
00:00:00.000 : :1. Introducing. Part 1 - The Dawn of Stereoscopic Cinematography
00:00:50.759 : :2. (1922/1923) Kelley's Plasticon Pictures
00:08:35.849 : :3. (1924/1927) William T. Crespinel / Jacob Leventhal tests
00:14:19.525 : :4. (1935) John Norling / Jacob Leventhal (tests)
00:17:44.522 : :5. (May, 1940) Thrills for You
00:26:10.277 : :6. (May, 1940) New Dimensions (9:08)
00:35:18.158 : :7. (May, 1951) Now is the Time (3:13)
00:38:32.268 : :8. Around is Around
00:45:59.632 : :9. (May, 1952) O Canada
00:47:31.891 : :10. Twirligig
00:51:08.357 : :11. (June, 1952) Bolex Stereo
01:01:38.361 : :12. Part 2 - Hollywood Enters the Third Dimension
01:01:47.913 : :13. (November, 1952) M. L. Gunzburg Presents Natural Vision 3-Dimension (5:23)
01:07:17.116 : :14. It Came from Outer Space (trailer)
01:10:56.252 : :15. Rocky Marciano vs. Jersey Joe Walcott
01:27:32.289 : :16. Hannah Lee (trailer)
01:29:37.247 : :17. Stardust in Your Eyes
01:35:48.576 : :18. The Maze (trailer)
01:38:02.543 : :19. Doom Town
01:53:30.929 : :20. The Adventures of Sam Space
02:02:42.814 : :21. I'll Sell My Shirt
02:12:36.407 : :22. Miss Sadie Thompson (trailer)
02:15:36.045 : :23. Casper the Friendly Ghost: Boo Moon (1953)
02:23:09.706 : :24. Credits

Для оценки 3Д - Анимированные скрины




















Содержание

Kelley's Plasticon Pictures (7:41) (1922 / 1923)
William T. Crespinel / Jacob Leventhal tests (5:44) (1924 / 1927)
John Norling / Jacob Leventhal tests (3:25) (1935)
Thrills for You (8:26) (May, 1940)
New Dimensions (9:08) (May, 1940)
Now is the Time (3:13) (May, 1951)
Around is Around (7:28)
O Canada (1:32) (May, 1952)
Twirligig (3:35)
Bolex Stereo (10:32) (June, 1952)
M. L. Gunzburg Presents Natural Vision 3-Dimension (5:23) (November, 1952)
It Came from Outer Space trailer (3:39)
Rocky Marciano vs. Jersey Joe Walcott (16:36)
Hannah Lee trailer (2:07)
Stardust in Your Eyes (6:10)
The Maze trailer (2:16)
Doom Town (15:25)
The Adventures of Sam Space (9:13)
I'll Sell My Shirt (9:54)
Miss Sadie Thompson trailer (3:00)
Boo Moon (Casper the Friendly Ghost (1953)) (7:33)-Бонусы:
3-D footage directed by Francis Ford Coppola from The Bellboy and the Playgirls (2:04)
3-D Photo Galleries:
Hunchback of Notre Dame (1923) (2:00)
New York World's Fair (1939) (2:20)
Sam Sawyer View-Master reels (1950) (2:30)
3-D Comic Books (1953) (3:10)

Omen

Пост 04-Июл-2015 00:10

[Цитировать]

Вестерн 3D
Год выпуска: 2015
Страна: Россия
Студия: Enagel United
Жанр: анимация, любительский мультфильм, вестерн, короткометражка
Продолжительность: 00:09:09
Озвучка: Одноголосая (любительская)
Режиссер: Евгений Жёлтиков
Описание: Дикий Запад. Погони, перестрелки, драки, любовь и немного юмора.
Дополнительная информация по релизу:
Анимационный фильм создан в "The Movies" (2006), но там нет ни плагина, ни мода, ни функции по созданию 3D видео, поэтому всё делал вручную двумя виртуальными камерами. Так же использовал Sony Vegas 10.
p.s. В 5 эпизодах по 2-3 секунды - видео в 2D формате.
Качество: BDrip
Контейнер: MP4
Формат 3D: Half SideBySide / Горизонтальная анаморфная стереопара
Порядок ракурсов: левый ракурс первый
Видео кодек: AVC
Аудио кодек: AAC
Видео: MP4, PAL, 1280x720, 16:9, 6957 Кбит/сек, 25,000 кадр/сек
Аудио: Русский, AAC, 2 канала, 48,0 КГц, 320 Кбит/сек
Субтитры: отсутствуют

MediaInfo

Общее
Формат : MPEG-4
Профиль формата : Base Media / Version 2
Идентификатор кодека : mp42
Размер файла : 477 Мбайт
Продолжительность : 9 м. 9 с.
Режим общего битрейта : Переменный
Общий поток : 7282 Кбит/сек
Дата кодирования : UTC 2015-06-14 17:00:47
Дата пометки : UTC 2015-06-14 17:00:47
Видео
Идентификатор : 2
Формат : AVC
Формат/Информация : Advanced Video Codec
Профиль формата : [email protected]
Параметр CABAC формата : Да
Параметр ReFrames формата : 2 кадра
Режим смешивания : Container [email protected]
Идентификатор кодека : avc1
Идентификатор кодека/Информация : Advanced Video Coding
Продолжительность : 9 м. 9 с.
Вид битрейта : Переменный
Битрейт : 6957 Кбит/сек
Максимальный битрейт : 16,0 Мбит/сек
Ширина : 1280 пикселей
Высота : 720 пикселей
Соотношение сторон : 16:9
Режим частоты кадров : Постоянный
Частота кадров : 25,000 кадров/сек
Цветовое пространство : YUV
Субдискретизация насыщенности : 4:2:0
Битовая глубина : 8 бит
Тип развёртки : Прогрессивная
Бит/(Пиксели*Кадры) : 0.302
Размер потока : 456 Мбайт (96%)
Язык : Russian
Дата кодирования : UTC 2015-06-14 17:00:47
Дата пометки : UTC 2015-06-14 17:00:47
Аудио
Идентификатор : 1
Формат : AAC
Формат/Информация : Advanced Audio Codec
Профиль формата : LC
Идентификатор кодека : 40
Продолжительность : 9 м. 9 с.
Вид битрейта : Постоянный
Битрейт : 320 Кбит/сек
Каналы : 2 канала
Расположение каналов : Front: L R
Частота : 48,0 КГц
Метод сжатия : С потерями
Размер потока : 21,0 Мбайт (4%)
Язык : Russian
Дата кодирования : UTC 2015-06-14 17:00:47
Дата пометки : UTC 2015-06-14 17:00:47

Скриншоты




Omen

Пост 30-Янв-2015 00:20

[Цитировать]

Хелависа c группой Мельница, Рождественский 3D концерт 2015 г. (лучшее)
Год выпуска: 2015
Страна: Russia
Студия: Naturalist3D
Жанр: Музыкальное видео, фолк-рок
Продолжительность: 00:38:55
Перевод: Не требуется
Режиссер: Naturalist3D-Описание: Рождественский Концерт Хелависы (Hellawes) в составе фолк группы "Мельница" (Melnitsa) в Санкт-Петербурге 08.01.2015; [Лучшие песни].
Настоящее имя солистки: Наталья Андреевна О’Шей (Natalia O'Shea) -
российская певица, автор песен, музыкант, вокалистка и лидер нескольких музыкальных групп.
Сочетание красивой музыки, хорошего голоса и выразительных текстов. Собирает многотысячные аудитории на своих концертах.-Список 3D видеозаписей песен (Включает две премьеры 2015 г.):
-------------------------------------------------------------
1) Господин горных дорог [Длительность: 6:08 ; Размер: 570 Mb]
2) На север [Длительность: 3:31 ; Размер: 332 Mb]
3) Королевна [Длительность: 5:43 ; Размер: 536 Mb]
4) Дорога сна [Длительность: 3:22 ; Размер: 318 Mb]
5) Золото тумана (премьера) [Длительность: 3:42 ; Размер: 346 Mb]
6) Невеста полоза [Длительность: 5:06 ; Размер: 479 Mb]
7) Никогда (премьера) [Длительность: 5:19 ; Размер: 503 Mb]
8) Рапунцель [Длительность: 2:53 ; Размер: 273 Mb]
9) Зима [Длительность: 4:31 ; Размер: 419 Mb]-Качество: HDrip
Контейнер: mp4
Формат 3D: Half SideBySide / Горизонтальная анаморфная стереопара
Порядок ракурсов: левый ракурс первый
Видео кодек: h.264
Аудио кодек: AAC
Видео: AVC H264 / [email protected] / NTSC / 1920x1080p / VBR / 16:9 / 12.7 Mbps / 23.976 fps
Аудио: Russian / AAC LC / 2 channels (stereo) / 48.0 KHz / 320 Kbps
Субтитры: отсутствуют

MediaInfo

General
Complete name : C:\1_hellawes_gospodin_gornyx_dorog_3d.mp4
Format : MPEG-4
Format profile : Base Media / Version 2
Codec ID : mp42
File size : 571 MiB
Duration : 6mn 7s
Overall bit rate mode : Variable
Overall bit rate : 13.0 Mbps
Encoded date : UTC 2015-01-19 22:40:27
Tagged date : UTC 2015-01-19 22:40:27
Video
ID : 2
Format : AVC
Format/Info : Advanced Video Codec
Format profile : [email protected]
Format settings, CABAC : Yes
Format settings, ReFrames : 2 frames
Format settings, GOP : M=2, N=12
Codec ID : avc1
Codec ID/Info : Advanced Video Coding
Duration : 6mn 7s
Bit rate mode : Variable
Bit rate : 12.7 Mbps
Maximum bit rate : 15.0 Mbps
Width : 1 920 pixels
Height : 1 080 pixels
Display aspect ratio : 16:9
Frame rate mode : Constant
Frame rate : 23.976 fps
Color space : YUV
Chroma subsampling : 4:2:0
Bit depth : 8 bits
Scan type : Progressive
Bits/(Pixel*Frame) : 0.255
Stream size : 557 MiB (98%)
Language : English
Encoded date : UTC 2015-01-19 22:40:27
Tagged date : UTC 2015-01-19 22:40:27
Audio
ID : 1
Format : AAC
Format/Info : Advanced Audio Codec
Format profile : LC
Codec ID : 40
Duration : 6mn 7s
Bit rate mode : Constant
Bit rate : 320 Kbps
Channel(s) : 2 channels
Channel positions : Front: L R
Sampling rate : 48.0 KHz
Compression mode : Lossy
Stream size : 14.0 MiB (2%)
Language : English
Encoded date : UTC 2015-01-19 22:40:27
Tagged date : UTC 2015-01-19 22:40:27

Скриншоты

 

Текущее время: Сегодня 01:57

Часовой пояс: GMT + 3