Сегодня идет свободное скачивание без начисления Download

Результатов поиска: 500

Автор Сообщение

}{@R0N

Пост 14-Сен-2018 11:03

[Цитировать]

loftschool | Разработка под Android Базовый курс - Автор (режиссер): loftschool
Жанр: Программирование, Android
Описание:
Если вы уже научились писать весь ваш код внутри Activity, но понимаете, что со временем его становится сложно читать и поддерживать, то этот курс именно для вас. Мы уделим много времени архитектуре приложения и поймем, как писать код так, чтобы за него не было стыдно. Также углубим ваши знания в Android OS.
Вы сможете лучше понимать что происходит с вашим приложением “под капотом” и будете готовы к подобным вопросам на собеседованиях. Мы стараемся объяснить все сложные вещи простым языком и добиться понимания от каждого ученика, так что ваш рост неизебежен.
Продолжительность: 19:28:23
Качество видео: PCRec
Видео: VP8, 1280x720, ~122-147 Kbps
Аудио: Vorbis, 2 ch, 112 Kbps

Mediainfo:

Общее
Уникальный идентификатор : 227757657990008408296248812749828150279 (0xAB5887840C5A2212516151DB83B85407)
Полное имя : .\01_HelloWorld\001 Hello, world!.webm
Формат : WebM
Версия формата : Version 2
Размер файла : 195 Мбайт
Продолжительность : 1 ч. 38 м.
Режим общего битрейта : Переменный
Общий поток : 278 Кбит/сек
Программа кодирования : Lavf55.0.100
Библиотека кодирования : Lavf55.0.100
Видео
Идентификатор : 1
Формат : VP8
Идентификатор кодека : V_VP8
Продолжительность : 1 ч. 38 м.
Битрейт : 147 Кбит/сек
Ширина : 1280 пикселей
Высота : 720 пикселей
Соотношение сторон : 16:9
Режим частоты кадров : Постоянный
Частота кадров : 24,000 кадра/сек
Метод сжатия : С потерями
Бит/(Пиксели*Кадры) : 0.007
Размер потока : 103 Мбайт (53%)
Default : Да
Forced : Нет
Аудио
Идентификатор : 2
Формат : Vorbis
Параметр Floor формата : 1
Идентификатор кодека : A_VORBIS
Продолжительность : 1 ч. 38 м.
Вид битрейта : Переменный
Битрейт : 112 Кбит/сек
Каналы : 2 канала
Частота : 48,0 КГц
Метод сжатия : С потерями
Задержка видео : -3 мс.
Размер потока : 78,6 Мбайт (40%)
Программа кодирования : Lavc55.0.100
Библиотека кодирования : libVorbis (Omnipresent) (20120203 (Omnipresent))
Default : Нет
Forced : Нет

Дополнительная информация:

В раздаче имеются архивы! В них содержится дополнительные материалы.
Скриншоты:
       

}{@R0N

Пост 14-Сен-2018 10:56

[Цитировать]

Евгений Некоз | Чат-боты для Amazon и не только [Вебинар] - Автор (режиссер): Евгений Некоз
Жанр: Вебинары
Описание:
Вебинар максимально подойдет если Вы:
1. В поиске альтернативных каналов для сбора отзывов на ваши товары
2. Хотите запускать новые товары и не знаете как собрать первых покупателей и первые отзывы
3. Желаете выстроить автоматизированные воронки для работы со своими клиентами
4. Хотите научиться использовать чат-боты не только для Amazon, но и для других своих бизнесов или автоматизации процессов
Продолжительность: 08:37:17
Качество видео: WEBRip
Перевод: Отсутствует
Язык озвучки: Английский
Видео: AVC/H.264, 1280х720, ~550 kbps
Аудио: AAC, 2 ch, 96-125 kbp

Mediainfo:

General
Format : MPEG-4
Format profile : Base Media / Version 2
Codec ID : mp42
File size : 152 MiB
Duration : 27mn 9s
Overall bit rate mode : Variable
Overall bit rate : 781 Kbps
Encoded date : UTC 2018-03-06 17:56:19
Tagged date : UTC 2018-03-06 17:56:19
gsst : 0
gstd : 1629251
Video
ID : 1
Format : AVC
Format/Info : Advanced Video Codec
Format profile : [url=mailto:[email protected]][email protected][/url]
Format settings, CABAC : Yes
Format settings, ReFrames : 3 frames
Codec ID : avc1
Codec ID/Info : Advanced Video Coding
Duration : 27mn 9s
Bit rate mode : Variable
Bit rate : 683 Kbps
Width : 1 280 pixels
Height : 720 pixels
Display aspect ratio : 16:9
Frame rate mode : Constant
Frame rate : 29.970 fps
Color space : YUV
Chroma subsampling : 4:2:0
Bit depth : 8 bits
Scan type : Progressive
Bits/(Pixel*Frame) : 0.025
Stream size : 133 MiB (88%)
Encoded date : UTC 2018-03-06 17:56:19
Tagged date : UTC 2018-03-06 17:56:19
Color primaries : BT.709-5, BT.1361, IEC 61966-2-4, SMPTE RP177
Transfer characteristics : BT.709-5, BT.1361
Matrix coefficients : BT.709-5, BT.1361, IEC 61966-2-4 709, SMPTE RP177
Audio
ID : 2
Format : AAC
Format/Info : Advanced Audio Codec
Format profile : LC
Codec ID : 40
Duration : 27mn 9s
Bit rate mode : Variable
Bit rate : 93.6 Kbps
Channel(s) : 2 channel
Channel positions : Front: C
Sampling rate : 44.1 KHz
Compression mode : Lossy
Delay relative to video : -33ms
Stream size : 18.2 MiB (12%)
Encoded date : UTC 2018-03-06 17:56:19
Tagged date : UTC 2018-03-06 17:56:19

Дополнительная информация

После вебинара Вы узнаете
  • Для чего нужны чат-боты
  • Какие задачи можно решать с их помощью (и не только сбор ревью)
  • Ограничения и недостатки, о которых молчат
  • Основные платформы, их плюсы и минусы
  • Варианты использования чат-ботов для Амазона
  • Примеры построения чат-бота на живом аккаунте с нуля и до рабочего прототипа
  • Автоматизацию и интеграцию с другими сервисами
  • Как проводить тесты
  • Как оптимизировать чат-бота
Скриншоты:
     

}{@R0N

Пост 14-Сен-2018 10:53

[Цитировать]

loftschool | Node.js серверный JavaScript - Автор (режиссер): loftschool
Жанр: Программирование, JavaScript, Node.js
Описание:
Будущее — за распределенными системами, построенными на событийно-ориентированной основе, циклах и потоках. Объектная модель документа — всё ещё существует, но это уже не столько форма представления разметки HTML, сколько структура данных в памяти, динамически создаваемая с использованием JavaScript. Архитектура Node.js — идеальный выбор в этих условиях. Так же популярности Node.js добавляет обширный NPM-репозиторий, внушительное сообщество разработчиков и возможность использовать JavaScript как на клиенте, так и на сервере.
В течение курса вы разработаете серверную часть для корпоративного приложения — внутренней системы взаимодействия между сотрудниками. Вымышленный корпоративный сайт. Новости, чат, панель администратора и пользовательские настройки.
Продолжительность: 32:17:05
Качество видео: PCRec
Видео: AVC/H.264, 1448x728, ~216-1805 Kbps
Аудио: AAC, 2 ch, 165-193 Kbps

Mediainfo:

Общее
Полное имя : .\0. Введение в Node.js и настройка рабочей среды\001 Введение в Node.mp4
Формат : MPEG-4
Профиль формата : Base Media
Идентификатор кодека : isom (isom/iso2/avc1/mp41)
Размер файла : 202 Мбайт
Продолжительность : 1 ч. 7 м.
Общий поток : 416 Кбит/сек
Программа кодирования : Lavf57.25.100
Видео
Идентификатор : 1
Формат : AVC
Формат/Информация : Advanced Video Codec
Профиль формата : [url=mailto:[email protected]][email protected][/url]
Настройки формата : 1 Ref Frames
Параметр CABAC формата : Нет
Параметр RefFrames формата : 1 кадр
Идентификатор кодека : avc1
Идентификатор кодека/Информация : Advanced Video Coding
Продолжительность : 1 ч. 7 м.
Битрейт : 216 Кбит/сек
Ширина : 1448 пикселей
Высота : 728 пикселей
Соотношение сторон : 1,989
Режим частоты кадров : Постоянный
Частота кадров : 30,000 кадров/сек
Цветовое пространство : YUV
Субдискретизация насыщенности : 4:2:0
Битовая глубина : 8 бит
Тип развёртки : Прогрессивная
Бит/(Пиксели*Кадры) : 0.007
Размер потока : 105 Мбайт (52%)
Цветовой диапазон : Limited
Аудио
Идентификатор : 2
Формат : AAC
Формат/Информация : Advanced Audio Codec
Профиль формата : LC
Идентификатор кодека : mp4a-40-2
Продолжительность : 1 ч. 7 м.
Вид битрейта : Постоянный
Битрейт : 192 Кбит/сек
Каналы : 2 канала
Расположение каналов : Front: L R
Частота : 44,1 КГц
Частота кадров : 43,066 кадра/сек (1024 SPF)
Метод сжатия : С потерями
Размер потока : 93,5 Мбайт (46%)
Default : Да
AlternateGroup/String : 1

Дополнительная информация:

В раздаче имеются архивы! В них содержится дополнительные материалы.
Скриншоты:
       

}{@R0N

Пост 14-Сен-2018 10:52

[Цитировать]

loftschool | React.js. Разработка веб-приложений - Автор (режиссер): loftschool
Жанр: Программирование, JavaScript, React
Описание:
Современный веб — это не просто сайты, это полноценные приложения, требующие правильных подходов по организации кода и логики. Этот курс научит вас строить большие и сложные системы, в которых легко и просто ориентироваться. Разделять логику работы на правильные абстракции и получать отличный результат в скорости и простоте работы ваших приложений.
Продолжительность: 28:00:26
Качество видео: PCRec
Видео: AVC/H.264, 1440x1080-1832x1056, ~21-1428 Kbps
Аудио: AAC, 2 ch, 162-195 Kbps

Mediainfo:

Общее
Полное имя : .\06. Redux\011 Redux часть 1.mp4
Формат : MPEG-4
Профиль формата : Base Media
Идентификатор кодека : isom (isom/mp42)
Размер файла : 36,3 Мбайт
Продолжительность : 24 м. 10 с.
Режим общего битрейта : Переменный
Общий поток : 210 Кбит/сек
Дата кодирования : UTC 2018-07-06 11:17:45
Дата пометки : UTC 2018-07-06 11:17:45
Программа кодирования : BandiMp4Muxer 1.0
Видео
Идентификатор : 1
Формат : AVC
Формат/Информация : Advanced Video Codec
Профиль формата : [email protected]
Настройки формата : 1 Ref Frames
Параметр CABAC формата : Нет
Параметр RefFrames формата : 1 кадр
Идентификатор кодека : avc1
Идентификатор кодека/Информация : Advanced Video Coding
Продолжительность : 24 м. 10 с.
Битрейт : 32,6 Кбит/сек
Ширина : 1440 пикселей
Высота : 1080 пикселей
Соотношение сторон : 4:3
Режим частоты кадров : Переменный
Частота кадров : 5,198 кадров/сек
Минимальная частота кадров : 1,667 кадра/сек
Максимальная частота кадров : 30,030 кадров/сек
Цветовое пространство : YUV
Субдискретизация насыщенности : 4:2:0
Битовая глубина : 8 бит
Тип развёртки : Прогрессивная
Бит/(Пиксели*Кадры) : 0.004
Размер потока : 5,64 Мбайт (16%)
Язык : English
Дата кодирования : UTC 2018-07-06 11:17:45
Дата пометки : UTC 2018-07-06 11:17:45
Аудио
Идентификатор : 2
Формат : AAC
Формат/Информация : Advanced Audio Codec
Профиль формата : LC
Идентификатор кодека : mp4a-40-2
Продолжительность : 24 м. 9 с.
Продолжительность оригинала : 24 м. 9 с.
Вид битрейта : Переменный
Битрейт : 174 Кбит/сек
Каналы : 2 канала
Расположение каналов : Front: L R
Частота : 48,0 КГц
Частота кадров : 46,875 кадров/сек (1024 SPF)
Метод сжатия : С потерями
Размер потока : 30,0 Мбайт (83%)
Размер потока оригинала : 30,0 Мбайт (83%)
Язык : English
Дата кодирования : UTC 2018-07-06 11:17:45
Дата пометки : UTC 2018-07-06 11:17:45
mdhd_Duration : 1449877
Общее
Полное имя : .\07. Redux middlewares\013 Redux middlewares.mp4
Формат : MPEG-4
Профиль формата : Base Media
Идентификатор кодека : isom (mp41)
Размер файла : 727 Мбайт
Продолжительность : 1 ч. 44 м.
Режим общего битрейта : Переменный
Общий поток : 972 Кбит/сек
Дата кодирования : UTC 2018-07-28 12:13:37
Дата пометки : UTC 2018-07-28 12:13:37
Программа кодирования : Bandicam 4.1.4.1413 / GDI / Nvidia NVENC
Видео
Идентификатор : 1
Формат : AVC
Формат/Информация : Advanced Video Codec
Профиль формата : [email protected]
Настройки формата : CABAC / 1 Ref Frames
Параметр CABAC формата : Да
Параметр RefFrames формата : 1 кадр
Идентификатор кодека : avc1
Идентификатор кодека/Информация : Advanced Video Coding
Продолжительность : 1 ч. 44 м.
Битрейт : 768 Кбит/сек
Ширина : 1584 пикселя
Высота : 1012 пикселей
Соотношение сторон : 16:10
Режим частоты кадров : Переменный
Частота кадров : 27,093 кадров/сек
Минимальная частота кадров : 14,993 кадров/сек
Максимальная частота кадров : 30,030 кадров/сек
Частота кадров в оригинале : 30,000 кадров/сек
Цветовое пространство : YUV
Субдискретизация насыщенности : 4:2:0
Битовая глубина : 8 бит
Тип развёртки : Прогрессивная
Бит/(Пиксели*Кадры) : 0.018
Размер потока : 574 Мбайт (79%)
Язык : English
Дата кодирования : UTC 2018-07-28 12:13:37
Дата пометки : UTC 2018-07-28 12:13:37
Аудио
Идентификатор : 2
Формат : AAC
Формат/Информация : Advanced Audio Codec
Профиль формата : LC
Идентификатор кодека : mp4a-40-2
Продолжительность : 1 ч. 44 м.
Вид битрейта : Переменный
Битрейт : 192 Кбит/сек
Максимальный битрейт : 373 Кбит/сек
Каналы : 2 канала
Расположение каналов : Front: L R
Частота : 48,0 КГц
Частота кадров : 46,875 кадров/сек (1024 SPF)
Метод сжатия : С потерями
Размер потока : 146 Мбайт (20%)
Язык : English
Дата кодирования : UTC 2018-07-28 12:13:37
Дата пометки : UTC 2018-07-28 12:13:37
Общее
Полное имя : .\05. Роутинг на клиенте\010 Роутинг на клиенте часть 2.mp4
Формат : MPEG-4
Профиль формата : Base Media
Идентификатор кодека : isom (isom/mp42)
Размер файла : 603 Мбайт
Продолжительность : 1 ч. 13 м.
Режим общего битрейта : Переменный
Общий поток : 1145 Кбит/сек
Дата кодирования : UTC 2018-07-01 13:32:45
Дата пометки : UTC 2018-07-01 13:32:45
Программа кодирования : BandiMp4Muxer 1.0
Видео
Идентификатор : 1
Формат : AVC
Формат/Информация : Advanced Video Codec
Профиль формата : [email protected]
Настройки формата : 1 Ref Frames
Параметр CABAC формата : Нет
Параметр RefFrames формата : 1 кадр
Идентификатор кодека : avc1
Идентификатор кодека/Информация : Advanced Video Coding
Продолжительность : 1 ч. 13 м.
Битрейт : 969 Кбит/сек
Ширина : 1712 пикселей
Высота : 1036 пикселей
Соотношение сторон : 5:3
Режим частоты кадров : Переменный
Частота кадров : 28,659 кадров/сек
Минимальная частота кадров : 1,000 кадр/сек
Максимальная частота кадров : 30,030 кадров/сек
Цветовое пространство : YUV
Субдискретизация насыщенности : 4:2:0
Битовая глубина : 8 бит
Тип развёртки : Прогрессивная
Бит/(Пиксели*Кадры) : 0.019
Размер потока : 510 Мбайт (85%)
Язык : English
Дата кодирования : UTC 2018-07-01 13:32:45
Дата пометки : UTC 2018-07-01 13:32:45
Аудио
Идентификатор : 2
Формат : AAC
Формат/Информация : Advanced Audio Codec
Профиль формата : LC
Идентификатор кодека : mp4a-40-2
Продолжительность : 1 ч. 13 м.
Продолжительность оригинала : 1 ч. 13 м.
Вид битрейта : Переменный
Битрейт : 170 Кбит/сек
Каналы : 2 канала
Расположение каналов : Front: L R
Частота : 48,0 КГц
Частота кадров : 46,875 кадров/сек (1024 SPF)
Метод сжатия : С потерями
Размер потока : 89,7 Мбайт (15%)
Размер потока оригинала : 89,7 Мбайт (15%)
Язык : English
Дата кодирования : UTC 2018-07-01 13:32:45
Дата пометки : UTC 2018-07-01 13:32:45
mdhd_Duration : 4416226
Общее
Полное имя : .\15. Введение в Node.js\023 Введение в Node.js.mp4
Формат : MPEG-4
Профиль формата : Base Media
Идентификатор кодека : isom (isom/mp42)
Размер файла : 260 Мбайт
Продолжительность : 55 м. 24 с.
Режим общего битрейта : Переменный
Общий поток : 657 Кбит/сек
Дата кодирования : UTC 2018-07-28 17:17:42
Дата пометки : UTC 2018-07-28 17:17:42
Программа кодирования : BandiMp4Muxer 1.0
Видео
Идентификатор : 1
Формат : AVC
Формат/Информация : Advanced Video Codec
Профиль формата : [email protected]
Настройки формата : 1 Ref Frames
Параметр CABAC формата : Нет
Параметр RefFrames формата : 1 кадр
Идентификатор кодека : avc1
Идентификатор кодека/Информация : Advanced Video Coding
Продолжительность : 55 м. 23 с.
Битрейт : 475 Кбит/сек
Ширина : 1832 пикселя
Высота : 1056 пикселей
Соотношение сторон : 1,735
Режим частоты кадров : Переменный
Частота кадров : 16,219 кадров/сек
Минимальная частота кадров : 0,968 кадр/сек
Максимальная частота кадров : 30,030 кадров/сек
Цветовое пространство : YUV
Субдискретизация насыщенности : 4:2:0
Битовая глубина : 8 бит
Тип развёртки : Прогрессивная
Бит/(Пиксели*Кадры) : 0.015
Размер потока : 188 Мбайт (72%)
Язык : English
Дата кодирования : UTC 2018-07-28 17:17:42
Дата пометки : UTC 2018-07-28 17:17:42
Аудио
Идентификатор : 2
Формат : AAC
Формат/Информация : Advanced Audio Codec
Профиль формата : LC
Идентификатор кодека : mp4a-40-2
Продолжительность : 55 м. 24 с.
Продолжительность оригинала : 55 м. 24 с.
Вид битрейта : Переменный
Битрейт : 177 Кбит/сек
Каналы : 2 канала
Расположение каналов : Front: L R
Частота : 48,0 КГц
Частота кадров : 46,875 кадров/сек (1024 SPF)
Метод сжатия : С потерями
Размер потока : 70,2 Мбайт (27%)
Размер потока оригинала : 70,2 Мбайт (27%)
Язык : English
Дата кодирования : UTC 2018-07-28 17:17:42
Дата пометки : UTC 2018-07-28 17:17:42
mdhd_Duration : 3324352

Дополнительная информация:

В раздаче имеются архивы! В них содержится дополнительные материалы.
Скриншоты:
       

}{@R0N

Пост 14-Сен-2018 10:40

[Цитировать]

Advance club | Как выучить английский за 3 месяца - Автор (режиссер): Advance club
Жанр: Обучение, Английский язык
Сайт автора: http://advance-club.ru/angliyskiy-za-3-mesyaca/
Описание: Во время обучения Вы:
  • бегло и грамотно заговорите на английском и поставите нейтральное произношение
  • гарантированно освоите грамматику своего уровня (чем ниже ваш уровень английского, тем больше уровней вы преодолеете);
  • значительно увеличите свой словарный запас
  • за время обучения вы без труда выучите более 3 000 новых слов
  • научитесь понимать фильмы и новости на слух и привыкнете к живому современному языку
Продолжительность: 06:50:34
Качество видео: WEBRip
Видео: AVC/H.264, 1280х720, ~820 Kbps
Аудио: AAC, 2 ch, 125-191

Mediainfo:

General
Format : MPEG-4
Format profile : Base Media / Version 2
Codec ID : mp42 (isom/mp42)
File size : 477 MiB
Duration : 2 h 6 min
Overall bit rate mode : Variable
Overall bit rate : 526 kb/s
Encoded date : UTC 2017-11-16 02:49:40
Tagged date : UTC 2017-11-16 02:49:40
gsst : 0
gstd : 7601586
Video
ID : 1
Format : AVC
Format/Info : Advanced Video Codec
Format profile : [url=mailto:[email protected]][email protected][/url]
Format settings : CABAC / 3 Ref Frames
Format settings, CABAC : Yes
Format settings, ReFrames : 3 frames
Codec ID : avc1
Codec ID/Info : Advanced Video Coding
Duration : 2 h 6 min
Bit rate : 396 kb/s
Width : 1 280 pixels
Height : 720 pixels
Display aspect ratio : 16:9
Frame rate mode : Constant
Frame rate : 30.000 FPS
Color space : YUV
Chroma subsampling : 4:2:0
Bit depth : 8 bits
Scan type : Progressive
Bits/(Pixel*Frame) : 0.014
Stream size : 359 MiB (75%)
Title : ISO Media file produced by Google Inc. Created on: 11/15/2017.
Encoded date : UTC 2017-11-16 02:49:40
Tagged date : UTC 2017-11-16 02:49:40
Color range : Limited
Color primaries : BT.709
Transfer characteristics : BT.709
Matrix coefficients : BT.709
Codec configuration box : avcC
Audio
ID : 2
Format : AAC
Format/Info : Advanced Audio Codec
Format profile : LC
Codec ID : mp4a-40-2
Duration : 2 h 6 min
Bit rate mode : Variable
Bit rate : 126 kb/s
Channel(s) : 2 channels
Channel positions : Front: L R
Sampling rate : 44.1 kHz
Frame rate : 43.066 FPS (1024 SPF)
Compression mode : Lossy
Stream size : 114 MiB (24%)
Title : ISO Media file produced by Google Inc. Created on: 11/15/2017.
Encoded date : UTC 2017-11-16 02:49:40
Tagged date : UTC 2017-11-16 02:49:40
Скриншоты:
     

}{@R0N

Пост 15-Авг-2018 22:08

[Цитировать]

ITVDN | Видео курс C++ Starter - Автор (режиссер): Владимир Виноградов
Производство: ITVDN
Жанр: Программирование, C++
Описание:
Курс С++ Starter состоит из 13 логически взаимосвязанных уроков, изучив которые вы освоите синтаксис языка С++. После прохождения данного курса, вы будете понимать основные принципы работы и построения программ. Освоите основы хранения информации в памяти компьютера. Вы сможете создавать свои небольшие программы, работать с памятью компьютера и с данными которые в ней хранятся.
Продолжительность: 09:13:00
Качество видео: PCRec
Видео: AVC/H.264, 1280x720, ~253-379 Kbps
Аудио: AAC, 2 ch, 255-256

Mediainfo:

Общее
Полное имя : C:\Users\al1en\Desktop\ITVDN C++ STARTER\8. Указатели.mp4
Формат : MPEG-4
Профиль формата : Base Media / Version 2
Идентификатор кодека : mp42 (mp42/mp41/isom/avc1)
Размер файла : 235 Мбайт
Продолжительность : 1 ч. 8 м.
Режим общего битрейта : Переменный
Общий поток : 477 Кбит/сек
Дата кодирования : UTC 2018-01-23 14:01:30
Дата пометки : UTC 2018-01-23 14:01:30
Видео
Идентификатор : 1
Формат : AVC
Формат/Информация : Advanced Video Codec
Профиль формата : [url=mailto:[email protected]][email protected][/url]
Настройки формата : CABAC / 5 Ref Frames
Параметр CABAC формата : Да
Параметр RefFrames формата : 5 кадров
Идентификатор кодека : avc1
Идентификатор кодека/Информация : Advanced Video Coding
Продолжительность : 1 ч. 8 м.
Битрейт : 217 Кбит/сек
Ширина : 1280 пикселей
Высота : 720 пикселей
Соотношение сторон : 16:9
Режим частоты кадров : Постоянный
Частота кадров : 25,000 кадров/сек
Цветовое пространство : YUV
Субдискретизация насыщенности : 4:2:0
Битовая глубина : 8 бит
Тип развёртки : Прогрессивная
Бит/(Пиксели*Кадры) : 0.009
Размер потока : 107 Мбайт (45%)
Библиотека кодирования : x264 core 155 r10 b00bcaf
Настройки программы : cabac=1 / ref=5 / deblock=1:0:0 / analyse=0x3:0x113 / me=hex / subme=8 / psy=1 / psy_rd=1.00:0.00 / mixed_ref=1 / me_range=16 / chroma_me=1 / trellis=2 / 8x8dct=1 / cqm=0 / deadzone=21,11 / fast_pskip=1 / chroma_qp_offset=-2 / threads=22 / lookahead_threads=3 / sliced_threads=0 / nr=0 / decimate=1 / interlaced=0 / bluray_compat=0 / stitchable=1 / constrained_intra=0 / bframes=3 / b_pyramid=2 / b_adapt=2 / b_bias=0 / direct=3 / weightb=1 / open_gop=0 / weightp=2 / keyint=infinite / keyint_min=25 / scenecut=40 / intra_refresh=0 / rc_lookahead=50 / rc=crf / mbtree=1 / crf=20.0 / qcomp=0.60 / qpmin=5 / qpmax=69 / qpstep=4 / vbv_maxrate=2750 / vbv_bufsize=7500 / crf_max=0.0 / nal_hrd=none / filler=0 / ip_ratio=1.40 / aq=1:1.00
Дата кодирования : UTC 2018-01-23 14:01:30
Дата пометки : UTC 2018-01-23 14:01:30
Цветовой диапазон : Limited
Основные цвета : BT.709
Характеристики трансфера : BT.709
Коэффициенты матрицы : BT.709
Аудио
Идентификатор : 2
Формат : AAC
Формат/Информация : Advanced Audio Codec
Профиль формата : LC
Идентификатор кодека : mp4a-40-2
Продолжительность : 1 ч. 8 м.
Вид битрейта : Переменный
Битрейт : 256 Кбит/сек
Каналы : 2 канала
Расположение каналов : Front: L R
Частота : 48,0 КГц
Частота кадров : 46,875 кадров/сек (1024 SPF)
Метод сжатия : С потерями
Размер потока : 126 Мбайт (54%)
Дата кодирования : UTC 2018-01-23 14:01:30
Дата пометки : UTC 2018-01-23 14:01:30

Дополнительная информация:

1. Введение в язык программирования
2. Устройство памяти, системы счисления и хранение информации
3. Типы данных
4. Условные операторы
5. Логические операторы
6. Циклические конструкции в C++
7. Функции
8. Указатели
9. Работа с Функциями
10. Функции
11. Работа со строками
12. Пространства имен
13. Директивы препроцессора
Скриншоты:
       

}{@R0N

Пост 15-Авг-2018 22:00

[Цитировать]

Григорий-Азиз | Кнопкомет 2: Тренажер, слепая печать за 3-7 дней - Автор (режиссер): Григорий-Азиз
Жанр: Обучающее видео
Описание:
Навык слепого письма давно перестал быть привилегией специалистов. Владение им — хороший тон. В первую очередь, им конечно должны владеть программисты и писатели.
Да и для всех остальных пользователей пк это станет очень полезным дополнением. Вы сможете мгновенно гуглить, быстро переписываться в соц сетях, писать электронные письма, работать над документами. Удивитесь, насколько это станет приятно и легко. Второй блок предназначен для разгона скорости и состоит из самых употребляемых слогов. Примерно те же приемы (гаммы, этюды) используют музыканты для постоянной тренировки скорости. Если вы хотите печатать еще быстрее, тренажер будет для вас полезен.
Программа работает под Windows.
Продолжительность: 00:30:48
Качество видео: PCRec
Видео: AVC/H.264, 854x480, 1360x768, ~723-863 Kbps
Аудио: AAC, 2 ch, 125-193 Kbps

Mediainfo:

General
Complete name : D:\Торренты\knopkomet.2\Инструкции\01. Важные принципы.mp4
Format : MPEG-4
Format profile : Base Media
Codec ID : isom (isom/iso2/avc1/mp41)
File size : 44.0 MiB
Duration : 6 min 10 s
Overall bit rate : 995 kb/s
Writing application : Lavf56.23.105
Video
ID : 1
Format : AVC
Format/Info : Advanced Video Codec
Format profile : [url=mailto:[email protected]][email protected][/url]
Format settings : CABAC / 1 Ref Frames
Format settings, CABAC : Yes
Format settings, ReFrames : 1 frame
Codec ID : avc1
Codec ID/Info : Advanced Video Coding
Duration : 6 min 10 s
Bit rate : 864 kb/s
Width : 854 pixels
Height : 480 pixels
Display aspect ratio : 16:9
Frame rate mode : Variable
Frame rate : 30.000 FPS
Minimum frame rate : 29.412 FPS
Maximum frame rate : 30.303 FPS
Color space : YUV
Chroma subsampling : 4:2:0
Bit depth : 8 bits
Scan type : Progressive
Bits/(Pixel*Frame) : 0.070
Stream size : 38.1 MiB (87%)
Color range : Limited
Color primaries : BT.709
Transfer characteristics : BT.709
Matrix coefficients : BT.709
Audio
ID : 2
Format : AAC
Format/Info : Advanced Audio Codec
Format profile : LC
Codec ID : mp4a-40-2
Duration : 6 min 10 s
Bit rate mode : Constant
Bit rate : 126 kb/s
Channel(s) : 2 channels
Channel positions : Front: L R
Sampling rate : 44.1 kHz
Frame rate : 43.066 FPS (1024 SPF)
Compression mode : Lossy
Stream size : 5.55 MiB (13%)
Default : Yes
Alternate group : 1
General
Complete name : D:\Торренты\knopkomet.2\Инструкции\02. Настройки программы.mp4
Format : MPEG-4
Format profile : Base Media
Codec ID : isom (mp41)
File size : 86.0 MiB
Duration : 13 min 1 s
Overall bit rate mode : Variable
Overall bit rate : 924 kb/s
Encoded date : UTC 2017-09-03 01:21:16
Tagged date : UTC 2017-09-03 01:21:16
Writing application : BandiMp4Muxer 1.0
Video
ID : 1
Format : AVC
Format/Info : Advanced Video Codec
Format profile : [url=mailto:[email protected]][email protected][/url]
Format settings : CABAC / 2 Ref Frames
Format settings, CABAC : Yes
Format settings, ReFrames : 2 frames
Codec ID : avc1
Codec ID/Info : Advanced Video Coding
Duration : 13 min 1 s
Bit rate : 724 kb/s
Width : 1 360 pixels
Height : 768 pixels
Display aspect ratio : 16:9
Frame rate mode : Variable
Frame rate : 30.000 FPS
Minimum frame rate : 10.000 FPS
Maximum frame rate : 30.030 FPS
Color space : YUV
Chroma subsampling : 4:2:0
Bit depth : 8 bits
Scan type : Progressive
Bits/(Pixel*Frame) : 0.023
Stream size : 67.4 MiB (78%)
Language : English
Encoded date : UTC 2017-09-03 01:21:16
Tagged date : UTC 2017-09-03 01:21:16
Audio
ID : 2
Format : AAC
Format/Info : Advanced Audio Codec
Format profile : LC
Codec ID : mp4a-40-2
Duration : 13 min 1 s
Duration_LastFrame : -1 ms
Bit rate mode : Variable
Bit rate : 192 kb/s
Maximum bit rate : 285 kb/s
Channel(s) : 2 channels
Channel positions : Front: L R
Sampling rate : 48.0 kHz
Frame rate : 46.875 FPS (1024 SPF)
Compression mode : Lossy
Stream size : 18.0 MiB (21%)
Language : English
Encoded date : UTC 2017-09-03 01:21:16
Tagged date : UTC 2017-09-03 01:21:16

Особенности программы

  • Уникальный алгоритм. Ничего подобного я не встречал. Если найдете, просьба поделиться.
  • Интенсивность. Программа побуждает вас работать интенсивно.
  • Обратная связь. Сразу после ошибки следует отработка. После правильного нажатия - тоже отработка. Формируется положительное закрепление.
  • В тренажере заложены 3 кита постановки навыков - ФОКУС, ИНТЕНСИВНОСТЬ, ОБРАТНАЯ СВЯЗЬ.
  • На экране отображаются подсказки. Фактически, вы печатаете вслепую с первых секунд.
  • Оптимальная загрузка внимания. За 1 раз тренируется блок в 6-10 символов. Нет нужды в сотнях упражнений!
  • Щадящая нагрузка на психику. Постепенное исчезновение подсказок. Навык закладывается напрямую в моторику, в обход сознания.
  • Захватывающий игровой процесс. В каждом уровне есть цель - заполнить полоску. Очень сложно оторваться.
  • Программа будет полезна как для новичков (блок 1), так и для уже печатающих в слепую для разгона скорости (блок 2)
  • В программе использованы наиболее употребимые слоги (блок 2).

Вопросы и ответы

Кому может пригодиться этот тренажер?
Навык слепого письма давно перестал быть привелегией специалистов. Владение им - хороший тон. В первую очередь, им конечно должны владеть программисты и писатели. Да и для всех остальных пользователей пк это станет очень полезным дополнением. Вы сможете мгновенно гуглить, быстро переписываться в соцсетях, писать электронные письма, работать над документами. Удивитесь, насколько это станет приятно и легко.
Я уже печатаю вслепую, пригодится ли мне тренажер?
Второй блок предназначен для разгона скорости и состоит из самых употребляемых слогов. Примерно те же приемы (гаммы, этюды) используют музыканты для постоянной тренировки скорости. Если вы хотите печатать еще быстрее, тренажер будет для вас полезен.
Будет ли в тренажере такой-то язык?
В программе уже поддерживается 8 раскладок. Также будет возможность добавлять свои языки. Если вы хотите, чтобы ваш язык был включен в релиз, пишите в этой теме.
Сколько времени потребуется?
К сожалению, у меня пока нет статистики. Тут очень много факторов. Навскидку. Если с нуля. Неделя на печатание вслепую. Еще неделя на разгон. Это при условии небольших лайтовых занятий в течении дня. Если упереться - можно быстрее. По отзывам - в любом случае это будет быстрее в 2-3 раза, чем то же Соло. И без лютой нагрузки на вашу психику.
Если у меня поврежден/отсутствует фаланга/палец подойдет ли мне?
Вполне. Просто другой рабочий палец будет охватывать БОльшее количество клавиш. Вы также сможете создавать свои упражнения именно для этого пальца и их отрабатывать.
Скриншоты:
       

zvladss

Пост 08-Авг-2018 08:23

[Цитировать]

XP1971,
Спасибо уже скачал. Теперь буду раздавать по вечерам.

XP1971

Пост 07-Авг-2018 17:19

[Цитировать]

zvladss писал(а):
Зарегистрировался специально, чтобы скачать эту раздачу. Пожалуйста, дайте скачать!
сид есть по DHT, скорость маленькая, но качается, лично проверил

zvladss

Пост 07-Авг-2018 15:05

[Цитировать]

Зарегистрировался специально, чтобы скачать эту раздачу. Пожалуйста, дайте скачать!

XP1971

Пост 01-Июл-2018 01:24

[Цитировать]

Udemy | Взламываем соседский Wi-Fi (2017) PCRec [H.264/720p-LQ] - Производство: Udemy
Жанр: Тестирование на проникновение
Описание:
Данный курс рассчитан на новичков, которые никогда ранее не занимались тестированием на проникновение (пентестингом). Курс построен таким образом, что вы пройдетесь через основы сетей и познакомитесь с тем как клиенты обмениваются информацией друг с другом, затем речь пойдет о том как мы можем воспользоваться этим методом обмена информации в наших корыстных целях.
Продолжительность: 05:06:16
Качество видео: PCRec
Видео: AVC/H.264, 1280x720, ~1760 Kbps
Аудио: AAC, 2 ch, 127 Kbps, VBR

Mediainfo:

01 Введение в Kali Linux.mp4
Format : MPEG-4
Format profile : Base Media
Codec ID : isom (isom/avc1)
File size : 75.6 MiB
Duration : 6 min 0 s
Overall bit rate mode : Variable
Overall bit rate : 1 760 kb/s
Encoded date : UTC 2016-06-22 20:55:56
Tagged date : UTC 2016-06-22 20:55:56
Writing application : My MP4Box GUI 0.6.0.6
Video
ID : 1
Format : AVC
Format/Info : Advanced Video Codec
Format profile : [url=mailto:[email protected]][email protected][/url]
Format settings : 2 Ref Frames
Format settings, CABAC : No
Format settings, ReFrames : 2 frames
Format settings, GOP : M=1, N=12
Codec ID : avc1
Codec ID/Info : Advanced Video Coding
Duration : 6 min 0 s
Bit rate : 1 632 kb/s
Maximum bit rate : 2 949 kb/s
Width : 1 280 pixels
Height : 720 pixels
Display aspect ratio : 16:9
Frame rate mode : Constant
Frame rate : 15.000 FPS
Standard : NTSC
Color space : YUV
Chroma subsampling : 4:2:0
Bit depth : 8 bits
Scan type : Progressive
Bits/(Pixel*Frame) : 0.118
Stream size : 70.1 MiB (93%)
Title : 001 -Intro about Kali Linux and Install action Options_track1.h264
Encoded date : UTC 2016-06-22 20:55:56
Tagged date : UTC 2016-06-22 20:55:57
Color range : Full
Color primaries : BT.601 NTSC
Transfer characteristics : BT.601
Matrix coefficients : BT.601
Audio
ID : 2
Format : AAC
Format/Info : Advanced Audio Codec
Format profile : LC
Codec ID : mp4a-40-2
Duration : 6 min 0 s
Bit rate mode : Variable
Bit rate : 127 kb/s
Maximum bit rate : 166 kb/s
Channel(s) : 2 channels
Channel positions : Front: L R
Sampling rate : 44.1 kHz
Frame rate : 43.066 FPS (1024 SPF)
Compression mode : Lossy
Stream size : 5.46 MiB (7%)
Title : wifi1_MP3 Audio_192 Kbps, CD Transparent Audio[0].aac
Encoded date : UTC 2016-06-22 20:55:57
Tagged date : UTC 2016-06-22 20:55:57

Дополнительная информация:

Весь курс состоит из 3-х разделов:
До подключения: В этом разделе мы до сих пор почти ничего не знаем от пентестинге, все что у нас есть это наш компьютер и беспроводная сетевая карта, которая к нему подключена. Вы научитесь собирать информацию используя wi-fi карту. Так же вы познакомитесь с некоторыми типами атак, которые вы можете совершить не зная пароля от сети.
Получение Доступа: На данный момент вы собрали всю информацию о сетях, которые находятся рядом, вы определились с жертвой, вы научитесь взламывать пароли. В этом разделе вы научитесь как взламывать сети с шифрованием WEP/WPA/WPA2.
После подключения: Теперь у вас есть ключ интересующей вас сети и вы можете к ней подключиться. В этом разделе вы изучите очень мощные типы атак, которые позволят вам подключаться к устройствам клиентов данной сети, эти атаки позволят вам получить доступ к любому аккаунту, который использует любой из клиентов, подключенных к данной сети, просмотреть весь трафик, который проходит через этих клиентов (Изображения, видео, аудио, пароли и т.п.) и так же получить полный доступ к любому клиенту сети. После этого вы изучите способы обнаружения данных атак и узнаете как можно от них защититься.
Все атаки в данном курсе применимы на практике, они работают со всеми wi-fi устройствами. Не имеет значение смартфон это, планшет или что-то еще. Каждая атака объясняется довольно простым языком, так что вы сможете понять как она работает, сначала вы познакомитесь с теорией, которая объясняет данную атаку, а затем вы перейдете непосредственно к атакам, используя Kali Linux.
Скриншоты:
       

}{@R0N

Пост 01-Мар-2018 18:29

[Цитировать]

Обучаем монтажу видео - Автор (режиссер): Руслан Прояев
Производство: Highlights
Жанр: Видео монтаж
Описание:
Курс идеально подходит для новичков в теме монтажа видео. Всего за месяц мы научим вас обрабатывать и редактировать видео на основе сегодняшних трендов в монтаже и классических приемах из кино. Кроме того, вы будете тренироваться монтажу на материалах профессиональных режиссеров и операторов, которые сотрудничают с нашей школой. Если вы хотите научиться обрабатывать видео для себя или даже начать зарабатывать на этом - ждем вас на курсе.
Что вы будете уметь уже через 4 недели? - Освоите основные монтажные приемы, которыми пользуются даже в кино. - Научитесь создавать красивые трендовые переходы - Поймете, как работать с текстурами и создать свой стиль - Освоите обработку цвета и придадите "киношный" цвет своему видео - Узнаете, как создавать текстовые заставки, титры уровня видео-дизайнера - Научитесь обрабатывать звук, удалять лишние шумы. - Узнаете, как начать зарабатывать на монтаже.
Продолжительность: 14:21:15
Качество видео: PCRec
Видео: AVC/H.264, 720x576,1280x720,1920x1080, ~1500kbps
Аудио: AAC, 2 ch, 160kbps

Подробный план занятий

ЗАНЯТИЕ №1
ВВЕДЕНИЕ В ПРОФЕССИЮ. РЕЖИССУРА МОНТАЖА.
- Что такое монтаж и его виды
- Основные этапы монтажа на практике обработки видео.
- Тренды в монтаже
- Хороший-плохой монтаж
- Источники вдохновения и полезные ресурсы
ЗАНЯТИЕ №2
ЗНАКОМСТВО С ПРОГРАММОЙ Adobe Premiere. ОСНОВНЫЕ МОНТАЖНЫЕ ПРИЕМЫ.
- Основные правила монтажа
- 6 приемов монтажа
- Практика работы в программе на примере Travel видео, свадьбы и документального видео.
- Изучаем интерфейс программы, рабочие окна, таймлайн. - - Виды переходов, склейка видео.
- Работа с изображениями и ключами анимации
ЗАНЯТИЕ №3
ЭФФЕКТЫ
- Трендовые fx переходы
- Стилизация изображения
- Работа с качеством изображения (удаление шумов, повышение резкости)
- Работа с масками
- Визуальные эффекты (blur, glitch)
ЗАНЯТИЕ №4
ЦВЕТОКОРРЕКЦИЯ
- Сочетания цветов, гармонии.
- Как брать цвет из других фильмов.
- Полезные ресурсы и материалы
- Цветокоррекция изображения (Яркость, контраст, баланс белого)
- Цветообработка/color grading (тонирование, художественная обработка, придание атмосферы, стиля)
- Лучшие книги, документальные видео о цвете. (саморазвитие)
ЗАНЯТИЕ 5
РАБОТА С ТЕКСТОМ ( титрами )
- Виды текстовых заставок, титров.
- Основы композиции
- Где взять шрифты бесплатно?
- Основные инструменты для работы с текстом.
- Учимся простейшей анимации текста.
- Делаем титры и заставки из известных фильмов
ЗАНЯТИЕ №6
ПРАКТИКА РАБОТЫ СО ЗВУКОМ
- Панель Audio Mixer.
- Особенности добавления звука в Adobe Premiere.
- Звуковые переходы.
- Звуковые эффекты.
- Основы обработки звука.
- Где брать бесплатную музыку?
ЗАНЯТИЕ №7
КАК НАЧАТЬ ЗАРАБАТЫВАТЬ?
- Практические советы из личного опыта преподавателя.
- Рынок труда: продакшн студии, фриланс.
- Создаем свое портфолио
- Делаем Шоурил
- Знакомимся с рекламными площадками для размещения своих работ.

Бонусы

1) Neat Video 3.2 Pro for Adobe Premiere Pro CS6
Описание: Плагин представляет передовую технологию для удаления шумов с видео и изображений. Лучшее на сегодня соотношение характеристик в своем классе.
2) Плагин Twitch — это потрясающий плагин, предназначенный для создания различного рода помех.
3) FilmImpact.net Transition Packs v3.5.4 CE Bundle
Комплект из 30 красивых переходов от FilmImpact.net
4) Футажи 5dleaks ,Artbeats Film Clutter 2,Circle Burst,Free 4K Light Leaks,Gorilla Grain,Hollywood Grain in Resolve,LUSTER Film Burns [12 Pack],mDusts 100 Organic Dust Elements,mLeaks,MotionVFX mRays 2K-iW0RLD,mSmokes h264,Rampant_4K_Flash_Transitions_FREE,Rampant_4K_Light_Transitions_FREE,Rampant_4K_ShadowLight_FREE,Rampant_Studio_Mattes_FREE,RGrain Complete Pack
5) Книга - Александра Митта - кино между адом и раем
6) Книга - Павла Косенко живая цифра
7) Книга - Юрия Гордон - Книга про буквы от А до Я (2006)
8) Книга - Александра Королькова - Живая Типографика (2007)
9) Книга - Яна Чихольда «Новая типографика. Руководство для современного дизайнера» (2011)
10) Руководство по цветовой коррекции: профессиональные техники для видео и кино (Color Correction Handbook: Professional Techniques for Video and Cinema by Alexis Van Hurkman )
11) Документальный фильм "Гельветика" (2007) (Фильм о типографике, графическом дизайне и визуальной культуре в целом. Сквозь призму распространения одного шрифта, которому исполнилось 50 лет в 2007 году, в фильме рассматривается общий вопрос о том, как шрифт влияет на нашу жизнь. Фильм представляет собой исследование городского пространства и шрифтов, которые его наполняют, а также цикл бесед с известными дизайнерами об их работе, творческом процессе, выборе и эстетической составляющей шрифтов.)

Mediainfo:

Complete name                  : D:\Группа 1\Урок №1 Введение в профессию\Запись урока (прямой трансляции)\Урок №1 Введение пв профессию.mp4
Format : MPEG-4
Format profile : Base Media
Codec ID : isom (isom/iso2/avc1/mp41)
File size : 2.23 GiB
Duration : 3 h 11 min
Overall bit rate : 1 666 kb/s
Writing application : Lavf57.66.102
Video
ID : 1
Format : AVC
Format/Info : Advanced Video Codec
Format profile : [url=mailto:[email protected]][email protected][/url]
Format settings, CABAC : Yes
Format settings, ReFrames : 4 frames
Codec ID : avc1
Codec ID/Info : Advanced Video Coding
Duration : 3 h 11 min
Bit rate : 1 500 kb/s
Width : 1 280 pixels
Height : 720 pixels
Display aspect ratio : 16:9
Frame rate mode : Constant
Frame rate : 23.976 (24000/1001) FPS
Color space : YUV
Chroma subsampling : 4:2:0
Bit depth : 8 bits
Scan type : Progressive
Bits/(Pixel*Frame) : 0.068
Stream size : 2.01 GiB (90%)
Writing library : x264 core 148 r2762 90a61ec
Encoding settings : cabac=1 / ref=1 / deblock=1:0:0 / analyse=0x3:0x113 / me=hex / subme=2 / psy=1 / psy_rd=1.00:0.00 / mixed_ref=0 / me_range=16 / chroma_me=1 / trellis=0 / 8x8dct=1 / cqm=0 / deadzone=21,11 / fast_pskip=1 / chroma_qp_offset=0 / threads=12 / lookahead_threads=4 / sliced_threads=0 / nr=0 / decimate=1 / interlaced=0 / bluray_compat=0 / constrained_intra=0 / bframes=3 / b_pyramid=2 / b_adapt=1 / b_bias=0 / direct=1 / weightb=1 / open_gop=0 / weightp=1 / keyint=250 / keyint_min=23 / scenecut=40 / intra_refresh=0 / rc_lookahead=10 / rc=cbr / mbtree=1 / bitrate=1500 / ratetol=1.0 / qcomp=0.60 / qpmin=0 / qpmax=69 / qpstep=4 / vbv_maxrate=1500 / vbv_bufsize=1500 / nal_hrd=none / filler=1 / ip_ratio=1.40 / aq=1:1.00
Audio
ID : 2
Format : AAC
Format/Info : Advanced Audio Codec
Format profile : LC
Codec ID : 40
Duration : 3 h 11 min
Bit rate mode : Constant
Bit rate : 160 kb/s
Channel(s) : 2 channels
Channel positions : Front: L R
Sampling rate : 44.1 kHz
Frame rate : 43.066 FPS (1024 spf)
Compression mode : Lossy
Stream size : 220 MiB (10%)
Title : simple_aac
Default : Yes
Alternate group : 1
General
Complete name : D:\Группа 1\Урок №4 Цвет\Запись урока №4\Lesson 4 - Плагин Looks и работа с кожей.mp4
Format : MPEG-4
Format profile : Base Media
Codec ID : isom (isom/iso2/avc1/mp41)
File size : 99.3 MiB
Duration : 8 min 20 s
Overall bit rate : 1 666 kb/s
Writing application : Lavf57.66.102
Video
ID : 1
Format : AVC
Format/Info : Advanced Video Codec
Format profile : [url=mailto:[email protected]][email protected][/url]
Format settings, CABAC : Yes
Format settings, ReFrames : 4 frames
Codec ID : avc1
Codec ID/Info : Advanced Video Coding
Duration : 8 min 20 s
Bit rate : 1 500 kb/s
Width : 1 280 pixels
Height : 720 pixels
Display aspect ratio : 16:9
Frame rate mode : Constant
Frame rate : 23.976 (24000/1001) FPS
Color space : YUV
Chroma subsampling : 4:2:0
Bit depth : 8 bits
Scan type : Progressive
Bits/(Pixel*Frame) : 0.068
Stream size : 89.4 MiB (90%)
Writing library : x264 core 148 r2762 90a61ec
Encoding settings : cabac=1 / ref=1 / deblock=1:0:0 / analyse=0x3:0x113 / me=hex / subme=2 / psy=1 / psy_rd=1.00:0.00 / mixed_ref=0 / me_range=16 / chroma_me=1 / trellis=0 / 8x8dct=1 / cqm=0 / deadzone=21,11 / fast_pskip=1 / chroma_qp_offset=0 / threads=12 / lookahead_threads=4 / sliced_threads=0 / nr=0 / decimate=1 / interlaced=0 / bluray_compat=0 / constrained_intra=0 / bframes=3 / b_pyramid=2 / b_adapt=1 / b_bias=0 / direct=1 / weightb=1 / open_gop=0 / weightp=1 / keyint=250 / keyint_min=23 / scenecut=40 / intra_refresh=0 / rc_lookahead=10 / rc=cbr / mbtree=1 / bitrate=1500 / ratetol=1.0 / qcomp=0.60 / qpmin=0 / qpmax=69 / qpstep=4 / vbv_maxrate=1500 / vbv_bufsize=1500 / nal_hrd=none / filler=1 / ip_ratio=1.40 / aq=1:1.00
Audio
ID : 2
Format : AAC
Format/Info : Advanced Audio Codec
Format profile : LC
Codec ID : 40
Duration : 8 min 20 s
Bit rate mode : Constant
Bit rate : 160 kb/s
Channel(s) : 2 channels
Channel positions : Front: L R
Sampling rate : 44.1 kHz
Frame rate : 43.066 FPS (1024 spf)
Compression mode : Lossy
Stream size : 9.54 MiB (10%)
Title : simple_aac
Default : Yes
Alternate group : 1
General
Complete name : D:\Группа 1\Урок №4 Цвет\Запись урока №4\Lesson 4 - Про LUTs и лень.mp4
Format : MPEG-4
Format profile : Base Media
Codec ID : isom (isom/iso2/avc1/mp41)
File size : 40.3 MiB
Duration : 3 min 22 s
Overall bit rate : 1 666 kb/s
Writing application : Lavf57.66.102
Video
ID : 1
Format : AVC
Format/Info : Advanced Video Codec
Format profile : [url=mailto:[email protected]][email protected][/url]
Format settings, CABAC : Yes
Format settings, ReFrames : 4 frames
Codec ID : avc1
Codec ID/Info : Advanced Video Coding
Duration : 3 min 22 s
Bit rate : 1 500 kb/s
Width : 1 280 pixels
Height : 720 pixels
Display aspect ratio : 16:9
Frame rate mode : Constant
Frame rate : 23.976 (24000/1001) FPS
Color space : YUV
Chroma subsampling : 4:2:0
Bit depth : 8 bits
Scan type : Progressive
Bits/(Pixel*Frame) : 0.068
Stream size : 36.3 MiB (90%)
Writing library : x264 core 148 r2762 90a61ec
Encoding settings : cabac=1 / ref=1 / deblock=1:0:0 / analyse=0x3:0x113 / me=hex / subme=2 / psy=1 / psy_rd=1.00:0.00 / mixed_ref=0 / me_range=16 / chroma_me=1 / trellis=0 / 8x8dct=1 / cqm=0 / deadzone=21,11 / fast_pskip=1 / chroma_qp_offset=0 / threads=12 / lookahead_threads=4 / sliced_threads=0 / nr=0 / decimate=1 / interlaced=0 / bluray_compat=0 / constrained_intra=0 / bframes=3 / b_pyramid=2 / b_adapt=1 / b_bias=0 / direct=1 / weightb=1 / open_gop=0 / weightp=1 / keyint=250 / keyint_min=23 / scenecut=40 / intra_refresh=0 / rc_lookahead=10 / rc=cbr / mbtree=1 / bitrate=1500 / ratetol=1.0 / qcomp=0.60 / qpmin=0 / qpmax=69 / qpstep=4 / vbv_maxrate=1500 / vbv_bufsize=1500 / nal_hrd=none / filler=1 / ip_ratio=1.40 / aq=1:1.00
Audio
ID : 2
Format : AAC
Format/Info : Advanced Audio Codec
Format profile : LC
Codec ID : 40
Duration : 3 min 22 s
Bit rate mode : Constant
Bit rate : 160 kb/s
Channel(s) : 2 channels
Channel positions : Front: L R
Sampling rate : 44.1 kHz
Frame rate : 43.066 FPS (1024 spf)
Compression mode : Lossy
Stream size : 3.87 MiB (10%)
Title : simple_aac
Default : Yes
Alternate group : 1
General
Complete name : D:\Группа 1\Урок №4 Цвет\Запись урока №4\Запись урока №4.mp4
Format : MPEG-4
Format profile : Base Media
Codec ID : isom (isom/iso2/avc1/mp41)
File size : 1.87 GiB
Duration : 2 h 40 min
Overall bit rate : 1 666 kb/s
Writing application : Lavf57.66.102
Video
ID : 1
Format : AVC
Format/Info : Advanced Video Codec
Format profile : [url=mailto:[email protected]][email protected][/url]
Format settings, CABAC : Yes
Format settings, ReFrames : 4 frames
Codec ID : avc1
Codec ID/Info : Advanced Video Coding
Duration : 2 h 40 min
Bit rate : 1 500 kb/s
Width : 1 280 pixels
Height : 720 pixels
Display aspect ratio : 16:9
Frame rate mode : Constant
Frame rate : 23.976 (24000/1001) FPS
Color space : YUV
Chroma subsampling : 4:2:0
Bit depth : 8 bits
Scan type : Progressive
Bits/(Pixel*Frame) : 0.068
Stream size : 1.69 GiB (90%)
Writing library : x264 core 148 r2762 90a61ec
Encoding settings : cabac=1 / ref=1 / deblock=1:0:0 / analyse=0x3:0x113 / me=hex / subme=2 / psy=1 / psy_rd=1.00:0.00 / mixed_ref=0 / me_range=16 / chroma_me=1 / trellis=0 / 8x8dct=1 / cqm=0 / deadzone=21,11 / fast_pskip=1 / chroma_qp_offset=0 / threads=12 / lookahead_threads=4 / sliced_threads=0 / nr=0 / decimate=1 / interlaced=0 / bluray_compat=0 / constrained_intra=0 / bframes=3 / b_pyramid=2 / b_adapt=1 / b_bias=0 / direct=1 / weightb=1 / open_gop=0 / weightp=1 / keyint=250 / keyint_min=23 / scenecut=40 / intra_refresh=0 / rc_lookahead=10 / rc=cbr / mbtree=1 / bitrate=1500 / ratetol=1.0 / qcomp=0.60 / qpmin=0 / qpmax=69 / qpstep=4 / vbv_maxrate=1500 / vbv_bufsize=1500 / nal_hrd=none / filler=1 / ip_ratio=1.40 / aq=1:1.00
Audio
ID : 2
Format : AAC
Format/Info : Advanced Audio Codec
Format profile : LC
Codec ID : 40
Duration : 2 h 40 min
Bit rate mode : Constant
Bit rate : 160 kb/s
Channel(s) : 2 channels
Channel positions : Front: L R
Sampling rate : 44.1 kHz
Frame rate : 43.066 FPS (1024 spf)
Compression mode : Lossy
Stream size : 184 MiB (10%)
Title : simple_aac
Default : Yes
Скриншоты:
       

XP1971

Пост 01-Мар-2018 15:41

[Цитировать]

Александр Чалдрян | Adobe Photoshop: Быстрый старт (2018) TS - Автор (режиссер): Александр Чалдрян
Производство: Россия
Жанр: Видеоурок
Описание:
Уверенная работа с яркостью, контрастом и оттенками позволит вам выполнять такие важные и нужные операции, как изменение цвета объектов, придание фотографиям креативного вида и простое коллажирование.
Вы удивитесь, осознав, что стартового набора инструментов действительно достаточно, чтобы выполнять большинство операций, возникающих у вас в голове, когда вы слышите слово «фотошоп».
Продолжительность: 03:47:34
Качество видео: TS
Видео: AVC/H.264, 1280x720, ~2400 Kbps
Аудио: AAC, 2 ch, Lossy Kbps, 48.0 KHz

Mediainfo:

General
ID : 1 (0x1)
Complete name : I:Adobe Photoshop Быстрый старт (2018) Видеокурс\1 Операции с файлами.TS
Format : MPEG-TS
File size : 465 MiB
Duration : 23mn 23s
Overall bit rate mode : Variable
Overall bit rate : 2 777 Kbps
Video
ID : 211 (0xD3)
Menu ID : 1 (0x1)
Format : AVC
Format/Info : Advanced Video Codec
Format profile : [url=mailto:[email protected]][email protected][/url]
Format settings, CABAC : Yes
Format settings, ReFrames : 4 frames
Codec ID : 27
Duration : 23mn 23s
Nominal bit rate : 2 400 Kbps
Width : 1 280 pixels
Height : 720 pixels
Display aspect ratio : 16:9
Frame rate mode : Variable
Color space : YUV
Chroma subsampling : 4:2:0
Bit depth : 8 bits
Scan type : Progressive
Writing library : x264 core 148
Encoding settings : cabac=1 / ref=3 / deblock=1:0:0 / analyse=0x3:0x113 / me=hex / subme=7 / psy=1 / psy_rd=1.00:0.00 / mixed_ref=1 / me_range=16 / chroma_me=1 / trellis=1 / 8x8dct=1 / cqm=0 / deadzone=21,11 / fast_pskip=1 / chroma_qp_offset=-2 / threads=22 / lookahead_threads=3 / sliced_threads=0 / nr=0 / decimate=1 / interlaced=0 / bluray_compat=0 / constrained_intra=0 / bframes=3 / b_pyramid=2 / b_adapt=1 / b_bias=0 / direct=1 / weightb=1 / open_gop=0 / weightp=2 / keyint=90 / keyint_min=9 / scenecut=40 / intra_refresh=0 / rc_lookahead=40 / rc=abr / mbtree=1 / bitrate=2400 / ratetol=1.0 / qcomp=0.60 / qpmin=0 / qpmax=69 / qpstep=4 / ip_ratio=1.40 / aq=1:1.00
Color range : Limited
Color primaries : BT.709
Transfer characteristics : BT.709
Matrix coefficients : BT.709
Audio
ID : 221 (0xDD)
Menu ID : 1 (0x1)
Format : AAC
Format/Info : Advanced Audio Codec
Format version : Version 4
Format profile : LC
Muxing mode : ADTS
Codec ID : 15
Duration : 23mn 23s
Bit rate mode : Variable
Channel(s) : 2 channels
Channel positions : Front: L R
Sampling rate : 44.1 KHz
Frame rate : 43.066 fps (1024 spf)
Compression mode : Lossy
Delay relative to video : -46ms

Дополнительная информация:

Содержание:
1. Операции с файлами
2. Adobe Photoshop- быстрый старт
3. Палитры и меню
4. Инструменты ручного редактирования
5. Операции базовой цветокоррекции
6. Инструменты выделения
7. Слои
8. Простые геометрические трансформации
9. Корректирующие слои
10. Кривые
11. Маска слоя
Скриншоты:
       

XP1971

Пост 21-Фев-2018 22:49

[Цитировать]

kartoha писал(а):
Проверил на Линуксе - работает !!!! В чем причина хз .
да я вроде Вам сразу написал причину то...
XP1971 писал(а):
Установите кодеки или смените плеер

kartoha

Пост 21-Фев-2018 21:12

[Цитировать]

Смотрел в стандартном виндоус 10 . Проверил на Линуксе - работает !!!! В чем причина хз .
 

Текущее время: Сегодня 16:42

Часовой пояс: GMT + 3