Сегодня идет свободное скачивание без начисления Download

Результатов поиска: 500

Автор Сообщение

}{@R0N

Пост 07-Окт-2017 23:04

[Цитировать]

M20409В: Виртуализация серверов на основе Windows Server Hyper-V и System Center - Автор (режиссер): Специалист
Производство: Шевелёв Эдуард Викторович
Жанр: Windows Server Hyper-V, System Center, Системное администрирование
Описание:
Windows Server 2012 R2 - это новая серверная операционная система компании Microsoft. Она содержит в себе весь необходимый набор новейших технологий для создания легко масштабируемой, простой и эффективной серверной платформы.
Вы приобретете знания и навыки, необходимые для практической реализации виртуализации серверов на основе Windows Server Hyper-V 2012 R2 и System Center 2012 R2.
Курс предназначен для:
- Всех заинтересованных в получении информации о новейших технологиях виртуализации Microsoft;
- IT-профессионалов, отвечающих за разработку, внедрение, и поддержку виртуальной инфраструктуры.
Описание курса на официальном сайте Microsoft
Продолжительность: 22:12:31
Качество видео: PCRec
Видео: AVC/H.264, 960х720, ~200 Kbps
Аудио: AAC, 2 ch, 74 Kbps

Mediainfo:

General
Complete name : .\[Специалист] Виртуализация серверов на основе Windows Server Hyper-V и System Center (2015)\Module_1_1 (720p).mp4
Format : MPEG-4
Format profile : Base Media / Version 2
Codec ID : mp42 (mp42/mp41/isom/avc1)
File size : 170 MiB
Duration : 1 h 25 min
Overall bit rate mode : Variable
Overall bit rate : 277 kb/s
Encoded date : UTC 2015-12-17 18:03:03
Tagged date : UTC 2015-12-17 18:03:03
Video
ID : 1
Format : AVC
Format/Info : Advanced Video Codec
Format profile : [url=mailto:[email protected]][email protected][/url]
Format settings, CABAC : Yes
Format settings, ReFrames : 5 frames
Format settings, GOP : M=4, N=69
Codec ID : avc1
Codec ID/Info : Advanced Video Coding
Duration : 1 h 25 min
Bit rate : 200 kb/s
Width : 960 pixels
Height : 720 pixels
Display aspect ratio : 4:3
Frame rate mode : Constant
Frame rate : 22.917 FPS
Color space : YUV
Chroma subsampling : 4:2:0
Bit depth : 8 bits
Scan type : Progressive
Bits/(Pixel*Frame) : 0.013
Stream size : 122 MiB (72%)
Writing library : x264 core 148 r11 7599210
Encoding settings : cabac=1 / ref=5 / deblock=1:0:0 / analyse=0x3:0x113 / me=umh / subme=8 / psy=1 / psy_rd=1.00:0.00 / mixed_ref=1 / me_range=16 / chroma_me=1 / trellis=1 / 8x8dct=1 / cqm=0 / deadzone=21,11 / fast_pskip=1 / chroma_qp_offset=-2 / threads=22 / lookahead_threads=3 / sliced_threads=0 / nr=0 / decimate=1 / interlaced=0 / bluray_compat=0 / stitchable=1 / constrained_intra=0 / bframes=3 / b_pyramid=2 / b_adapt=2 / b_bias=0 / direct=3 / weightb=1 / open_gop=0 / weightp=2 / keyint=infinite / keyint_min=22 / scenecut=40 / intra_refresh=0 / rc_lookahead=50 / rc=2pass / mbtree=1 / bitrate=200 / ratetol=1.0 / qcomp=0.60 / qpmin=5 / qpmax=69 / qpstep=4 / cplxblur=20.0 / qblur=0.5 / vbv_maxrate=2750 / vbv_bufsize=7500 / nal_hrd=none / filler=0 / ip_ratio=1.40 / aq=1:1.00
Encoded date : UTC 2015-12-17 18:03:03
Tagged date : UTC 2015-12-17 18:03:03
Color range : Limited
Color primaries : BT.709
Transfer characteristics : BT.709
Matrix coefficients : BT.709
Audio
ID : 2
Format : AAC
Format/Info : Advanced Audio Codec
Format profile : LC
Codec ID : 40
Duration : 1 h 25 min
Bit rate mode : Variable
Bit rate : 73.5 kb/s
Channel(s) : 2 channels
Channel(s)_Original : 1 channel
Channel positions : Front: C
Sampling rate : 48.0 kHz
Frame rate : 46.875 FPS (1024 spf)
Compression mode : Lossy
Stream size : 45.0 MiB (27%)
Encoded date : UTC 2015-12-17 18:03:03
Tagged date : UTC 2015-12-17 18:03:03

Дополнительная информаиця:

По окончании курса Вы будете уметь:
- Устанавливать и настраивать роль Hyper-V.
- Создавать виртуальные машины, создавать и управлять виртуальными дисками и работать со снапшотами.
- Создавать и настраивать сети виртуальных машин в Hyper-V.
- Выполнять перемещение и репликацию виртуальных машин в Hyper-V.
- Обеспечивать высокую доступность среды Hyper-V на основе отказоустойчивых кластеров.
- Управлять виртуальной инфраструктурой с использованием System Center 2012 R2 Virtual Machine Manager.
- Управлять сетевой инфраструктурой и инфраструктурой хранения данных используя System Center 2012 R2 Virtual Machine Manager.
- Выполнять настройку и управление библиотекой System Center 2012 R2 Virtual Machine Manager и объектами библиотеки.
- Создавать и управлять виртуальными машинами с помощью System Center 2012 R2 Virtual Machine Manager.
- Создавать и управлять облаками в System Center 2012 R2 Virtual Machine Manager.
- Создавать и управлять службами в System Center 2012 R2 Virtual Machine Manager.
- Защищать виртуальную инфраструктуру с помощью Windows Server Backup и Data Protection Manager.
Скриншоты:
       

}{@R0N

Пост 07-Окт-2017 23:03

[Цитировать]

Интернет-магазин на React/Redux - Автор (режиссер): MonsterLessons
Жанр: Redux, React, Веб-программирование
Описание:
В этой серии мы с вами напишем интернет-магазин от начала и до конца используя React и Redux.
Чему вы научитесь:
- Структурировать и конфигурировать проект
- Писать хороший код в React и Redux на реальном проекте
- Создавать переиспользуемые селекторы и компоненты
- Отделять работу с данными от екшенов
- Использовать библиотеку Ramda для удобной работы с данными
- Получать данные от API
Продолжительность: 02:42:09
Качество видео: PCRec
Видео: AVC/H.264, 1280x720, ~999 Kbps
Аудио: AAC, 2 ch, 242 Kbps

Mediainfo:

General
Complete name : .\[MonsterLessons] Интернет-магазин на React+Redux (2017)\0\Интернет-магазин на ReactRedux.mp4
Format : MPEG-4
Format profile : Base Media / Version 2
Codec ID : mp42 (isom/iso2/avc1/mp41)
File size : 28.1 MiB
Duration : 3 min 9 s
Overall bit rate mode : Variable
Overall bit rate : 1 245 kb/s
Encoded date : UTC 2017-06-12 14:40:08
Tagged date : UTC 2017-06-12 14:41:31
Video
ID : 1
Format : AVC
Format/Info : Advanced Video Codec
Format profile : [url=mailto:[email protected]1][email protected][/url]
Format settings, CABAC : Yes
Format settings, ReFrames : 5 frames
Codec ID : avc1
Codec ID/Info : Advanced Video Coding
Duration : 3 min 9 s
Bit rate : 999 kb/s
Width : 1 280 pixels
Height : 720 pixels
Display aspect ratio : 16:9
Frame rate mode : Constant
Frame rate : 30.000 FPS
Color space : YUV
Chroma subsampling : 4:2:0
Bit depth : 8 bits
Scan type : Progressive
Bits/(Pixel*Frame) : 0.036
Stream size : 22.6 MiB (80%)
Encoded date : UTC 2017-06-12 14:40:08
Tagged date : UTC 2017-06-12 14:41:30
Color primaries : BT.709
Transfer characteristics : BT.709
Matrix coefficients : BT.709
Audio
ID : 2
Format : AAC
Format/Info : Advanced Audio Codec
Format profile : LC
Codec ID : 40
Duration : 3 min 9 s
Bit rate mode : Variable
Bit rate : 242 kb/s
Maximum bit rate : 293 kb/s
Channel(s) : 2 channels
Channel positions : Front: L R
Sampling rate : 44.1 kHz
Frame rate : 43.066 FPS (1024 spf)
Compression mode : Lossy
Stream size : 5.46 MiB (19%)
Encoded date : UTC 2017-06-12 14:40:08
Tagged date : UTC 2017-06-12 14:40:17

Дополнительная информация:

Необходимые знания
- Javascript
- React
- Redux
Для кого этот курс
- Для всех, кто уже немного разобрался с React и Redux, но хочет реализовать реальный проект от начала и до конца и понять, как все работает.
Скриншоты:
       

}{@R0N

Пост 07-Окт-2017 23:03

[Цитировать]

VMware vSphere. Уровень 1. Внедрение и эксплуатация vSphere 6.5 - Автор (режиссер): Специалист
Жанр: VMware vSphere, Системное администрирование
Описание:
VMware vSphere – решение виртуализации масштаба предприятия, построенное на базе гипервизоров ESXi/ESX, и управляемое с помощью решения vCenter Server.
Курс предназначен для ИТ-специалистов, крупных и средних предприятий, которые желают получить знания и опыт работы с современными средствами виртуализации серверов на базе технологий компании VMware и новейшего продукта VMware vSphere 6.
Продолжительность: 25:58:18
Качество видео: PCRec
Видео: AVC/H.264, 900х720, ~242 Kbps
Аудио: AAC, 2 ch, 118 Kbps

Mediainfo:

General
Complete name : .\[Специалист] VMware vSphere. Уровень 1. Внедрение и эксплуатация vSphere 6.5 (2017)\2017-07-03_11_23_VMVARE1-G_03_07-07_07_u-d_RA.mp4
Format : MPEG-4
Format profile : Base Media / Version 2
Codec ID : mp42 (mp42/mp41/isom/avc1)
File size : 673 MiB
Duration : 4 h 18 min
Overall bit rate mode : Variable
Overall bit rate : 364 kb/s
Encoded date : UTC 2017-09-07 16:26:15
Tagged date : UTC 2017-09-07 16:26:15
Video
ID : 1
Format : AVC
Format/Info : Advanced Video Codec
Format profile : [url=mailto:[email protected]][email protected][/url]
Format settings, CABAC : Yes
Format settings, ReFrames : 5 frames
Format settings, GOP : M=4, N=73
Codec ID : avc1
Codec ID/Info : Advanced Video Coding
Duration : 4 h 18 min
Bit rate : 242 kb/s
Width : 900 pixels
Height : 720 pixels
Display aspect ratio : 5:4
Frame rate mode : Constant
Frame rate : 24.226 FPS
Color space : YUV
Chroma subsampling : 4:2:0
Bit depth : 8 bits
Scan type : Progressive
Bits/(Pixel*Frame) : 0.015
Stream size : 448 MiB (67%)
Writing library : x264 core 150 r10 df79067
Encoding settings : cabac=1 / ref=5 / deblock=1:0:0 / analyse=0x3:0x113 / me=hex / subme=8 / psy=1 / psy_rd=1.00:0.00 / mixed_ref=1 / me_range=16 / chroma_me=1 / trellis=2 / 8x8dct=1 / cqm=0 / deadzone=21,11 / fast_pskip=1 / chroma_qp_offset=-2 / threads=22 / lookahead_threads=3 / sliced_threads=0 / nr=0 / decimate=1 / interlaced=0 / bluray_compat=0 / stitchable=1 / constrained_intra=0 / bframes=3 / b_pyramid=2 / b_adapt=1 / b_bias=0 / direct=3 / weightb=1 / open_gop=0 / weightp=2 / keyint=infinite / keyint_min=24 / scenecut=40 / intra_refresh=0 / rc_lookahead=50 / rc=crf / mbtree=1 / crf=20.0 / qcomp=0.60 / qpmin=5 / qpmax=69 / qpstep=4 / vbv_maxrate=2750 / vbv_bufsize=7500 / crf_max=0.0 / nal_hrd=none / filler=0 / ip_ratio=1.40 / aq=1:1.00
Encoded date : UTC 2017-09-07 16:26:15
Tagged date : UTC 2017-09-07 16:26:15
Color range : Limited
Color primaries : BT.709
Transfer characteristics : BT.709
Matrix coefficients : BT.709
Audio
ID : 2
Format : AAC
Format/Info : Advanced Audio Codec
Format profile : LC
Codec ID : 40
Duration : 4 h 18 min
Bit rate mode : Variable
Bit rate : 118 kb/s
Channel(s) : 2 channels
Channel(s)_Original : 1 channel
Channel positions : Front: C
Sampling rate : 48.0 kHz
Frame rate : 46.875 FPS (1024 spf)
Compression mode : Lossy
Stream size : 218 MiB (32%)
Encoded date : UTC 2017-09-07 16:26:15
Tagged date : UTC 2017-09-07 16:26:15

Дополнительная информация:

Цель курса:
Научиться внедрять и поддерживать в работоспособном состоянии инфраструктуру виртуализации масштаба предприятия на основе Vmware vSphere: VMware ESXi /ESX и vCenter Server.
По окончании курса Вы будете уметь:
- Внедрять и конфигурировать гипервизоры ESXi
- Внедрять и конфигурировать vCenter Server
- Управлять сетевыми настройками и хранилищами данных с применением vCenter Server
- Создавать, управлять виртуальными машинами
- Управлять доступом
- Мониторить использование ресурсов
- Управлять масштабированием
- Обеспечивать высокую доступность
Скриншоты:
       

}{@R0N

Пост 07-Окт-2017 23:02

[Цитировать]

PHP. Уровень 1-4 - Автор (режиссер): Специалист
Преподаватель: Борисов Игорь Олегович
Жанр: PHP, Программирование
Описание:
Курсы PHP в Центре «Специалист» — превосходный старт, позволяющим быстро освоить и эффективно использовать РНР. На курсах PHP найдете все, что для этого необходимо: от описания настройки РНР, основ CGI и базовых конструкций языка, до работы с сессиями, каналами, сокетами и другими специальными технологиями РНР, Особое место в процессе обучения PHP занимает рассмотрение взаимодействия РНР с базами данных. На курсах PHP рассмотрены, как MySQL, так и SQLite, поддерживаемая РНР 7.
Продолжительность: 53:29:57
Качество видео: PCRec
Видео: AVC/H.264, 1280-1024х1024-768, ~90-128 Kbps
Аудио: AAC, 2 ch, 56 Kbps

Mediainfo:

General
Complete name : .\[Специалист] PHP. Уровень 1-4 (2016)\Уровень 1. Основы создания сайтов\День 2.mp4
Format : MPEG-4
Format profile : Base Media
Codec ID : isom (isom/mp42)
File size : 371 MiB
Duration : 4 h 32 min
Overall bit rate mode : Variable
Overall bit rate : 190 kb/s
Encoded date : UTC 2016-07-19 10:18:06
Tagged date : UTC 2016-07-19 10:18:06
Video
ID : 1
Format : AVC
Format/Info : Advanced Video Codec
Format profile : [url=mailto:[email protected]][email protected][/url]
Format settings, CABAC : Yes
Format settings, ReFrames : 8 frames
Codec ID : avc1
Codec ID/Info : Advanced Video Coding
Duration : 4 h 32 min
Source duration : 4 h 32 min
Bit rate : 128 kb/s
Width : 1 280 pixels
Height : 1 024 pixels
Display aspect ratio : 5:4
Frame rate mode : Constant
Frame rate : 10.000 FPS
Color space : YUV
Chroma subsampling : 4:2:0
Bit depth : 8 bits
Scan type : Progressive
Bits/(Pixel*Frame) : 0.010
Stream size : 254 MiB (68%)
Source stream size : 254 MiB (68%)
Writing library : x264 core 146 r2538 121396c
Encoding settings : cabac=1 / ref=8 / deblock=1:-1:-1 / analyse=0x3:0x113 / me=umh / subme=7 / psy=1 / psy_rd=1.00:0.20 / mixed_ref=1 / me_range=16 / chroma_me=1 / trellis=2 / 8x8dct=1 / cqm=0 / deadzone=21,11 / fast_pskip=0 / chroma_qp_offset=-3 / threads=6 / lookahead_threads=1 / sliced_threads=0 / nr=0 / decimate=0 / interlaced=0 / bluray_compat=0 / constrained_intra=0 / bframes=3 / b_pyramid=2 / b_adapt=2 / b_bias=0 / direct=3 / weightb=1 / open_gop=0 / weightp=2 / keyint=250 / keyint_min=10 / scenecut=40 / intra_refresh=0 / rc_lookahead=50 / rc=2pass / mbtree=1 / bitrate=128 / ratetol=1.0 / qcomp=0.60 / qpmin=0 / qpmax=69 / qpstep=4 / cplxblur=20.0 / qblur=0.5 / vbv_maxrate=14000 / vbv_bufsize=14000 / nal_hrd=none / filler=0 / ip_ratio=1.40 / aq=1:1.00
Language : English
Encoded date : UTC 2016-07-19 10:18:06
Tagged date : UTC 2016-07-19 10:18:06
mdhd_Duration : 16345459
Audio
ID : 2
Format : AAC
Format/Info : Advanced Audio Codec
Format profile : LC
Codec ID : 40
Duration : 4 h 32 min
Source duration : 4 h 32 min
Bit rate mode : Variable
Bit rate : 56.0 kb/s
Channel(s) : 2 channels
Channel positions : Front: L R
Sampling rate : 44.1 kHz
Frame rate : 43.066 FPS (1024 spf)
Compression mode : Lossy
Stream size : 109 MiB (29%)
Source stream size : 109 MiB (29%)
Language : English
Encoded date : UTC 2016-07-19 10:18:06
Tagged date : UTC 2016-07-19 10:18:06
mdhd_Duration : 16345780
----------------------------------------------------------------
General
Complete name : .\[Специалист] PHP. Уровень 1-4 (2016)\Уровень 4. Проектирование и разработка сложных веб-проектов на РНР 7\День 1.mp4
Format : MPEG-4
Format profile : Base Media
Codec ID : isom (isom/avc1/iso6)
File size : 321 MiB
Duration : 5 h 1 min
Overall bit rate mode : Variable
Overall bit rate : 149 kb/s
Encoded date : UTC 2016-07-11 22:21:09
Tagged date : UTC 2016-07-11 22:21:09
Video
ID : 1
Format : AVC
Format/Info : Advanced Video Codec
Format profile : [url=mailto:[email protected]][email protected][/url]
Format settings, CABAC : Yes
Format settings, ReFrames : 8 frames
Codec ID : avc1
Codec ID/Info : Advanced Video Coding
Duration : 5 h 1 min
Bit rate : 90.0 kb/s
Maximum bit rate : 2 919 kb/s
Width : 1 024 pixels
Height : 768 pixels
Display aspect ratio : 4:3
Frame rate mode : Constant
Frame rate : 10.000 FPS
Color space : YUV
Chroma subsampling : 4:2:0
Bit depth : 8 bits
Scan type : Progressive
Bits/(Pixel*Frame) : 0.011
Stream size : 194 MiB (61%)
Title : [url=mailto:[email protected]][email protected][/url]-DEV-rev248-g39d5978-master
Writing library : x264 core 146 r2538 121396c
Encoding settings : cabac=1 / ref=8 / deblock=1:-1:-1 / analyse=0x3:0x113 / me=umh / subme=7 / psy=1 / psy_rd=1.00:0.20 / mixed_ref=1 / me_range=16 / chroma_me=1 / trellis=2 / 8x8dct=1 / cqm=0 / deadzone=21,11 / fast_pskip=0 / chroma_qp_offset=-3 / threads=6 / lookahead_threads=1 / sliced_threads=0 / nr=0 / decimate=0 / interlaced=0 / bluray_compat=0 / constrained_intra=0 / bframes=3 / b_pyramid=2 / b_adapt=2 / b_bias=0 / direct=3 / weightb=1 / open_gop=0 / weightp=2 / keyint=250 / keyint_min=10 / scenecut=40 / intra_refresh=0 / rc_lookahead=50 / rc=2pass / mbtree=1 / bitrate=90 / ratetol=1.0 / qcomp=0.60 / qpmin=0 / qpmax=69 / qpstep=4 / cplxblur=20.0 / qblur=0.5 / vbv_maxrate=14000 / vbv_bufsize=14000 / nal_hrd=none / filler=0 / ip_ratio=1.40 / aq=1:1.00
Encoded date : UTC 2016-07-11 22:21:09
Tagged date : UTC 2016-07-11 22:21:18
Audio
ID : 2
Format : AAC
Format/Info : Advanced Audio Codec
Format profile : LC
Codec ID : 40
Duration : 5 h 1 min
Bit rate mode : Variable
Bit rate : 56.0 kb/s
Maximum bit rate : 59.3 kb/s
Channel(s) : 2 channels
Channel positions : Front: L R
Sampling rate : 48.0 kHz
Frame rate : 46.875 FPS (1024 spf)
Compression mode : Lossy
Stream size : 121 MiB (38%)
Encoded date : UTC 2016-07-11 20:33:00
Tagged date : UTC 2016-07-11 22:21:18

Дополнительная информация:

Курсы PHP в Центре «Специалист» максимально ориентированы на достижение реальных практических результатов. В деталях описано, как создать на РНР свою гостевую книгу, чат, форум, почтовую рассылку на сайте, новостную ленту и даже Интернет-магазин. Отдельно рассмотрена методика создания системы автоматического управления содержимым сайта ("движка"). Такая система позволит слушателям максимально упростить поддержку и обновление своего сайта. Кроме создания своих скриптов, приведено описание профессиональных продуктов (бесплатных и открытых): форума РНРВВ и системы PHP-Nuke. Эти продукты применяются на огромном количестве сайтов и позволяют "дважды не изобретать велосипед", а использовать уже готовые решения. Обучение PHP отличается простотой и ясностью изложения материала, благодаря опытным и известным преподавателям-гуру в области PHP.
Курсы в "Специалисте" позволят Вам также подготовиться к сертификации Zend. Центр «Специалист» — это первый учебный центр в России, в котором курсы по PHP преподают специалисты, сами прошедшие сертификацию ZCE (Zend Certified Engineer).
Язык PHP разрабатываются и совершенствуются компанией Zend. Учебный центр "Специалист" предоставляет возможность программистам получить статус сертифицированного специалиста Zend, который более известен как ZCE (Zend Certified Engineer). В нашем Центре Вы можете не только пройти подготовку к сертификации ZCE, но и сдать экзамен на получение статуса Zend Certified Engineer.

Описание курсов:

Уровень 1. Основы создания сайтов

Цель курса – дать слушателям первоначальные навыки создания веб-сайтов на PHP.
PHP как средство создания веб-сайтов необычайно популярно в России и в мире. С помощью PHP веб-мастера разрабатывают сложные сайты, имеющие развитые функции, активно взаимодействующие с пользователем.
На этом курсе слушатели получают начальные навыки разработки сайтов на PHP, что позволяет быстро начать использование PHP. Курс прежде всего предназначен для слушателей, ранее не имевшими дело с PHP-программированием и желающим начать использование PHP.
На курсе рассматривается последняя версия интерпретатора – PHP 7. В процессе обучения слушатели реализуют проект по созданию простого веб-сайта.
Данный курс является первым курсом в цепочке подготовки веб-мастера к получению сертификации ZCE (Zend Certified Engineer).
Программа курса соответствует требованиям профессионального стандарта «Программист».

Уровень 2. Разработка web - сайтов и взаимодействие с MySQL

На этом курсе слушатели продолжают знакомиться с PHP, и этот курс охватывает все необходимые темы для создания сложных сайтов: управление сессиями пользователя и файловой системой, работа с базами данных, работа с протоколом HTTP.
Данный курс является рекомендованным курсом в цепочке подготовки Веб-мастера к получению сертификации ZCE (Zend Certified Engineer).
На курсе рассматривается последняя версия интерпретатора – PHP 7.
Курс рекомендован слушателям, имеющим начальный опыт использования PHP, и желающим расширить свои знания и опыт. В ходе курса слушатели выполняют проект по созданию веб-сайта с интернет-магазином.
Программа курса соответствует требованиям профессионального стандарта «Программист».

Уровень 3. Профессиональная разработка на PHP

Данный курс является обязательным курсом в цепочке подготовки Веб-мастера к получению сертификации ZCE (Zend Certified Engineer).
Курс рекомендован слушателям, имеющим начальный опыт использования PHP, и желающим расширить свои знания и опыт.
В этом курсе рассматриваются сложные темы, такие как ООП, XML, Веб-сервисы, без которых немыслима профессиональная разработка приложений на PHP, что позволяет создавать сложные Интернет сайты, интегрированные с внешними данными.
На курсе рассматривается последняя версия интерпретатора – PHP 7. Для закрепления знаний слушателями будет реализован проект по созданию ленты новостей с RSS и SOAP и XML-RPC службами.
Программа курса соответствует требованиям профессионального стандарта «Программист».

Уровень 4. Проектирование и разработка сложных веб - проектов на РНР

Данный курс является обязательным курсом в цепочке подготовки веб-мастера к получению сертификации ZCE (Zend Certified Engineer).
Курс рекомендован слушателям, имеющим опыт использования PHP и желающим максимально расширить свои знания и опыт.
В этом курсе рассматриваются основы сложных тем, таких как шаблоны проектирования (Design patterns), отражения (Reflection), PDO, шаблон MVC (Model-View-Controller), без овладения которыми немыслима профессиональная разработка приложений на PHP.
На курсе рассматривается последняя версия интерпретатора.
Скриншоты:
       

moralis

Пост 07-Окт-2017 22:24

[Цитировать]

Специалист | Сертифицированный администратор Windows Server 2012 R2 (2014) PCRec [H.264]- Автор (режиссер): Специалист
Жанр: Windows Server 2012, Системное администрирование
Описание:
Представляем комплексную программу обучения «Сертифицированный администратор Windows Server 2012 R2 MCSA: Windows Server 2012 R2», состоящую из трех курсов, различного уровня сложности. Программа нацелена на подготовку квалифицированных специалистов международного уровня, претендующих на престижную должность и высокую оплату труда.
Продолжительность: 46:34:35
Качество видео: PCRec
Видео: AVC/H.264, 1280-1024x1024-768, ~98-120 Kbps
Аудио: MP3, 2 ch, 128 Kbps

Mediainfo:

General
Complete name : .\[Специалист] Сертифицированный администратор Windows Server 2012 R2 (MCSA Windows Server 2012 R2) (2014)\М20411D - Администрирование Windows Server 2012 R2 (2014)\m20411D_22.05.avi
Format : AVI
Format/Info : Audio Video Interleave
File size : 324 MiB
Duration : 2 h 55 min
Overall bit rate : 258 kb/s
Video
ID : 0
Format : AVC
Format/Info : Advanced Video Codec
Format profile : [url=mailto:[email protected]][email protected][/url]
Format settings, CABAC : Yes
Format settings, ReFrames : 4 frames
Codec ID : H264
Duration : 2 h 55 min
Bit rate : 120 kb/s
Width : 1 280 pixels
Height : 1 024 pixels
Display aspect ratio : 5:4
Frame rate : 25.000 FPS
Color space : YUV
Chroma subsampling : 4:2:0
Bit depth : 8 bits
Scan type : Progressive
Bits/(Pixel*Frame) : 0.004
Stream size : 151 MiB (47%)
Writing library : x264 core 146 r2538bm 121396c
Encoding settings : cabac=1 / ref=3 / deblock=1:0:0 / analyse=0x3:0x113 / me=hex / subme=7 / psy=1 / psy_rd=1.00:0.00 / mixed_ref=1 / me_range=16 / chroma_me=1 / trellis=1 / 8x8dct=1 / cqm=0 / deadzone=21,11 / fast_pskip=1 / chroma_qp_offset=-2 / threads=6 / lookahead_threads=1 / sliced_threads=0 / nr=0 / decimate=1 / interlaced=0 / bluray_compat=0 / constrained_intra=0 / bframes=3 / b_pyramid=2 / b_adapt=1 / b_bias=0 / direct=1 / weightb=1 / open_gop=0 / weightp=2 / keyint=250 / keyint_min=25 / scenecut=40 / intra_refresh=0 / rc_lookahead=40 / rc=crf / mbtree=1 / crf=20.0 / qcomp=0.60 / qpmin=0 / qpmax=69 / qpstep=4 / ip_ratio=1.40 / aq=1:1.00
Audio
ID : 1
Format : MPEG Audio
Format version : Version 1
Format profile : Layer 3
Codec ID : 55
Codec ID/Hint : MP3
Duration : 2 h 55 min
Bit rate mode : Constant
Bit rate : 128 kb/s
Channel(s) : 2 channels
Sampling rate : 44.1 kHz
Compression mode : Lossy
Stream size : 161 MiB (50%)
Alignment : Split accross interleaves
Interleave, duration : 40 ms (1.00 video frame)
Interleave, preload duration : 1909 ms
General
Complete name : .\[Специалист] Сертифицированный администратор Windows Server 2012 R2 (MCSA Windows Server 2012 R2) (2014)\М20410D - Установка и настройка Windows Server 2012 R2 (2014)\m20410D_14.05.avi
Format : AVI
Format/Info : Audio Video Interleave
File size : 372 MiB
Duration : 3 h 40 min
Overall bit rate : 236 kb/s
Video
ID : 0
Format : AVC
Format/Info : Advanced Video Codec
Format profile : [url=mailto:[email protected]][email protected][/url]
Format settings, CABAC : Yes
Format settings, ReFrames : 4 frames
Codec ID : H264
Duration : 3 h 40 min
Bit rate : 98.6 kb/s
Width : 1 024 pixels
Height : 768 pixels
Display aspect ratio : 4:3
Frame rate : 25.000 FPS
Color space : YUV
Chroma subsampling : 4:2:0
Bit depth : 8 bits
Scan type : Progressive
Bits/(Pixel*Frame) : 0.005
Stream size : 155 MiB (42%)
Writing library : x264 core 146 r2538bm 121396c
Encoding settings : cabac=1 / ref=3 / deblock=1:0:0 / analyse=0x3:0x113 / me=hex / subme=7 / psy=1 / psy_rd=1.00:0.00 / mixed_ref=1 / me_range=16 / chroma_me=1 / trellis=1 / 8x8dct=1 / cqm=0 / deadzone=21,11 / fast_pskip=1 / chroma_qp_offset=-2 / threads=6 / lookahead_threads=1 / sliced_threads=0 / nr=0 / decimate=1 / interlaced=0 / bluray_compat=0 / constrained_intra=0 / bframes=3 / b_pyramid=2 / b_adapt=1 / b_bias=0 / direct=1 / weightb=1 / open_gop=0 / weightp=2 / keyint=250 / keyint_min=25 / scenecut=40 / intra_refresh=0 / rc_lookahead=40 / rc=crf / mbtree=1 / crf=21.0 / qcomp=0.60 / qpmin=0 / qpmax=69 / qpstep=4 / ip_ratio=1.40 / aq=1:1.00
Audio
ID : 1
Format : MPEG Audio
Format version : Version 1
Format profile : Layer 3
Codec ID : 55
Codec ID/Hint : MP3
Duration : 3 h 40 min
Bit rate mode : Constant
Bit rate : 128 kb/s
Channel(s) : 2 channels
Sampling rate : 44.1 kHz
Compression mode : Lossy
Stream size : 202 MiB (54%)
Alignment : Split accross interleaves
Interleave, duration : 40 ms (1.01 video frame)
Interleave, preload duration : 1910 ms

Дополнительная информация:

В ходе обучения, Вы освоите начальное внедрение и настройку основных сервисов, включая доменные службы каталога, сетевые сервисы и настройку Microsoft Hyper-V Server 2012 R2. Затем продолжите совершенствовать умения и навыки, переходя к изучению более сложных вещей, таких как настройка и устранение неполадок процесса разрешения имен, управления пользователями и группами в Службе каталога, управления групповыми политиками, реализации решений удаленного доступа и доступа к сетевой среде, управления развертыванием сервера из образа, управления обновлениями и оптимизации производительности. А также сможете дополнить набор сервисов, установленных сразу после развертывания Windows Server 2012, научитесь администрировать доменную среду на базе Windows Server 2012.
Занятия проходят в виде лекций, демонстраций наглядных примеров, самостоятельных и лабораторных работ. Каждый теоретический блок обязательно закрепляется при помощи большого количества практики. Насыщенная программа, интереснейший учебный материал, системный подход к обучению – все это позволяет продуктивно усвоить сложную информацию, приобрести ценные знания и навыки и получить востребованную на международном рынке труда специальность.

Курс включает в себя:

Курс 20410D: Установка и настройка Windows Server 2012 R2

ПОДРОБНАЯ ИНФОРМАЦИЯ О КУРСЕ

Курс 20411D: Администрирование Windows Server 2012 R2

ПОДРОБНАЯ ИНФОРМАЦИЯ О КУРСЕ

Курс 20412D: Настройка дополнительных сервисов Windows Server 2012 R2

ПОДРОБНАЯ ИНФОРМАЦИЯ О КУРСЕ
Скриншоты:
       

moralis

Пост 07-Окт-2017 22:23

[Цитировать]

Специалист | Python. Часть 3. Веб-разработка на Python (2017) PCRec [H.264/1080p-LQ]- Автор (режиссер): Специалист
Производство: Борисов Игорь Олегович
Жанр: Python, Flask, Веб-программирование
Описание:
Вы занимаетесь программированием на Python и интересуетесь веб-разработкой? Вам не хочется изучать другой язык программирования, например, PHP? Тогда этот курс для вас. Всё, что от вас требуется - это знание языка Python и элементарные основы HTML/CSS - всё остальное вам расскажут и покажут на этом курсе.
Курс интенсивный и насыщенный разнообразным материалом, так что приготовьтесь к приёму массы новой для вас информации и большому объёму набивания текста.
Продолжительность: 08:48:11
Качество видео: PCRec
Видео: AVC/H.264, 1920x1080, ~313 Kbps
Аудио: AAC, 2 ch, 43 Kbps

Mediainfo:

General
Complete name : .\[Специалист] Python. Уровень 3. Разработка веб-приложений в Django (2017)\1.mp4
Format : MPEG-4
Format profile : Base Media / Version 2
Codec ID : mp42 (mp42/mp41/isom/avc1)
File size : 368 MiB
Duration : 2 h 22 min
Overall bit rate mode : Variable
Overall bit rate : 360 kb/s
Encoded date : UTC 2017-05-19 18:25:48
Tagged date : UTC 2017-05-19 18:25:48
Video
ID : 1
Format : AVC
Format/Info : Advanced Video Codec
Format profile : [email protected]
Format settings, CABAC : Yes
Format settings, ReFrames : 4 frames
Format settings, GOP : M=4, N=82
Codec ID : avc1
Codec ID/Info : Advanced Video Coding
Duration : 2 h 22 min
Bit rate : 313 kb/s
Width : 1 920 pixels
Height : 1 080 pixels
Display aspect ratio : 16:9
Frame rate mode : Constant
Frame rate : 27.048 FPS
Color space : YUV
Chroma subsampling : 4:2:0
Bit depth : 8 bits
Scan type : Progressive
Bits/(Pixel*Frame) : 0.006
Stream size : 320 MiB (87%)
Writing library : x264 core 148 r10 90a61ec
Encoding settings : cabac=1 / ref=4 / deblock=1:0:0 / analyse=0x3:0x113 / me=hex / subme=8 / psy=1 / psy_rd=1.00:0.00 / mixed_ref=1 / me_range=16 / chroma_me=1 / trellis=2 / 8x8dct=1 / cqm=0 / deadzone=21,11 / fast_pskip=1 / chroma_qp_offset=-2 / threads=34 / lookahead_threads=5 / sliced_threads=0 / nr=0 / decimate=1 / interlaced=0 / bluray_compat=0 / stitchable=1 / constrained_intra=0 / bframes=3 / b_pyramid=2 / b_adapt=1 / b_bias=0 / direct=3 / weightb=1 / open_gop=0 / weightp=2 / keyint=infinite / keyint_min=27 / scenecut=40 / intra_refresh=0 / rc_lookahead=50 / rc=2pass / mbtree=1 / bitrate=313 / ratetol=1.0 / qcomp=0.60 / qpmin=5 / qpmax=69 / qpstep=4 / cplxblur=20.0 / qblur=0.5 / vbv_maxrate=4950 / vbv_bufsize=13500 / nal_hrd=none / filler=0 / ip_ratio=1.40 / aq=1:1.00
Encoded date : UTC 2017-05-19 18:25:48
Tagged date : UTC 2017-05-19 18:25:48
Color range : Limited
Color primaries : BT.709
Transfer characteristics : BT.709
Matrix coefficients : BT.709
Audio
ID : 2
Format : AAC
Format/Info : Advanced Audio Codec
Format profile : LC
Codec ID : 40
Duration : 2 h 22 min
Bit rate mode : Variable
Bit rate : 42.7 kb/s
Channel(s) : 2 channels
Channel(s)_Original : 1 channel
Channel positions : Front: C
Sampling rate : 48.0 kHz
Frame rate : 46.875 FPS (1024 spf)
Compression mode : Lossy
Stream size : 43.6 MiB (12%)
Encoded date : UTC 2017-05-19 18:25:48
Tagged date : UTC 2017-05-19 18:25:48

Дополнительная информация:

По окончании курса Вы будете уметь:
  • Создавать простые CGI веб-приложения на языке Python
  • Создавать веб-приложения на языке Python с использованием мощного микрофреймворка Flask
По окончании курса Вы будете знать:
  • HTTP - основной протокол World Wide Web
  • Механизм работы стандартного веб-сервера
Специалисты, обладающие этими знаниями и навыками, в настоящее время крайне востребованы. Большинство выпускников наших курсов делают успешную карьеру и пользуются уважением работодателей.
Скриншоты:
       

moralis

Пост 07-Окт-2017 22:22

[Цитировать]

Екатерина Любимова | Видеокурс «57 практических фотошоп уроков для чайников» - Автор (режиссер): Екатерина Любимова
Жанр: Практические уроки Photoshop
Описание:
Видеокурс «Photoshop для чайников, 57 практических уроков» направлен на тех людей, которые прошли теоретическую базу и хотят на практических примерах отработать свои навыки. Здесь уже не будет тщательного разбора инструментов, только практическое применение. После прохождения курса у вас в рабочей папке будет около 50-ти готовых фотошоп-работ. К каждому уроку даются дополнительные материалы, чтобы вы могли повторять все действия и получать такой же результат, как у автора.
Продолжительность: 15:48:00
Качество видео: HDTVRip
Видео: AVC/H.264, 1280х720, ~931 Kbps
Аудио: AAC, 2 ch, 192 Kbps

Mediainfo:

General
Complete name : .\Photoshop_dlja_chajnikov_57_prakticheskih_urokov\188-Photoshop_dlja_chajnikov,_57_prakticheskih_urokov\Photoshop_dlja_chajnikov,_57_prakticheskih_urokov\rs\video\1\1.1.mp4
Format : MPEG-4
Format profile : Base Media / Version 2
Codec ID : mp42 (isom/mp42)
File size : 122 MiB
Duration : 15 min 8 s
Overall bit rate mode : Variable
Overall bit rate : 1 125 kb/s
Encoded date : UTC 2017-09-13 09:48:41
Tagged date : UTC 2017-09-13 09:48:41
gsst : 0
gstd : 908480
Video
ID : 1
Format : AVC
Format/Info : Advanced Video Codec
Format profile : [url=mailto:[email protected]][email protected][/url]
Format settings, CABAC : Yes
Format settings, RefFrames : 1 frame
Codec ID : avc1
Codec ID/Info : Advanced Video Coding
Duration : 15 min 8 s
Bit rate : 931 kb/s
Maximum bit rate : 7 586 kb/s
Width : 1 280 pixels
Height : 720 pixels
Display aspect ratio : 16:9
Frame rate mode : Constant
Frame rate : 21.000 FPS
Color space : YUV
Chroma subsampling : 4:2:0
Bit depth : 8 bits
Scan type : Progressive
Bits/(Pixel*Frame) : 0.048
Stream size : 101 MiB (83%)
Tagged date : UTC 2017-09-13 09:48:44
Color range : Limited
Color primaries : BT.709
Transfer characteristics : BT.709
Matrix coefficients : BT.709
Audio
ID : 2
Format : AAC
Format/Info : Advanced Audio Codec
Format profile : LC
Codec ID : 40
Duration : 15 min 8 s
Bit rate mode : Variable
Bit rate : 192 kb/s
Maximum bit rate : 202 kb/s
Channel(s) : 2 channels
Channel positions : Front: L R
Sampling rate : 44.1 kHz
Frame rate : 43.066 FPS (1024 SPF)
Compression mode : Lossy
Stream size : 20.8 MiB (17%)
Title : IsoMedia File Produced by Google, 5-11-2011
Language : English
Encoded date : UTC 2017-09-13 09:48:43
Tagged date : UTC 2017-09-13 09:48:44

Содержание:

Раздел 1. Восстановление старых фото
Раздел 2. Обработка портретных фото
Раздел 3. Коллажи в Фотошопе
Раздел 4. Текстуры и фоны
Раздел 5. Работа с текстом
Раздел 6. Фото превращения
Раздел 7. Рисование в Фотошоп
Раздел 8. Оформление Фотографий
Раздел 9. Природные эффекты
Раздел 10. Дизайн

Дополнительная информация:

Файлы .woff .woff2 .ttf кроссбраузерное подключение шрифтов. (в просторах интернета нашел)

Бонусы:

Бонус 1. Ягодный
Бонус 2. Цветочный
Бонус 3. Любимый
Бонус 4. Установка дополнений
Бонус 5. 160 фотошоп-рамок
Скриншоты:
       

cyulia1402

Пост 05-Окт-2017 05:07

[Цитировать]

Поделитесь пожалуйста Урок №12. Автоматическая обработка + ПАКЕТ ЭКШЕНОВ ( для англ. версии)
Очень интерестно))))

moralis

Пост 29-Сен-2017 15:22

[Цитировать]

Лилия Нилова | Instaграмотность (2017) PCRec [H.264]- Автор (режиссер): Лилия Нилова
Жанр: Продвижение инстаграм, SEO
Описание:
Это вся та же Инста-грамотность, только круче!
- Теперь все обучение проходит на современной ОНЛАЙН-платформе
- Для доступа к урокам нужен только Интернет и телефон/ноутбук/планшет
- Я полностью перезаписала все уроки, теперь они ещё информативнее, а информация ещё актуальнее
В общем, это самый подробный и полный ОНЛАЙН курс по продвижению в Instagram. И вам стоит принять в нем участие. Почему?
-Потому что я смотрела все доступные курсы и школы Instagram в России и училась у пяти экспертов из США, в том числе у ребят из Facebook.
-Потому что у меня больше 2000 учеников, ведущих бизнес в Instagram со средним оборотом 50.000-300.000.
-Потому что я применяю на практике свои знания и вы сами видите как растёт мой аккаунт (330 тысяч подписчиков за 13 месяцев).
Продолжительность: 16:16:24
Качество видео: PCRec
Видео: AVC/H.264, 640-1280x360-720, ~375 Kbps
Аудио: AAC, 2 ch, 38-256 Kbps

Mediainfo:

Complete name                  : C:\1. Запись вводного вебинара.MP4
Format : MPEG-4
Format profile : Base Media
Codec ID : isom (isom/iso2/avc1/mp41)
File size : 55.1 MiB
Duration : 1 h 31 min
Overall bit rate mode : Variable
Overall bit rate : 84.5 kb/s
Writing application : Lavf55.48.100
Video
ID : 1
Format : AVC
Format/Info : Advanced Video Codec
Format profile : [email protected]
Format settings, CABAC : Yes
Format settings, ReFrames : 6 frames
Codec ID : avc1
Codec ID/Info : Advanced Video Coding
Duration : 1 h 31 min
Bit rate : 43.1 kb/s
Nominal bit rate : 524 kb/s
Width : 1 280 pixels
Height : 720 pixels
Display aspect ratio : 16:9
Frame rate mode : Constant
Frame rate : 15.000 FPS
Color space : YUV
Chroma subsampling : 4:2:0
Bit depth : 8 bits
Scan type : Progressive
Bits/(Pixel*Frame) : 0.003
Stream size : 28.1 MiB (51%)
Writing library : x264 core 148 r2638 7599210
Encoding settings : cabac=1 / ref=6 / deblock=1:0:0 / analyse=0x3:0x113 / me=dia / subme=8 / psy=1 / psy_rd=1.00:0.00 / mixed_ref=1 / me_range=4 / chroma_me=0 / trellis=2 / 8x8dct=1 / cqm=0 / deadzone=21,11 / fast_pskip=1 / chroma_qp_offset=-2 / threads=3 / lookahead_threads=1 / sliced_threads=0 / nr=0 / decimate=1 / interlaced=0 / bluray_compat=0 / constrained_intra=0 / bframes=0 / weightp=2 / keyint=150 / keyint_min=15 / scenecut=1 / intra_refresh=0 / rc_lookahead=40 / rc=abr / mbtree=1 / bitrate=524 / ratetol=1.0 / qcomp=0.60 / qpmin=18 / qpmax=28 / qpstep=4 / ip_ratio=1.40 / aq=1:1.00
Audio
ID : 2
Format : AAC
Format/Info : Advanced Audio Codec
Format profile : LC
Codec ID : 40
Duration : 1 h 31 min
Bit rate mode : Variable
Bit rate : 38.0 kb/s
Maximum bit rate : 128 kb/s
Channel(s) : 2 channels
Channel(s)_Original : 1 channel
Channel positions : Front: C
Sampling rate : 22.05 kHz
Frame rate : 21.533 FPS (1024 spf)
Compression mode : Lossy
Stream size : 24.8 MiB (45%)
Default : Yes
Alternate group : 1
Complete name : C:\2. Урок 1. Часть 1. Оформление аккаунта.MP4
Format : MPEG-4
Format profile : QuickTime
Codec ID : qt 0000.00 (qt )
File size : 102 MiB
Duration : 21 min 2 s
Overall bit rate mode : Variable
Overall bit rate : 679 kb/s
Encoded date : UTC 2017-04-09 06:07:01
Tagged date : UTC 2017-04-09 06:33:15
Writing library : Apple QuickTime
com.apple.quicktime.make : Apple
com.apple.quicktime.model : MacBook9,1
com.apple.quicktime.software : Mac OS X 10.11.6 (15G31)
com.apple.quicktime.creationda : 2017-04-09T02:07:00-0400
Video
ID : 1
Format : AVC
Format/Info : Advanced Video Codec
Format profile : [email protected]
Format settings, CABAC : Yes
Format settings, ReFrames : 2 frames
Format settings, GOP : M=2, N=15
Codec ID : avc1
Codec ID/Info : Advanced Video Coding
Duration : 21 min 2 s
Source duration : 21 min 5 s
Bit rate mode : Variable
Bit rate : 343 kb/s
Maximum bit rate : 768 kb/s
Width : 756 pixels
Height : 415 pixels
Original height : 414 pixels
Display aspect ratio : 1.85:1
Original display aspect ratio : 1.85:1
Frame rate mode : Constant
Frame rate : 15.000 FPS
Original frame rate : 25.000 FPS
Color space : YUV
Chroma subsampling : 4:2:0
Bit depth : 8 bits
Scan type : Progressive
Bits/(Pixel*Frame) : 0.073
Stream size : 51.6 MiB (50%)
Source stream size : 51.7 MiB (51%)
Title : Core Media Video
Encoded date : UTC 2017-04-09 06:07:01
Tagged date : UTC 2017-04-09 06:33:15
Color range : Limited
Color primaries : BT.709
Transfer characteristics : BT.709
Matrix coefficients : BT.709
Audio
ID : 2
Format : AAC
Format/Info : Advanced Audio Codec
Format profile : LC
Codec ID : 40
Duration : 21 min 2 s
Source duration : 21 min 5 s
Bit rate mode : Constant
Bit rate : 256 kb/s
Channel(s) : 2 channels
Channel positions : Front: L R
Sampling rate : 44.1 kHz
Frame rate : 43.066 FPS (1024 spf)
Compression mode : Lossy
Stream size : 38.4 MiB (38%)
Source stream size : 38.5 MiB (38%)
Title : Core Media Audio
Encoded date : UTC 2017-04-09 06:07:01
Tagged date : UTC 2017-04-09 06:33:15
Complete name : C:\5. Урок 2. Статистика и базовые термины.MP4
Format : MPEG-4
Format profile : QuickTime
Codec ID : qt 0000.00 (qt )
File size : 171 MiB
Duration : 33 min 45 s
Overall bit rate mode : Variable
Overall bit rate : 707 kb/s
Encoded date : UTC 2017-04-09 07:21:34
Tagged date : UTC 2017-04-09 08:06:45
Writing library : Apple QuickTime
com.apple.quicktime.make : Apple
com.apple.quicktime.model : MacBook9,1
com.apple.quicktime.software : Mac OS X 10.11.6 (15G31)
com.apple.quicktime.creationda : 2017-04-09T03:21:33-0400
Video
ID : 1
Format : AVC
Format/Info : Advanced Video Codec
Format profile : [email protected]
Format settings, CABAC : Yes
Format settings, ReFrames : 2 frames
Format settings, GOP : M=2, N=15
Codec ID : avc1
Codec ID/Info : Advanced Video Coding
Duration : 33 min 45 s
Source duration : 33 min 52 s
Bit rate mode : Variable
Bit rate : 375 kb/s
Maximum bit rate : 768 kb/s
Width : 756 pixels
Height : 415 pixels
Original height : 414 pixels
Display aspect ratio : 1.85:1
Original display aspect ratio : 1.85:1
Frame rate mode : Constant
Frame rate : 15.000 FPS
Original frame rate : 25.000 FPS
Color space : YUV
Chroma subsampling : 4:2:0
Bit depth : 8 bits
Scan type : Progressive
Bits/(Pixel*Frame) : 0.080
Stream size : 90.5 MiB (53%)
Source stream size : 91.0 MiB (53%)
Title : Core Media Video
Encoded date : UTC 2017-04-09 07:21:34
Tagged date : UTC 2017-04-09 08:06:45
Color range : Limited
Color primaries : BT.709
Transfer characteristics : BT.709
Matrix coefficients : BT.709
Audio
ID : 2
Format : AAC
Format/Info : Advanced Audio Codec
Format profile : LC
Codec ID : 40
Duration : 33 min 45 s
Source duration : 33 min 52 s
Bit rate mode : Constant
Bit rate : 256 kb/s
Channel(s) : 2 channels
Channel positions : Front: L R
Sampling rate : 44.1 kHz
Frame rate : 43.066 FPS (1024 spf)
Compression mode : Lossy
Stream size : 62.3 MiB (37%)
Source stream size : 62.5 MiB (37%)
Title : Core Media Audio
Encoded date : UTC 2017-04-09 07:21:34
Tagged date : UTC 2017-04-09 08:06:45
Complete name : C:\9. Урок 5. Основные принципы создания фотоконтента. Урок 1.MP4
Format : MPEG-4
Format profile : Base Media / Version 2
Codec ID : mp42 (isom/mp42)
File size : 193 MiB
Duration : 1 h 12 min
Overall bit rate mode : Variable
Overall bit rate : 372 kb/s
Encoded date : UTC 2017-04-18 15:03:08
Tagged date : UTC 2017-04-18 15:03:08
Video
ID : 1
Format : AVC
Format/Info : Advanced Video Codec
Format profile : [email protected]
Format settings, CABAC : No
Format settings, ReFrames : 1 frame
Format settings, GOP : M=1, N=60
Codec ID : avc1
Codec ID/Info : Advanced Video Coding
Duration : 1 h 12 min
Bit rate : 274 kb/s
Maximum bit rate : 1 334 kb/s
Width : 640 pixels
Height : 360 pixels
Display aspect ratio : 16:9
Frame rate mode : Constant
Frame rate : 30.000 FPS
Color space : YUV
Chroma subsampling : 4:2:0
Bit depth : 8 bits
Scan type : Progressive
Bits/(Pixel*Frame) : 0.040
Stream size : 142 MiB (74%)
Tagged date : UTC 2017-04-18 15:03:33
Color range : Limited
Color primaries : BT.709
Transfer characteristics : BT.709
Matrix coefficients : BT.709
Audio
ID : 2
Format : AAC
Format/Info : Advanced Audio Codec
Format profile : LC
Codec ID : 40
Duration : 1 h 12 min
Bit rate mode : Variable
Bit rate : 96.0 kb/s
Maximum bit rate : 104 kb/s
Channel(s) : 2 channels
Channel positions : Front: L R
Sampling rate : 44.1 kHz
Frame rate : 43.066 FPS (1024 spf)
Compression mode : Lossy
Stream size : 49.8 MiB (26%)
Title : IsoMedia File Produced by Google, 5-11-2011
Encoded date : UTC 2017-04-18 15:03:21
Tagged date : UTC 2017-04-18 15:03:33

Программа курса:

-Оформление аккаунта
-Лимиты и Безопасность
-Виды контента и их использование
-Контент-план и отложенный постинг
-Сервисы статистики
-Бизнес аккаунт
-Вовлечённость
-Хэштеги и Геотеги
-Таргетированная реклама
-Паблики и биржи блогеров
-Звёздные гивэвэи
-Реклама у блогеров
-Нетворкинг
-Shopping Tag
-Продвижение Видео
-Продвижение Stories
-Как попасть в Рекомендованное
-Марафоны, конкурсы, квесты
-Как реанимировать дохлого коня
-Клонирование аккаунта
-Нативная реклама

Дополнительные файлы

__4. Дополнительно к уроку 1. Словарь.pdf
__8. Дополнительно к уроку 4. Полезные приложения для работы в Инстаграм.pdf
__12. Дополнительно к уроку 7. Форма аватаров клиента.xlsx
__17. Дополнительно к уроку 11. Контент план.xlsx
__20. Дополнительно к уроку 13 крутых тем для постов.docx
Скриншоты:
       

moralis

Пост 29-Сен-2017 15:21

[Цитировать]

ITVDN | How to Java Starter (2017) PCRec [H.264/1080p-LQ]- Автор (режиссер): ITVDN
Производство: Евгений Тихонов
Жанр: Java, Программирование
Описание:
Видеокурс «How to… Java Starter» будет достаточно полезен людям, которые только начали знакомится с языком Java, помимо этого, рекомендую использовать этот курс как справочник курса «Java Starter» для закрепления материала. «How to… Java Starter» – содержит в себе более 50 видео-уроков, на протяжении которых вы вольетесь в атмосферу детального разбора тонкостей языка программирования Java. Рассмотрено множество примеров с объяснением, которые помогут Вам в сертификации, тестах, а также на интервью.
Продолжительность: 07:47:26
Качество видео: PCRec
Видео: AVC/H.264, 1920х1080, ~411-552 Kbps
Аудио: AAC, 2 ch, 256 Kbps

Mediainfo:

General
Complete name : D:\Cources\[ITVDN] How to Java Starter (2017)\18.Рассмотрение основных методов класса Math, знакомство с документацией.mp4
Format : MPEG-4
Format profile : Base Media / Version 2
Codec ID : mp42 (mp42/mp41/isom/avc1)
File size : 87.6 MiB
Duration : 15 min 39 s
Overall bit rate mode : Variable
Overall bit rate : 783 kb/s
Encoded date : UTC 2017-06-16 13:10:03
Tagged date : UTC 2017-06-16 13:10:03
Video
ID : 1
Format : AVC
Format/Info : Advanced Video Codec
Format profile : [email protected]
Format settings, CABAC : Yes
Format settings, ReFrames : 4 frames
Codec ID : avc1
Codec ID/Info : Advanced Video Coding
Duration : 15 min 39 s
Bit rate : 522 kb/s
Width : 1 920 pixels
Height : 1 080 pixels
Display aspect ratio : 16:9
Frame rate mode : Constant
Frame rate : 30.000 FPS
Color space : YUV
Chroma subsampling : 4:2:0
Bit depth : 8 bits
Scan type : Progressive
Bits/(Pixel*Frame) : 0.008
Stream size : 58.4 MiB (67%)
Writing library : x264 core 150 r10 df79067
Encoding settings : cabac=1 / ref=4 / deblock=1:0:0 / analyse=0x3:0x113 / me=hex / subme=8 / psy=1 / psy_rd=1.00:0.00 / mixed_ref=1 / me_range=16 / chroma_me=1 / trellis=2 / 8x8dct=1 / cqm=0 / deadzone=21,11 / fast_pskip=1 / chroma_qp_offset=-2 / threads=34 / lookahead_threads=5 / sliced_threads=0 / nr=0 / decimate=1 / interlaced=0 / bluray_compat=0 / stitchable=1 / constrained_intra=0 / bframes=3 / b_pyramid=2 / b_adapt=1 / b_bias=0 / direct=3 / weightb=1 / open_gop=0 / weightp=2 / keyint=infinite / keyint_min=30 / scenecut=40 / intra_refresh=0 / rc_lookahead=50 / rc=crf / mbtree=1 / crf=20.0 / qcomp=0.60 / qpmin=5 / qpmax=69 / qpstep=4 / vbv_maxrate=4950 / vbv_bufsize=13500 / crf_max=0.0 / nal_hrd=none / filler=0 / ip_ratio=1.40 / aq=1:1.00
Encoded date : UTC 2017-06-16 13:10:03
Tagged date : UTC 2017-06-16 13:10:03
Color range : Limited
Color primaries : BT.709
Transfer characteristics : BT.709
Matrix coefficients : BT.709
Audio
ID : 2
Format : AAC
Format/Info : Advanced Audio Codec
Format profile : LC
Codec ID : 40
Duration : 15 min 39 s
Bit rate mode : Variable
Bit rate : 256 kb/s
Channel(s) : 2 channels
Channel positions : Front: L R
Sampling rate : 48.0 kHz
Frame rate : 46.875 FPS (1024 spf)
Compression mode : Lossy
Stream size : 28.7 MiB (33%)
Encoded date : UTC 2017-06-16 13:10:03
Tagged date : UTC 2017-06-16 13:10:03

Дополнительная информация:

В ходе видеокурса Вы познакомитесь со средой разработки IntelliJ IDEA, рассмотрим базовые настройки и быстрые клавиши, узнаем, что такое переменная, константа. Как вводить с клавиатуры значения используя классы BufferedReader, Scanner. Если Вы думаете, что достаточно хорошо знаете, как работают конкатенация, инкременты, математические функции и операции сравнения, то Вы ошибаетесь, в Java достаточно много «подводных камней», - пройдя курс, Вы также усовершенствуете знания в понимании циклов, массивов, методов и логических функций.
Скриншоты:
       

moralis

Пост 29-Сен-2017 15:20

[Цитировать]

Специалист | JavaScript. Уровень 3. jQuery. Расширенные возможности (2015) PCRec [H.264/720p-LQ]- Автор (режиссер): Специалист
Производство: Тарасов Алексей Владимирович
Жанр: JQuery, Javascript, Веб-программирование
Описание:
jQuery – самая популярная JS-библиотека. Для тонкой работы с этим продуктом используются другие библиотеки, построенные на основе самой jQuery или пишутся собственные расширения.
В данном курсе мы охватываем две большие темы: работа с доп. библиотекой jQuery UI и написание собственных расширений для jQuery.
Продолжительность: 11:13:25
Качество видео: PCRec
Видео: AVC/H.264, 1280x720, ~527-581 Kbps
Аудио: AAC, 2 ch, 118 Kbps

Mediainfo:

General
Complete name : .\[Специалист] JavaScript. Уровень 3. jQuery. Расширенные возможности (2017)\jq-1-1.mp4
Format : MPEG-4
Format profile : Base Media / Version 2
Codec ID : mp42 (mp42/mp41/isom/avc1)
File size : 359 MiB
Duration : 1 h 15 min
Overall bit rate mode : Variable
Overall bit rate : 660 kb/s
Encoded date : UTC 2016-04-26 09:02:11
Tagged date : UTC 2016-04-26 09:02:11
Video
ID : 1
Format : AVC
Format/Info : Advanced Video Codec
Format profile : [url=mailto:[email protected]][email protected][/url]
Format settings, CABAC : Yes
Format settings, ReFrames : 5 frames
Format settings, GOP : M=4, N=57
Codec ID : avc1
Codec ID/Info : Advanced Video Coding
Duration : 1 h 15 min
Bit rate : 539 kb/s
Width : 1 280 pixels
Height : 720 pixels
Display aspect ratio : 16:9
Frame rate mode : Constant
Frame rate : 18.873 FPS
Color space : YUV
Chroma subsampling : 4:2:0
Bit depth : 8 bits
Scan type : Progressive
Bits/(Pixel*Frame) : 0.031
Stream size : 293 MiB (82%)
Writing library : x264 core 148 r11 a01e339
Encoding settings : cabac=1 / ref=5 / deblock=1:0:0 / analyse=0x3:0x113 / me=umh / subme=8 / psy=1 / psy_rd=1.00:0.00 / mixed_ref=1 / me_range=16 / chroma_me=1 / trellis=1 / 8x8dct=1 / cqm=0 / deadzone=21,11 / fast_pskip=1 / chroma_qp_offset=-2 / threads=22 / lookahead_threads=3 / sliced_threads=0 / nr=0 / decimate=1 / interlaced=0 / bluray_compat=0 / stitchable=1 / constrained_intra=0 / bframes=3 / b_pyramid=2 / b_adapt=2 / b_bias=0 / direct=3 / weightb=1 / open_gop=0 / weightp=2 / keyint=infinite / keyint_min=18 / scenecut=40 / intra_refresh=0 / rc_lookahead=50 / rc=crf / mbtree=1 / crf=20.0 / qcomp=0.60 / qpmin=5 / qpmax=69 / qpstep=4 / vbv_maxrate=2750 / vbv_bufsize=7500 / crf_max=0.0 / nal_hrd=none / filler=0 / ip_ratio=1.40 / aq=1:1.00
Encoded date : UTC 2016-04-26 09:02:11
Tagged date : UTC 2016-04-26 09:02:11
Color range : Limited
Color primaries : BT.709
Transfer characteristics : BT.709
Matrix coefficients : BT.709
Audio
ID : 2
Format : AAC
Format/Info : Advanced Audio Codec
Format profile : LC
Codec ID : 40
Duration : 1 h 15 min
Bit rate mode : Variable
Bit rate : 118 kb/s
Channel(s) : 2 channels
Channel(s)_Original : 1 channel
Channel positions : Front: C
Sampling rate : 48.0 kHz
Frame rate : 46.875 FPS (1024 spf)
Compression mode : Lossy
Stream size : 63.9 MiB (18%)
Encoded date : UTC 2016-04-26 09:02:11
Tagged date : UTC 2016-04-26 09:02:11

Продолжение описания

jQuery UI —JavaScript-библиотека с открытым исходным кодом для создания пользовательского интерфейса в веб-приложениях. Построена поверх главной библиотеки jQuery и предоставляет разработчику упрощенный доступ к её функциям взаимодействия, анимации и эффектов, а также позволяет использовать набор виджетов (кнопок, диалоговых окон, плагинов выбора даты и др.). Пример одного из виджетов http://jqueryui.com/dialog/#modal-form
Расширения jQuery пишутся по правилам, определенным разработчиками библиотеки jQuery. Изучив эти правила и особенности создания собственных плагинов/расширений, можно гибко модифицировать виджеты библиотеки jQuery UI или создавать собственные.
Курс предназначен для Веб-разработчиков, владеющих библиотекой jQuery. В ходе курса слушатели проводят полный цикл работ по разработке плагина с использованием библиотеки jQuery UI.
Скриншоты:
       

moralis

Пост 29-Сен-2017 15:20

[Цитировать]

CodeDojo | Основы Node.js (2017) PCRec [H.264/1080p-LQ]- Автор (режиссер): CodeDojo
Жанр: Node.js, Javascript, Серверное программирование
Описание:
Для кого этот курс?
- Для тех, кто изучил основы JavaScript и хочет применить свои знания на практике
- Для front-end разработчиков, желающих попробовать себя в back-end
- Для back-end разработчиков, желающих попробовать что-то новое
Необходимые знания:
1. Основы HTML и CSS (Стандартный набор, ничего особенного);
2. Основы JavaScript (Необходимо знать что такое замыкания и функции обратного вызова);
3. Знакомство с ES2015 (Желательно познакомиться со стрелочными фукнциями, классами и модулями);
Продолжительность: 06:10:15
Качество видео: PCRec
Видео: AVC/H.264, 1920х1080, ~714 Kbps
Аудио: AAC, 1 ch, 96 Kbps

Mediainfo:

General
Complete name : .\[CodeDojo] Основы Node.js (2017)\1 Знакомство с NodeJS\4 Документация.mp4
Format : MPEG-4
Format profile : Base Media / Version 2
Codec ID : mp42 (mp41/isom)
File size : 11.8 MiB
Duration : 2 min 1 s
Overall bit rate : 818 kb/s
Video
ID : 1
Format : AVC
Format/Info : Advanced Video Codec
Format profile : [email protected]
Format settings, CABAC : No
Format settings, ReFrames : 1 frame
Format settings, GOP : M=1, N=5
Codec ID : avc1
Codec ID/Info : Advanced Video Coding
Duration : 2 min 1 s
Source duration : 2 min 1 s
Bit rate : 714 kb/s
Width : 1 920 pixels
Height : 1 080 pixels
Display aspect ratio : 16:9
Frame rate : 9.978 FPS
Color space : YUV
Chroma subsampling : 4:2:0
Bit depth : 8 bits
Scan type : Progressive
Bits/(Pixel*Frame) : 0.034
Stream size : 10.3 MiB (87%)
Source stream size : 10.3 MiB (88%)
Audio
ID : 2
Format : AAC
Format/Info : Advanced Audio Codec
Format profile : LC
Codec ID : 40
Duration : 2 min 1 s
Bit rate mode : Constant
Bit rate : 96.0 kb/s
Channel(s) : 1 channel
Channel positions : Front: C
Sampling rate : 44.1 kHz
Frame rate : 43.066 FPS (1024 spf)
Compression mode : Lossy
Stream size : 1.42 MiB (12%)
Скриншоты:
       

moralis

Пост 29-Сен-2017 15:19

[Цитировать]

ITVDN | Node.js (2017) PCRec [H.264]- Автор (режиссер): ITVDN
Производство: Владимир Виноградов
Жанр: Node.js, Javascript, Серверное программирование
Описание:
Курс Node.js предназначен для разработчиков, которые пишут свои приложения на языке JavaScript, а также всех желающих освоить платформу Node.js. От слушателей курса требуется уверенное владение языком JavaScript, поскольку он является основным языком платформы Node.js.
Продолжительность: 05:17:08
Качество видео: PCRec
Видео: AVC/H.264, 1200-1920х720-1044, ~279-427 Kbps
Аудио: AAC, 2 ch, 235-256 Kbps

Mediainfo:

Complete name                  : .\[ITVDN] Node.js (2017)\1. ВВЕДЕНИЯ В ПЛАТФОРМУ NODE.JS..mp4
Format : MPEG-4
Format profile : Base Media / Version 2
Codec ID : mp42 (mp42/mp41/isom/avc1)
File size : 147 MiB
Duration : 38 min 10 s
Overall bit rate mode : Variable
Overall bit rate : 539 kb/s
Encoded date : UTC 2017-07-07 11:55:16
Tagged date : UTC 2017-07-07 11:55:16
Video
ID : 1
Format : AVC
Format/Info : Advanced Video Codec
Format profile : [url=mailto:[email protected]][email protected][/url]
Format settings, CABAC : Yes
Format settings, ReFrames : 5 frames
Codec ID : avc1
Codec ID/Info : Advanced Video Coding
Duration : 38 min 10 s
Bit rate : 279 kb/s
Width : 1 280 pixels
Height : 720 pixels
Display aspect ratio : 16:9
Frame rate mode : Constant
Frame rate : 30.000 FPS
Color space : YUV
Chroma subsampling : 4:2:0
Bit depth : 8 bits
Scan type : Progressive
Bits/(Pixel*Frame) : 0.010
Stream size : 76.1 MiB (52%)
Writing library : x264 core 150 r10 df79067
Encoding settings : cabac=1 / ref=5 / deblock=1:0:0 / analyse=0x3:0x113 / me=hex / subme=8 / psy=1 / psy_rd=1.00:0.00 / mixed_ref=1 / me_range=16 / chroma_me=1 / trellis=2 / 8x8dct=1 / cqm=0 / deadzone=21,11 / fast_pskip=1 / chroma_qp_offset=-2 / threads=22 / lookahead_threads=3 / sliced_threads=0 / nr=0 / decimate=1 / interlaced=0 / bluray_compat=0 / stitchable=1 / constrained_intra=0 / bframes=3 / b_pyramid=2 / b_adapt=1 / b_bias=0 / direct=3 / weightb=1 / open_gop=0 / weightp=2 / keyint=infinite / keyint_min=30 / scenecut=40 / intra_refresh=0 / rc_lookahead=50 / rc=crf / mbtree=1 / crf=20.0 / qcomp=0.60 / qpmin=5 / qpmax=69 / qpstep=4 / vbv_maxrate=2750 / vbv_bufsize=7500 / crf_max=0.0 / nal_hrd=none / filler=0 / ip_ratio=1.40 / aq=1:1.00
Encoded date : UTC 2017-07-07 11:55:16
Tagged date : UTC 2017-07-07 11:55:16
Color range : Limited
Color primaries : BT.709
Transfer characteristics : BT.709
Matrix coefficients : BT.709
Audio
ID : 2
Format : AAC
Format/Info : Advanced Audio Codec
Format profile : LC
Codec ID : 40
Duration : 38 min 10 s
Bit rate mode : Variable
Bit rate : 256 kb/s
Channel(s) : 2 channels
Channel positions : Front: L R
Sampling rate : 48.0 kHz
Frame rate : 46.875 FPS (1024 spf)
Compression mode : Lossy
Stream size : 69.9 MiB (47%)
Encoded date : UTC 2017-07-07 11:55:16
Tagged date : UTC 2017-07-07 11:55:16
Complete name : .\[ITVDN] Node.js (2017)\2.Обработка событий.mp4
Format : MPEG-4
Format profile : Base Media / Version 2
Codec ID : mp42 (mp42/mp41/isom/avc1)
File size : 133 MiB
Duration : 35 min 39 s
Overall bit rate mode : Variable
Overall bit rate : 523 kb/s
Encoded date : UTC 2017-07-14 13:38:08
Tagged date : UTC 2017-07-14 13:38:08
Video
ID : 1
Format : AVC
Format/Info : Advanced Video Codec
Format profile : [url=mailto:[email protected]][email protected][/url]
Format settings, CABAC : Yes
Format settings, ReFrames : 5 frames
Codec ID : avc1
Codec ID/Info : Advanced Video Coding
Duration : 35 min 39 s
Bit rate : 283 kb/s
Width : 1 200 pixels
Height : 720 pixels
Display aspect ratio : 5:3
Frame rate mode : Constant
Frame rate : 30.000 FPS
Color space : YUV
Chroma subsampling : 4:2:0
Bit depth : 8 bits
Scan type : Progressive
Bits/(Pixel*Frame) : 0.011
Stream size : 72.1 MiB (54%)
Writing library : x264 core 150 r10 df79067
Encoding settings : cabac=1 / ref=5 / deblock=1:0:0 / analyse=0x3:0x113 / me=hex / subme=8 / psy=1 / psy_rd=1.00:0.00 / mixed_ref=1 / me_range=16 / chroma_me=1 / trellis=2 / 8x8dct=1 / cqm=0 / deadzone=21,11 / fast_pskip=1 / chroma_qp_offset=-2 / threads=22 / lookahead_threads=3 / sliced_threads=0 / nr=0 / decimate=1 / interlaced=0 / bluray_compat=0 / stitchable=1 / constrained_intra=0 / bframes=3 / b_pyramid=2 / b_adapt=1 / b_bias=0 / direct=3 / weightb=1 / open_gop=0 / weightp=2 / keyint=infinite / keyint_min=30 / scenecut=40 / intra_refresh=0 / rc_lookahead=50 / rc=crf / mbtree=1 / crf=20.0 / qcomp=0.60 / qpmin=5 / qpmax=69 / qpstep=4 / vbv_maxrate=2750 / vbv_bufsize=7500 / crf_max=0.0 / nal_hrd=none / filler=0 / ip_ratio=1.40 / aq=1:1.00
Encoded date : UTC 2017-07-14 13:38:08
Tagged date : UTC 2017-07-14 13:38:08
Color range : Limited
Color primaries : BT.709
Transfer characteristics : BT.709
Matrix coefficients : BT.709
Audio
ID : 2
Format : AAC
Format/Info : Advanced Audio Codec
Format profile : LC
Codec ID : 40
Duration : 35 min 39 s
Bit rate mode : Variable
Bit rate : 235 kb/s
Channel(s) : 2 channels
Channel positions : Front: L R
Sampling rate : 48.0 kHz
Frame rate : 46.875 FPS (1024 spf)
Compression mode : Lossy
Stream size : 60.0 MiB (45%)
Encoded date : UTC 2017-07-14 13:38:08
Tagged date : UTC 2017-07-14 13:38:08
Complete name : .\[ITVDN] Node.js (2017)\4.Работа с http запросами.mp4
Format : MPEG-4
Format profile : Base Media / Version 2
Codec ID : mp42 (mp42/mp41/isom/avc1)
File size : 233 MiB
Duration : 48 min 48 s
Overall bit rate mode : Variable
Overall bit rate : 667 kb/s
Encoded date : UTC 2017-07-25 14:03:55
Tagged date : UTC 2017-07-25 14:03:55
Video
ID : 1
Format : AVC
Format/Info : Advanced Video Codec
Format profile : [email protected]
Format settings, CABAC : Yes
Format settings, ReFrames : 4 frames
Codec ID : avc1
Codec ID/Info : Advanced Video Coding
Duration : 48 min 48 s
Bit rate : 427 kb/s
Width : 1 920 pixels
Height : 1 044 pixels
Display aspect ratio : 1.85:1
Frame rate mode : Constant
Frame rate : 30.000 FPS
Color space : YUV
Chroma subsampling : 4:2:0
Bit depth : 8 bits
Scan type : Progressive
Bits/(Pixel*Frame) : 0.007
Stream size : 149 MiB (64%)
Writing library : x264 core 150 r10 df79067
Encoding settings : cabac=1 / ref=4 / deblock=1:0:0 / analyse=0x3:0x113 / me=hex / subme=8 / psy=1 / psy_rd=1.00:0.00 / mixed_ref=1 / me_range=16 / chroma_me=1 / trellis=2 / 8x8dct=1 / cqm=0 / deadzone=21,11 / fast_pskip=1 / chroma_qp_offset=-2 / threads=33 / lookahead_threads=5 / sliced_threads=0 / nr=0 / decimate=1 / interlaced=0 / bluray_compat=0 / stitchable=1 / constrained_intra=0 / bframes=3 / b_pyramid=2 / b_adapt=1 / b_bias=0 / direct=3 / weightb=1 / open_gop=0 / weightp=2 / keyint=infinite / keyint_min=30 / scenecut=40 / intra_refresh=0 / rc_lookahead=50 / rc=crf / mbtree=1 / crf=20.0 / qcomp=0.60 / qpmin=5 / qpmax=69 / qpstep=4 / vbv_maxrate=5500 / vbv_bufsize=15000 / crf_max=0.0 / nal_hrd=none / filler=0 / ip_ratio=1.40 / aq=1:1.00
Encoded date : UTC 2017-07-25 14:03:55
Tagged date : UTC 2017-07-25 14:03:55
Color range : Limited
Color primaries : BT.709
Transfer characteristics : BT.709
Matrix coefficients : BT.709
Audio
ID : 2
Format : AAC
Format/Info : Advanced Audio Codec
Format profile : LC
Codec ID : 40
Duration : 48 min 48 s
Bit rate mode : Variable
Bit rate : 235 kb/s
Channel(s) : 2 channels
Channel positions : Front: L R
Sampling rate : 48.0 kHz
Frame rate : 46.875 FPS (1024 spf)
Compression mode : Lossy
Stream size : 82.1 MiB (35%)
Encoded date : UTC 2017-07-25 14:03:55
Tagged date : UTC 2017-07-25 14:03:55

Описание курса:

Курс состоит из 10 логически взаимосвязанных уроков, на которых учащийся ознакомится с данной платформой, узнает о ее устройстве и принципах работы. Изучит работу с базовыми элементами платформы, научится создавать свои модули, использовать уже существующие модули загружая их из NPM, а также выгружать свои модули для использования другими разработчиками. Научится устанавливать фреймворк express.js, создавать с его помощью сервер и управлять информацией, которая передается от клиента к серверу и обратно. Освоит работу с базами данных, такими как MongoDB и MS-SQL используя Node.js. Учащийся будет понимать принципы авторизации и аутентификации. На последнем занятии будут рассмотрены примеры с использованием Web Socket, эта технология позволяет обмениваться информацией в режиме реального времени, а также сможет написать чат используя платформу Node.js
Скриншоты:
       

moralis

Пост 27-Сен-2017 21:12

[Цитировать]

Специалист | VMware vSphere. Уровень 1. Внедрение и эксплуатация vSphere 5.5 (2015) PCRec - Автор (режиссер): Специалист
Оф. сайт: specialist.ru
Жанр: VMWare vSphere, Системное администрирование
Описание:
VMware vSphere – решение виртуализации масштаба предприятия, построенное на базе гипервизоров ESXi/ESX, и управляемое с помощью решения vCenter Server.
Цель курса: Научиться внедрять и поддерживать в работоспособном состоянии инфраструктуру виртуализации масштаба предприятия на основе Vmware vSphere: VMware ESXi /ESX и vCenter Server.
Продолжительность: 21:54:19
Качество видео: PCRec
Видео: WMV3, 1280x1024, 164 kbps
Аудио: WMA, 1 ch, 48 kbps

Mediainfo:

Код:
General
Complete name                            : C:\vmware1_(Специалист_2015)\01.VMVARE1-A.2015-02-09.wmv
Format                                   : Windows Media
File size                                : 294 MiB
Duration                                 : 4h 11mn
Overall bit rate mode                    : Variable
Overall bit rate                         : 164 Kbps
Maximum Overall bit rate                 : 11.5 Mbps
Encoded date                             : UTC 2015-02-09 19:34:20.320
Writing application                      :  6.4.11 Build 2273 / GoToMeeting
BitRateFrom the writer                   : 155172
Audio samples                            : 187859
Video samples                            : 117715
recording time                           : Пн, 09 фев 2015 23:45:19
Video
ID                                       : 2
Format                                   : VC-1
Format profile                           : [email protected]
Codec ID                                 : WMV3
Codec ID/Info                            : Windows Media Video 9
Codec ID/Hint                            : WMV3
Description of the codec                 : Windows Media Video 9
Bit rate mode                            : Variable
Bit rate                                 : 411 Kbps
Width                                    : 1 280 pixels
Height                                   : 1 024 pixels
Display aspect ratio                     : 5:4
Frame rate mode                          : Variable
Nominal frame rate                       : 29.970 fps
Bit depth                                : 8 bits
Compression mode                         : Lossy
Audio
ID                                       : 1
Format                                   : WMA
Format version                           : Version 2
Codec ID                                 : 161
Codec ID/Info                            : Windows Media Audio
Description of the codec                 : Windows Media Audio 9.2 -  48 kbps, 44 kHz, mono 1-pass CBR
Duration                                 : 4h 11mn
Bit rate mode                            : Constant
Bit rate                                 : 48.0 Kbps
Channel count                            : 1 channel
Sampling rate                            : 44.1 KHz
Bit depth                                : 16 bits
Stream size                              : 86.2 MiB (29%)

По окончании курса Вы будете уметь:

•Внедрять и конфигурировать гипервизоры ESXi/ESX
•Внедрять и конфигурировать vCenter Server
•Управлять сетевыми настройками и хранилищами данных с применением vCenter Server
•Создавать, управлять виртуальными машинами
•Управлять доступом
•Мониторить использование ресурсов
•Управлять масштабированием
•Обеспечивать высокую доступность

Программа курса:

Модуль 1. Введение
Модуль 2. Обзор технологии виртуализации Vmware
Модуль 3. Управление гипервизорами
Модуль 4. Использование Vmware vCenter Server
Модуль 5. Виртуальные коммутаторы vNetwork
Модуль 6. Хранение данных
Модуль 7. Виртуальные машины
Модуль 8. Управление доступом
Модуль 9. Мониторинг ресурсов
Модуль 10. Защита данных
Модуль 11. Масштабируемость
Модуль 12. Управление обновлениями
Скриншоты:
       

moralis

Пост 27-Сен-2017 21:06

[Цитировать]

CodeDojo | Основы React (2016) PCRec [H.264/720p-LQ]- Автор (режиссер): CodeDojo
Жанр: React Framework, Javascript, Веб-программирование
Описание:
Для кого этот курс?
- Для тех, кто изучил основы JavaScript и хочет применить свои знания на практике
- Для разработчиков преимущественно использующих jQuery, желающих перейти на следующий уровень
- Для back-end разработчиков, желающих попробовать себя во front-end
Необходимые знания:
1. Основы HTML и CSS (Стандартный набор, ничего особенного)
2. Основы JavaScript (Необходимо знать что такое замыкания и функции обратного вызова)
3. Знакомство с ES2015 (Мы будем использовать классы, стрелочные функции и модули)
Продолжительность: 04:08:46
Качество видео: PCRec
Видео: AVC/H.264, 1280x720, ~209 Kbps
Аудио: AAC, 2 ch, 235 Kbps

Mediainfo:

General
Complete name : .\[CodeDojo] Основы React (2017)\02-Компоненты\02-03-Валидация свойств.mp4
Format : MPEG-4
Format profile : Base Media / Version 2
Codec ID : mp42 (mp42/mp41/isom/avc1)
File size : 12.5 MiB
Duration : 3 min 53 s
Overall bit rate mode : Variable
Overall bit rate : 450 kb/s
Encoded date : UTC 2016-10-31 17:44:35
Tagged date : UTC 2016-10-31 17:44:35
Video
ID : 1
Format : AVC
Format/Info : Advanced Video Codec
Format profile : [url=mailto:[email protected]][email protected][/url]
Format settings, CABAC : Yes
Format settings, ReFrames : 5 frames
Format settings, GOP : M=4, N=90
Codec ID : avc1
Codec ID/Info : Advanced Video Coding
Duration : 3 min 53 s
Bit rate : 209 kb/s
Width : 1 280 pixels
Height : 720 pixels
Display aspect ratio : 16:9
Frame rate mode : Constant
Frame rate : 30.000 FPS
Color space : YUV
Chroma subsampling : 4:2:0
Bit depth : 8 bits
Scan type : Progressive
Bits/(Pixel*Frame) : 0.008
Stream size : 5.83 MiB (47%)
Writing library : x264 core 148 r10 72d53ab
Encoding settings : cabac=1 / ref=5 / deblock=1:0:0 / analyse=0x3:0x113 / me=hex / subme=8 / psy=1 / psy_rd=1.00:0.00 / mixed_ref=1 / me_range=16 / chroma_me=1 / trellis=2 / 8x8dct=1 / cqm=0 / deadzone=21,11 / fast_pskip=1 / chroma_qp_offset=-2 / threads=22 / lookahead_threads=3 / sliced_threads=0 / nr=0 / decimate=1 / interlaced=0 / bluray_compat=0 / stitchable=1 / constrained_intra=0 / bframes=3 / b_pyramid=2 / b_adapt=1 / b_bias=0 / direct=3 / weightb=1 / open_gop=0 / weightp=2 / keyint=infinite / keyint_min=30 / scenecut=40 / intra_refresh=0 / rc_lookahead=50 / rc=2pass / mbtree=1 / bitrate=209 / ratetol=1.0 / qcomp=0.60 / qpmin=5 / qpmax=69 / qpstep=4 / cplxblur=20.0 / qblur=0.5 / vbv_maxrate=2750 / vbv_bufsize=7500 / nal_hrd=none / filler=0 / ip_ratio=1.40 / aq=1:1.00
Encoded date : UTC 2016-10-31 17:44:35
Tagged date : UTC 2016-10-31 17:44:35
Color range : Limited
Color primaries : BT.709
Transfer characteristics : BT.709
Matrix coefficients : BT.709
Audio
ID : 2
Format : AAC
Format/Info : Advanced Audio Codec
Format profile : LC
Codec ID : 40
Duration : 3 min 53 s
Bit rate mode : Variable
Bit rate : 235 kb/s
Channel(s) : 2 channels
Channel positions : Front: L R
Sampling rate : 48.0 kHz
Frame rate : 46.875 FPS (1024 spf)
Compression mode : Lossy
Stream size : 6.54 MiB (52%)
Encoded date : UTC 2016-10-31 17:44:35
Tagged date : UTC 2016-10-31 17:44:35
Скриншоты:
       
 

Текущее время: Сегодня 14:28

Часовой пояс: GMT + 3