Today is a free download without charge Download

Search found 500 matches

Author Message

germes

Post 01-Feb-2020 19:22

[Quote]

чет мало пиров

Clavik

Post 04-Jan-2020 17:46

[Quote]

OTUS | Web-разработчик на Python (2019) PCRec [H.264] - Автор (режиссер): OTUS
Жанр: Программироание, Python
Описание:
Курс предназначен для подготовки специалиста, который сможет не только решать рядовые задачи бекенд-разработки, но и сделать с нуля современную фронтенд часть.
Продолжительность: 62:21:45
Качество видео: PCRec
Видео: AVC/H.264, 1280x720-2560x1440, ~63-495 Kbps
Аудио: AAC, 1 ch, 51-155 Kbps

MediaInfo:

Общее
Полное имя : .\дополнительные материалы\Django и методология 12 факторных приложений.mp4
Формат : MPEG-4
Профиль формата : Base Media
Идентификатор кодека : isom (isom/iso2/avc1/mp41)
Размер файла : 369 Мбайт
Продолжительность : 2 ч. 17 м.
Общий поток : 375 Кбит/сек
Программа кодирования : Lavf58.29.100
Видео
Идентификатор : 1
Формат : AVC
Формат/Информация : Advanced Video Codec
Профиль формата : [url=mailto:[email protected]][email protected][/url]
Настройки формата : CABAC / 3 Ref Frames
Параметр CABAC формата : Да
Параметр RefFrames формата : 3 кадра
Идентификатор кодека : avc1
Идентификатор кодека/Информация : Advanced Video Coding
Продолжительность : 2 ч. 17 м.
Битрейт : 271 Кбит/сек
Ширина : 1280 пикселей
Высота : 720 пикселей
Соотношение сторон : 16:9
Режим частоты кадров : Постоянный
Частота кадров : 30,000 кадров/сек
Цветовое пространство : YUV
Субдискретизация насыщенности : 4:2:0
Битовая глубина : 8 бит
Тип развёртки : Прогрессивная
Бит/(Пиксели*Кадры) : 0.010
Размер потока : 267 Мбайт (72%)
Заголовок : ISO Media file produced by Google Inc.
Цветовой диапазон : Limited
Основные цвета : BT.709
Характеристики трансфера : BT.709
Коэффициенты матрицы : BT.709
Codec configuration box : avcC
Аудио
Идентификатор : 2
Формат : AAC LC
Формат/Информация : Advanced Audio Codec Low Complexity
Идентификатор кодека : mp4a-40-2
Продолжительность : 2 ч. 17 м.
Вид битрейта : Постоянный
Битрейт : 96,0 Кбит/сек
Каналы : 1 канал
ChannelLayout : C
Частота : 44,1 КГц
Частота кадров : 43,066 кадра/сек (1024 SPF)
Метод сжатия : С потерями
Размер потока : 94,6 Мбайт (26%)
Заголовок : ISO Media file produced by Google Inc.
Default : Да
AlternateGroup/String : 1
Общее
Полное имя : .\30 Состояние приложений. Flus and Redux\30.mp4
Формат : MPEG-4
Профиль формата : Base Media / Version 2
Идентификатор кодека : mp42 (isom/mp42)
Размер файла : 371 Мбайт
Продолжительность : 1 ч. 34 м.
Режим общего битрейта : Переменный
Общий поток : 551 Кбит/сек
Дата кодирования : UTC 2019-09-05 18:50:28
Дата пометки : UTC 2019-09-05 18:50:28
Видео
Идентификатор : 2
Формат : AVC
Формат/Информация : Advanced Video Codec
Профиль формата : [email protected]
Настройки формата : CABAC / 11 Ref Frames
Параметр CABAC формата : Да
Параметр RefFrames формата : 11 кадров
Идентификатор кодека : avc1
Идентификатор кодека/Информация : Advanced Video Coding
Продолжительность : 1 ч. 34 м.
Битрейт : 495 Кбит/сек
Ширина : 1628 пикселей
Высота : 972 пикселя
Соотношение сторон : 5:3
Режим частоты кадров : Постоянный
Частота кадров : 25,000 кадров/сек
Цветовое пространство : YUV
Субдискретизация насыщенности : 4:2:0
Битовая глубина : 8 бит
Тип развёртки : Прогрессивная
Бит/(Пиксели*Кадры) : 0.013
Размер потока : 334 Мбайт (90%)
Дата кодирования : UTC 2019-09-05 18:50:28
Дата пометки : UTC 2019-09-05 18:50:28
Codec configuration box : avcC
Аудио
Идентификатор : 1
Формат : AAC LC
Формат/Информация : Advanced Audio Codec Low Complexity
Идентификатор кодека : mp4a-40-2
Продолжительность : 1 ч. 34 м.
Вид битрейта : Переменный
Битрейт : 53,3 Кбит/сек
Максимальный битрейт : 127 Кбит/сек
Каналы : 1 канал
ChannelLayout : C
Частота : 32,0 КГц
Частота кадров : 31,250 кадров/сек (1024 SPF)
Метод сжатия : С потерями
Размер потока : 35,9 Мбайт (10%)
Заголовок : AAC audio
Дата кодирования : UTC 2019-09-05 18:50:28
Дата пометки : UTC 2019-09-05 18:50:28
Общее
Полное имя : .\04 IP, TCP, uWSGI\04.mp4
Формат : MPEG-4
Профиль формата : Base Media
Идентификатор кодека : isom (isom/iso2/avc1/mp41)
Размер файла : 97,8 Мбайт
Продолжительность : 1 ч. 35 м.
Режим общего битрейта : Переменный
Общий поток : 143 Кбит/сек
Программа кодирования : Lavf56.40.101
Видео
Идентификатор : 1
Формат : AVC
Формат/Информация : Advanced Video Codec
Профиль формата : [email protected]
Настройки формата : CABAC / 11 Ref Frames
Параметр CABAC формата : Да
Параметр RefFrames формата : 11 кадров
Идентификатор кодека : avc1
Идентификатор кодека/Информация : Advanced Video Coding
Продолжительность : 1 ч. 35 м.
Битрейт : 84,0 Кбит/сек
Ширина : 1920 пикселей
Высота : 1056 пикселей
Соотношение сторон : 16:9
Режим частоты кадров : Постоянный
Частота кадров : 25,000 кадров/сек
Цветовое пространство : YUV
Субдискретизация насыщенности : 4:2:0
Битовая глубина : 8 бит
Тип развёртки : Прогрессивная
Бит/(Пиксели*Кадры) : 0.002
Размер потока : 57,5 Мбайт (59%)
Codec configuration box : avcC
Аудио
Идентификатор : 2
Формат : AAC LC
Формат/Информация : Advanced Audio Codec Low Complexity
Идентификатор кодека : mp4a-40-2
Продолжительность : 1 ч. 35 м.
Вид битрейта : Переменный
Битрейт : 54,4 Кбит/сек
Максимальный битрейт : 114 Кбит/сек
Каналы : 1 канал
ChannelLayout : C
Частота : 32,0 КГц
Частота кадров : 31,250 кадров/сек (1024 SPF)
Метод сжатия : С потерями
Размер потока : 37,2 Мбайт (38%)
Default : Да
AlternateGroup/String : 1
Общее
Полное имя : .\15 Основы JS\15.mp4
Формат : MPEG-4
Профиль формата : Base Media / Version 2
Идентификатор кодека : mp42 (isom/mp42)
Размер файла : 186 Мбайт
Продолжительность : 1 ч. 44 м.
Режим общего битрейта : Переменный
Общий поток : 248 Кбит/сек
Дата кодирования : UTC 2019-06-24 19:19:28
Дата пометки : UTC 2019-06-24 19:19:28
Видео
Идентификатор : 2
Формат : AVC
Формат/Информация : Advanced Video Codec
Профиль формата : [url=mailto:[email protected]][email protected][/url]
Настройки формата : CABAC / 11 Ref Frames
Параметр CABAC формата : Да
Параметр RefFrames формата : 11 кадров
Идентификатор кодека : avc1
Идентификатор кодека/Информация : Advanced Video Coding
Продолжительность : 1 ч. 44 м.
Битрейт : 193 Кбит/сек
Ширина : 2560 пикселей
Высота : 1440 пикселей
Соотношение сторон : 16:9
Режим частоты кадров : Постоянный
Частота кадров : 25,000 кадров/сек
Цветовое пространство : YUV
Субдискретизация насыщенности : 4:2:0
Битовая глубина : 8 бит
Тип развёртки : Прогрессивная
Бит/(Пиксели*Кадры) : 0.002
Размер потока : 144 Мбайт (78%)
Дата кодирования : UTC 2019-06-24 19:19:28
Дата пометки : UTC 2019-06-24 19:19:28
Codec configuration box : avcC
Аудио
Идентификатор : 1
Формат : AAC LC
Формат/Информация : Advanced Audio Codec Low Complexity
Идентификатор кодека : mp4a-40-2
Продолжительность : 1 ч. 44 м.
Вид битрейта : Переменный
Битрейт : 53,4 Кбит/сек
Максимальный битрейт : 128 Кбит/сек
Каналы : 1 канал
ChannelLayout : C
Частота : 32,0 КГц
Частота кадров : 31,250 кадров/сек (1024 SPF)
Метод сжатия : С потерями
Размер потока : 39,9 Мбайт (22%)
Заголовок : AAC audio
Дата кодирования : UTC 2019-06-24 19:19:28
Дата пометки : UTC 2019-06-24 19:19:28

Дополнительная информация:

В раздаче имеются архивы! В них содержится исходники.
Скриншоты:
       

Clavik

Post 04-Jan-2020 17:45

[Quote]

SkillBox | Python-разработчик (2019) PCRec [H.264] - Автор (режиссер): SkillBox
Производство: Вадим Шандринов
Жанр: Программирование, Python
Описание:
Курс отлично подойдет для тех, кто совершенно не знаком даже с базовыми понятиями программирования, но хотел бы начать развиваться в IT-индустрии. Под руководством опытного наставника вы научитесь писать код с нуля, узнаете базовые структуры данных и библиотеки для работы с ними. Вы подробно изучите основы языка и синтаксис языка программирования, научитесь выстраивать алгоритм управления большим количеством переменных и напишете свои первые программы на Python. Эти знания помогут вам с уверенностью пройти любое собеседование, найти работу в офисе или брать заказы на фрилансе.
Продолжительность: 55:00:16
Качество видео: PCRec
Видео: AVC/H.264, 1672x940, ~474-6445 Kbps
Аудио: AAC, 2 ch, 147-200 Kbps

MediaInfo:

Общее
Полное имя : .\2.2. Базовые структуры данных\2.7 Организация программ.mp4
Формат : MPEG-4
Профиль формата : Base Media
Идентификатор кодека : isom (isom/iso2/avc1/mp41)
Размер файла : 221 Мбайт
Продолжительность : 7 м. 46 с.
Режим общего битрейта : Переменный
Общий поток : 3980 Кбит/сек
Программа кодирования : Lavf57.25.100
Видео
Идентификатор : 1
Формат : AVC
Формат/Информация : Advanced Video Codec
Профиль формата : [email protected]
Настройки формата : 1 Ref Frames
Параметр CABAC формата : Нет
Параметр RefFrames формата : 1 кадр
Идентификатор кодека : avc1
Идентификатор кодека/Информация : Advanced Video Coding
Продолжительность : 7 м. 46 с.
Битрейт : 3783 Кбит/сек
Ширина : 1672 пикселя
Высота : 940 пикселей
Соотношение сторон : 16:9
Режим частоты кадров : Переменный
Частота кадров : 29,449 кадров/сек
Минимальная частота кадров : 4,286 кадра/сек
Максимальная частота кадров : 30,000 кадров/сек
Цветовое пространство : YUV
Субдискретизация насыщенности : 4:2:0
Битовая глубина : 8 бит
Тип развёртки : Прогрессивная
Бит/(Пиксели*Кадры) : 0.082
Размер потока : 210 Мбайт (95%)
Codec configuration box : avcC
Аудио
Идентификатор : 2
Формат : AAC LC
Формат/Информация : Advanced Audio Codec Low Complexity
Идентификатор кодека : mp4a-40-2
Продолжительность : 7 м. 46 с.
Вид битрейта : Переменный
Битрейт : 192 Кбит/сек
Каналы : 2 канала
ChannelLayout : L R
Частота : 44,1 КГц
Частота кадров : 43,066 кадра/сек (1024 SPF)
Метод сжатия : С потерями
Размер потока : 10,6 Мбайт (5%)
Default : Да
AlternateGroup/String : 1
Скриншоты:
       

Clavik

Post 30-Dec-2019 18:21

[Quote]

HTML Academy | Профессиональный онлайн-курс JavaScript [Уровень 3] (ноябрь 2019) PCRec [H.264/1080p-LQ] - Автор (режиссер): HTML Academy
Производство: Игорь Алексеенко, Александр Сушко
Жанр: Программирование, JavaScript, React
Описание:
На этом курсе вы научитесь делать настоящие проекты, такие же по уровню сложности, как в индустрии. И будете делать их правильно, чтобы после обучения выдавать результат высокого уровня, за который компании готовы платить.
Продолжительность: 18:46:19
Качество видео: PCRec
Видео: AVC/H.264, 1920x1080, ~496-1569 Kbps
Аудио: AAC, 2 ch, 253 Kbps

MediaInfo:

Общее
Полное имя : .\04 React и паттерны\04.mp4
Формат : MPEG-4
Профиль формата : Base Media / Version 2
Идентификатор кодека : mp42 (mp42/mp41/isom/avc1)
Размер файла : 1,03 Гбайт
Продолжительность : 2 ч. 24 м.
Режим общего битрейта : Переменный
Общий поток : 1021 Кбит/сек
Дата кодирования : UTC 2019-10-28 20:07:18
Дата пометки : UTC 2019-10-28 20:07:18
Видео
Идентификатор : 1
Формат : AVC
Формат/Информация : Advanced Video Codec
Профиль формата : [email protected]
Настройки формата : CABAC / 5 Ref Frames
Параметр CABAC формата : Да
Параметр RefFrames формата : 5 кадров
Идентификатор кодека : avc1
Идентификатор кодека/Информация : Advanced Video Coding
Продолжительность : 2 ч. 24 м.
Битрейт : 764 Кбит/сек
Ширина : 1920 пикселей
Высота : 1080 пикселей
Соотношение сторон : 16:9
Режим частоты кадров : Постоянный
Частота кадров : 24,000 кадра/сек
Цветовое пространство : YUV
Субдискретизация насыщенности : 4:2:0
Битовая глубина : 8 бит
Тип развёртки : Прогрессивная
Бит/(Пиксели*Кадры) : 0.015
Размер потока : 792 Мбайт (75%)
Библиотека кодирования : x264 core 157 r10 d4099dd
Настройки программы : cabac=1 / ref=5 / deblock=1:0:0 / analyse=0x3:0x113 / me=hex / subme=8 / psy=1 / psy_rd=1.00:0.00 / mixed_ref=1 / me_range=16 / chroma_me=1 / trellis=2 / 8x8dct=1 / cqm=0 / deadzone=21,11 / fast_pskip=1 / chroma_qp_offset=-2 / threads=34 / lookahead_threads=5 / sliced_threads=0 / nr=0 / decimate=1 / interlaced=0 / bluray_compat=0 / stitchable=1 / constrained_intra=0 / bframes=3 / b_pyramid=2 / b_adapt=2 / b_bias=0 / direct=3 / weightb=1 / open_gop=0 / weightp=2 / keyint=infinite / keyint_min=24 / scenecut=40 / intra_refresh=0 / rc_lookahead=50 / rc=crf / mbtree=1 / crf=20.0 / qcomp=0.60 / qpmin=5 / qpmax=69 / qpstep=4 / vbv_maxrate=5500 / vbv_bufsize=15000 / crf_max=0.0 / nal_hrd=none / filler=0 / ip_ratio=1.40 / aq=1:1.00
Дата кодирования : UTC 2019-10-28 20:07:18
Дата пометки : UTC 2019-10-28 20:07:18
Цветовой диапазон : Limited
Основные цвета : BT.709
Характеристики трансфера : BT.709
Коэффициенты матрицы : BT.709
Codec configuration box : avcC
Аудио
Идентификатор : 2
Формат : AAC LC
Формат/Информация : Advanced Audio Codec Low Complexity
Идентификатор кодека : mp4a-40-2
Продолжительность : 2 ч. 24 м.
Вид битрейта : Переменный
Битрейт : 253 Кбит/сек
Каналы : 2 канала
ChannelLayout : L R
Частота : 48,0 КГц
Частота кадров : 46,875 кадров/сек (1024 SPF)
Метод сжатия : С потерями
Размер потока : 263 Мбайт (25%)
Дата кодирования : UTC 2019-10-28 20:07:18
Дата пометки : UTC 2019-10-28 20:07:18
Скриншоты:
       

Clavik

Post 21-Dec-2019 21:05

[Quote]

Shultais Education | Проектирование баз данных (2018) PCRec [H.264] - Автор (режиссер): Shultais Education
Производство: Никита Шультайс
Жанр: Программирование, Базы данных
Описание:
В продолжении основного курса по SQL мы запустили мини-курс по проектированию баз данных. Всего 13 практических уроков продолжительностью чуть более часа. На курсе учимся создавать концептуальную и логическую схемы базы данных, знакомимся с нормальными формами, а также с денормализацией. Затрагиваем вопросы удаления данных.
Продолжительность: 01:09:30
Качество видео: PCRec
Видео: AVC/H.264, 1280x720-1920x1080, ~424-1066 Kbps
Аудио: AAC, 2 ch, 136-137 Kbps

MediaInfo:

Общее
Полное имя : .\1.3 Логическая модель базы данных.mp4
Формат : MPEG-4
Профиль формата : Base Media / Version 2
Идентификатор кодека : mp42 (mp42/mp41/isom/avc1)
Размер файла : 38,3 Мбайт
Продолжительность : 9 м. 27 с.
Режим общего битрейта : Переменный
Общий поток : 566 Кбит/сек
Дата кодирования : UTC 2019-01-27 09:42:04
Дата пометки : UTC 2019-01-27 09:42:04
Видео
Идентификатор : 1
Формат : AVC
Формат/Информация : Advanced Video Codec
Профиль формата : [url=mailto:[email protected]][email protected][/url]
Настройки формата : CABAC / 5 Ref Frames
Параметр CABAC формата : Да
Параметр RefFrames формата : 5 кадров
Идентификатор кодека : avc1
Идентификатор кодека/Информация : Advanced Video Coding
Продолжительность : 9 м. 27 с.
Битрейт : 425 Кбит/сек
Ширина : 1280 пикселей
Высота : 720 пикселей
Соотношение сторон : 16:9
Режим частоты кадров : Постоянный
Частота кадров : 30,000 кадров/сек
Цветовое пространство : YUV
Субдискретизация насыщенности : 4:2:0
Битовая глубина : 8 бит
Тип развёртки : Прогрессивная
Бит/(Пиксели*Кадры) : 0.015
Размер потока : 28,7 Мбайт (75%)
Библиотека кодирования : x264 core 157 r10 545de2f
Настройки программы : cabac=1 / ref=5 / deblock=1:0:0 / analyse=0x3:0x113 / me=hex / subme=8 / psy=1 / psy_rd=1.00:0.00 / mixed_ref=1 / me_range=16 / chroma_me=1 / trellis=2 / 8x8dct=1 / cqm=0 / deadzone=21,11 / fast_pskip=1 / chroma_qp_offset=-2 / threads=22 / lookahead_threads=3 / sliced_threads=0 / nr=0 / decimate=1 / interlaced=0 / bluray_compat=0 / stitchable=1 / constrained_intra=0 / bframes=3 / b_pyramid=2 / b_adapt=2 / b_bias=0 / direct=3 / weightb=1 / open_gop=0 / weightp=2 / keyint=infinite / keyint_min=30 / scenecut=40 / intra_refresh=0 / rc_lookahead=50 / rc=crf / mbtree=1 / crf=20.0 / qcomp=0.60 / qpmin=5 / qpmax=69 / qpstep=4 / vbv_maxrate=2750 / vbv_bufsize=7500 / crf_max=0.0 / nal_hrd=none / filler=0 / ip_ratio=1.40 / aq=1:1.00
Дата кодирования : UTC 2019-01-27 09:42:04
Дата пометки : UTC 2019-01-27 09:42:04
Цветовой диапазон : Limited
Основные цвета : BT.709
Характеристики трансфера : BT.709
Коэффициенты матрицы : BT.709
Codec configuration box : avcC
Аудио
Идентификатор : 2
Формат : AAC LC
Формат/Информация : Advanced Audio Codec Low Complexity
Идентификатор кодека : mp4a-40-2
Продолжительность : 9 м. 27 с.
Вид битрейта : Переменный
Битрейт : 137 Кбит/сек
Каналы : 2 канала
ChannelLayout : L R
Частота : 48,0 КГц
Частота кадров : 46,875 кадров/сек (1024 SPF)
Метод сжатия : С потерями
Размер потока : 9,26 Мбайт (24%)
Дата кодирования : UTC 2019-01-27 09:42:04
Дата пометки : UTC 2019-01-27 09:42:04
Общее
Полное имя : .\2.2 Вторая нормальная форма (2НФ).mp4
Формат : MPEG-4
Профиль формата : Base Media / Version 2
Идентификатор кодека : mp42 (mp42/mp41/isom/avc1)
Размер файла : 35,6 Мбайт
Продолжительность : 5 м. 27 с.
Режим общего битрейта : Переменный
Общий поток : 913 Кбит/сек
Дата кодирования : UTC 2019-01-27 12:24:57
Дата пометки : UTC 2019-01-27 12:24:57
Видео
Идентификатор : 1
Формат : AVC
Формат/Информация : Advanced Video Codec
Профиль формата : [email protected]
Настройки формата : CABAC / 5 Ref Frames
Параметр CABAC формата : Да
Параметр RefFrames формата : 5 кадров
Идентификатор кодека : avc1
Идентификатор кодека/Информация : Advanced Video Coding
Продолжительность : 5 м. 27 с.
Битрейт : 772 Кбит/сек
Ширина : 1920 пикселей
Высота : 1080 пикселей
Соотношение сторон : 16:9
Режим частоты кадров : Постоянный
Частота кадров : 30,000 кадров/сек
Цветовое пространство : YUV
Субдискретизация насыщенности : 4:2:0
Битовая глубина : 8 бит
Тип развёртки : Прогрессивная
Бит/(Пиксели*Кадры) : 0.012
Размер потока : 30,1 Мбайт (84%)
Библиотека кодирования : x264 core 157 r10 545de2f
Настройки программы : cabac=1 / ref=5 / deblock=1:0:0 / analyse=0x3:0x113 / me=hex / subme=8 / psy=1 / psy_rd=1.00:0.00 / mixed_ref=1 / me_range=16 / chroma_me=1 / trellis=2 / 8x8dct=1 / cqm=0 / deadzone=21,11 / fast_pskip=1 / chroma_qp_offset=-2 / threads=34 / lookahead_threads=5 / sliced_threads=0 / nr=0 / decimate=1 / interlaced=0 / bluray_compat=0 / stitchable=1 / constrained_intra=0 / bframes=3 / b_pyramid=2 / b_adapt=2 / b_bias=0 / direct=3 / weightb=1 / open_gop=0 / weightp=2 / keyint=infinite / keyint_min=30 / scenecut=40 / intra_refresh=0 / rc_lookahead=50 / rc=crf / mbtree=1 / crf=20.0 / qcomp=0.60 / qpmin=5 / qpmax=69 / qpstep=4 / vbv_maxrate=5500 / vbv_bufsize=15000 / crf_max=0.0 / nal_hrd=none / filler=0 / ip_ratio=1.40 / aq=1:1.00
Дата кодирования : UTC 2019-01-27 12:24:57
Дата пометки : UTC 2019-01-27 12:24:57
Цветовой диапазон : Limited
Основные цвета : BT.709
Характеристики трансфера : BT.709
Коэффициенты матрицы : BT.709
Codec configuration box : avcC
Аудио
Идентификатор : 2
Формат : AAC LC
Формат/Информация : Advanced Audio Codec Low Complexity
Идентификатор кодека : mp4a-40-2
Продолжительность : 5 м. 27 с.
Вид битрейта : Переменный
Битрейт : 137 Кбит/сек
Каналы : 2 канала
ChannelLayout : L R
Частота : 48,0 КГц
Частота кадров : 46,875 кадров/сек (1024 SPF)
Метод сжатия : С потерями
Размер потока : 5,35 Мбайт (15%)
Дата кодирования : UTC 2019-01-27 12:24:57
Дата пометки : UTC 2019-01-27 12:24:57
Скриншоты:
       

Clavik

Post 21-Dec-2019 21:03

[Quote]

Владилен Минин | React Native. Мобильная разработка на JavaScript и React JS (2019) PCRec [H.264/720p-LQ]- Автор (режиссер): Владилен Минин
Производство: Udemy
Жанр: Программирование, React, React Native
Описание:
Вы научитесь создавать крутые мобильные приложения для Android и iOS используя только JavaScript
Из предварительных знаний только JavaScript и React
В курсе содержится 11 блоков, 10 из которых - практические
В рамках данного курса вы создадите 2 мобильных приложения, на которых изучите функционал React Native
Продолжительность: 13:10:01
Качество видео: PCRec
Видео: AVC/H.264, 1280x720, 1376 Kbps
Аудио: AAC, 2 ch, 128 Kbps

MediaInfo:

General
Complete name : 001 Про данный курс.mp4
Format : MPEG-4
Format profile : Base Media
Codec ID : isom (isom/iso2/avc1/mp41)
File size : 42.4 MiB
Duration : 3 min 55 s
Overall bit rate : 1 510 kb/s
Writing application : Lavf58.13.102
Video
ID : 1
Format : AVC
Format/Info : Advanced Video Codec
Format profile : [url=mailto:[email protected]][email protected][/url]
Format settings : CABAC / 1 Ref Frames
Format settings, CABAC : Yes
Format settings, ReFrames : 1 frame
Format settings, GOP : M=1, N=12
Codec ID : avc1
Codec ID/Info : Advanced Video Coding
Duration : 3 min 55 s
Bit rate : 1 376 kb/s
Width : 1 280 pixels
Height : 720 pixels
Display aspect ratio : 16:9
Frame rate mode : Constant
Frame rate : 30.000 FPS
Color space : YUV
Chroma subsampling : 4:2:0
Bit depth : 8 bits
Scan type : Progressive
Bits/(Pixel*Frame) : 0.050
Stream size : 38.6 MiB (91%)
Codec configuration box : avcC
Audio
ID : 2
Format : AAC LC
Format/Info : Advanced Audio Codec Low Complexity
Codec ID : mp4a-40-2
Duration : 3 min 55 s
Bit rate mode : Constant
Bit rate : 128 kb/s
Channel(s) : 2 channels
Channel layout : L R
Sampling rate : 44.1 kHz
Frame rate : 43.066 FPS (1024 SPF)
Compression mode : Lossy
Stream size : 3.59 MiB (8%)
Default : Yes
Alternate group : 1

Содержание:

+
Введение и подготовка
8 лекций
49:17
+
Основы
15 лекций
02:04:46
+
Работа с компонентами
10 лекций
01:42:48
+
Элементы Expo и стили
9 лекций
01:07:16
+
Управление состоянием c Context
9 лекций
01:13:03
+
Работа с сервером
9 лекций
01:04:01
+
Навигация (Новое Приложение)
20 лекций
02:28:55
+
Redux
6 лекций
54:56
+
Нативные компоненты
9 лекций
01:08:45
+
Подготовка и деплой
4 лекции
36:14
Скриншоты:
       

Clavik

Post 21-Dec-2019 21:02

[Quote]

Udemy.com | Photoshop CC 2020 MasterClass (2019) PCRec [H.264/720p-LQ] [EN] - Автор (режиссер): Martin Perhiniak
Производство: Udemy.com
Жанр: Photoshop, Обучающее видео
Описание:
Один из лучших курсов от Udemy - c одним из 10 лучших инструкторов Adobe в мире. Этот курс научит вас использовать Adobe Photoshop в качестве профессионала. Все содержание курса, включая примеры, методы, упражнения и тесты были тщательно отобраны и проработаны, чтобы предложить наиболее эффективный и приятный способ освоить этот продукт.
Продолжительность: 12:56:27
Качество видео: PCRec
Перевод: Отсутствует
Язык озвучки: Английский
Видео: AVC/H.264, 1280х720, ~168 Kbps
Аудио: AAC, 2 ch, 192 Kbps

MediaInfo:

General
Complete name Udemy.com\Photoshop CC 2020 MasterClass\17. Conclusion\1. Variable and SVG Fonts.mp4
Format : MPEG-4
Format profile : Base Media / Version 2
Codec ID : mp42 (isom/iso2/avc1/mp41/mp42)
File size : 14.6 MiB
Duration : 5 min 40 s
Overall bit rate : 361 kb/s
Encoded date : UTC 2017-11-09 13:19:20
Tagged date : UTC 2017-11-09 13:19:20
Writing application : Lavf53.32.100
Video
ID : 1
Format : AVC
Format/Info : Advanced Video Codec
Format profile : [email protected]
Format settings : CABAC / 4 Ref Frames
Format settings, CABAC : Yes
Format settings, Reference frames : 4 frames
Codec ID : avc1
Codec ID/Info : Advanced Video Coding
Duration : 5 min 40 s
Bit rate : 168 kb/s
Width : 1 280 pixels
Height : 720 pixels
Display aspect ratio : 16:9
Frame rate mode : Constant
Frame rate : 30.000 FPS
Color space : YUV
Chroma subsampling : 4:2:0
Bit depth : 8 bits
Scan type : Progressive
Bits/(Pixel*Frame) : 0.006
Stream size : 6.80 MiB (46%)
Writing library : x264 core 136
Encoding settings : cabac=1 / ref=4 / deblock=1:0:0 / analyse=0x3:0x113 / me=umh / subme=7 / psy=0 / mixed_ref=1 / me_range=16 / chroma_me=1 / trellis=1 / 8x8dct=1 / cqm=0 / deadzone=21,11 / fast_pskip=0 / chroma_qp_offset=0 / threads=54 / lookahead_threads=5 / sliced_threads=0 / nr=0 / decimate=1 / interlaced=0 / bluray_compat=0 / constrained_intra=0 / bframes=16 / b_pyramid=2 / b_adapt=1 / b_bias=0 / direct=1 / weightb=1 / open_gop=0 / weightp=2 / keyint=300 / keyint_min=25 / scenecut=40 / intra_refresh=0 / rc=2pass / mbtree=0 / bitrate=168 / ratetol=1.0 / qcomp=0.60 / qpmin=10 / qpmax=51 / qpstep=4 / cplxblur=20.0 / qblur=0.5 / ip_ratio=1.40 / pb_ratio=1.30 / aq=1:1.00
Encoded date : UTC 2017-11-09 13:19:20
Tagged date : UTC 2017-12-02 23:07:26
Codec configuration box : avcC
Audio
ID : 2
Format : AAC LC
Format/Info : Advanced Audio Codec Low Complexity
Codec ID : mp4a-40-2
Duration : 5 min 40 s
Bit rate mode : Constant
Bit rate : 192 kb/s
Channel(s) : 2 channels
Channel layout : L R
Sampling rate : 48.0 kHz
Frame rate : 46.875 FPS (1024 SPF)
Compression mode : Lossy
Stream size : 7.69 MiB (53%)
Default : Yes
Alternate group : 1
Encoded date : UTC 2017-11-09 13:19:20
Tagged date : UTC 2017-12-02 23:07:26

Дополнительная информация:

Skills you will gain:
Creating photo montages and combining images in various creative ways.
Retouching photographs like a professional, seamlessly removing or adding any details.
Enhancing tonal values, color, contrast, sharpness, clarity, reducing noise and compression artifacts in images.
Exporting to various image formats for both print and screen with confidence.
Designing engaging compositions using photos, typography and special effects.
Creating digital art with the powerful Brush engine and using blend modes.

Русский перевод:

Навыки, которые вы получите:
Создание фотомонтажей и комбинирование изображений различными творческими способами.
Ретуширование фотографий как профессионал, плавно удаляя или добавляя любые детали.
Повышение тональных значений, цвета, контраста, резкости, четкости, уменьшение шума и артефактов сжатия в изображениях.
Экспорт в различные форматы изображений для печати и экрана с уверенностью.
Разработка привлекательных композиций с использованием фотографий, типографики и специальных эффектов.
Создание цифрового искусства с мощным двигателем кисти и с использованием режимов смешивания.

История обновлений:

21.12.2019
добавлена недостающая 17 часть (17. CC 2020 New Features)

Раздача ведётся путём добавления новых файлов:

Раздача ведётся путём добавления новых файлов; при каждом добавлении создаётся новый торрент. Чтобы начать докачку новых файлов, пользователям необходимо сделать следующее:
(1) остановить скачивание,
(2) удалить старый торрент у себя из клиента (имеющиеся файлы удалять не надо),
(3) скачать новый торрент и запустить его у себя в клиенте вместо старого, при этом указать клиенту путь в старую папку, куда и должно происходить скачивание новых файлов.
Ваш клиент при этом должен произвести хеширование (проверку) старой папки (если не производит сам - помогите ему сделать это), и будет докачивать только те файлы, которых у вас ещё нет. Старые файлы при этом не удаляются, а продолжают раздаваться!
Eсли вы уже удалили старые файлы, то предотвратить повторную закачку старых файлов можно, отжав галочку в соответствующих местах при запуске нового торрента. По возможности, желательно не удалять старые файлы как можно дольше, чтобы релизёр не только продолжал раздавать старые файлы, а смог сконцентрироваться на новых.
Скриншоты:
       

Clavik

Post 21-Dec-2019 21:00

[Quote]

Shultais Education | Основы SQL (2018) PCRec [H.264] - Автор (режиссер): Shultais Education
Производство: Никита Шультайс
Жанр: Программирование, Базы данных
Описание:
Практический Online-курс по основам SQL с серией коротких видео-уроков и большим количеством заданий. На курсе вы научитесь делать как простые выборки, так и многотабличные запросы с использование JOIN и UNION, а также освоите функции агрегации.
Продолжительность: 04:44:00
Качество видео: PCRec
Видео: AVC/H.264, 1280x720-1920x1080, ~124-633 Kbps
Аудио: AAC, 2 ch, 136-137 Kbps

Содержание:

  • Простые SQL запросы — 6 уроков, 26 заданий
  • Добавление, изменение, удаление — 3 урока, 20 заданий
  • Создание таблиц — 9 уроков, 37 заданий
  • Индексы — 4 урока, 20 заданий
  • Изменение таблиц — 3 урока, 13 заданий
  • Поиск текста — 2 урока, 12 заданий
  • Вспомогательные функции — 3 урока, 23 задания
  • Группировка данных — 3 урока, 17 заданий
  • Многотабличные запросы — 13 уроков, 75 заданий
  • Вложенные запросы — 6 уроков, 17 заданий

MediaInfo:

Общее
Полное имя : .\1.1 Первые запросы.mp4
Формат : MPEG-4
Профиль формата : Base Media / Version 2
Идентификатор кодека : mp42 (mp42/mp41/isom/avc1)
Размер файла : 7,73 Мбайт
Продолжительность : 3 м. 26 с.
Режим общего битрейта : Переменный
Общий поток : 314 Кбит/сек
Дата кодирования : UTC 2019-02-04 18:51:49
Дата пометки : UTC 2019-02-04 18:51:49
Видео
Идентификатор : 1
Формат : AVC
Формат/Информация : Advanced Video Codec
Профиль формата : [url=mailto:[email protected]][email protected][/url]
Настройки формата : CABAC / 5 Ref Frames
Параметр CABAC формата : Да
Параметр RefFrames формата : 5 кадров
Идентификатор кодека : avc1
Идентификатор кодека/Информация : Advanced Video Coding
Продолжительность : 3 м. 26 с.
Битрейт : 172 Кбит/сек
Ширина : 1280 пикселей
Высота : 720 пикселей
Соотношение сторон : 16:9
Режим частоты кадров : Постоянный
Частота кадров : 30,000 кадров/сек
Цветовое пространство : YUV
Субдискретизация насыщенности : 4:2:0
Битовая глубина : 8 бит
Тип развёртки : Прогрессивная
Бит/(Пиксели*Кадры) : 0.006
Размер потока : 4,24 Мбайт (55%)
Библиотека кодирования : x264 core 157 r10 545de2f
Настройки программы : cabac=1 / ref=5 / deblock=1:0:0 / analyse=0x3:0x113 / me=hex / subme=8 / psy=1 / psy_rd=1.00:0.00 / mixed_ref=1 / me_range=16 / chroma_me=1 / trellis=2 / 8x8dct=1 / cqm=0 / deadzone=21,11 / fast_pskip=1 / chroma_qp_offset=-2 / threads=22 / lookahead_threads=3 / sliced_threads=0 / nr=0 / decimate=1 / interlaced=0 / bluray_compat=0 / stitchable=1 / constrained_intra=0 / bframes=3 / b_pyramid=2 / b_adapt=2 / b_bias=0 / direct=3 / weightb=1 / open_gop=0 / weightp=2 / keyint=infinite / keyint_min=30 / scenecut=40 / intra_refresh=0 / rc_lookahead=50 / rc=crf / mbtree=1 / crf=20.0 / qcomp=0.60 / qpmin=5 / qpmax=69 / qpstep=4 / vbv_maxrate=2750 / vbv_bufsize=7500 / crf_max=0.0 / nal_hrd=none / filler=0 / ip_ratio=1.40 / aq=1:1.00
Дата кодирования : UTC 2019-02-04 18:51:49
Дата пометки : UTC 2019-02-04 18:51:49
Цветовой диапазон : Limited
Основные цвета : BT.709
Характеристики трансфера : BT.709
Коэффициенты матрицы : BT.709
Codec configuration box : avcC
Аудио
Идентификатор : 2
Формат : AAC LC
Формат/Информация : Advanced Audio Codec Low Complexity
Идентификатор кодека : mp4a-40-2
Продолжительность : 3 м. 26 с.
Вид битрейта : Переменный
Битрейт : 137 Кбит/сек
Каналы : 2 канала
ChannelLayout : L R
Частота : 48,0 КГц
Частота кадров : 46,875 кадров/сек (1024 SPF)
Метод сжатия : С потерями
Размер потока : 3,37 Мбайт (44%)
Дата кодирования : UTC 2019-02-04 18:51:49
Дата пометки : UTC 2019-02-04 18:51:49
Общее
Полное имя : D:\downloads\release\[Shultais Education] Основы SQL (2018)\1.6 Установка MySQL в Windows.mp4
Формат : MPEG-4
Профиль формата : Base Media / Version 2
Идентификатор кодека : mp42 (mp42/mp41/isom/avc1)
Размер файла : 48,5 Мбайт
Продолжительность : 11 м. 6 с.
Режим общего битрейта : Переменный
Общий поток : 611 Кбит/сек
Дата кодирования : UTC 2019-02-04 18:55:20
Дата пометки : UTC 2019-02-04 18:55:20
Видео
Идентификатор : 1
Формат : AVC
Формат/Информация : Advanced Video Codec
Профиль формата : [email protected]
Настройки формата : CABAC / 5 Ref Frames
Параметр CABAC формата : Да
Параметр RefFrames формата : 5 кадров
Идентификатор кодека : avc1
Идентификатор кодека/Информация : Advanced Video Coding
Продолжительность : 11 м. 6 с.
Битрейт : 469 Кбит/сек
Ширина : 1920 пикселей
Высота : 1080 пикселей
Соотношение сторон : 16:9
Режим частоты кадров : Постоянный
Частота кадров : 30,000 кадров/сек
Цветовое пространство : YUV
Субдискретизация насыщенности : 4:2:0
Битовая глубина : 8 бит
Тип развёртки : Прогрессивная
Бит/(Пиксели*Кадры) : 0.008
Размер потока : 37,3 Мбайт (77%)
Библиотека кодирования : x264 core 157 r10 545de2f
Настройки программы : cabac=1 / ref=5 / deblock=1:0:0 / analyse=0x3:0x113 / me=hex / subme=8 / psy=1 / psy_rd=1.00:0.00 / mixed_ref=1 / me_range=16 / chroma_me=1 / trellis=2 / 8x8dct=1 / cqm=0 / deadzone=21,11 / fast_pskip=1 / chroma_qp_offset=-2 / threads=34 / lookahead_threads=5 / sliced_threads=0 / nr=0 / decimate=1 / interlaced=0 / bluray_compat=0 / stitchable=1 / constrained_intra=0 / bframes=3 / b_pyramid=2 / b_adapt=2 / b_bias=0 / direct=3 / weightb=1 / open_gop=0 / weightp=2 / keyint=infinite / keyint_min=30 / scenecut=40 / intra_refresh=0 / rc_lookahead=50 / rc=crf / mbtree=1 / crf=20.0 / qcomp=0.60 / qpmin=5 / qpmax=69 / qpstep=4 / vbv_maxrate=5500 / vbv_bufsize=15000 / crf_max=0.0 / nal_hrd=none / filler=0 / ip_ratio=1.40 / aq=1:1.00
Дата кодирования : UTC 2019-02-04 18:55:20
Дата пометки : UTC 2019-02-04 18:55:20
Цветовой диапазон : Limited
Основные цвета : BT.709
Характеристики трансфера : BT.709
Коэффициенты матрицы : BT.709
Codec configuration box : avcC
Аудио
Идентификатор : 2
Формат : AAC LC
Формат/Информация : Advanced Audio Codec Low Complexity
Идентификатор кодека : mp4a-40-2
Продолжительность : 11 м. 6 с.
Вид битрейта : Переменный
Битрейт : 137 Кбит/сек
Каналы : 2 канала
ChannelLayout : L R
Частота : 48,0 КГц
Частота кадров : 46,875 кадров/сек (1024 SPF)
Метод сжатия : С потерями
Размер потока : 10,9 Мбайт (22%)
Дата кодирования : UTC 2019-02-04 18:55:20
Дата пометки : UTC 2019-02-04 18:55:20
Скриншоты:
       

Clavik

Post 08-Dec-2019 17:12

[Quote]

Alejandro4es писал(а):
Дорогие товарищи! Встаньте на раздачу, пожалуйста....
если так и не раздадут то напиши я вечером ее обновить постараюсь если она есть в инете живая )

Alejandro4es

Post 08-Dec-2019 16:53

[Quote]

Дорогие товарищи! Встаньте на раздачу, пожалуйста....

Clavik

Post 06-Dec-2019 18:39

[Quote]

Александр Куртеев | Основной курс по CMS Joomla 3.9 (2019) [ISO] - Автор (издатель): Александр Куртеев
Производство: Александр Куртеев
Жанр: Обучающий видеокурс
Системные требования (если такие есть):
- Операционная система Microsoft Windows 98/Me/2000/XP/Vista/7/8/10
- Процессор Pentium II 500 Мгц
- 128 Гб оперативной памяти
- Видеокарта встроенная 512 мб
- Звуковая карта встроеная
- Разрешение экрана 1024х768 с глубиной цвета 16 бит

Формат: ISO
Продолжительность: ~10:00:00 часов
Описание:
Создайте самостоятельно сайт с потрясающими возможностями.
Главной задачей, при подготовке курса, было дать инструмент который поможет превратить простую задумку в эффективный продающий сайт.
В курсе заложено несколько уровней смыслов. Поэтому при повторном просмотре через некоторое время, вероятно, вы снова откроете для себя нечто новое.
Основные преимущества курса "Основной курс по Joomla 3":
- Подробно разобран каждый шаг от задумки до готового сайта
- Внедрите правильную структуру и необходимые элементы
- Изучите все необходимые инструменты Joomla
- Вы создадите сайт без вложений в покупку расширений
- После курса вы можете сдать экзамен и получить сертификат
Курс является концентратом опыта по работе и обучению Joomla. Это гарантирует четкую структуру, понятность изложения и подробное раскрытие необходимых деталей.

Содержание курса:

1. Техническое задание (8 уроков, 1:38 ч)
2. Установка и настройка (6 уроков, 1:21 ч)
3. Структура сайта (5 уроков, 1:05 ч)
4. Основной функционал сайта (27 уроков)
5. Профессиональный дизайн за полдня (7 уроков, 1:33 ч)
6. Оформляем главную страницу (9 уроков, 1:28 ч)
7. Оформляем дополнительные страницы (7 уроков)
8. Мультиязычный сайт (4 урока)
9. Подготовка сайта к запуску (9 уроков, 1:47 ч.)
В качестве бонуса - курс: Создание каталога на Joomlа.
Состоит из 5 уроков:
1. Создание каталога. Теоретическая часть
2. Поля в Joomla
3. Дополнительные поля
4. Размещение полей в материале
5. Создаем фильтр
Скриншоты:
       

Clavik

Post 30-Nov-2019 10:43

[Quote]

Clint Arthur | Новый Современный Секс / New Sex Now (2004) DVDRip- Жанр: Обучающий, Эротика
Производство: США, New Sex Institute
Режиссёр: Клинт Артур
Возрастное ограничение: 18+
Описание:
Наиболее всесторонним - и самым дорогим! - современным видеопособием по сексу является данная программа американца Клинта Артура.
В рекламе, предшествовавшей выходу в свет DVD, крупнейший американский видеодистрибьютор - компания "Блокбастер видео" информировала потенциальных покупателей о том, что цена диска составит 35 долларов США - т.е. в три раза больше, чем мы привыкли видеть на обложках обучающих ДВД.
Наша видеопрограмма имеет подзаголовок "Искусство любви для гурманов". В США только за два года продаж диска в "армию гурманов любви" вступило более 35 миллионов человек. Теперь такая возможность появится и у россиян.
Продолжительность: 00:57:54
Качество видео: DVDRip
Видео: DivX 5, 704x480, 1012 Kbps
Аудио: MP3, 2 ch, 128 Kbps
Перевод: Одноголосый, Закадровый

MediaInfo:

Код:
Общее
Полное имя                               : New Sex.avi
Формат                                   : DivX
Формат/Информация                        : Hack of AVI
Размер файла                             : 472 Мбайт
Продолжительность                        : 57 м. 54 с.
Общий поток                              : 1140 Кбит/сек
FileExtension_Invalid                    : divx
Видео
Идентификатор                            : 0
Формат                                   : MPEG-4 Visual
Параметр BVOP формата                    : 1
Параметр QPel формата                    : Нет
Параметр GMC формата                     : Без точки перехода
Параметр матрицы формата                 : Default (H.263)
Режим смешивания                         : Сжатый битовый поток
Идентификатор кодека                     : DX50
Идентификатор кодека/Подсказка           : DivX 5
Продолжительность                        : 57 м. 54 с.
Битрейт                                  : 1000 Кбит/сек
Номинальный битрейт                      : 9708 Кбит/сек
Ширина                                   : 704 пикселя
Высота                                   : 480 пикселей
Соотношение сторон                       : 3:2
Частота кадров                           : 29,970 (30000/1001) кадров/сек
Стандарт вещания                         : NTSC
Цветовое пространство                    : YUV
Субдискретизация насыщенности            : 4:2:0
Битовая глубина                          : 8 бит
Тип развёртки                            : Прогрессивная
Метод сжатия                             : С потерями
Бит/(Пиксели*Кадры)                      : 0.099
Размер потока                            : 414 Мбайт (88%)
Заголовок                                : Main
Библиотека кодирования                   : DivX 6.6.0 (UTC 2007-05-04)
Аудио
Идентификатор                            : 1
Формат                                   : MPEG Audio
Версия формата                           : Version 1
Профиль формата                          : Layer 3
Режим                                    : Joint stereo
Расширение режима                        : MS Stereo
Идентификатор кодека                     : 55
Идентификатор кодека/Подсказка           : MP3
Продолжительность                        : 57 м. 54 с.
Вид битрейта                             : Постоянный
Битрейт                                  : 128 Кбит/сек
Каналы                                   : 2 канала
Частота                                  : 48,0 КГц
Метод сжатия                             : С потерями
Размер потока                            : 53,0 Мбайт (11%)
Выравнивание                             : Разделение по промежуткам
Продолжительность промежутка             : 33  мс. (1,00 видеокадр)
Время предзагрузки промежутка            : 500  мс.
Заголовок                                : Audio
Библиотека кодирования                   : LAME3.97 (beta)

Продолжение описания:

Один из покупателей диска написал на сайт Клинта Артура многостраничное признание в любви к его творению. Мы выделим один интересный абзац из электронного послания: "...Ваша методика великолепна и позволила мне взглянуть на секс заново: она начисто лишена свойственного порнографии непристойного смакования и ощущения подглядывания в замочную скважину. Спасибо за отличный подарок нашей семье!"
Примечание: Обучение с позиции мужчины (т.е. фильм гораздо больше для сильной половины на благо прекрасной половины, чем наоборот).
Скриншоты:
       

Clavik

Post 25-Nov-2019 20:53

[Quote]

Convert Monster | Специалист SEO-оптимизации (2017) PCRec [H.264/720p-LQ]- Автор (режиссер): Антон Петроченков
Актеры: Анастасия Богуш, Анастасия Волошина, Александр Конченко, Светлана Тренба
Жанр: SEO, Продвижение сайтов
Описание:
Наш новый курс «Специалист по работе с поисковыми системами, SEO-оптимизатор» даст вам полное понимание всех механизмов привлечения органического трафика, чтобы в будущем вы успешно продвигали свой проект, либо стали одним из честных SEO-гуру.
Мы взяли 5-летний опыт продвижения нашего сайта и 40+ успешных проектов и разобрали его по косточкам. Мы расскажем вам, что действительно работает, а что нет. И объясним, почему.
Всё уже разложено по полочкам — разобраться сможет даже новичок!
Продолжительность: ~11:25:00
Качество видео: PCRec
Видео: AVC/H.264, 1280x720, ~166-2807 Kbps
Аудио: AAC, 2 ch, 125-192 Kbps

MediaInfo:

Общее
Полное имя : D:\Downloads\[Convert Monster] Специалист SEO-оптимизации\Занятие 3. Индексация\SEO - оптимизатор, поток 1, занятие 3.mp4
Формат : MPEG-4
Профиль формата : Base Media / Version 2
Идентификатор кодека : mp42 (isom/mp42)
Размер файла : 629 Мбайт
Продолжительность : 2 ч. 3 м.
Режим общего битрейта : Переменный
Общий поток : 713 Кбит/сек
Дата кодирования : UTC 2017-09-05 10:11:18
Дата пометки : UTC 2017-09-05 10:11:18
gsst : 0
gstd : 7392141
Видео
Идентификатор : 1
Формат : AVC
Формат/Информация : Advanced Video Codec
Профиль формата : [url=mailto:[email protected]][email protected][/url]
Настройки формата : CABAC / 1 Ref Frames
Параметр CABAC формата : Да
Параметр RefFrames формата : 1 кадр
Параметр GOP формата : M=1, N=60
Идентификатор кодека : avc1
Идентификатор кодека/Информация : Advanced Video Coding
Продолжительность : 2 ч. 3 м.
Битрейт : 519 Кбит/сек
Максимальный битрейт : 2166 Кбит/сек
Ширина : 1280 пикселей
Высота : 720 пикселей
Соотношение сторон : 16:9
Режим частоты кадров : Постоянный
Частота кадров : 30,000 кадров/сек
Цветовое пространство : YUV
Субдискретизация насыщенности : 4:2:0
Битовая глубина : 8 бит
Тип развёртки : Прогрессивная
Бит/(Пиксели*Кадры) : 0.019
Размер потока : 457 Мбайт (73%)
Дата пометки : UTC 2017-09-05 10:12:01
Цветовой диапазон : Limited
Основные цвета : BT.709
Характеристики трансфера : BT.709
Коэффициенты матрицы : BT.709
Codec configuration box : avcC
Аудио
Идентификатор : 2
Формат : AAC LC
Формат/Информация : Advanced Audio Codec Low Complexity
Идентификатор кодека : mp4a-40-2
Продолжительность : 2 ч. 3 м.
Вид битрейта : Переменный
Битрейт : 192 Кбит/сек
Максимальный битрейт : 202 Кбит/сек
Каналы : 2 канала
ChannelLayout : L R
Частота : 44,1 КГц
Частота кадров : 43,066 кадра/сек (1024 SPF)
Метод сжатия : С потерями
Размер потока : 169 Мбайт (27%)
Заголовок : IsoMedia File Produced by Google, 5-11-2011
Дата кодирования : UTC 2017-09-05 10:11:43
Дата пометки : UTC 2017-09-05 10:12:01
Скриншоты:
       

Clavik

Post 10-Nov-2019 18:41

[Quote]

Udemy | Python разработка - с нуля до профессионала. Python 3 (2019) PCRec [H.264/720p-LQ] - Автор (режиссер): YouRa Allakhverdov
Производство: Udemy
Жанр: Программирование, Python
Описание:
Начните с основ и пройдите весь путь до создания собственных приложений!
Станьте программистом Python и изучите один из самых востребованных навыков современной разработки!
Это самый полный, но простой курс по языку программирования Python на Udemy! Если вы никогда не программировали раньше, если вы уже знаете базовый синтаксис или если хотите узнать о расширенных возможностях Python - в любом случае этот курс для вас! В этом курсе мы будем изучать программирование на Python 3.
Продолжительность: 20:49:50
Качество видео: PCRec
Видео: AVC/H.264, 1280x720, ~410 - 920 Kbps
Аудио: AAC, 2 ch, 128 Kbps

MediaInfo:

General
Complete name : C:\Users\User\Downloads\[Udemy] Python разработка с нуля до профессионала Python 3\4. Основы Python\8. Строки.mp4
Format : MPEG-4
Format profile : Base Media
Codec ID : isom (isom/iso2/avc1/mp41)
File size : 135 MiB
Duration : 19 min 51 s
Overall bit rate : 953 kb/s
Writing application : Lavf58.12.100
Video
ID : 1
Format : AVC
Format/Info : Advanced Video Codec
Format profile : [url=mailto:[email protected]][email protected][/url]
Format settings : CABAC / 4 Ref Frames
Format settings, CABAC : Yes
Format settings, Reference : 4 frames
Codec ID : avc1
Codec ID/Info : Advanced Video Coding
Duration : 19 min 51 s
Bit rate : 816 kb/s
Nominal bit rate : 3 000 kb/s
Width : 1 280 pixels
Height : 720 pixels
Display aspect ratio : 16:9
Frame rate mode : Constant
Frame rate : 30.000 FPS
Color space : YUV
Chroma subsampling : 4:2:0
Bit depth : 8 bits
Scan type : Progressive
Bits/(Pixel*Frame) : 0.030
Stream size : 116 MiB (86%)
Writing library : x264 core 148
Encoding settings : cabac=1 / ref=3 / deblock=1:-1:-1 / analyse=0x1:0x111 / me=umh / subme=6 / psy=1 / psy_rd=1.00:0.15 / mixed_ref=1 / me_range=16 / chroma_me=1 / trellis=1 / 8x8dct=0 / cqm=0 / deadzone=21,11 / fast_pskip=1 / chroma_qp_offset=-3 / threads=22 / lookahead_threads=3 / sliced_threads=0 / nr=0 / decimate=1 / interlaced=0 / bluray_compat=0 / constrained_intra=0 / bframes=3 / b_pyramid=2 / b_adapt=1 / b_bias=0 / direct=1 / weightb=1 / open_gop=0 / weightp=2 / keyint=60 / keyint_min=6 / scenecut=0 / intra_refresh=0 / rc_lookahead=60 / rc=cbr / mbtree=1 / bitrate=3000 / ratetol=1.0 / qcomp=0.60 / qpmin=0 / qpmax=69 / qpstep=4 / vbv_maxrate=3000 / vbv_bufsize=6000 / nal_hrd=none / filler=0 / ip_ratio=1.40 / aq=1:1.00
Codec configuration box : avcC
Audio
ID : 2
Format : AAC LC
Format/Info : Advanced Audio Codec Low Complexity
Codec ID : mp4a-40-2
Duration : 19 min 51 s
Bit rate mode : Constant
Bit rate : 128 kb/s
Channel(s) : 2 channels
Channel layout : L R
Sampling rate : 48.0 kHz
Frame rate : 46.875 FPS (1024 SPF)
Compression mode : Lossy
Stream size : 18.2 MiB (13%)
Default : Yes
Alternate group : 1

Хотите ли вы:

- приобрести навыки, необходимые для получения первой работы по программированию на Python
- перейти на более высокую должность разработчика программного обеспечения
- начать работать с машинным обучением, наукой о данных, Django или другими популярными областями, на которых специализируется Python
- или просто изучите Python, чтобы иметь возможность быстро создавать свои собственные приложения Python
Тогда вам нужен прочный фундамент в программировании на Python. И этот курс предназначен, чтобы дать вам эти основные навыки.

Чему вы научитесь:

Получите фундаментальное понимание языка программирования Python
Получите навыки Python по объектно-ориентированному программированию (ООП) в свое резюме
Поймёте сложные темы, как декораторы, timestamp и др.
Приобретёте необходимые навыки Python, чтобы перейти в конкретные отрасли - machine learning, data science и т. д.

Для кого предназначен этот курс:

- новички, которые никогда не программировали раньше
- программисты, желающие перейти на Python
- начинающие программисты Python, которые хотят повысить свои навыки.

Материалы курса:

Установка Python
Запуск кода Python
Строки
Списки
Словари
Коллекции
Типы числовых данных
Форматирование печати
Функции
Встроенные функции
Отладка и обработка ошибок
Модули
Внешние Модули
Объектно-ориентированное программирование
Наследование
Полиморфизм
Файловый ввод / вывод
Продвинутые Методы
Модульные тесты
И многое другое!

Дополнительная информация:

Удалена звуковая и видео реклама из некоторых видеоуроков, качество видео и звука не изменялось.

История обновлений:

10.11.2019
Добавлены недостающие уроки(модуль 16. Работа с базой данных и д.р.)

Раздача ведётся путём добавления новых файлов:

Раздача ведётся путём добавления новых файлов; при каждом добавлении создаётся новый торрент. Чтобы начать докачку новых файлов, пользователям необходимо сделать следующее:
(1) остановить скачивание,
(2) удалить старый торрент у себя из клиента (имеющиеся файлы удалять не надо),
(3) скачать новый торрент и запустить его у себя в клиенте вместо старого, при этом указать клиенту путь в старую папку, куда и должно происходить скачивание новых файлов.
Ваш клиент при этом должен произвести хеширование (проверку) старой папки (если не производит сам - помогите ему сделать это), и будет докачивать только те файлы, которых у вас ещё нет. Старые файлы при этом не удаляются, а продолжают раздаваться!
Eсли вы уже удалили старые файлы, то предотвратить повторную закачку старых файлов можно, отжав галочку в соответствующих местах при запуске нового торрента. По возможности, желательно не удалять старые файлы как можно дольше, чтобы релизёр не только продолжал раздавать старые файлы, а смог сконцентрироваться на новых.
Скриншоты:
       

Clavik

Post 10-Nov-2019 18:39

[Quote]

Udemy | Современный JavaScript с нуля на реальных проектах (2019) PCRec [H.264/720p-LQ] - Автор (режиссер): Denys Mescheryakov
Производство: Udemy
Жанр: Программирование, JavaScript
Описание:
Курс по JavaScript для начинающих с подробным изучением фундаментальных основ и применением их на реальных проектах.
JavaScript — это стремительно развивающийся язык с большим сообществом. Без него не обходится не один сайт в интернете. JavaScript дает вам множество путей для развития. Зная этот язык, вы можете в будущем изучать различные фреймворки Angular, Vue, React, серверную разработку на Node.js, мобильную разработку React Native, Ionic.
Продолжительность: 33:58:41
Качество видео: PCRec
Видео: AVC/H.264, 1280x720, ~560 - 920 Kbps
Аудио: AAC, 2 ch, 128 Kbps

MediaInfo:

General
Complete name : C:\Users\User\Downloads\[Udemy] Современный JavaScript с нуля на реальных проектах\02 DOM Манипуляция элементами и события\028 Всплытие и погружение события.mp4
Format : MPEG-4
Format profile : Base Media
Codec ID : isom (isom/iso2/avc1/mp41)
File size : 80.2 MiB
Duration : 10 min 37 s
Overall bit rate : 1 056 kb/s
Writing application : Lavf58.12.100
Video
ID : 1
Format : AVC
Format/Info : Advanced Video Codec
Format profile : [url=mailto:[email protected]][email protected][/url]
Format settings : CABAC / 4 Ref Frames
Format settings, CABAC : Yes
Format settings, Reference : 4 frames
Codec ID : avc1
Codec ID/Info : Advanced Video Coding
Duration : 10 min 37 s
Bit rate : 920 kb/s
Nominal bit rate : 3 000 kb/s
Width : 1 280 pixels
Height : 720 pixels
Display aspect ratio : 16:9
Frame rate mode : Constant
Frame rate : 30.000 FPS
Color space : YUV
Chroma subsampling : 4:2:0
Bit depth : 8 bits
Scan type : Progressive
Bits/(Pixel*Frame) : 0.033
Stream size : 69.8 MiB (87%)
Writing library : x264 core 148
Encoding settings : cabac=1 / ref=3 / deblock=1:-1:-1 / analyse=0x1:0x111 / me=umh / subme=6 / psy=1 / psy_rd=1.00:0.15 / mixed_ref=1 / me_range=16 / chroma_me=1 / trellis=1 / 8x8dct=0 / cqm=0 / deadzone=21,11 / fast_pskip=1 / chroma_qp_offset=-3 / threads=22 / lookahead_threads=3 / sliced_threads=0 / nr=0 / decimate=1 / interlaced=0 / bluray_compat=0 / constrained_intra=0 / bframes=3 / b_pyramid=2 / b_adapt=1 / b_bias=0 / direct=1 / weightb=1 / open_gop=0 / weightp=2 / keyint=60 / keyint_min=6 / scenecut=0 / intra_refresh=0 / rc_lookahead=60 / rc=cbr / mbtree=1 / bitrate=3000 / ratetol=1.0 / qcomp=0.60 / qpmin=0 / qpmax=69 / qpstep=4 / vbv_maxrate=3000 / vbv_bufsize=6000 / nal_hrd=none / filler=0 / ip_ratio=1.40 / aq=1:1.00
Codec configuration box : avcC
Audio
ID : 2
Format : AAC LC
Format/Info : Advanced Audio Codec Low Complexity
Codec ID : mp4a-40-2
Duration : 10 min 37 s
Bit rate mode : Constant
Bit rate : 128 kb/s
Channel(s) : 2 channels
Channel layout : L R
Sampling rate : 48.0 kHz
Frame rate : 46.875 FPS (1024 SPF)
Compression mode : Lossy
Stream size : 9.72 MiB (12%)
Default : Yes
Alternate group : 1

Для кого этот курс:

для тех, кто никогда не изучал программирование, но хотел бы начать;
для начинающих веб-разработчиков;
для начинающих JavaScript-разработчиков;
если вы верстальщик и хотите прокачать свой уровень в JavaScript;
если вы чувствуете что вам не хватает фундаментальных знаний.

Что вас ждет?

Курс разбит на несколько частей в которых вас ждут несколько проектов, тесты, также под видео будут полезные ссылки, презентации и домашние задания, на которых вы сможете отработать полученные знания. Периодически будут выходить разборы домашних заданий.
1. В первой части вас ждет знакомство с фундаментальными основами JavaScript, 16 презентаций, в каждой по несколько домашних заданий а также 2 теста на закрепление пройденного материала.
2. Во второй части вас ждет знакомство с DOM, событиями, CSS variables, написание первого проекта TODO, 4 презентации и несколько домашних заданий.
3. В третьей части мы будем знакомиться с асинхронным JavaScript, Event loop, AJAX, CORS, JSON и напишем второй проект News App.
4. В четвертой части мы продолжим изучать асинхронный JavaScript, познакомимся с Promises, async/await и обработкой ошибок.
5. В пятой части мы познакомимся с основами ООП, прототипами, классами ES6 и наследованием.
6. В шестой части мы познакомимся с модулями import/export, webpack, инкапсуляцией и напишем третий проект Avia Tickets.
7. В седьмой части мы поговорим про аутентификацию и напишем четвертый проект Login Page. Также узнаем что такое интерсепторы.
8. В восьмой части мы будем знакомится с системой контроля версий GIT и Scrum.
9. В девятой части мы подробней познакомимся с Eslint, Husky, Git hooks.
10. В десятой части мы знакомимся с основами современного фреймворка VueJS.
11. В бонусной части будут видео про Chrome DevTools, вопросами которые спрашивают на собеседовании а также видео о том как начать работать на фрилансе.

История обновлений:

10.11.2019
Добавлены недостающие уроки

Раздача ведётся путём добавления новых файлов:

Раздача ведётся путём добавления новых файлов; при каждом добавлении создаётся новый торрент. Чтобы начать докачку новых файлов, пользователям необходимо сделать следующее:
(1) остановить скачивание,
(2) удалить старый торрент у себя из клиента (имеющиеся файлы удалять не надо),
(3) скачать новый торрент и запустить его у себя в клиенте вместо старого, при этом указать клиенту путь в старую папку, куда и должно происходить скачивание новых файлов.
Ваш клиент при этом должен произвести хеширование (проверку) старой папки (если не производит сам - помогите ему сделать это), и будет докачивать только те файлы, которых у вас ещё нет. Старые файлы при этом не удаляются, а продолжают раздаваться!
Eсли вы уже удалили старые файлы, то предотвратить повторную закачку старых файлов можно, отжав галочку в соответствующих местах при запуске нового торрента. По возможности, желательно не удалять старые файлы как можно дольше, чтобы релизёр не только продолжал раздавать старые файлы, а смог сконцентрироваться на новых.
Скриншоты:
       
 

The time now is: Today 22:20

All times are GMT + 3 Hours