Сегодня идет свободное скачивание без начисления Download

Результатов поиска: 500

Автор Сообщение

fat2010

Пост 03-Янв-2017 22:03

[Цитировать]

Спасибо!

fat2010

Пост 03-Янв-2017 22:01

[Цитировать]

Спасибо!!!!

fat2010

Пост 03-Янв-2017 21:59

[Цитировать]

Спасибо!Это класика!

Russian Mafia

Пост 13-Авг-2016 11:33

[Цитировать]

Русское название: Девчата
Год выпуска: 1961
Страна: CCCP
Жанр: Мелодрама, Комедия
Перевод: Оригинал-Дата выхода Blu-Ray релиза: 8 мая 2012, «Парадиз Медиа-Режиссер: Юрий Чулюкин
Актеры: Надежда Румянцева, Николай Рыбников, Люсьена Овчинникова, Станислав Хитров, Инна Макарова, Светлана Дружинина, Нина Меньшикова, Николай Погодин, Михаил Пуговкин, Анатолий Адоскин--Описание фильма: В сибирский поселок приехала юная повариха Тося Кислицына - наивная и эксцентричная девчонка. Она сует свой нос во все дела, каждому стремится помочь. Местный красавец Илья на спор заводит с Тосей роман, сопровождающийся массой комичных ситуаций...--Продолжительность: 01:36:02
Качество видео: BDRip--Видеокодек:: XviD
Битрейт видео: 1717 Кбит/с
Размер кадра: 720x304
Аудио: Русский; AC3; 6 ch; 448 Кбит/с-

Mediainfo

General
Complete name : D:\uTorrent\Devchata.1961.BDRip.avi
Format : AVI
Format/Info : Audio Video Interleave
File size : 1.46 GiB
Duration : 1h 36mn
Overall bit rate : 2 174 Kbps
Writing application : VirtualDubMod 1.5.10.3 | (build 2550/release)
Video
ID : 0
Format : MPEG-4 Visual
Format profile : Advanced [email protected]
Format settings, BVOP : 2
Format settings, QPel : No
Format settings, GMC : No warppoints
Format settings, Matrix : Custom
Codec ID : XVID
Codec ID/Hint : XviD
Duration : 1h 36mn
Bit rate : 1 717 Kbps
Width : 720 pixels
Height : 304 pixels
Display aspect ratio : 2.35:1
Frame rate : 23.976 fps
Color space : YUV
Chroma subsampling : 4:2:0
Bit depth : 8 bits
Scan type : Progressive
Compression mode : Lossy
Bits/(Pixel*Frame) : 0.327
Stream size : 1.15 GiB (79%)
Writing library : XviD 1.2.1 (UTC 2008-12-04)
Audio
ID : 1
Format : AC-3
Format/Info : Audio Coding 3
Mode extension : CM (complete main)
Format settings, Endianness : Big
Codec ID : 2000
Duration : 1h 36mn
Bit rate mode : Constant
Bit rate : 448 Kbps
Channel(s) : 6 channels
Channel positions : Front: L C R, Side: L R, LFE
Sampling rate : 48.0 KHz
Bit depth : 16 bits
Compression mode : Lossy
Stream size : 308 MiB (21%)
Alignment : Split accross interleaves
Interleave, duration : 42 ms (1.00 video frame)
Interleave, preload duration : 500 ms
-

Скриншоты

       

Russian Mafia

Пост 10-Авг-2016 18:09

[Цитировать]

Приветствие джаггера / The Blood of Heroes Производство: Австралия, США / Handistom Investment, Kamisha Corporation, Kings Road Entertainment
Жанр: Фантастика, Боевик, Спорт
Режиссер: Дэвид Уэбб Пиплз
Актеры: Рутгер Хауэр, Делрой Линдо, Анна Катарина, Винсент Д’Онофрио, Ганди МакИнтайр, Джастин Монжо, Аарон Мартин, Джоан Чэнь, Кэйси Хуанг, Нгуен Дин
Описание:
Действие фильма разворачивается в следующем столетии после опустошительной войны. Единственным развлечением выживших после ядерной катастрофы людей стали жестокие соревнования — нечто среднее между рыцарскими турнирами и боями гладиаторов. Команда беспощадного Рутгера Хауэра рвется в высшую лигу, где выигрыш на самом деле является вопросом жизни и смерти.

Продолжительность: 01:39:32
Качество видео: DVDRip сэмпл
Перевод: Многоголосый закадровый, авторский
Видео: AVC/H.264, 720x544, ~1942 Kbps
Аудио 1: Русский, AC3, 2 ch, 192 Kbps, 48.0 kHz (МVO)
Аудио 2: Русский, AC3, 2 ch, 192 Kbps, 48.0 kHz (AVO, Д.Есарев [присутствует ненормативная лексика])
Аудио 3: Английский, AC3, 2 ch, 192 Kbps, 48.0 kHz (Оригинал)

Mediainfo:

Код:
General
Unique ID                                : 229028649222878693179423829527824132860 (0xAC4D5038C2954D9D8141580B13536AFC)
Complete name                            : F:\Downloads\Приветствие джаггера. 1989. NNMCLUB.mkv
Format                                   : Matroska
Format version                           : Version 4 / Version 2
File size                                : 1.75 GiB
Duration                                 : 1h 39mn
Overall bit rate                         : 2 520 Kbps
Encoded date                             : UTC 2016-08-07 21:56:03
Writing application                      : mkvmerge v7.0.0 ('Where We Going') 32bit built on Jun  9 2014 15:08:34
Writing library                          : libebml v1.3.0 + libmatroska v1.4.1
DURATION                                 : 01:39:32.384000000
NUMBER_OF_FRAMES                         : 186637
NUMBER_OF_BYTES                          : 143337216
_STATISTICS_WRITING_APP                  : mkvmerge v7.0.0 ('Where We Going') 32bit built on Jun  9 2014 15:08:34
_STATISTICS_WRITING_DATE_UTC             : 2016-08-07 21:56:03
_STATISTICS_TAGS                         : BPS DURATION NUMBER_OF_FRAMES NUMBER_OF_BYTES
Video
ID                                       : 1
Format                                   : AVC
Format/Info                              : Advanced Video Codec
Format profile                           : [url=mailto:[email protected]][email protected][/url]
Format settings, CABAC                   : Yes
Format settings, ReFrames                : 8 frames
Codec ID                                 : V_MPEG4/ISO/AVC
Duration                                 : 1h 39mn
Bit rate                                 : 1 942 Kbps
Width                                    : 720 pixels
Height                                   : 544 pixels
Display aspect ratio                     : 4:3
Frame rate mode                          : Constant
Frame rate                               : 25.000 fps
Color space                              : YUV
Chroma subsampling                       : 4:2:0
Bit depth                                : 8 bits
Scan type                                : Progressive
Bits/(Pixel*Frame)                       : 0.198
Stream size                              : 1.32 GiB (75%)
Title                                    : The blood of heroes
Writing library                          : x264 core 125 r2208 d9d2288
Encoding settings                        : cabac=1 / ref=8 / deblock=1:-1:-1 / analyse=0x3:0x133 / me=umh / subme=9 / psy=1 / psy_rd=1.00:0.10 / mixed_ref=1 / me_range=32 / chroma_me=1 / trellis=2 / 8x8dct=1 / cqm=0 / deadzone=21,11 / fast_pskip=0 / chroma_qp_offset=-3 / threads=6 / lookahead_threads=1 / sliced_threads=0 / nr=0 / decimate=1 / interlaced=0 / bluray_compat=0 / constrained_intra=0 / bframes=3 / b_pyramid=2 / b_adapt=2 / b_bias=0 / direct=3 / weightb=1 / open_gop=0 / weightp=2 / keyint=250 / keyint_min=25 / scenecut=40 / intra_refresh=0 / rc_lookahead=60 / rc=2pass / mbtree=1 / bitrate=1942 / ratetol=1.0 / qcomp=0.60 / qpmin=0 / qpmax=69 / qpstep=4 / cplxblur=20.0 / qblur=0.5 / ip_ratio=1.40 / aq=1:1.00
Language                                 : English
Default                                  : Yes
Forced                                   : No
Audio #1
ID                                       : 2
Format                                   : AC-3
Format/Info                              : Audio Coding 3
Mode extension                           : CM (complete main)
Format settings, Endianness              : Big
Codec ID                                 : A_AC3
Duration                                 : 1h 39mn
Bit rate mode                            : Constant
Bit rate                                 : 192 Kbps
Channel(s)                               : 2 channels
Channel positions                        : Front: L R
Sampling rate                            : 48.0 KHz
Bit depth                                : 16 bits
Compression mode                         : Lossy
Stream size                              : 137 MiB (8%)
Title                                    : Многоголосый закадровый
Language                                 : Russian
Default                                  : Yes
Forced                                   : No
Audio #2
ID                                       : 3
Format                                   : AC-3
Format/Info                              : Audio Coding 3
Mode extension                           : CM (complete main)
Format settings, Endianness              : Big
Codec ID                                 : A_AC3
Duration                                 : 1h 39mn
Bit rate mode                            : Constant
Bit rate                                 : 192 Kbps
Channel(s)                               : 2 channels
Channel positions                        : Front: L R
Sampling rate                            : 48.0 KHz
Bit depth                                : 16 bits
Compression mode                         : Lossy
Stream size                              : 137 MiB (8%)
Title                                    : Авторский, Д.Есарев
Language                                 : Russian
Default                                  : No
Forced                                   : No
Audio #3
ID                                       : 4
Format                                   : AC-3
Format/Info                              : Audio Coding 3
Mode extension                           : CM (complete main)
Format settings, Endianness              : Big
Codec ID                                 : A_AC3
Duration                                 : 1h 39mn
Bit rate mode                            : Constant
Bit rate                                 : 192 Kbps
Channel(s)                               : 2 channels
Channel positions                        : Front: L R
Sampling rate                            : 48.0 KHz
Bit depth                                : 16 bits
Compression mode                         : Lossy
Stream size                              : 137 MiB (8%)
Title                                    : Оригинал
Language                                 : English
Default                                  : No
Forced                                   : No

Скриншоты

       
       

O.S.A.

Пост 03-Апр-2016 00:45

[Цитировать]

Пришлось переделывать все (30) скриншоты, т.к. старые были залиты на FirePic и пропали с концами... Распальцовка

Region_13

Пост 28-Мар-2016 15:23

[Цитировать]

Америкэн бой / Ameriken boy
Страна: Украина / Lybid, Укртелефильм, Univex
Жанр: боевик, триллер, криминал
Продолжительность: 117 мин. / 01:57
Перевод: Не требуется
Режиссер: Борис Квашнев
Продюссер: Сергей Лобанов
Сценарий: Юрий Рогоза

зрителям, достигшим 16 лет


В ролях: Александр Песков, Владимир Гостюхин, Олег Рогачёв, Анатолий Хостикоев, Анна Униговская, Галина Мороз, Валерий Свищёв, Артур Ли, Гиви (Гия) Лежава, Сергей Пономаренко, Сергей Асовский, Игорь Воробьев, Олег Игнатьев, Борис Калягин, Владимир Герасев, Александр Рокшак, Андрей Колесник, Спиридон Ксандолупо...
Описание: После афганского плена Николай Найденов, бывший детдомовец, попадает в США, устраивается на работу инструктором в один из спортивных клубов, женится и получает американское гражданство. Жизнь складывается как нельзя лучше.
Через некоторое время он приезжает на свою бывшую родину к армейскому другу Сергею и узнает от его жены, что Сергей убит по заказу главарей одного из кланов местной мафии. На следующий день боевики, после зверских пыток, несколькими ударами в живот убивают и беременную жену Сергея…
Качество: SATRip
Формат: AVI
Видео кодек: XviD
Аудио кодек: MP3
Видео: 560x416 (1.35:1), 25 fps, XviD build 50 ~1706 kbps avg, 0.29 bit/pixel
Аудио: 48 kHz, AC3 Dolby Digital, 2/0 (L,R) ch, ~192 kbpsСкриншоты      

Mediainfo

Код:
Общее
Полное имя : F:\American_boy_1992_SATRip_1400.avi
Формат : AVI
Формат/Информация : Audio Video Interleave
Размер файла : 1,45 Гибибайт
Длительность : 1 ч. 49 м.
Общий поток : 1908 Кбит/сек
Программа кодирования : VirtualDubMod 1.5.10.3 | www.virtualdub-fr.org || (build 2550/release)
Библиотека кодирования : VirtualDubMod build 2550/release
Видео
Идентификатор : 0
Формат : MPEG-4 Visual
Профайл формата : Advanced [email protected]
Параметры BVOP формата : Да
Параметры QPel формата : Нет
Параметры GMC формата : Без точки перехода
Параметры матрицы формата : Default (MPEG)
Идентификатор кодека : XVID
Идентификатор кодека/Подсказка : XviD
Длительность : 1 ч. 49 м.
Битрейт : 1707 Кбит/сек
Ширина : 560 пикс.
Высота : 416 пикс.
Соотношение кадра : 4:3
Частота кадров : 25,000 кадр/сек
Разрешение : 8 бит
Колориметрия : 4:2:0
Тип развёртки : Прогрессивная
Бит/(Пиксели*Кадры) : 0.293
Размер потока : 1,30 Гибибайт (89%)
Библиотека кодирования : XviD 1.2.1 (UTC 2008-12-04)
Аудио
Идентификатор : 1
Формат : AC-3
Формат/Информация : Audio Coding 3
Идентификатор кодека : 2000
Длительность : 1 ч. 49 м.
Вид битрейта : Постоянный
Битрейт : 192 Кбит/сек
Канал(ы) : 2 канала(ов)
Расположение каналов : L R
Частота : 48,0 КГц
Размер потока : 150 Мегабайт (10%)
Выравнивание : Разделение по промежуткам
Длительность промежутка : 40 мс. (1,00 видеокадр)
Время предзагрузки промежутка : 500 ms

Скриншот c названием фильма

 

Region_13

Пост 11-Фев-2016 22:50

[Цитировать]

Идиот - Производство: СССР
Жанр: Драма
Режиссер: Иван Пырьев
Актеры: Юлия Борисова, Юрий Яковлев, Николай Подгорный, Леонид Пархоменко, Вера Пашенная
Описание:
По первой части одноименного романа Ф. М. Достоевского ("Настасья Филипповна").
Фильм рассказывает о возвращении в Россию после лечения князя Льва Николаевича Мышкина, его появлении в доме Епанчиных и знакомстве с необыкновенной женщиной Настасьей Филипповной, чей облик с первой секунды поражает князя.


Продолжительность: 01:55:59
Качество видео: DVDRip
Видео кодек MPEG4
Формат avc
Видео: AVC/H.264, 720x520, ~1500 Kbps
Аудио: AC3, 2 ch, 256 kbps

Mediainfo:

Код:
General
Unique ID                      : 206455709415407454233303775392903709060 (0x9B51EC5D146A9F049A891878BA4BC184)
Complete name                  : Идиот.mkv
Format                         : Matroska
Format version                 : Version 4 / Version 2
File size                      : 1.43 GiB
Duration                       : 1h 55mn
Overall bit rate               : 1 762 Kbps
Movie name                     : Идиот 1958 (rip by smithland)
Encoded date                   : UTC 2016-02-02 16:04:56
Writing application            : mkvmerge v8.5.2 ('Crosses') 64bit
Writing library                : libebml v1.3.3 + libmatroska v1.4.4
Attachements                   : COVER.jpg
DURATION                       : 01:55:58.752000000
NUMBER_OF_FRAMES               : 217461
NUMBER_OF_BYTES                : 222680064
_STATISTICS_WRITING_APP        : mkvmerge v8.5.2 ('Crosses') 64bit
_STATISTICS_WRITING_DATE_UTC   : 2016-02-02 16:04:56
_STATISTICS_TAGS               : BPS DURATION NUMBER_OF_FRAMES NUMBER_OF_BYTES
Video
ID                             : 1
Format                         : AVC
Format/Info                    : Advanced Video Codec
Format profile                 : [email protected]
Format settings, CABAC         : Yes
Format settings, ReFrames      : 10 frames
Codec ID                       : V_MPEG4/ISO/AVC
Duration                       : 1h 55mn
Bit rate                       : 1 500 Kbps
Width                          : 720 pixels
Height                         : 520 pixels
Display aspect ratio           : 1.385
Frame rate mode                : Constant
Frame rate                     : 25.000 fps
Color space                    : YUV
Chroma subsampling             : 4:2:0
Bit depth                      : 8 bits
Scan type                      : Progressive
Bits/(Pixel*Frame)             : 0.160
Stream size                    : 1.19 GiB (83%)
Writing library                : x264 core 146 r2538 121396c
Encoding settings              : cabac=1 / ref=10 / deblock=1:-1:-1 / analyse=0x3:0x133 / me=umh / subme=11 / psy=1 / psy_rd=1.25:0.30 / mixed_ref=1 / me_range=30 / chroma_me=1 / trellis=2 / 8x8dct=1 / cqm=0 / deadzone=21,11 / fast_pskip=1 / chroma_qp_offset=-4 / threads=12 / lookahead_threads=1 / sliced_threads=0 / nr=0 / decimate=0 / interlaced=0 / bluray_compat=0 / constrained_intra=0 / bframes=7 / b_pyramid=2 / b_adapt=1 / b_bias=0 / direct=1 / weightb=1 / open_gop=1 / weightp=2 / keyint=250 / keyint_min=25 / scenecut=40 / intra_refresh=0 / rc_lookahead=40 / rc=abr / mbtree=1 / bitrate=1500 / ratetol=1.0 / qcomp=0.60 / qpmin=0 / qpmax=69 / qpstep=4 / ip_ratio=1.40 / aq=1:1.20
Language                       : Russian
Default                        : Yes
Forced                         : Yes
Color range                    : Limited
Color primaries                : Generic film
Audio
ID                             : 2
Format                         : AC-3
Format/Info                    : Audio Coding 3
Mode extension                 : CM (complete main)
Format settings, Endianness    : Big
Codec ID                       : A_AC3
Duration                       : 1h 55mn
Bit rate mode                  : Constant
Bit rate                       : 256 Kbps
Channel(s)                     : 2 channels
Channel positions              : Front: L R
Sampling rate                  : 48.0 KHz
Compression mode               : Lossy
Stream size                    : 212 MiB (15%)
Language                       : Russian
Default                        : Yes
Forced                         : Yes
Скриншоты:
       

Дополнительные скриншоты:

       

Region_13

Пост 08-Фев-2016 15:27

[Цитировать]

Как закалялась сталь (1942) SATRip - Производство: СССР, Киевская и Ашхабадская киностудии
Жанр: Военный, экранизация
Режиссер: Марк Донской
Актеры: Виктор Перист-Петренко, Даниил Сагал, Ирина Федотова, Виктор Бубнов, Александр Хвыля, Борис Рунге, Владимир Балашов, В. Красновицкий, Антон Дунайский...
Описание:
По одноименному роману Н.Островского.
Время и место действия — железнодорожный поселок Шепетовка на Украине, годы гражданской войны. Сюжет фильм охватывает только начальные главы романа - борьбу с гайдамаками и немецкой оккупацией.


Продолжительность: 01:27:28
Качество видео: SATRip
Видео: AVC/H.264, [email protected], ~1770 Kbps
Аудио: MP2, 2 ch, 160 kbps, CBR

Mediainfo:

Код:
Общее
Уникальный идентификатор                 : 251820156095016985557544470565936226225 (0xBD72CC44A3E33217BF836D3C437CDFB1)
Полное имя                               : D:\00-Как закалялась сталь\Как закалялась сталь.mkv
Формат                                   : Matroska
Версия формата                           : Version 4 / Version 2
Размер файла                             : 1,18 Гбайт
Продолжительность                        : 1 ч. 27 м.
Общий поток                              : 1932 Кбит/сек
Дата кодирования                         : UTC 2016-01-10 19:18:08
Программа кодирования                    : mkvmerge v8.8.0 ('Wind at my back') 64bit
Библиотека кодирования                   : libebml v1.3.3 + libmatroska v1.4.4
Видео
Идентификатор                            : 1
Формат                                   : AVC
Формат/Информация                        : Advanced Video Codec
Профиль формата                          : [url=mailto:[email protected]][email protected][/url]
Параметр CABAC формата                   : Да
Параметр ReFrames формата                : 14 кадров
Идентификатор кодека                     : V_MPEG4/ISO/AVC
Продолжительность                        : 1 ч. 27 м.
Битрейт                                  : 1770 Кбит/сек
Ширина                                   : 696 пикселей
Высота                                   : 570 пикселей
Соотношение сторон                       : 4:3
Режим частоты кадров                     : Постоянный
Частота кадров                           : 25,000 кадров/сек
Цветовое пространство                    : YUV
Субдискретизация насыщенности            : 4:2:0
Битовая глубина                          : 8 бит
Тип развёртки                            : Прогрессивная
Бит/(Пиксели*Кадры)                      : 0.178
Размер потока                            : 1,08 Гбайт (92%)
Библиотека кодирования                   : x264 core 146 r2538 121396c
Настройки программы                      : cabac=1 / ref=14 / deblock=1:-1:-1 / analyse=0x3:0x133 / me=umh / subme=9 / psy=1 / psy_rd=1.00:0.15 / mixed_ref=1 / me_range=32 / chroma_me=1 / trellis=2 / 8x8dct=1 / cqm=0 / deadzone=21,11 / fast_pskip=1 / chroma_qp_offset=-3 / threads=6 / lookahead_threads=1 / sliced_threads=0 / nr=0 / decimate=0 / interlaced=0 / bluray_compat=0 / constrained_intra=0 / bframes=7 / b_pyramid=2 / b_adapt=2 / b_bias=0 / direct=3 / weightb=1 / open_gop=0 / weightp=2 / keyint=240 / keyint_min=23 / scenecut=40 / intra_refresh=0 / rc_lookahead=40 / rc=2pass / mbtree=0 / bitrate=1770 / ratetol=1.0 / qcomp=0.60 / qpmin=10 / qpmax=51 / qpstep=4 / cplxblur=20.0 / qblur=0.5 / vbv_maxrate=50000 / vbv_bufsize=62500 / nal_hrd=none / filler=0 / ip_ratio=1.40 / pb_ratio=1.30 / aq=1:1.00
Язык                                     : Russian
Default                                  : Да
Forced                                   : Нет
Аудио
Идентификатор                            : 2
Формат                                   : MPEG Audio
Версия формата                           : Version 1
Профиль формата                          : Layer 2
Идентификатор кодека                     : A_MPEG/L2
Идентификатор кодека/Подсказка           : MP2
Продолжительность                        : 1 ч. 27 м.
Вид битрейта                             : Постоянный
Битрейт                                  : 160 Кбит/сек
Каналы                                   : 2 канала
Частота                                  : 48,0 КГц
Частота кадров                           : 41,667 кадра/сек (1152 spf)
Метод сжатия                             : С потерями
Размер потока                            : 100 Мбайт (8%)
Заголовок                                : MP2-2 канала
Язык                                     : Russian
Default                                  : Да
Forced                                   : Нет

x264.log

--[Information] [10.01.2016 18:46:40] Standard error stream
---[Information] [10.01.2016 18:46:46] raw [info]: 696x570p 6327:5800 @ 25/1 fps (cfr)
---[Information] [10.01.2016 18:46:46] x264 [info]: using SAR=6327/5800
---[Information] [10.01.2016 18:46:46] x264 [info]: using cpu capabilities: MMX2 SSE2Fast SSSE3 SSE4.2
---[Information] [10.01.2016 18:46:46] x264 [info]: profile High, level 4.1
---[Information] [10.01.2016 21:55:46] x264 [info]: frame I:609 Avg QP:17.75 size: 29284
---[Information] [10.01.2016 21:55:46] x264 [info]: frame P:29223 Avg QP:20.05 size: 16056
---[Information] [10.01.2016 21:55:46] x264 [info]: frame B:101390 Avg QP:22.03 size: 6652
---[Information] [10.01.2016 21:55:46] x264 [info]: consecutive B-frames: 1.8% 2.8% 7.4% 25.2% 13.6% 45.3% 3.3% 0.6%
---[Information] [10.01.2016 21:55:46] x264 [info]: mb I I16..4: 6.2% 75.5% 18.3%
---[Information] [10.01.2016 21:55:46] x264 [info]: mb P I16..4: 2.9% 27.4% 3.1% P16..4: 39.7% 18.3% 6.7% 0.1% 0.0% skip: 1.9%
---[Information] [10.01.2016 21:55:46] x264 [info]: mb B I16..4: 0.4% 2.5% 0.3% B16..8: 41.3% 13.4% 2.4% direct:12.3% skip:27.4% L0:46.6% L1:41.9% BI:11.5%
---[Information] [10.01.2016 21:55:46] x264 [info]: 8x8 transform intra:81.0% inter:68.3%
---[Information] [10.01.2016 21:55:46] x264 [info]: direct mvs spatial:99.1% temporal:0.9%
---[Information] [10.01.2016 21:55:46] x264 [info]: coded y,uvDC,uvAC intra: 86.2% 0.0% 0.0% inter: 36.0% 0.0% 0.0%
---[Information] [10.01.2016 21:55:46] x264 [info]: i16 v,h,dc,p: 20% 27% 9% 43%
---[Information] [10.01.2016 21:55:46] x264 [info]: i8 v,h,dc,ddl,ddr,vr,hd,vl,hu: 20% 9% 11% 8% 9% 13% 9% 13% 9%
---[Information] [10.01.2016 21:55:46] x264 [info]: i4 v,h,dc,ddl,ddr,vr,hd,vl,hu: 20% 9% 4% 8% 12% 15% 10% 11% 10%
---[Information] [10.01.2016 21:55:46] x264 [info]: i8c dc,h,v,p: 100% 0% 0% 0%
---[Information] [10.01.2016 21:55:46] x264 [info]: Weighted P-Frames: Y:23.0% UV:0.0%
---[Information] [10.01.2016 21:55:46] x264 [info]: ref P L0: 37.3% 10.2% 15.4% 7.4% 5.6% 4.6% 4.0% 2.7% 2.4% 2.2% 2.0% 1.9% 1.8% 1.8% 0.6% 0.0%
---[Information] [10.01.2016 21:55:46] x264 [info]: ref B L0: 73.0% 10.7% 4.5% 2.5% 1.9% 1.6% 1.4% 1.0% 0.9% 0.8% 0.8% 0.5% 0.3%
---[Information] [10.01.2016 21:55:46] x264 [info]: ref B L1: 94.5% 5.5%
---[Information] [10.01.2016 21:55:46] x264 [info]: kb/s:1770.19
---[Information] [10.01.2016 21:55:46] encoded 131222 frames, 11.57 fps, 1770.19 kb/s
Скриншоты:
       

O.S.A.

Пост 07-Дек-2015 10:17

[Цитировать]

--Крах инженера Гарина--
  • Год выпуска: 1973
  • Страна: СССР / «Ленфильм»
  • Жанр: приключения, научная фантастика
  • Продолжительность: 4 x ~01:03:00
  • Перевод: Не требуется-
  • Режиссёр: Леонид Квинихидзе-
  • В ролях: Олег Борисов, Александр Белявский, Василий Корзун, Геннадий Сайфулин, Нонна Терентьева, Владимир Татосов, Ефим Копелян, Михаил Волков, Эрнст Романов, Владимир Костин...-
  • Фильм снят по научно-фантастическому роману А. Н. Толстого "Гиперболоид инженера Гарина".
    В начале мая 192...года на заброшенной даче под Ленинградом происходит убийство. Сотрудник уголовного розыска Василий Шельга обнаруживает зарезанного человека со следами пыток. В просторном подвале дачи проводились какие-то физико-химические опыты. Возникает предположение, что убитый - некий инженер Петр Петрович Гарин. Между тем, настоящий инженер Гарин, тщеславный и аморальный тип, но необычайно талантливый ученый, разработавший тепловой чудо-луч (подобие нынешнего лазера), спасается от иностранных убийц, а гибнет загримированный под него двойник Гарина. Скоро Шельга понимает, что его одурачили, но поздно: Гарин ускользнул за границу. Он решает использовать гиперболоид для безумной идеи - стать правителем мира. В своем маниакальном стремлении инженер совершает одно преступление за другим, не предполагая, сколь ужасными окажутся последствия и для него самого. За Гариным и его опасным изобретением начинается настоящая охота...
    --
  • --
  • Качество видео: DVDRip-AVC
  • Формат видео: MKV
  • Видео кодек: H.264
  • Аудио кодек: AC3
  • Видео: 764x572 (1.34:1), 25.000 fps, MPEG-4 AVC, ~2100 kbps avg, 0.192 bit/pixel
  • Аудио: 48.0 kHz, AC3 Dolby Digital, 3/2 (L,C,R,l,r) + LFE ch, ~448.00 kbps avg
  • Субтитры: нет
--

Media Info

General
Unique ID : 253265719805567812516349234945454621240 (0xBE89340FCBDD0E6A8F72F3F98B09C238)
Complete name : D:\O.S.A.\Мои видеозаписи\Сборник старых фильмов\Крах инженера Гарина\Крах инженера Гарина 1 серия.mkv
Format : Matroska
File size : 1.16 GiB
Duration : 1h 5mn
Overall bit rate : 2 549 Kbps
Encoded date : UTC 2015-04-16 10:23:21
Writing application : mkvmerge v4.9.1 ('Ich will') сборка от Jul 11 2011 23:53:15
Writing library : libebml v1.2.1 + libmatroska v1.1.1
Video
ID : 1
Format : AVC
Format/Info : Advanced Video Codec
Format profile : [email protected]
Format settings, CABAC : Yes
Format settings, ReFrames : 4 frames
Format settings, GOP : M=10, N=45
Codec ID : V_MPEG4/ISO/AVC
Duration : 1h 5mn
Bit rate : 2 100 Kbps
Width : 764 pixels
Height : 572 pixels
Display aspect ratio : 4:3
Frame rate : 25.000 fps
Color space : YUV
Chroma subsampling : 4:2:0
Bit depth : 8 bits
Scan type : Progressive
Bits/(Pixel*Frame) : 0.192
Stream size : 953 MiB (80%)
Writing library : x264 core 125 r2208 d9d2288
Encoding settings : cabac=1 / ref=4 / deblock=1:-1:-1 / analyse=0x3:0x133 / me=umh / subme=7 / psy=1 / psy_rd=1.00:0.10 / mixed_ref=1 / me_range=16 / chroma_me=1 / trellis=2 / 8x8dct=1 / cqm=0 / deadzone=21,11 / fast_pskip=0 / chroma_qp_offset=-3 / threads=12 / lookahead_threads=2 / sliced_threads=0 / nr=0 / decimate=1 / interlaced=0 / bluray_compat=0 / constrained_intra=0 / bframes=9 / b_pyramid=2 / b_adapt=2 / b_bias=0 / direct=3 / weightb=1 / open_gop=0 / weightp=2 / keyint=250 / keyint_min=25 / scenecut=40 / intra_refresh=0 / rc_lookahead=50 / rc=2pass / mbtree=1 / bitrate=2100 / ratetol=1.0 / qcomp=0.60 / qpmin=0 / qpmax=69 / qpstep=4 / cplxblur=20.0 / qblur=0.5 / ip_ratio=1.40 / aq=1:1.00
Language : Russian
Audio
ID : 2
Format : AC-3
Format/Info : Audio Coding 3
Mode extension : CM (complete main)
Codec ID : A_AC3
Duration : 1h 5mn
Bit rate mode : Constant
Bit rate : 448 Kbps
Channel(s) : 6 channels
Channel positions : Front: L C R, Side: L R, LFE
Sampling rate : 48.0 KHz
Bit depth : 16 bits
Compression mode : Lossy
Stream size : 208 MiB (18%)
Language : Russian--General
Unique ID : 254327774213997289005137314270693142417 (0xBF55BF63075E64E4AE61CE812BD5AF91)
Complete name : D:\O.S.A.\Мои видеозаписи\Сборник старых фильмов\Крах инженера Гарина\Крах инженера Гарина 2 серия.mkv
Format : Matroska
File size : 1.13 GiB
Duration : 1h 3mn
Overall bit rate : 2 550 Kbps
Encoded date : UTC 2015-04-16 10:28:56
Writing application : mkvmerge v4.9.1 ('Ich will') сборка от Jul 11 2011 23:53:15
Writing library : libebml v1.2.1 + libmatroska v1.1.1
Video
ID : 1
Format : AVC
Format/Info : Advanced Video Codec
Format profile : [email protected]
Format settings, CABAC : Yes
Format settings, ReFrames : 4 frames
Format settings, GOP : M=8, N=11
Codec ID : V_MPEG4/ISO/AVC
Duration : 1h 3mn
Bit rate : 2 100 Kbps
Width : 764 pixels
Height : 572 pixels
Display aspect ratio : 4:3
Frame rate : 25.000 fps
Color space : YUV
Chroma subsampling : 4:2:0
Bit depth : 8 bits
Scan type : Progressive
Bits/(Pixel*Frame) : 0.192
Stream size : 930 MiB (80%)
Writing library : x264 core 125 r2208 d9d2288
Encoding settings : cabac=1 / ref=4 / deblock=1:-1:-1 / analyse=0x3:0x133 / me=umh / subme=7 / psy=1 / psy_rd=1.00:0.10 / mixed_ref=1 / me_range=16 / chroma_me=1 / trellis=2 / 8x8dct=1 / cqm=0 / deadzone=21,11 / fast_pskip=0 / chroma_qp_offset=-3 / threads=12 / lookahead_threads=2 / sliced_threads=0 / nr=0 / decimate=1 / interlaced=0 / bluray_compat=0 / constrained_intra=0 / bframes=9 / b_pyramid=2 / b_adapt=2 / b_bias=0 / direct=3 / weightb=1 / open_gop=0 / weightp=2 / keyint=250 / keyint_min=25 / scenecut=40 / intra_refresh=0 / rc_lookahead=50 / rc=2pass / mbtree=1 / bitrate=2100 / ratetol=1.0 / qcomp=0.60 / qpmin=0 / qpmax=69 / qpstep=4 / cplxblur=20.0 / qblur=0.5 / ip_ratio=1.40 / aq=1:1.00
Language : Russian
Audio
ID : 2
Format : AC-3
Format/Info : Audio Coding 3
Mode extension : CM (complete main)
Codec ID : A_AC3
Duration : 1h 3mn
Bit rate mode : Constant
Bit rate : 448 Kbps
Channel(s) : 6 channels
Channel positions : Front: L C R, Side: L R, LFE
Sampling rate : 48.0 KHz
Bit depth : 16 bits
Compression mode : Lossy
Stream size : 203 MiB (18%)
Language : Russian--General
Unique ID : 182782941449553455939388729196450897556 (0x8982B6CA69E5D1E6B6B656E79F735E94)
Complete name : D:\O.S.A.\Мои видеозаписи\Сборник старых фильмов\Крах инженера Гарина\Крах инженера Гарина 3 серия.mkv
Format : Matroska
File size : 1.13 GiB
Duration : 1h 3mn
Overall bit rate : 2 549 Kbps
Encoded date : UTC 2015-04-16 10:35:34
Writing application : mkvmerge v4.9.1 ('Ich will') сборка от Jul 11 2011 23:53:15
Writing library : libebml v1.2.1 + libmatroska v1.1.1
Video
ID : 1
Format : AVC
Format/Info : Advanced Video Codec
Format profile : [email protected]
Format settings, CABAC : Yes
Format settings, ReFrames : 4 frames
Format settings, GOP : M=8, N=9
Codec ID : V_MPEG4/ISO/AVC
Duration : 1h 3mn
Bit rate : 2 100 Kbps
Width : 764 pixels
Height : 572 pixels
Display aspect ratio : 4:3
Frame rate : 25.000 fps
Color space : YUV
Chroma subsampling : 4:2:0
Bit depth : 8 bits
Scan type : Progressive
Bits/(Pixel*Frame) : 0.192
Stream size : 929 MiB (80%)
Writing library : x264 core 125 r2208 d9d2288
Encoding settings : cabac=1 / ref=4 / deblock=1:-1:-1 / analyse=0x3:0x133 / me=umh / subme=7 / psy=1 / psy_rd=1.00:0.10 / mixed_ref=1 / me_range=16 / chroma_me=1 / trellis=2 / 8x8dct=1 / cqm=0 / deadzone=21,11 / fast_pskip=0 / chroma_qp_offset=-3 / threads=12 / lookahead_threads=2 / sliced_threads=0 / nr=0 / decimate=1 / interlaced=0 / bluray_compat=0 / constrained_intra=0 / bframes=9 / b_pyramid=2 / b_adapt=2 / b_bias=0 / direct=3 / weightb=1 / open_gop=0 / weightp=2 / keyint=250 / keyint_min=25 / scenecut=40 / intra_refresh=0 / rc_lookahead=50 / rc=2pass / mbtree=1 / bitrate=2100 / ratetol=1.0 / qcomp=0.60 / qpmin=0 / qpmax=69 / qpstep=4 / cplxblur=20.0 / qblur=0.5 / ip_ratio=1.40 / aq=1:1.00
Language : Russian
Audio
ID : 2
Format : AC-3
Format/Info : Audio Coding 3
Mode extension : CM (complete main)
Codec ID : A_AC3
Duration : 1h 3mn
Bit rate mode : Constant
Bit rate : 448 Kbps
Channel(s) : 6 channels
Channel positions : Front: L C R, Side: L R, LFE
Sampling rate : 48.0 KHz
Bit depth : 16 bits
Compression mode : Lossy
Stream size : 203 MiB (18%)
Language : Russian--General
Unique ID : 210212918549493531681394098299862144198 (0x9E2589137529C5FD846A414BF5C254C6)
Complete name : D:\O.S.A.\Мои видеозаписи\Сборник старых фильмов\Крах инженера Гарина\Крах инженера Гарина 4 серия.mkv
Format : Matroska
File size : 1.12 GiB
Duration : 1h 2mn
Overall bit rate : 2 550 Kbps
Encoded date : UTC 2015-04-16 10:37:08
Writing application : mkvmerge v4.9.1 ('Ich will') сборка от Jul 11 2011 23:53:15
Writing library : libebml v1.2.1 + libmatroska v1.1.1
Video
ID : 1
Format : AVC
Format/Info : Advanced Video Codec
Format profile : [email protected]
Format settings, CABAC : Yes
Format settings, ReFrames : 4 frames
Format settings, GOP : M=9, N=10
Codec ID : V_MPEG4/ISO/AVC
Duration : 1h 2mn
Bit rate : 2 100 Kbps
Width : 764 pixels
Height : 572 pixels
Display aspect ratio : 4:3
Frame rate : 25.000 fps
Color space : YUV
Chroma subsampling : 4:2:0
Bit depth : 8 bits
Scan type : Progressive
Bits/(Pixel*Frame) : 0.192
Stream size : 923 MiB (80%)
Writing library : x264 core 125 r2208 d9d2288
Encoding settings : cabac=1 / ref=4 / deblock=1:-1:-1 / analyse=0x3:0x133 / me=umh / subme=7 / psy=1 / psy_rd=1.00:0.10 / mixed_ref=1 / me_range=16 / chroma_me=1 / trellis=2 / 8x8dct=1 / cqm=0 / deadzone=21,11 / fast_pskip=0 / chroma_qp_offset=-3 / threads=12 / lookahead_threads=2 / sliced_threads=0 / nr=0 / decimate=1 / interlaced=0 / bluray_compat=0 / constrained_intra=0 / bframes=9 / b_pyramid=2 / b_adapt=2 / b_bias=0 / direct=3 / weightb=1 / open_gop=0 / weightp=2 / keyint=250 / keyint_min=25 / scenecut=40 / intra_refresh=0 / rc_lookahead=50 / rc=2pass / mbtree=1 / bitrate=2100 / ratetol=1.0 / qcomp=0.60 / qpmin=0 / qpmax=69 / qpstep=4 / cplxblur=20.0 / qblur=0.5 / ip_ratio=1.40 / aq=1:1.00
Language : Russian
Audio
ID : 2
Format : AC-3
Format/Info : Audio Coding 3
Mode extension : CM (complete main)
Codec ID : A_AC3
Duration : 1h 2mn
Bit rate mode : Constant
Bit rate : 448 Kbps
Channel(s) : 6 channels
Channel positions : Front: L C R, Side: L R, LFE
Sampling rate : 48.0 KHz
Bit depth : 16 bits
Compression mode : Lossy
Stream size : 202 MiB (18%)
Language : Russian
--        -- --

O.S.A.

Пост 06-Дек-2015 00:57

[Цитировать]

06.12.2015 переоформил и заменил торрент-файл. Ранее скачавшие могут перехешировать и встать на раздачу (при желании).)

Region_13

Пост 20-Ноя-2015 19:11

[Цитировать]

Афганский Излом / Afganskiy izlom
Год выпуска: 1991
Страна: Россия
Жанр: драма, военный
Продолжительность: 140 мин. / 02:20
Перевод: Не требуется
Режиссер: Владимир Бортко
Сценарий: Леонид Богачук, Александр Червинский, Михаил Лещинский
Бюджет: Неизвестно
Премьера в мире: 1 апреля 1992
зрителям, достигшим 16 лет


В ролях: Микеле Плачидо(озвучивает Олег Янковский), Татьяна Догилева, Михаил Жигалов, Филипп Янковский, Алексей Серебряков, Нина Русланова, Николай Устинов, Владимир Ерёмин, Михаил Трухин, Ренат Ибрагимов, Хашим Рахимов, Кием Якуб, Артур Уваров, Юрий Кузнецов, Виктор Проскурин.
Описание: События фильма разворачиваются накануне вывода советских войск из Афганистана. И, казалось бы, можно уже не волноваться за судьбу наших ребят, но… война продолжается.
В подразделение десантников, которым командует майор Бандура, направляется сын высокопоставленного военного. Причина его прибытия накануне вывода войск понятна всем: парню необходимо успеть «поучаствовать» в боевых действиях и заработать награды…

Доп. информация: Выпущено: "Ленфильм"/Русское видео/Clemi Cinematografica S.r.l.,СССР-Италия.
Качество: DVDRip
Формат: AVI
Видео кодек: DivX
Аудио кодек: AC3
Видео: 720x544, 25 fps, ~2477 kbps.
Аудио: 48 kHz, AC3 Dolby Digital, 2/0 (L,R) ch, ~192.00 kbps.

Скриншоты

                     

MI

Полное имя : E:\Afganskiy_izlom.AVI
Формат : AVI
Формат/Информация : Audio Video Interleave
Профиль формата : OpenDML
Размер файла : 2,48 Гбайт
Продолжительность : 2 ч. 12 м.
Общий поток : 2677 Кбит/сек
Видео
Идентификатор : 0
Формат : MPEG-4 Visual
Параметр BVOP формата : Да
Параметр QPel формата : Нет
Параметр GMC формата : Без точки перехода
Параметр матрицы формата : Default (H.263)
Идентификатор кодека : DX50
Идентификатор кодека/Подсказка : DivX 5
Продолжительность : 2 ч. 12 м.
Битрейт : 2480 Кбит/сек
Ширина : 720 пикселей
Высота : 544 пикселя
Соотношение сторон : 4:3
Частота кадров : 25,000 кадров/сек
Цветовое пространство : YUV
Субдискретизация насыщенности : 4:2:0
Битовая глубина : 8 бит
Тип развёртки : Прогрессивная
Метод сжатия : С потерями
Бит/(Пиксели*Кадры) : 0.253
Размер потока : 2,29 Гбайт (93%)
Библиотека кодирования : DivX 6.8.5 (UTC 2009-08-20)
Аудио
Идентификатор : 1
Формат : AC-3
Формат/Информация : Audio Coding 3
Расширение режима : CM (complete main)
Параметр Endianness формата : Big
Идентификатор кодека : 2000
Продолжительность : 2 ч. 12 м.
Вид битрейта : Постоянный
Битрейт : 192 Кбит/сек
Каналы : 2 канала
Расположение каналов : Front: L R
Частота : 48,0 КГц
Метод сжатия : С потерями
Размер потока : 182 Мбайт (7%)
Выравнивание : Разделение по промежуткам
Продолжительность промежутка : 1000 мс. (25,00 видеокадров)

Region_13

Пост 16-Ноя-2015 18:55

[Цитировать]

Десять лет без права переписки (1990) / Desyat let bez prava perepiski
Год выпуска: 1990
Страна: Россия
Жанр: Драма, Советский фильм
Продолжительность: 103 мин. / 01:43
Перевод: Не требуется
Режиссер: Владимир Наумов
Сценарий: Александр Кабаков, Владимир Наумов
Бюджет: Неизвестно
Премьера в мире: декабрь 1990
зрителям, достигшим 12 лет


В ролях: Варвара Сошальская, Дарья Фекленко, Валентин Брылеев, Евгений Евстигнеев, Борис Щербаков, Вера Сотникова, Александр Яковлев, Наталья Белохвостикова, Александр Панкратов-Черный, Игорь Кашинцев
Описание: Великая Отечественная война закончилась. Михаил отправляется в Москву, где у него есть одно важное дело. Мужчина собирается отомстить человеку по фамилии Завьялов, который в 1937 году направил в НКВД донос на отца Михаила. Из-за этого доноса его отец был расстрелян. Он верит в свою правоту и не секунды не сомневаясь, убивает Завьялова. Но перед этим тот успевает вызвать сотрудников НКВД. Михаил не собирается бежать и прятаться. Он остается на месте преступления, ведь, по его мнению, он абсолютно прав.
Качество: DVDRip
Формат: AVI
Видео кодек: XviD
Аудио кодек: MPEG Audio
Видео: 1815 Kbps, 25.0 fps, разрешение 640*480 (4:3)
Аудио: 160 Kbps, 48000 Hz, 2 каналов, 0x55

Скриншоты

                       

MediaINFO

Общее
Полное имя : E:\10лет.avi
Формат : AVI
Формат/Информация : Audio Video Interleave
Размер файла : 1,35 Гбайт
Продолжительность : 1 ч. 37 м.
Общий поток : 1975 Кбит/сек
Программа кодирования : VirtualDubMod 1.5.10.1 Рус от Stvens Inc.™ www.stvens.amillo.net (build 2366/release)
Библиотека кодирования : VirtualDubMod build 2366/release
Видео
Идентификатор : 0
Формат : MPEG-4 Visual
Параметр BVOP формата : 1
Параметр QPel формата : Нет
Параметр GMC формата : Без точки перехода
Параметр матрицы формата : Default (H.263)
Режим смешивания : Сжатый битовый поток
Идентификатор кодека : DX50
Идентификатор кодека/Подсказка : DivX 5
Продолжительность : 1 ч. 37 м.
Битрейт : 1805 Кбит/сек
Ширина : 640 пикселей
Высота : 480 пикселей
Соотношение сторон : 4:3
Частота кадров : 25,000 кадров/сек
Цветовое пространство : YUV
Субдискретизация насыщенности : 4:2:0
Битовая глубина : 8 бит
Тип развёртки : Прогрессивная
Метод сжатия : С потерями
Бит/(Пиксели*Кадры) : 0.235
Размер потока : 1,23 Гбайт (91%)
Библиотека кодирования : DivX 6.2.5 (UTC 2006-07)
Аудио
Идентификатор : 1
Формат : MPEG Audio
Версия формата : Version 1
Профиль формата : Layer 3
Режим : Joint stereo
Идентификатор кодека : 55
Идентификатор кодека/Подсказка : MP3
Продолжительность : 1 ч. 37 м.
Вид битрейта : Постоянный
Битрейт : 160 Кбит/сек
Каналы : 2 канала
Частота : 48,0 КГц
Метод сжатия : С потерями
Размер потока : 112 Мбайт (8%)
Выравнивание : Соединение по промежуткам
Продолжительность промежутка : 40 мс. (1,00 видеокадр)
Время предзагрузки промежутка : 504 мс.

Region_13

Пост 16-Ноя-2015 17:51

[Цитировать]

Облако Рай / Oblako-ray
Год выпуска: 1990
Страна: Россия
Жанр: комедия, драма
Продолжительность: 76 мин. / 01:16
Перевод: Не требуется
Режиссер: Николай Досталь
Сценарий: Георгий Николаев
Бюджет: Неизвестно
Премьера в мире: 4 декабря 1991
зрителям, достигшим 16 лет


В ролях: Алла Клюка, Андрей Жигалов, Владимир Толоконников, Лев Борисов, Сергей Баталов, Зинаида Воркуль, Александр Числов, Ирина Розанова
Описание: Скучная, тусклая однообразность провинциального городка. Чтобы обратить на себя внимание, молодой парень Николай "ляпнул", что уезжает к другу на Дальний восток. Что тут началось! И смех, и грех. Весь город принимает участие в сборах. Да с каким грандиозным размахом, словно едут всем городом. И даже чистосердечное признание Николая, что все это вранье, да и друга-то нет, не могут никого остановить в торжественной обстановке и Николая с музыкой выпроваживают из города...
Качество: DVDRip
Формат: AVI
Видео кодек: DivX
Аудио кодек: AC3
Видео: 688x512 (1.34:1), 25 fps, DivX Codec 5.2.1 alpha ~2100 kbps avg
Аудио: 48 kHz, AC3 Dolby Digital, 3/2 (L,C,R,l,r) + LFE ch, ~448.00 kbps avg

Скриншоты

           

MI

Общее
Полное имя : E:\Oblako_ray.avi
Формат : AVI
Формат/Информация : Audio Video Interleave
Размер файла : 1,36 Гбайт
Продолжительность : 1 ч. 16 м.
Общий поток : 2559 Кбит/сек
Программа кодирования : VirtualDubModRus 1.5.10.2 (build 2542/release)
Библиотека кодирования : VirtualDubMod build 2542/release
Видео
Идентификатор : 0
Формат : MPEG-4 Visual
Параметр BVOP формата : 1
Параметр QPel формата : Нет
Параметр GMC формата : Без точки перехода
Параметр матрицы формата : Default (H.263)
Режим смешивания : Сжатый битовый поток
Идентификатор кодека : DX50
Идентификатор кодека/Подсказка : DivX 5
Продолжительность : 1 ч. 16 м.
Битрейт : 2101 Кбит/сек
Ширина : 688 пикселей
Высота : 512 пикселей
Соотношение сторон : 4:3
Частота кадров : 25,000 кадров/сек
Цветовое пространство : YUV
Субдискретизация насыщенности : 4:2:0
Битовая глубина : 8 бит
Тип развёртки : Прогрессивная
Метод сжатия : С потерями
Бит/(Пиксели*Кадры) : 0.239
Размер потока : 1,12 Гбайт (82%)
Библиотека кодирования : DivX 5.2.1 Alpha (UTC 2004-09-08)
Аудио
Идентификатор : 1
Формат : AC-3
Формат/Информация : Audio Coding 3
Расширение режима : CM (complete main)
Параметр Endianness формата : Big
Идентификатор кодека : 2000
Продолжительность : 1 ч. 16 м.
Вид битрейта : Постоянный
Битрейт : 448 Кбит/сек
Каналы : 6 каналов
Расположение каналов : Front: L C R, Side: L R, LFE
Частота : 48,0 КГц
Метод сжатия : С потерями
Размер потока : 245 Мбайт (18%)
Выравнивание : Соединение по промежуткам
Продолжительность промежутка : 40 мс. (1,00 видеокадр)
Время предзагрузки промежутка : 512 мс.

Region_13

Пост 16-Ноя-2015 17:33

[Цитировать]

Беспредел / Bespredel
Год выпуска: 1989
Страна: СССР
Жанр: драма, криминал
Продолжительность: 102 мин. / 01:42
Перевод: Не требуется
Режиссер: Игорь Гостев
Сценарий: Игорь Гостев, Леонид Никитинский
Бюджет: Неизвестно
Премьера в мире: 01.01.1989
зрителям, достигшим 16 лет


В ролях: Андрей Ташков, Александр Мохов, Сергей Гармаш, Лев Дуров, Виктор Павлов, Александр Кузнецов, Олег Рогачев, Татьяна Агафонова, Антон Андросов, Алексей Аблепихин, Наиль Идрисов, Михаил Жигалов
Описание: Что же в Росси на самом деле происходит за решеткой тюрем? Этот фильм немного приоткрывает завесу над этим вопросом. Говорится о том, о чем умалчивалось годами. Негласные правила, которые должны соблюдать все, изощренная система доносов, которая используется начальником тюрьмы для управления заключенными, вот реальность тюрьмы. Новичок может поплатиться жизнью за незнание правил тюремного бытия. Всем правит страх и раболепие, сила – это закон. Фильм основан на реальных событиях и подлинных фактах жизни колонии строгого режима. Показаны «жестокие игры» заключенных и роль администрации колонии
Качество: DVDRip-AVC
Формат: MKV
Видео кодек: H.26x
Аудио кодек: AC3
Видео: 10 MPEG4 Video (H264), 720x560, 25 fps, 2700 Kbps
Аудио: Dolby AC3, 48000 Hz, 6ch, 384 kbps

Скриншоты

                       

MediaInfo

Общее
Уникальный идентификатор : 208257996742520735768908541945268724444 (0x9CAD07FD46F0BE8D95A908C8B8A8E2DC)
Полное имя : E:\Беспредел_1989.mkv
Формат : Matroska
Версия формата : Version 2
Размер файла : 2,09 Гбайт
Продолжительность : 1 ч. 36 м.
Общий поток : 3097 Кбит/сек
Дата кодирования : UTC 2014-07-14 09:38:31
Программа кодирования : mkvmerge v5.8.0 ('No Sleep / Pillow') built on Sep 2 2012 15:37:04
Библиотека кодирования : libebml v1.2.3 + libmatroska v1.3.0
Видео
Идентификатор : 1
Формат : AVC
Формат/Информация : Advanced Video Codec
Профиль формата : [email protected]
Параметр CABAC формата : Да
Параметр ReFrames формата : 8 кадров
Идентификатор кодека : V_MPEG4/ISO/AVC
Продолжительность : 1 ч. 36 м.
Битрейт : 2700 Кбит/сек
Ширина : 720 пикселей
Высота : 560 пикселей
Соотношение сторон : 1,286
Режим частоты кадров : Постоянный
Частота кадров : 25,000 кадров/сек
Цветовое пространство : YUV
Субдискретизация насыщенности : 4:2:0
Битовая глубина : 8 бит
Тип развёртки : Прогрессивная
Бит/(Пиксели*Кадры) : 0.268
Размер потока : 1,79 Гбайт (86%)
Библиотека кодирования : x264 core 125 r2208 d9d2288
Настройки программы : cabac=1 / ref=8 / deblock=1:-1:-1 / analyse=0x3:0x133 / me=umh / subme=9 / psy=1 / psy_rd=1.00:0.15 / mixed_ref=1 / me_range=24 / chroma_me=1 / trellis=1 / 8x8dct=1 / cqm=0 / deadzone=21,11 / fast_pskip=0 / chroma_qp_offset=-3 / threads=12 / lookahead_threads=2 / sliced_threads=0 / nr=0 / decimate=1 / interlaced=0 / bluray_compat=0 / constrained_intra=0 / bframes=8 / b_pyramid=2 / b_adapt=1 / b_bias=0 / direct=2 / weightb=1 / open_gop=0 / weightp=2 / keyint=250 / keyint_min=25 / scenecut=40 / intra_refresh=0 / rc_lookahead=50 / rc=abr / mbtree=1 / bitrate=2700 / ratetol=1.0 / qcomp=0.60 / qpmin=0 / qpmax=69 / qpstep=4 / ip_ratio=1.40 / aq=1:1.00
Default : Да
Forced : Нет
Аудио
Идентификатор : 2
Формат : AC-3
Формат/Информация : Audio Coding 3
Расширение режима : CM (complete main)
Параметр Endianness формата : Big
Идентификатор кодека : A_AC3
Продолжительность : 1 ч. 36 м.
Вид битрейта : Постоянный
Битрейт : 384 Кбит/сек
Каналы : 6 каналов
Расположение каналов : Front: L C R, Side: L R, LFE
Частота : 48,0 КГц
Метод сжатия : С потерями
Размер потока : 265 Мбайт (12%)
Default : Да
Forced : Нет
 

Текущее время: Сегодня 01:57

Часовой пояс: GMT + 3