Сегодня идет свободное скачивание без начисления Download

Результатов поиска: 500

Автор Сообщение

}{@R0N

Пост 17-Апр-2017 13:35

[Цитировать]

Служебный роман - Выпущено: Мосфильм, СССР
Жанр: Комедия, Мелодрама
Продолжительность: 02:30:21
Премьера (мир): 26 октября 1977, ...
Релиз на DVD: 11 января 2011, «Парадиз», ...
Релиз на Blu-Ray: 3 апреля 2012, «Парадиз», ...
Режиссер: Эльдар Рязанов
Актеры: Андрей Мягков, Алиса Фрейндлих, Светлана Немоляева, Олег Басилашвили, Лия Ахеджакова, Георгий Бурков, Зоя Исаева, Людмила Иванова, Петр Щербаков, Мария Виноградова-Описание:
Анатолий Ефремович Новосельцев, рядовой служащий одного статистического управления, — человек робкий и застенчивый. Для него неплохо бы получить вакантное место зав. отделом, но он не знает как подступиться к этому делу. Старый приятель Самохвалов советует ему приударить за Людмилой Прокопьевной Калугиной, — сухарем в юбке и директором заведения…
Полная реставрация изображения и звука от Киноконцерн «Мосфильм» и объединение «Крупный план».
-Качество видео: BDRip
Видеокодек: MPEG-4 AVC/H.264
Битрейт видео: ~10.5 Мбит/с
Размер кадра: 1420x1080
Аудио 1: Русский; (48 kHz / (DTS, 6 ch, 1510 Кбит/с)

Доп.информация

Видеоряд от [email protected]
Сохранены оригинальные чаптеры как на Blu-ray.

Mediainfo

Общее
Уникальный идентификатор : 188832412530060308072203835478560487549 (0x8E0FCCBE22F14DD786EDBAE9A4D8387D)
Полное имя : D:\Sluzhebnyj.roman.1977.BDRip(1080p).mkv
Формат : Matroska
Версия формата : Version 2
Размер файла : 13,1 Гбайт
Продолжительность : 2 ч. 36 м.
Общий поток : 12,0 Мбит/сек
Дата кодирования : UTC 2012-04-23 03:33:18
Программа кодирования : mkvmerge v5.5.0 ('Healer') built on Apr 6 2012 21:43:24
Библиотека кодирования : libebml v1.2.3 + libmatroska v1.3.0
Видео
Идентификатор : 1
Формат : AVC
Формат/Информация : Advanced Video Codec
Профиль формата : [url=mailto:[email protected]][email protected][/url]
Параметр CABAC формата : Да
Параметр ReFrames формата : 4 кадра
Идентификатор кодека : V_MPEG4/ISO/AVC
Продолжительность : 2 ч. 36 м.
Битрейт : 10,5 Мбит/сек
Ширина : 1420 пикселей
Высота : 1080 пикселей
Соотношение сторон : 4:3
Частота кадров : 23,976 кадра/сек
Цветовое пространство : YUV
Субдискретизация насыщенности : 4:2:0
Битовая глубина : 8 бит
Тип развёртки : Прогрессивная
Бит/(Пиксели*Кадры) : 0.286
Размер потока : 11,2 Гбайт (85%)
Библиотека кодирования : x264 core 122 r2184 5c85e0a
Настройки программы : cabac=1 / ref=4 / deblock=1:-3:-3 / analyse=0x3:0x133 / me=umh / subme=10 / psy=1 / psy_rd=1.00:0.00 / mixed_ref=1 / me_range=24 / chroma_me=1 / trellis=2 / 8x8dct=1 / cqm=0 / deadzone=21,11 / fast_pskip=1 / chroma_qp_offset=-2 / threads=6 / sliced_threads=0 / nr=0 / decimate=1 / interlaced=0 / bluray_compat=0 / constrained_intra=0 / bframes=6 / b_pyramid=2 / b_adapt=2 / b_bias=0 / direct=2 / weightb=0 / open_gop=0 / weightp=2 / keyint=240 / keyint_min=23 / scenecut=40 / intra_refresh=0 / rc_lookahead=40 / rc=2pass / mbtree=1 / bitrate=10500 / ratetol=1.0 / qcomp=0.60 / qpmin=0 / qpmax=69 / qpstep=4 / cplxblur=20.0 / qblur=0.5 / ip_ratio=1.40 / aq=1:1.00
Язык : English
Default : Да
Forced : Нет
Аудио
Идентификатор : 2
Формат : DTS
Формат/Информация : Digital Theater Systems
Идентификатор кодека : A_DTS
Продолжительность : 2 ч. 36 м.
Вид битрейта : Постоянный
Битрейт : 1510 Кбит/сек
Каналы : 6 каналов
Расположение каналов : Front: L C R, Side: L R, LFE
Частота : 48,0 КГц
Битовая глубина : 24 бит
Метод сжатия : С потерями
Размер потока : 1,65 Гбайт (13%)
Язык : Russian
Default : Да
Forced : Нет
Меню
00:00:00.000 : :Chapter 01
00:11:41.867 : :Chapter 02
00:17:11.697 : :Chapter 03
00:20:56.505 : :Chapter 04
00:26:32.799 : :Chapter 05
00:29:37.609 : :Chapter 06
00:35:56.237 : :Chapter 07
00:40:04.860 : :Chapter 08
00:43:40.284 : :Chapter 09
00:48:50.844 : :Chapter 10
00:59:37.657 : :Chapter 11
01:03:18.252 : :Chapter 12
01:08:47.456 : :Chapter 13
01:12:09.825 : :Chapter 14
01:19:24.885 : :Chapter 15
01:25:42.095 : :Chapter 16
01:27:09.724 : :Chapter 17
01:38:29.069 : :Chapter 18
01:44:40.774 : :Chapter 19
01:49:47.205 : :Chapter 20
01:53:18.917 : :Chapter 21
02:02:57.828 : :Chapter 22
02:09:21.086 : :Chapter 23
02:14:21.470 : :Chapter 24
02:18:54.909 : :Chapter 25
02:23:25.430 : :Chapter 26
02:28:57.094 : :Chapter 27
02:33:28.490 : :Chapter 28

Знаете ли вы, что...

-- На роль Людмилы Прокофьевны Калугиной режиссер сразу же определил Фрейндлих. Наверное, это был первый случай в отечественном кино, когда Рязанову без кинопроб и утверждений через худсовет разрешили снимать тех актеров, каких он хотел.
-- Олег Басилашвили видел исключительно себя в роли Новосельцева и всячески пытался доказать это Эльдару Александровичу. Роль же Юрия Григорьевича Самохвалова актеру не очень нравилась, но уже в процессе работы он признал, что Рязанов верно распределил роли.
-- «Служебный роман» снят по пьесе «Сослуживцы», написанной Эльдаром Рязановым и Эмилем Брагинским всего за месяц.
-- В пьесе секретарша Вера — молодая длинноногая красавица. Но когда Рязанов и Брагинский писали сценарий для фильма, то Верочку они изменили под Ахеджакову. Актриса не была длинноногой красоткой, поэтому ее героине досталось от секретарши из пьесы только то, что она слыла модницей.
-- Изначально Верочка была представлена как замужняя дама и на роль супруга приглашали Михаила Светина. Но в последний момент от этой идеи решили отказаться. Потом Ахеджаковой «сватали» Александра Фатюшина. Его герой должен был постоянно выбирать между женой и мотоциклом, из-за чего супруги постоянно ссорились. Успели даже снять несколько сцен с Фатюшиным и Ахеджаковой, но актер неожиданно заболел и был вынужден лечь на операцию. Поэтому в картине осталось лишь несколько крохотных эпизодов с его участием, а Вере пришлось ругаться со своим мужем исключительно по телефону.
-- На роль общественницы Шурочки рассматривались Римма Маркова и Нина Агапова, но Людмила Иванова, которая была председателем месткома в «Современнике», была убедительнее других.
-- Эльдар Александрович разрешил всем актерам импровизировать на площадке, «успокаивая» при этом, что все ненужное потом вырежет. В результате в фильм не вошла часть сцены, в которой появляется живой Бубликов. Зрители не увидели, как Шурочка бегает по институту и кричит, что не виновата и сама бы померла, только фамилия у нее другая. А «умерший» Бубликов идет на нее с кулаками. Перед съемками этой сцены Рязанов подговорил актрису, чтобы она при виде Бубликова закричала: «Ура, да здравствует живой товарищ Бубликов!» А ничего не подозревающий актер Петр Щербаков на крик своей партнерши тут же среагировал: «Товарищи, спасибо за все!»
-- Чтобы создать достоверный образ директорши-мымры, Эльдар Рязанов и Алиса Фрейндлих очень долго искали для главной героини подходящую одежду. В самых отдаленных уголках костюмерных «Мосфильма» они отыскивали мешковатые, непонятного цвета и размера юбки и пиджаки. Но все-таки для завершения образа не хватало какой-то детали. Как всегда, помог случай. Оператор картины Владимир Нахабцев на всякий случай принес старые очки своего отца. И когда Алиса Бруновна их надела, то стало понятно — Мымра готова появиться на площадке.
-- В фильме героиня Светланы Немоляевой Ольга Рыжова читала стихи Беллы Ахмадулиной «О мой застенчивый герой, ты ловко избежал позора». Они нигде не издавались, поэтому актриса несколько лет после выхода картины была вынуждена переписывать их от руки и отсылать своим поклонникам.
-- Эльдар Рязанов долгое время скрывал, кто автор текста к песне «У природы нет плохой погоды». Оказалось, что эти стихи написал сам режиссер.
-- «Служебный роман» был принят всеми чиновниками настолько положительно, что его тут же было решено выдвинуть на Государственную премию СССР. Однако почетную премию получили все, кроме исполнительницы главной роли Фрейндлих. Оказывается, по правилам того времени подобные награды нельзя было давать раньше, чем через два года после предыдущей. А у Алисы Бруновны уже была премия за театральную роль.
-- Занимает по посещаемости 19-е место среди отечественных фильмов за всю историю советского кинопроката.
-- Лучший фильм по опросу журнала «Советский экран» в 1979 году.
-- В сцене, где Верочка, прибегая на работу, сразу включает приемник («Московское время — 9:00»), она сначала в брюках, потом сразу же в юбке.
-- Все внутренние помещения (включая кабинеты Калугиной, Самохвалова и зал заседаний) построены в павильонах Мосфильма.
Скриншоты:
       

}{@R0N

Пост 21-Фев-2017 18:33

[Цитировать]

Белое солнце пустыни - Производство: СССР, Мосфильм, Ленфильм
Жанр: боевик, драма, мелодрама, комедия, приключения, военный
Режиссер: Владимир Мотыль
Актеры: Анатолий Кузнецов, Спартак Мишулин, Кахи Кавсадзе, Павел Луспекаев, Раиса Куркина, Татьяна Федотова, Николай Годовиков, Муса Дудаев, Николай Бадьев, Владимир Кадочников
Описание:
Бесконечная пустыня, боец Сухов, прикуривающий с динамитной шашки, нескладный Петруха с вечно заклинивающей трехлинейкой, обаятельный Верещагин, с надоевшей черной икрой и знаменитыми песнями-балладами, ловкий Саид.

Возраст: 6+ (зрителям, достигшим 6 лет)
Релиз от: smithland
Продолжительность: 01:23:32
Качество видео: HDTV
Видео: AVC/H.264, 1280x720, ~8 581 Kbps
Аудио: AC3, 6 ch, 384 kbps, CBR

Mediainfo:

General
Unique ID : 252266240050686323062879045637784919001 (0xBDC8B5E7BAB7D5FE85EFE7EED19EDBD9)
Complete name : Белое солнце пустыни.mkv
Format : Matroska
Format version : Version 4 / Version 2
File size : 5.34 GiB
Duration : 1h 23mn
Overall bit rate : 9 147 Kbps
Movie name : Белое солнце пустыни [remux by smithland]
Encoded date : UTC 2017-01-20 10:22:36
Writing application : mkvmerge v9.5.0 ('Quiet Fire') 64bit
Writing library : libebml v1.3.4 + libmatroska v1.4.5
Attachements : COVER.jpg
DURATION : 01:23:31.680000000
NUMBER_OF_FRAMES : 156615
NUMBER_OF_BYTES : 240560640
_STATISTICS_WRITING_APP : mkvmerge v9.5.0 ('Quiet Fire') 64bit
_STATISTICS_WRITING_DATE_UTC : 2017-01-20 10:22:36
_STATISTICS_TAGS : BPS DURATION NUMBER_OF_FRAMES NUMBER_OF_BYTES
Video
ID : 1
Format : AVC
Format/Info : Advanced Video Codec
Format profile : [url=mailto:[email protected]][email protected][/url]
Format settings, CABAC : Yes
Format settings, ReFrames : 4 frames
Format settings, GOP : M=4, N=24
Codec ID : V_MPEG4/ISO/AVC
Duration : 1h 23mn
Bit rate : 8 581 Kbps
Width : 1 280 pixels
Height : 720 pixels
Display aspect ratio : 16:9
Frame rate mode : Constant
Frame rate : 23.976 fps
Color space : YUV
Chroma subsampling : 4:2:0
Bit depth : 8 bits
Scan type : Progressive
Bits/(Pixel*Frame) : 0.388
Stream size : 5.01 GiB (94%)
Language : Russian
Default : Yes
Forced : Yes
Audio
ID : 2
Format : AC-3
Format/Info : Audio Coding 3
Mode extension : CM (complete main)
Format settings, Endianness : Big
Codec ID : A_AC3
Duration : 1h 23mn
Bit rate mode : Constant
Bit rate : 384 Kbps
Channel(s) : 6 channels
Channel positions : Front: L C R, Side: L R, LFE
Sampling rate : 48.0 KHz
Compression mode : Lossy
Stream size : 229 MiB (4%)
Language : Russian
Default : Yes
Forced : Yes
Скриншоты:
         

Omen

Пост 17-Янв-2017 01:00

[Цитировать]

Дуэлянт
Страна: Россия
Жанр: драма
Год выпуска: 2016
Продолжительность: 01:49:03
Перевод: Не требуется
Cубтитры: нет
Оригинальная аудиодорожка: русский
Режиссер: Алексей Мизгирёв
В ролях: Пётр Фёдоров, Владимир Машков, Юлия Хлынина, Франциска Петри, Мартин Вуттке, Сергей Гармаш, Павел Табаков, Юрий Колокольников, Александр Яценко, Юрий Кузнецов
Описание: В центре сюжета профессиональный дуэлянт, который зарабатывает на жизнь, участвуя в поединках за других людей.
Сэмпл: https://cloud.mail.ru/public/41QG/qGMhfGshM
Раздача от:

Тип релиза: BDRip 1080p
Контейнер: MKV
Видео: MPEG-4 AVC, 12,6 Мбит/с, 1920x816, 24,000 fps
Аудио: Rus, DTS, 1510 kb/s (6 ch), 48 kHz

x264 info

x264 [info]: frame I:1088 Avg QP:14.22 size:206835
x264 [info]: frame P:30994 Avg QP:15.88 size: 95776
x264 [info]: frame B:124958 Avg QP:17.67 size: 59078
x264 [info]: consecutive B-frames: 1.5% 2.3% 5.1% 12.4% 12.3% 54.5% 5.5% 1.1% 2.6% 0.5% 2.2%

MediaInfo

Общее
Уникальный идентификатор : 199747590963396001958471885388366361571 (0x9645FC96C5058531B9F2DD843F1E33E3)
Полное имя : The.Duelist.1080p.BluRay.DTS.Rus.HDCLUB.mkv
Формат : Matroska
Версия формата : Version 2
Размер файла : 11,0 Гбайт
Продолжительность : 1 ч. 49 м.
Общий поток : 14,4 Мбит/сек
Название фильма : The Duelist (2016) - Release for HDCLUB
Дата кодирования : UTC 2017-01-15 14:43:48
Программа кодирования : mkvmerge v3.4.0 ('Rapunzel') built on May 15 2010 09:38:20
Библиотека кодирования : libebml v0.8.0 + libmatroska v0.9.0
Видео
Идентификатор : 1
Формат : AVC
Формат/Информация : Advanced Video Codec
Профиль формата : [email protected]
Параметр CABAC формата : Да
Параметр ReFrames формата : 5 кадров
Идентификатор кодека : V_MPEG4/ISO/AVC
Продолжительность : 1 ч. 49 м.
Битрейт : 12,6 Мбит/сек
Ширина : 1920 пикселей
Высота : 816 пикселей
Соотношение сторон : 2,35:1
Режим частоты кадров : Постоянный
Частота кадров : 24,000 кадра/сек
Цветовое пространство : YUV
Субдискретизация насыщенности : 4:2:0
Битовая глубина : 8 бит
Тип развёртки : Прогрессивная
Бит/(Пиксели*Кадры) : 0.336
Размер потока : 9,63 Гбайт (88%)
Заголовок : The Duelist (2016) - Release for HDCLUB
Библиотека кодирования : x264 core 148 r2744 b97ae06
Настройки программы : cabac=1 / ref=5 / deblock=1:-3:-3 / analyse=0x3:0x133 / me=umh / subme=11 / psy=1 / psy_rd=1.00:0.00 / mixed_ref=1 / me_range=48 / chroma_me=1 / trellis=2 / 8x8dct=1 / cqm=0 / deadzone=21,11 / fast_pskip=0 / chroma_qp_offset=-2 / threads=18 / lookahead_threads=4 / sliced_threads=0 / nr=0 / decimate=1 / interlaced=0 / bluray_compat=0 / constrained_intra=0 / bframes=10 / b_pyramid=2 / b_adapt=2 / b_bias=0 / direct=1 / weightb=1 / open_gop=0 / weightp=2 / keyint=240 / keyint_min=24 / scenecut=40 / intra_refresh=0 / rc_lookahead=60 / rc=crf / mbtree=0 / crf=17.4 / qcomp=0.60 / qpmin=0 / qpmax=69 / qpstep=4 / vbv_maxrate=50000 / vbv_bufsize=62500 / crf_max=0.0 / nal_hrd=none / filler=0 / ip_ratio=1.35 / pb_ratio=1.25 / aq=3:0.80
Язык : Russian
Default : Да
Forced : Нет
Аудио
Идентификатор : 2
Формат : DTS
Формат/Информация : Digital Theater Systems
Режим : 16
Параметр Endianness формата : Big
Идентификатор кодека : A_DTS
Продолжительность : 1 ч. 49 м.
Вид битрейта : Постоянный
Битрейт : 1510 Кбит/сек
Каналы : 6 каналов
Расположение каналов : Front: L C R, Side: L R, LFE
Частота : 48,0 КГц
Частота кадров : 93,750 кадра/сек (512 spf)
Битовая глубина : 24 бит
Метод сжатия : С потерями
Размер потока : 1,15 Гбайт (10%)
Заголовок : DTS 5.1 @ 1536 kbps
Язык : Russian
Default : Да
Forced : Нет
Меню
00:00:00.000 : en:1
00:09:44.292 : en:2
00:16:05.083 : en:3
00:23:55.667 : en:4
00:37:25.083 : en:5
00:48:23.542 : en:6
00:58:41.167 : en:7
01:07:47.042 : en:8
01:16:38.167 : en:9
01:23:24.625 : en:10
01:30:59.708 : en:11
01:37:55.042 : en:12

Скриншоты

Omen

Пост 17-Янв-2017 01:00

[Цитировать]

Дуэлянт
Страна: Россия
Жанр: драма
Год выпуска: 2016
Продолжительность: 01:49:03
Перевод: Не требуется
Cубтитры: нет
Оригинальная аудиодорожка: английский
Режиссер: Алексей Мизгирёв
В ролях: Пётр Фёдоров, Владимир Машков, Юлия Хлынина, Франциска Петри, Мартин Вуттке, Сергей Гармаш, Павел Табаков, Юрий Колокольников, Александр Яценко, Юрий Кузнецов
Описание: В центре сюжета профессиональный дуэлянт, который зарабатывает на жизнь, участвуя в поединках за других людей.
Сэмпл: https://cloud.mail.ru/public/849u/tBRtqJzMc
Раздача от:

Тип релиза: BDRip 720p
Контейнер: MKV
Видео: MPEG-4 AVC, 5976 Кбит/с, 1280x544, 24,000 fps
Аудио: Rus, DTS, 1510 kb/s (6 ch), 48 kHz

MediaInfo

Общее
Уникальный идентификатор : 180507040272826961234876666571622312445 (0x87CC643303A30AA2A6D0A7B1D609E9FD)
Полное имя : The.Duelist.720p.BluRay.DTS.Rus.HDCLUB.mkv
Формат : Matroska
Версия формата : Version 2
Размер файла : 5,82 Гбайт
Продолжительность : 1 ч. 49 м.
Общий поток : 7638 Кбит/сек
Название фильма : The Duelist (2016) - Release for HDCLUB
Дата кодирования : UTC 2017-01-15 14:42:39
Программа кодирования : mkvmerge v3.4.0 ('Rapunzel') built on May 15 2010 09:38:20
Библиотека кодирования : libebml v0.8.0 + libmatroska v0.9.0
Видео
Идентификатор : 1
Формат : AVC
Формат/Информация : Advanced Video Codec
Профиль формата : [email protected]
Параметр CABAC формата : Да
Параметр ReFrames формата : 12 кадров
Идентификатор кодека : V_MPEG4/ISO/AVC
Продолжительность : 1 ч. 49 м.
Битрейт : 5976 Кбит/сек
Ширина : 1280 пикселей
Высота : 544 пикселя
Соотношение сторон : 2,35:1
Режим частоты кадров : Постоянный
Частота кадров : 24,000 кадра/сек
Цветовое пространство : YUV
Субдискретизация насыщенности : 4:2:0
Битовая глубина : 8 бит
Тип развёртки : Прогрессивная
Бит/(Пиксели*Кадры) : 0.358
Размер потока : 4,55 Гбайт (78%)
Заголовок : The Duelist (2016) - Release for HDCLUB
Библиотека кодирования : x264 core 148 r2744 b97ae06
Настройки программы : cabac=1 / ref=12 / deblock=1:-3:-3 / analyse=0x3:0x133 / me=umh / subme=11 / psy=1 / psy_rd=1.00:0.00 / mixed_ref=1 / me_range=48 / chroma_me=1 / trellis=2 / 8x8dct=1 / cqm=0 / deadzone=21,11 / fast_pskip=0 / chroma_qp_offset=-2 / threads=17 / lookahead_threads=2 / sliced_threads=0 / nr=0 / decimate=1 / interlaced=0 / bluray_compat=0 / constrained_intra=0 / bframes=8 / b_pyramid=2 / b_adapt=2 / b_bias=0 / direct=1 / weightb=1 / open_gop=0 / weightp=2 / keyint=240 / keyint_min=24 / scenecut=40 / intra_refresh=0 / rc_lookahead=60 / rc=crf / mbtree=0 / crf=16.0 / qcomp=0.60 / qpmin=0 / qpmax=69 / qpstep=4 / vbv_maxrate=50000 / vbv_bufsize=62500 / crf_max=0.0 / nal_hrd=none / filler=0 / ip_ratio=1.35 / pb_ratio=1.25 / aq=3:0.80
Язык : Russian
Default : Да
Forced : Нет
Аудио
Идентификатор : 2
Формат : DTS
Формат/Информация : Digital Theater Systems
Режим : 16
Параметр Endianness формата : Big
Идентификатор кодека : A_DTS
Продолжительность : 1 ч. 49 м.
Вид битрейта : Постоянный
Битрейт : 1510 Кбит/сек
Каналы : 6 каналов
Расположение каналов : Front: L C R, Side: L R, LFE
Частота : 48,0 КГц
Частота кадров : 93,750 кадра/сек (512 spf)
Битовая глубина : 24 бит
Метод сжатия : С потерями
Размер потока : 1,15 Гбайт (20%)
Заголовок : DTS 5.1 @ 1536 kbps
Язык : Russian
Default : Да
Forced : Нет
Меню
00:00:00.000 : en:1
00:09:44.292 : en:2
00:16:05.083 : en:3
00:23:55.667 : en:4
00:37:25.083 : en:5
00:48:23.542 : en:6
00:58:41.167 : en:7
01:07:47.042 : en:8
01:16:38.167 : en:9
01:23:24.625 : en:10
01:30:59.708 : en:11
01:37:55.042 : en:12

Скриншоты

Omen

Пост 17-Янв-2017 01:00

[Цитировать]

Ночь одинокого филина
Страна: США
Студия: ОДА-Фильм, Киностудия «РОСТ», Мосфильм
Жанр: Комедия, семейный
Год выпуска: 2012
Продолжительность: 01:30:07
Cубтитры: нет
Оригинальная аудиодорожка: Русский
Режиссер: Галина Сальгарелли
В ролях: Ольга Погодина, Андрей Чернышов, Татьяна Кравченко, Андрей Градов, Михаил Химичев, Анна Антонова, Иван Кожевников, Павел Ремезов, Галина Стаханова, Бронислава Захарова, Елена Дубровская, Владимир Епископосян, Захар Ронжин, Вадим Гаман, Жером Кустийас, Прохор Зикора, Алексей Гущин, Елена Котельникова, Магомед Зурабов, Григорий Каганович, Валентина Абрамова, Александр Копылов, Анатолий Калмыков, Евгений Арзамасцев
Описание: Лирическая комедия о новогодних чудесах. Накануне Нового года владелец ресторана Вадим Михайлович устроил проверку для своих сотрудников, по факту которой была уволена шеф-повар Аня. Таким образом, новогодний корпоратив превратился в грустные проводы. Тем не менее, все сотрудники поехали в загородный дом, где должен был состояться праздник. Однако в пути герои заблудились и оказались в небольшой лесной избушке. Сюда же невиданными тропами прибывает и Вадим Михайлович. Новый год дарит героям чудесную возможность исправить все прошлые ошибки перед наступлением следующего жизненного этапа.
Дополнительная информация:
Автор релиза -
Моя запись с канала Первый HD от 14.01.2017
В оригинальном потоке звук псевдо-объёмный AC3 5.1 384 kbps - четыре канала из шести оказались пустыми, поэтому аудио-дорожка была перекодирована в AC3 2.0 384 kbps с использованием eac3to и Sony Vegas

Сэмпл: https://yadi.sk/i/6-A5rSWv38uqJd
Качество видео: HDTV 1080i
Формат видео: TS
Видео: MPEG-4, 1920x1080, 25.000 fps, 7606 kbps
Аудио: Русский AC3, 48000 Гц, 2ch, 384 kbps

MediaInfo

General
ID : 1 (0x1)
Complete name : Ночь.одинокого.филина.2012.HDTV.1080i-ylnian.ts
Format : MPEG-TS
File size : 5.29 GiB
Duration : 1 h 30 min
Overall bit rate mode : Variable
Overall bit rate : 8 409 kb/s
Maximum Overall bit rate : 35.5 Mb/s
Video
ID : 4113 (0x1011)
Menu ID : 1 (0x1)
Format : AVC
Format/Info : Advanced Video Codec
Format profile : [email protected]
Format settings, CABAC : Yes
Format settings, ReFrames : 4 frames
Codec ID : 27
Duration : 1 h 30 min
Bit rate mode : Variable
Bit rate : 7 606 kb/s
Maximum bit rate : 40.0 Mb/s
Width : 1 920 pixels
Height : 1 080 pixels
Display aspect ratio : 16:9
Frame rate : 25.000 FPS
Color space : YUV
Chroma subsampling : 4:2:0
Bit depth : 8 bits
Scan type : Interlaced
Scan type, store method : Separated fields
Scan order : Top Field First
Bits/(Pixel*Frame) : 0.147
Stream size : 4.79 GiB (90%)
Color range : Limited
Color primaries : BT.709
Transfer characteristics : BT.709
Matrix coefficients : BT.709
Audio
ID : 4352 (0x1100)
Menu ID : 1 (0x1)
Format : AC-3
Format/Info : Audio Coding 3
Mode extension : CM (complete main)
Format settings, Endianness : Big
Codec ID : 129
Duration : 1 h 30 min
Bit rate mode : Constant
Bit rate : 384 kb/s
Channel(s) : 2 channels
Channel positions : Front: L R
Sampling rate : 48.0 kHz
Frame rate : 31.250 FPS (1536 spf)
Bit depth : 16 bits
Compression mode : Lossy
Delay relative to video : -40 ms
Stream size : 248 MiB (5%)
Language : Russian

Скриншот c названием фильма

Скриншоты

Omen

Пост 16-Янв-2017 01:00

[Цитировать]

СуперБобровы
Страна: Россия
Жанр: комедия, семейный
Год выпуска: 2016
Продолжительность: 01:31:28
Перевод: Не требуется
Cубтитры: нет
Оригинальная аудиодорожка: русский
Режиссер: Дмитрий Дьяченко
В ролях: Павел Деревянко, Оксана Акиньшина, Роман Мадянов, Ирина Пегова, Владимир Толоконников, Даниил Вахрушев, Софья Мицкевич, Михаил Шамигулов, Елизавета Кононова, Виталий Кищенко
Описание: Вместо десерта на ужин семейство Бобровых получило... метеорит. Настоящий, большой, из космоса. Благодаря ему Бобровы вдруг приобретают немыслимые сверхспособности. Дед становится бессмертным, а отец теперь может телепортироваться. Сын начинает понимать собачий язык, а его сёстры получают суперсилу, возможность летать и быть невидимой. Единственное ограничение - способности действуют только когда вся семейка в сборе.
Короче, у заурядной, среднестатистической ячейки общества появляется шанс превратиться в отряд настоящих супергероев. Вот только вместо того, чтобы спасать мир, они решают ограбить ближайший банк…
Сэмпл: https://cloud.mail.ru/public/EY6u/LprfFyPXG
Тип релиза: BDRip 1080p
Контейнер: MKV
Видео: MPEG-4 AVC, 13,1 Мбит/с, 1920x800, 23,976 fps
Аудио: Rus, DTS, 1509 kb/s (6 ch), 48 kHz

MediaInfo

Общее
Уникальный идентификатор : 206257486177540032605647136498621432486 (0x9B2BBF3412F133ECB893948170D942A6)
Полное имя : SuperBobrovy.2016.1080p.BluRay.Rus.HDCLUB.mkv
Формат : Matroska
Версия формата : Version 2
Размер файла : 9,55 Гбайт
Продолжительность : 1 ч. 31 м.
Общий поток : 14,9 Мбит/сек
Название фильма : SuperBobrovy (2016) - Release for HDCLUB
Дата кодирования : UTC 2017-01-13 14:53:35
Программа кодирования : mkvmerge v5.8.0 ('No Sleep / Pillow') built on Sep 2 2012 15:37:04
Библиотека кодирования : libebml v1.2.3 + libmatroska v1.3.0
Обложка : Yes
Attachments : cover.jpg / logfile.log
Видео
Идентификатор : 1
Формат : AVC
Формат/Информация : Advanced Video Codec
Профиль формата : [email protected]
Параметр CABAC формата : Да
Параметр ReFrames формата : 5 кадров
Идентификатор кодека : V_MPEG4/ISO/AVC
Продолжительность : 1 ч. 31 м.
Битрейт : 13,1 Мбит/сек
Ширина : 1920 пикселей
Высота : 808 пикселей
Соотношение сторон : 2,40:1
Режим частоты кадров : Постоянный
Частота кадров : 25,000 кадров/сек
Цветовое пространство : YUV
Субдискретизация насыщенности : 4:2:0
Битовая глубина : 8 бит
Тип развёртки : Прогрессивная
Бит/(Пиксели*Кадры) : 0.339
Размер потока : 8,39 Гбайт (88%)
Заголовок : SuperBobrovy (2016) - Release for HDCLUB
Библиотека кодирования : x264 core 148 r2744 b97ae06
Настройки программы : cabac=1 / ref=5 / deblock=1:-3:-3 / analyse=0x3:0x133 / me=umh / subme=11 / psy=1 / psy_rd=1.00:0.00 / mixed_ref=1 / me_range=32 / chroma_me=1 / trellis=2 / 8x8dct=1 / cqm=0 / deadzone=21,11 / fast_pskip=0 / chroma_qp_offset=-2 / threads=12 / lookahead_threads=3 / sliced_threads=0 / nr=0 / decimate=0 / interlaced=0 / bluray_compat=0 / constrained_intra=0 / bframes=10 / b_pyramid=2 / b_adapt=2 / b_bias=0 / direct=3 / weightb=1 / open_gop=0 / weightp=2 / keyint=250 / keyint_min=25 / scenecut=40 / intra_refresh=0 / rc=crf / mbtree=0 / crf=17.0 / qcomp=0.60 / qpmin=0 / qpmax=69 / qpstep=4 / ip_ratio=1.40 / pb_ratio=1.30 / aq=1:0.80
Язык : Russian
Default : Да
Forced : Нет
Аудио
Идентификатор : 2
Формат : DTS
Формат/Информация : Digital Theater Systems
Режим : 16
Параметр Endianness формата : Big
Идентификатор кодека : A_DTS
Продолжительность : 1 ч. 31 м.
Вид битрейта : Постоянный
Битрейт : 1509 Кбит/сек
Каналы : 6 каналов
Расположение каналов : Front: L C R, Side: L R, LFE
Частота : 48,0 КГц
Частота кадров : 93,750 кадра/сек (512 spf)
Битовая глубина : 24 бит
Метод сжатия : С потерями
Размер потока : 987 Мбайт (10%)
Заголовок : DTS 5.1 @ 1509 kbps
Язык : Russian
Default : Да
Forced : Нет
Меню
00:00:00.000 : :Chapter 01
00:01:06.600 : :Chapter 02
00:11:08.880 : :Chapter 03
00:22:22.240 : :Chapter 04
00:33:08.680 : :Chapter 05
00:44:41.280 : :Chapter 06
00:56:54.600 : :Chapter 07
01:10:51.040 : :Chapter 08
01:21:54.840 : :Chapter 09

Скриншоты

Omen

Пост 07-Янв-2017 01:00

[Цитировать]

Мужчина в моей голове
Страна: Россия
Жанр: комедия, мелодрама
Год выпуска: 2009
Продолжительность: 01:56:25-Перевод: не требуется
Оригинальная аудиодорожка: русский
Cубтитры: нет-Режиссёр: Алексей Пиманов
В ролях: Ольга Погодина, Алексей Серебряков, Андрей Чернышов, Ольга Медынич, Игорь Угольников, Игорь Верник, Анна Якунина, Егор Баринов, Александр Макогон, Людмила Гаврилова, Юрий Аскаров, Вахтанг Беридзе, Олег Масленников-Войтов, Ирина Ефремова (II), Александра Живова, Наталья Унгард, Константин Спасский, Таисия Михолап, Олег Пышненко, Наталья Домерецкая, Василий Брыков, Андрей Державин, Александр Жулин-Описание: Действие происходит в предновогодней Москве. Женщина, упав на катке, теряет сознание и оказывается в больнице. Придя в себя, она чувствует, что у неё в голове поселился неизвестный мужчина. Они начинают общаться: ссорятся, мирятся, советуются. Наконец, она влюбляется в него, а он исчезает. В то же время в больнице приходит в сознание известный телеведущий…-Сэмпл: минута57сек-Качество видео: HDTV 1080p
Формат видео: MKV
Видео: AVC, 1920 х 1080, 16:9, 25,000 кадров/сек, 4100 Кбит/сек
Аудио: AAC, 48,0 КГц, 188 Кбит/сек, 2 канала

Сравнение с DVD

[url=viewtopic.php?t=2930316]DVD[/url]
2 скрина
2 скрина
скрин

MediaInfo

Общее
Уникальный идентификатор : 221156994334996009388565769860772284125 (0xA66149ABF3F8786D97423760F32446DD)
Полное имя : Мужчина в моей голове.2009.mkv
Формат : Matroska
Версия формата : Version 2
Размер файла : 3,49 Гбайт
Продолжительность : 1 ч. 56 м.
Режим общего битрейта : Переменный
Общий поток : 4290 Кбит/сек
Название фильма : Мужчина в моей голове / 2009
Дата кодирования : UTC 2016-12-09 09:58:36
Программа кодирования : mkvmerge v8.3.0 ('Over the Horizon') 32bit
Библиотека кодирования : libebml v1.3.1 + libmatroska v1.4.2
Видео
Идентификатор : 1
Формат : AVC
Формат/Информация : Advanced Video Codec
Профиль формата : [email protected]
Параметр CABAC формата : Да
Параметр ReFrames формата : 4 кадра
Идентификатор кодека : V_MPEG4/ISO/AVC
Продолжительность : 1 ч. 56 м.
Вид битрейта : Переменный
Максимальный битрейт : 4500 Кбит/сек
Ширина : 1920 пикселей
Высота : 1080 пикселей
Соотношение сторон : 16:9
Режим частоты кадров : Постоянный
Частота кадров : 25,000 кадров/сек
Цветовое пространство : YUV
Субдискретизация насыщенности : 4:2:0
Битовая глубина : 8 бит
Тип развёртки : Прогрессивная
Заголовок : Мужчина в моей голове / 2009
Язык : Russian
Default : Да
Forced : Нет
Аудио
Идентификатор : 2
Формат : AAC
Формат/Информация : Advanced Audio Codec
Профиль формата : LC
Идентификатор кодека : A_AAC
Продолжительность : 1 ч. 56 м.
Каналы : 2 канала
Расположение каналов : Front: L R
Частота : 48,0 КГц
Частота кадров : 46,875 кадров/сек (1024 spf)
Метод сжатия : С потерями
Задержка видео : 300 мс.
Язык : Russian
Default : Да
Forced : Нет

Скриншот c названием фильма

Скриншоты

Omen

Пост 31-Дек-2016 01:00

[Цитировать]

Хороший мальчик- Год выпуска: 2016
Выпущено: Россия
Жанр: комедия
Продолжительность: 01:35:07
Субтитры: нет-Режиссер: Оксана Карас
В ролях: Семен Трескунов, Константин Хабенский, Михаил Ефремов, Александр Паль, Анастасия Богатырева, Василий Буткевич, Иева Андреевайте, Ирина Денисова, Татьяна Догилева, Ирина Пегова
О фильме: Обычная, казалось бы, неделя из жизни ничем не примечательного школьника Коли Смирнова превращается в череду невероятных происшествий: Коля влюбляется в учительницу английского, кто-то поджигает школьную пристройку с новыми компьютерами, а папа Коли заявляет семье о необходимости отказа от ночного сна, из-за чего никому в доме не удается выспаться и собраться с мыслями. Вдобавок в самого Колю влюбляется дочка директора, старшеклассница Ксюша, решившая, что это именно он поджёг школу. Остаётся всего несколько дней до субботнего праздника школы, где должны встретиться все действующие лица этого водоворота событий, и теперь хорошему мальчику Коле необходимо успеть разобраться со своей личной жизнью, расследовать поджог и наладить взаимоотношения с родителями.
Релиз:
Тип релиза: 1080p WEB-DL
Формат: MKV
Видео: 1920x856 at 24.000 fps (True24p), MPEG-4 AVC, ~4792 kbps avg
Аудио: Russian: 48 kHz, AC3, 3/2 (L,C,R,l,r) + LFE ch, ~384.00 kbps avg
Семпл-

Кадры из фильма

-

mInfo

Формат : Matroska
Версия формата : Version 2
Размер файла : 3,51 Гбайт
Продолжительность : 1 ч. 35 м.
Общий поток : 5281 Кбит/сек
Название фильма : The Good Boy (2016) - Release for HDCLUB
Дата кодирования : UTC 2016-12-21 19:58:27
Программа кодирования : mkvmerge v3.4.0 ('Rapunzel') built on May 15 2010 09:38:20
Библиотека кодирования : libebml v0.8.0 + libmatroska v0.9.0
Видео
Идентификатор : 1
Формат : AVC
Формат/Информация : Advanced Video Codec
Профиль формата : [email protected]
Параметр CABAC формата : Да
Параметр ReFrames формата : 5 кадров
Идентификатор кодека : V_MPEG4/ISO/AVC
Продолжительность : 1 ч. 35 м.
Битрейт : 4792 Кбит/сек
Ширина : 1920 пикселей
Высота : 856 пикселей
Соотношение сторон : 2,25:1
Режим частоты кадров : Постоянный
Частота кадров : 24,000 кадра/сек
Цветовое пространство : YUV
Субдискретизация насыщенности : 4:2:0
Битовая глубина : 8 бит
Тип развёртки : Прогрессивная
Бит/(Пиксели*Кадры) : 0.121
Размер потока : 3,18 Гбайт (91%)
Заголовок : The Good Boy (2016) - Release for HDCLUB
Язык : Russian
Default : Да
Forced : Нет
Основные цвета : BT.709
Характеристики трансфера : BT.709
Коэффициенты матрицы : BT.709
colour_range : Limited
Аудио
Идентификатор : 2
Формат : AC-3
Формат/Информация : Audio Coding 3
Расширение режима : CM (complete main)
Параметр Endianness формата : Big
Идентификатор кодека : A_AC3
Продолжительность : 1 ч. 35 м.
Вид битрейта : Постоянный
Битрейт : 384 Кбит/сек
Каналы : 6 каналов
Расположение каналов : Front: L C R, Side: L R, LFE
Частота : 48,0 КГц
Битовая глубина : 16 бит
Метод сжатия : С потерями
Размер потока : 261 Мбайт (7%)
Заголовок : AC3 5.1 @ 384 kbps
Язык : Russian
Default : Да
Forced : Нет
Меню
00:00:00.000 : en:1
00:06:15.583 : en:2
00:13:25.874 : en:3
00:20:43.582 : en:4
00:28:08.873 : en:5
00:35:55.831 : en:6
00:42:27.747 : en:7
00:50:15.455 : en:8
00:57:46.288 : en:9
01:05:03.579 : en:10
01:11:38.829 : en:11
01:18:45.745 : en:12
01:25:45.453 : en:13
-Цитата:
* Сохранены оригинальные главы.
* Исходный WEB-DL куплен в рамках сервиса "Копилка".

Omen

Пост 30-Дек-2016 01:00

[Цитировать]

Аты-баты, шли солдаты...
Страна: СССР
Студия: Киностудия им. А.Довженко
Жанр: военная драма
Год выпуска: 1976
Продолжительность: 01:22:27
Перевод: Не требуется
Cубтитры: нет
Оригинальная аудиодорожка: русский
Режиссер: Леонид Быков
В ролях: Леонид Быков, Владимир Конкин, Елена Шанина, Леонид Бакштаев, Евгения Уралова, Гия Авалишвили, Богдан Бенюк, Николай Гринько, Отабек Ганиев, Иван Гаврилюк, Владимир Герасимов, Михаил Езепов, Нина Кирьякова, Маргарита Кошелева, Борис Кудрявцев, Пётр Любешкин, Виктор Мирошниченко, Леонид Марченко, А. Медведева, Наталья Наум, Вилорий Пащенко, Николай Сектименко, Борис Химичев, Юрий Шерстнёв, Аида Юнусова, Вано Янтбелидзе
Описание: Последний фильм Леонида Быкова и его последняя роль в кино...
Они погибли 18 марта 1944 года, их было всего восемнадцать человек – комсомольский взвод, остановивший колонну немецких танков. Трагическое и комедийное, героическое и лирическое сплелись на экране в необычную ткань повествования об отцах, навсегда оставшихся молодыми, и о детях, пришедших туда, где ровно тридцать лет назад приняли свой последний смертный бой самые родные для них люди...
Сэмпл: http://sendfile.su/1294746
Тип релиза: WEB-DL 720p
Контейнер: MKV
Видео: x264/AVC, 1280x720 (16:9), 3200kbps, 24.000fps
Аудио: русский, AAC, 2 channels, 44.1 kHz, 103kbps

MediaInfo

General
Unique ID : 232199617516196917371613559699223749073 (0xAEB0050773EA8027A5D6BEFADDC621D1)
Complete name : C:\Аты баты, шли солдаты...(1976).mkv
Format : Matroska
Format version : Version 4 / Version 2
File size : 1.92 GiB
Duration : 1 h 22 min
Overall bit rate : 3 326 kb/s
Encoded date : UTC 2016-12-29 16:03:41
Writing application : mkvmerge v9.6.0 ('Slave To Your Mind') 64bit
Writing library : libebml v1.3.4 + libmatroska v1.4.5
Video
ID : 1
Format : AVC
Format/Info : Advanced Video Codec
Format profile : [email protected]
Format settings, CABAC : Yes
Format settings, ReFrames : 5 frames
Codec ID : V_MPEG4/ISO/AVC
Duration : 1 h 22 min
Bit rate : 3 200 kb/s
Width : 1 280 pixels
Height : 720 pixels
Display aspect ratio : 16:9
Frame rate mode : Constant
Frame rate : 24.000 FPS
Color space : YUV
Chroma subsampling : 4:2:0
Bit depth : 8 bits
Scan type : Progressive
Bits/(Pixel*Frame) : 0.145
Stream size : 1.86 GiB (97%)
Writing library : x264 core 142
Encoding settings : cabac=1 / ref=5 / deblock=1:0:0 / analyse=0x3:0x113 / me=umh / subme=8 / psy=1 / psy_rd=1.00:0.00 / mixed_ref=1 / me_range=16 / chroma_me=1 / trellis=1 / 8x8dct=1 / cqm=0 / deadzone=21,11 / fast_pskip=1 / chroma_qp_offset=-2 / threads=1 / lookahead_threads=1 / sliced_threads=0 / nr=0 / decimate=1 / interlaced=0 / bluray_compat=0 / constrained_intra=0 / bframes=3 / b_pyramid=2 / b_adapt=2 / b_bias=0 / direct=3 / weightb=1 / open_gop=0 / weightp=2 / keyint=96 / keyint_min=24 / scenecut=40 / intra_refresh=0 / rc_lookahead=50 / rc=2pass / mbtree=1 / bitrate=3200 / ratetol=1.0 / qcomp=0.60 / qpmin=0 / qpmax=69 / qpstep=4 / cplxblur=20.0 / qblur=0.5 / ip_ratio=1.40 / aq=1:1.00
Default : Yes
Forced : No
Audio
ID : 2
Format : AAC
Format/Info : Advanced Audio Codec
Format profile : LC
Codec ID : A_AAC
Duration : 1 h 22 min
Bit rate : 103 kb/s
Channel(s) : 2 channels
Channel positions : Front: L R
Sampling rate : 44.1 kHz
Frame rate : 43.066 FPS (1024 spf)
Compression mode : Lossy
Delay relative to video : 2 ms
Stream size : 60.6 MiB (3%)
Default : Yes
Forced : No

Скриншоты

Omen

Пост 28-Дек-2016 01:00

[Цитировать]

Источник
Страна: Россия
Жанр: Драма
Год выпуска: 2016
Продолжительность: 01:31:31-Перевод: Не требуется
Cубтитры: нет
Оригинальная аудиодорожка: русский-Режиссер: Надежда Витальская-В ролях: Иван Янковский, Валентина Колева, Роза Хайруллина, Александр Рапопорт, Павел Делонг, Светлана Нарышкина, Денис Курочка, Максим Заусалин, Игорь Черкашин, Яна Кошкина
Описание: Иван, типичный житель современного мегаполиса, по работе приезжает в провинциальный город. По плану здесь на месте лесного массива будет построен туристический комплекс. Осматривая место для строительства в лесу, Иван встречает юную красавицу Алёну и влюбляется в неё. Алёна не похожа на тех девушек, с которыми Иван встречался раньше, он околдован её свежестью и чистотой. Вспыхнувшему чувству молодых людей мешает всё: и власти города, и старший брат Ивана, и обстоятельства, складывающиеся не в их пользу. А самое главное то, что они абсолютно из разных миров. Смогут ли они преодолеть все препятствия и быть вместе, ведь они такие разные?.-Тип релиза: WEB-DL 1080p
Контейнер: MKV-Видео: 1920x804 (2,40:1), 24 fps, AVC MPEG-4 (x264), [email protected] ~ 4438 Кбит/сек, 0.120 bit/pixel-Аудио: Russian: 48 kHz, AC3, 3/2 (L,C,R,l,r) + LFE ch, ~384.00 kbps avg

MediaInfo

Общее
Уникальный идентификатор : 242489317588460316773639591601656365585 (0xB66DBE6944A445BF85771B10F4810211)
Полное имя : D:\Istochnik.WEB-DL.1080p.mkv
Формат : Matroska
Версия формата : Version 2
Размер файла : 3,15 Гбайт
Продолжительность : 1 ч. 31 м.
Общий поток : 4920 Кбит/сек
Дата кодирования : UTC 2016-12-27 18:17:53
Программа кодирования : mkvmerge v5.6.0 ('Kenya Kane') built on May 27 2012 16:44:04
Библиотека кодирования : libebml v1.2.3 + libmatroska v1.3.0
Видео
Идентификатор : 1
Формат : AVC
Формат/Информация : Advanced Video Codec
Профиль формата : [email protected]
Параметр CABAC формата : Да
Параметр ReFrames формата : 5 кадров
Идентификатор кодека : V_MPEG4/ISO/AVC
Продолжительность : 1 ч. 31 м.
Битрейт : 4438 Кбит/сек
Ширина : 1920 пикселей
Высота : 804 пикселя
Соотношение сторон : 2,40:1
Режим частоты кадров : Постоянный
Частота кадров : 24,000 кадра/сек
Цветовое пространство : YUV
Субдискретизация насыщенности : 4:2:0
Битовая глубина : 8 бит
Тип развёртки : Прогрессивная
Бит/(Пиксели*Кадры) : 0.120
Размер потока : 2,84 Гбайт (90%)
Язык : Russian
Default : Да
Forced : Нет
Основные цвета : BT.709
Характеристики трансфера : BT.709
Коэффициенты матрицы : BT.709
Аудио
Идентификатор : 2
Формат : AC-3
Формат/Информация : Audio Coding 3
Расширение режима : CM (complete main)
Параметр Endianness формата : Big
Режим смешивания : Header stripping
Идентификатор кодека : A_AC3
Продолжительность : 1 ч. 31 м.
Вид битрейта : Постоянный
Битрейт : 384 Кбит/сек
Каналы : 6 каналов
Расположение каналов : Front: L C R, Side: L R, LFE
Частота : 48,0 КГц
Битовая глубина : 16 бит
Метод сжатия : С потерями
Размер потока : 251 Мбайт (8%)
Язык : Russian
Default : Да
Forced : Нет
Меню
00:00:00.000 : en:1
00:07:17.625 : en:2
00:14:08.958 : en:3
00:21:29.583 : en:4
00:28:01.041 : en:5
00:35:05.166 : en:6
00:41:49.999 : en:7
00:48:39.999 : en:8
00:55:11.457 : en:9
01:01:44.457 : en:10
01:09:02.915 : en:11
01:16:20.915 : en:12
01:24:08.123 : en:13

Скриншоты


Omen

Пост 28-Дек-2016 01:00

[Цитировать]

Сталкер- Страна: СССР
Студия: «Мосфильм»
Жанр: драма, фантастика
Год выпуска: 1979
Продолжительность: 02:35:12
Перевод: Не требуется
Cубтитры: русские, английские, французские, немецкие, итальянские, испанские-Режиссер: Андрей Тарковский-В ролях:
Александр Кайдановский, Анатолий Солоницын, Алиса Фрейндлих, Николай Гринько, Наташа Абрамова, Файме Юрно, Е. Костин, Раймо Ренди, Сергей Яковлев, Владимир Заманский
Описание:
Фильм снят по мотивам повести братьев Стругацких «Пикник на обочине». Действие разворачивается в некоей запретной Зоне, где по слухам, исполняются самые заветные желания. Туда и отправляются Писатель и Профессор, каждый по своим причинам, о которых предпочитают не говорить. А ведет их Сталкер - проводник по Зоне, то ли юродивый, то ли апостол новой веры.-Сэмпл | Кинопоиск-Тип релиза: WEB-DL 1080p
Контейнер: MKV
Видео: MPEG-4 AVC ([email protected]); 1480x1078, Display aspect ratio 1.373:1, 25.000 fps, 4579 Kbps
Аудио 1: Русский: AC-3; 16 bit 48 Khz; 5.1ch 448 Kbps; CBR | [url=viewtopic.php?t=573834]DVD9[/url], спасибо Sadxa
Аудио 2: Русский: AC-3; 16 bit 48 Khz; Mono 96 Kbps; CBR | -""-
Формат субтитров: softsub (SRT)
Выражаю признательность DON Releaser (&BLUE_LIFE) за распознанные титры и Euroxit за поименованные главы.

MediaInfo

General
Unique ID : 208886204715772585262568301196109749260 (0x9D260508A4EDE7BD9C8426F0CF851C0C)
Complete name : Сталкер.1979.mkv
Format : Matroska
Format version : Version 2
File size : 5.56 GiB
Duration : 2h 35mn
Overall bit rate : 5 125 Kbps
Encoded date : UTC 2016-12-27 09:04:26
Writing application : mkvmerge v7.8.0 ('River Man') 32bit built on Mar 27 2015 16:18:02
Writing library : libebml v1.3.1 + libmatroska v1.4.2
Video
ID : 1
Format : AVC
Format/Info : Advanced Video Codec
Format profile : [email protected]
Format settings, CABAC : Yes
Format settings, ReFrames : 5 frames
Codec ID : V_MPEG4/ISO/AVC
Duration : 2h 35mn
Bit rate : 4 479 Kbps
Width : 1 480 pixels
Height : 1 078 pixels
Display aspect ratio : 1.373
Frame rate mode : Constant
Frame rate : 25.000 fps
Color space : YUV
Chroma subsampling : 4:2:0
Bit depth : 8 bits
Scan type : Progressive
Bits/(Pixel*Frame) : 0.112
Stream size : 4.86 GiB (87%)
Title : Сталкер.1979
Language : Russian
Default : Yes
Forced : No
Color primaries : BT.709
Transfer characteristics : BT.709
Matrix coefficients : BT.709
Color range : Limited
Audio #1
ID : 2
Format : AC-3
Format/Info : Audio Coding 3
Mode extension : CM (complete main)
Format settings, Endianness : Big
Codec ID : A_AC3
Duration : 2h 35mn
Bit rate mode : Constant
Bit rate : 448 Kbps
Channel(s) : 6 channels
Channel positions : Front: L C R, Side: L R, LFE
Sampling rate : 48.0 KHz
Bit depth : 16 bits
Compression mode : Lossy
Stream size : 497 MiB (9%)
Title : AC-3; 16 bit 48 Khz; 5.1ch 448 Kbps; CBR | DVD9 «Artificial Eye»
Language : Russian
Default : Yes
Forced : No
Audio #2
ID : 3
Format : AC-3
Format/Info : Audio Coding 3
Mode extension : CM (complete main)
Format settings, Endianness : Big
Codec ID : A_AC3
Duration : 2h 35mn
Bit rate mode : Constant
Bit rate : 96.0 Kbps
Channel(s) : 1 channel
Channel positions : Front: C
Sampling rate : 48.0 KHz
Bit depth : 16 bits
Compression mode : Lossy
Stream size : 107 MiB (2%)
Title : AC-3; 16 bit 48 Khz; Mono 96 Kbps; CBR | DVD9 «Artificial Eye»
Language : Russian
Default : No
Forced : No
Text #1
ID : 4
Format : UTF-8
Codec ID : S_TEXT/UTF8
Codec ID/Info : UTF-8 Plain Text
Title : Субтитры русские
Language : Russian
Default : No
Forced : No
Text #2
ID : 5
Format : UTF-8
Codec ID : S_TEXT/UTF8
Codec ID/Info : UTF-8 Plain Text
Title : Субтитры английские
Language : Russian
Default : No
Forced : No
Text #3
ID : 6
Format : UTF-8
Codec ID : S_TEXT/UTF8
Codec ID/Info : UTF-8 Plain Text
Title : Субтитры французские
Language : French
Default : No
Forced : No
Text #4
ID : 7
Format : UTF-8
Codec ID : S_TEXT/UTF8
Codec ID/Info : UTF-8 Plain Text
Title : Субтитры немецкие
Language : French
Default : No
Forced : No
Text #5
ID : 8
Format : UTF-8
Codec ID : S_TEXT/UTF8
Codec ID/Info : UTF-8 Plain Text
Title : Субтитры итальянские
Language : Italian
Default : No
Forced : No
Text #6
ID : 9
Format : UTF-8
Codec ID : S_TEXT/UTF8
Codec ID/Info : UTF-8 Plain Text
Title : Субтитры испанские
Language : Spanish
Default : No
Forced : No
Menu
00:00:00.000 : ru:Первая серия. Титры
00:03:54.720 : ru:Дом Сталкера
00:12:29.320 : ru:Писатель и Профессор
00:20:45.480 : ru:Дорога в Зону
00:37:00.160 : ru:Знакомство с Зоной
00:46:43.920 : ru:Начало пути
01:02:48.120 : ru:Вторая серия. Пропажа Профессора
01:10:50.120 : ru:Спор
01:20:12.680 : ru:Сон Сталкера
01:24:37.000 : ru:Мясорубка
01:46:52.600 : ru:На пороге тайны
02:02:25.520 : ru:Бомба
02:18:21.360 : ru:Возвращение домой

Скриншоты

Дополнительно

Bluray JPN ---------------------------- Bluray UK ---------------------------- YouTube ---------------------------- Current

Omen

Пост 26-Дек-2016 01:01

[Цитировать]

28 панфиловцев
Страна: Россия
Студия: 28 панфиловцев, Libyan Palette Studios
Жанр: Военный, драма
Год выпуска: 2016
Продолжительность: 02:00:37
Перевод: Не требуется iTunes
Cубтитры: нет
Оригинальная аудиодорожка: русский
Режиссер: Ким Дружинин, Андрей Шальопа
В ролях: Александр Устюгов, Яков Кучеревский, Азамат Нигманов, Олег Фёдоров, Алексей Морозов, Антон Кузнецов, Алексей Лонгин, Максим Белбородов, Дмитрий Мурашев, Виталий Коваленко
Описание: Осенью 1941-го года немецкие части, стоявшие возле Волоколамска, отделяло от Москвы каких-нибудь два часа по шоссе. Однако, на этом шоссе стояла 316-я стрелковая дивизия под командованием генерала И.В.Панфилова. Этот военачальник обладал настолько высоким авторитетом среди личного состава, что бойцы дивизии сами называли себя панфиловцами. А дивизию - панфиловской.

Сэмпл: https://cloud.mail.ru/public/3fNn/YKg6EgQMS
Тип релиза: WEB-DL 1080p
Контейнер: MKV
Видео: MPEG-4 AVC, 4473 Кбит/с, 1920x804, 24,000 fps
Аудио: Rus, AC3, 384 kb/s (6 ch), 48 kHz

MediaInfo

Общее
Уникальный идентификатор : 207177726857908439473549456018614133825 (0x9BDCFA9269848E7B92970C7EB9562441)
Полное имя : 28_PANFILOVCEV_WEB_DL_1080p-BLUEBIRD.mkv
Формат : Matroska
Версия формата : Version 4 / Version 2
Размер файла : 4,18 Гбайт
Продолжительность : 2 ч. 0 м.
Общий поток : 4956 Кбит/сек
Название фильма : 28_PANFILOVCEV_WEB_DL_1080p-BLUEBIRD
Дата кодирования : UTC 2016-12-25 20:18:41
Программа кодирования : mkvmerge v6.9.1 ('Blue Panther') 32bit built on Apr 18 2014 18:15:44
Библиотека кодирования : libebml v1.3.0 + libmatroska v1.4.1
Видео
Идентификатор : 1
Формат : AVC
Формат/Информация : Advanced Video Codec
Профиль формата : [email protected]
Параметр CABAC формата : Да
Параметр ReFrames формата : 5 кадров
Идентификатор кодека : V_MPEG4/ISO/AVC
Продолжительность : 2 ч. 0 м.
Битрейт : 4473 Кбит/сек
Ширина : 1920 пикселей
Высота : 804 пикселя
Соотношение сторон : 2,40:1
Режим частоты кадров : Постоянный
Частота кадров : 24,000 кадра/сек
Цветовое пространство : YUV
Субдискретизация насыщенности : 4:2:0
Битовая глубина : 8 бит
Тип развёртки : Прогрессивная
Бит/(Пиксели*Кадры) : 0.121
Размер потока : 3,77 Гбайт (90%)
Заголовок : 28_PANFILOVCEV_WEB_DL_1080p-BLUEBIRD
Язык : Russian
Default : Да
Forced : Нет
Цветовой диапазон : Limited
Основные цвета : BT.709
Характеристики трансфера : BT.709
Коэффициенты матрицы : BT.709
Аудио
Идентификатор : 2
Формат : AC-3
Формат/Информация : Audio Coding 3
Расширение режима : CM (complete main)
Параметр Endianness формата : Big
Идентификатор кодека : A_AC3
Продолжительность : 2 ч. 0 м.
Вид битрейта : Постоянный
Битрейт : 384 Кбит/сек
Каналы : 6 каналов
Расположение каналов : Front: L C R, Side: L R, LFE
Частота : 48,0 КГц
Частота кадров : 31,250 кадров/сек (1536 spf)
Метод сжатия : С потерями
Размер потока : 331 Мбайт (8%)
Заголовок : [ORIGINAL] DD 5.1 @ 384 kbps (iTunes)
Язык : Russian
Default : Да
Forced : Нет
Меню
00:00:00.000 : en:Глава 1
00:06:28.666 : en:Глава 2
00:13:30.207 : en:Глава 3
00:20:32.207 : en:Глава 4
00:27:03.957 : en:Глава 5
00:33:34.290 : en:Глава 6
00:40:40.415 : en:Глава 7
00:48:05.248 : en:Глава 8
00:55:16.373 : en:Глава 9
01:02:22.998 : en:Глава 10
01:10:09.039 : en:Глава 11
01:18:04.164 : en:Глава 12
01:25:17.997 : en:Глава 13
01:32:36.997 : en:Глава 14
01:40:55.830 : en:Глава 15

Скриншоты

Omen

Пост 25-Дек-2016 01:01

[Цитировать]

Орда / The Horde
Страна: Россия
Студия: Pravoslavnaya Encyclopaedia
Жанр: История
Год выпуска: 2011
Продолжительность: 02:09:26--Перевод: Не требуется
Cубтитры: нет
Оригинальная аудио дорожка: русская--Режиссер: Андрей Прошкин / Andrei Proshkin--В ролях: Максим Суханов, Андрей Панин, Виталий Хаев, Александр Яценко, Пётр Янданэ, Евгений Харитонов, Юрий Пронин, Роза Хайруллина, Виталий Гусев, Юнчен Жуань, Алексей Шевченков, Даулет Абдыгапаров, Толепберген Байсакалов, Моге Ооржак--Описание: Орда. Веками это слово означало кровавые набеги и унизительную дань для многих стран и народов. Странный и страшный мир со своими законами и обычаями. В середине XIV века власть Орды простирается над большей частью Евразии. Платит дань восточному соседу и Московское княжество. Когда ханшу Тайдулу сражает тяжелый недуг, ни один целитель оказывается не в силах ей помочь. Тогда в Орду вызывают «московского колдуна» митрополита Алексия. На карту поставлена судьба всего княжества. Однако и сам Алексий не знает, чем обернется его путешествие в Орду.--Доп. информация: Присутствует навигация по главам.--Сэмпл: http://sendfile.su/1293307--Тип релиза: BDRip 720p
Контейнер: MKV
Видео кодек: H.264
Аудио кодек: DTS
Видео: MPEG4/AVC,1280x544p, 2.35:1, 24.000 FPS, 7328 kb/s
Аудио: RUS / нет, DTS, 48.0 kHz, 5.1, 1509 kb/s | оригинал

MediaInfo

x264 [info]: profile High, level 4.1
---x264 [info]: frame I:984 Avg QP:13.68 size:125456
---x264 [info]: frame P:40483 Avg QP:15.11 size: 62225
---x264 [info]: frame B:144921 Avg QP:16.40 size: 32042
Формат : Matroska
Версия формата : Version 2
Размер файла : 8,15 Гбайт
Продолжительность : 2 ч. 9 м.
Общий поток : 9017 Кбит/сек
Название фильма : Orda - Rip from Rutracker
Дата кодирования : UTC 2016-12-24 15:45:35
Программа кодирования : mkvmerge v7.6.0 ('Garden of Dreams') 32bit built on Feb 11 2015 00:18:47
Библиотека кодирования : libebml v1.3.1 + libmatroska v1.4.2
Видео
Идентификатор : 1
Формат : AVC
Формат/Информация : Advanced Video Codec
Профиль формата : [email protected]
Параметр CABAC формата : Да
Параметр ReFrames формата : 12 кадров
Идентификатор кодека : V_MPEG4/ISO/AVC
Продолжительность : 2 ч. 9 м.
Битрейт : 7328 Кбит/сек
Ширина : 1280 пикселей
Высота : 544 пикселя
Соотношение сторон : 2,35:1
Режим частоты кадров : Постоянный
Частота кадров : 24,000 кадра/сек
Цветовое пространство : YUV
Субдискретизация насыщенности : 4:2:0
Битовая глубина : 8 бит
Тип развёртки : Прогрессивная
Бит/(Пиксели*Кадры) : 0.439
Размер потока : 6,63 Гбайт (81%)
Заголовок : Orda - Rip from Rutracker
Библиотека кодирования : x264 core 148 r2744 b97ae06
Настройки программы : cabac=1 / ref=12 / deblock=1:-3:-3 / analyse=0x3:0x113 / me=umh / subme=10 / psy=1 / psy_rd=1.20:0.05 / mixed_ref=1 / me_range=24 / chroma_me=1 / trellis=2 / 8x8dct=1 / cqm=0 / deadzone=21,11 / fast_pskip=1 / chroma_qp_offset=-3 / threads=6 / lookahead_threads=1 / sliced_threads=0 / nr=0 / decimate=0 / interlaced=0 / bluray_compat=0 / constrained_intra=0 / bframes=9 / b_pyramid=2 / b_adapt=2 / b_bias=0 / direct=1 / weightb=1 / open_gop=0 / weightp=2 / keyint=250 / keyint_min=23 / scenecut=40 / intra_refresh=0 / rc_lookahead=60 / rc=crf / mbtree=0 / crf=15.2 / qcomp=0.67 / qpmin=0 / qpmax=69 / qpstep=4 / vbv_maxrate=62500 / vbv_bufsize=78125 / crf_max=0.0 / nal_hrd=none / filler=0 / ip_ratio=1.30 / pb_ratio=1.20 / aq=2:0.76
Default : Да
Forced : Нет
Statistics Tags Issue : mkvmerge v9.6.0 ('Slave To Your Mind') 64bit 2016-12-24 07:12:51 / mkvmerge v7.6.0 ('Garden of Dreams') 32bit built on Feb 11 2015 00:18:47 2016-12-24 15:45:35
FromStats_BitRate : 7505461
FromStats_Duration : 02:09:26.167000000
FromStats_FrameCount : 186388
FromStats_StreamSize : 7286083865
Аудио
Идентификатор : 2
Формат : DTS
Формат/Информация : Digital Theater Systems
Режим : 16
Параметр Endianness формата : Big
Идентификатор кодека : A_DTS
Продолжительность : 2 ч. 9 м.
Вид битрейта : Постоянный
Битрейт : 1509 Кбит/сек
Каналы : 6 каналов
Расположение каналов : Front: L C R, Side: L R, LFE
Частота : 48,0 КГц
Частота кадров : 93,750 кадра/сек (512 spf)
Битовая глубина : 24 бит
Метод сжатия : С потерями
Размер потока : 1,36 Гбайт (17%)
Заголовок : оригинал
Язык : Russian
Default : Да
Forced : Нет
Меню
00:00:00.000 : en:00:00:00.000
00:01:07.708 : en:00:01:07.708
00:01:18.708 : en:00:01:18.708
00:17:05.708 : en:00:17:05.708
00:32:55.708 : en:00:32:55.708
00:48:34.125 : en:00:48:34.125
01:03:39.000 : en:01:03:39.000
01:20:22.542 : en:01:20:22.542
01:34:06.667 : en:01:34:06.667
01:54:23.042 : en:01:54:23.042

Скриншоты








Omen

Пост 23-Дек-2016 01:00

[Цитировать]

Гардемарины, вперед!
Год выпуска: 1987
Страна: СССР
Студия: Мосфильм
Жанр: Приключения, история
Продолжительность: 01:16:19+01:10:19+01:03:04+01:13:14
Субтитры: русские
Оригинальная аудиодорожка: русский
Режиссер: Светлана Дружинина
В ролях: Сергей Жигунов, Дмитрий Харатьян, Владимир Шевельков, Татьяна Лютаева, Михаил Боярский, Евгений Евстигнеев, Владислав Стржельчик, Ольга Машная, Иннокентий Смоктуновский, Виктор Павлов
Описание: Эта история родилась как наш ответ французским "трем мушкетерам", ибо во времена императрицы Елизаветы в России происходили гораздо более захватывающие приключения, чем во Франции. Похищенный архив канцлера Бестужева, вокруг которого разворачивается интрига, может стоить головы многим людям. А для трех гардемаринов, вовлеченных в этот водоворот, существует один главный закон: Была бы честь!

Качество: HDTV 1080i
Формат: MKV
Видео кодек: H.264
Аудио кодек: DTS, MP2
Видео: 1920 x 1080; 25,00 fps; 11,9 Мбит/сек; 8133 Кбит/сек; 10,7 Мбит/сек; 8067 Кбит/сек
Аудио1: Русский, DTS 5.1 755 Kbps 48,0 КГц
Аудио2: Русский, MP2 2.0 192 Kbps 48,0 КГц
Субтитры: Softsub (SRT)
Главы

MediaInfo

Серия 1

Общее
Уникальный идентификатор : 240307400281846372590040674376926066623 (0xB4C9859515134C3CB4451CDB5B1B77BF)
Полное имя : C:\Gardemariny, vpered!\Gardemariny, vpered!.01.1987.HDTV.1080i.mkv
Формат : Matroska
Версия формата : Version 4 / Version 2
Размер файла : 7,00 Гбайт
Продолжительность : 1 ч. 16 м.
Общий поток : 13,1 Мбит/сек
Название фильма : Гардемарины, вперед!.01.1987.HDTV.1080i
Дата кодирования : UTC 2016-12-20 06:59:12
Программа кодирования : mkvmerge v9.2.0 ('Photograph') 32bit
Библиотека кодирования : Lavf54.63.104
DURATION : 01:15:17.218000000
NUMBER_OF_FRAMES : 893
NUMBER_OF_BYTES : 43943
_STATISTICS_WRITING_APP : mkvmerge v9.2.0 ('Photograph') 32bit
_STATISTICS_WRITING_DATE_UTC : 2016-12-20 06:59:12
_STATISTICS_TAGS : BPS DURATION NUMBER_OF_FRAMES NUMBER_OF_BYTES
Видео
Идентификатор : 1
Формат : AVC
Формат/Информация : Advanced Video Codec
Профиль формата : Main[email protected]
Параметр CABAC формата : Да
Параметр ReFrames формата : 4 кадра
Параметр GOP формата : M=4, N=28
Идентификатор кодека : V_MPEG4/ISO/AVC
Продолжительность : 1 ч. 16 м.
Битрейт : 11,9 Мбит/сек
Ширина : 1920 пикселей
Высота : 1080 пикселей
Соотношение сторон : 16:9
Режим частоты кадров : Постоянный
Частота кадров : 25,000 кадров/сек
Стандарт вещания : Component
Цветовое пространство : YUV
Субдискретизация насыщенности : 4:2:0
Битовая глубина : 8 бит
Тип развёртки : Чересстрочная
Порядок развёртки : Верхнее поле первое
Бит/(Пиксели*Кадры) : 0.230
Размер потока : 6,35 Гбайт (91%)
Заголовок : Гардемарины, вперед!.01.1987.HDTV.1080i
Default : Нет
Forced : Нет
Цветовой диапазон : Limited
Основные цвета : BT.709
Характеристики трансфера : BT.709
Коэффициенты матрицы : BT.709
DURATION : 01:16:19.400000000
NUMBER_OF_FRAMES : 114485
NUMBER_OF_BYTES : 6970002577
_STATISTICS_WRITING_APP : mkvmerge v9.2.0 ('Photograph') 32bit
_STATISTICS_WRITING_DATE_UTC : 2016-12-20 06:59:12
_STATISTICS_TAGS : BPS DURATION NUMBER_OF_FRAMES NUMBER_OF_BYTES
Аудио #1
Идентификатор : 2
Формат : DTS
Формат/Информация : Digital Theater Systems
Режим : 16
Параметр Endianness формата : Big
Идентификатор кодека : A_DTS
Продолжительность : 1 ч. 16 м.
Вид битрейта : Постоянный
Битрейт : 755 Кбит/сек
Каналы : 6 каналов
Расположение каналов : Front: L C R, Side: L R, LFE
Частота : 48,0 КГц
Битовая глубина : 24 бит
Метод сжатия : С потерями
Размер потока : 412 Мбайт (6%)
Заголовок : DTS 5.1 755 kbps
Язык : Russian
Default : Нет
Forced : Нет
Аудио #2
Идентификатор : 3
Формат : MPEG Audio
Версия формата : Version 1
Профиль формата : Layer 2
Идентификатор кодека : A_MPEG/L2
Идентификатор кодека/Подсказка : MP2
Продолжительность : 1 ч. 16 м.
Вид битрейта : Постоянный
Битрейт : 192 Кбит/сек
Каналы : 2 канала
Частота : 48,0 КГц
Метод сжатия : С потерями
Размер потока : 105 Мбайт (1%)
Заголовок : MP2 2.0 192 kbps
Язык : Russian
Default : Нет
Forced : Нет
Текст
Идентификатор : 4
Формат : UTF-8
Идентификатор кодека : S_TEXT/UTF8
Идентификатор кодека/Информация : UTF-8 Plain Text
Язык : Russian
Default : Нет
Forced : Нет
Меню
00:00:00.000 : en:Chapter 1
00:10:00.000 : en:Chapter 2
00:21:28.000 : en:Chapter 3
00:37:32.000 : en:Chapter 4
00:51:14.000 : en:Chapter 5
01:03:47.000 : en:Chapter 6
01:16:18.000 : en:Chapter 7

Серия 2

Общее
Уникальный идентификатор : 202851798609810604347447914586222787037 (0x989BD5D7A1FA8B1EADE53223619279DD)
Полное имя : C:\Gardemariny, vpered!\Gardemariny, vpered!.02.1987.HDTV.1080i.mkv
Формат : Matroska
Версия формата : Version 4 / Version 2
Размер файла : 4,55 Гбайт
Продолжительность : 1 ч. 10 м.
Общий поток : 9264 Кбит/сек
Название фильма : Гардемарины, вперед!.02.1987.HDTV.1080i
Дата кодирования : UTC 2016-12-22 09:21:44
Программа кодирования : mkvmerge v9.2.0 ('Photograph') 32bit
Библиотека кодирования : Lavf54.63.104
DURATION : 01:09:16.777000000
NUMBER_OF_FRAMES : 843
NUMBER_OF_BYTES : 40800
_STATISTICS_WRITING_APP : mkvmerge v9.2.0 ('Photograph') 32bit
_STATISTICS_WRITING_DATE_UTC : 2016-12-22 09:21:44
_STATISTICS_TAGS : BPS DURATION NUMBER_OF_FRAMES NUMBER_OF_BYTES
Видео
Идентификатор : 1
Формат : AVC
Формат/Информация : Advanced Video Codec
Профиль формата : [email protected]
Параметр CABAC формата : Да
Параметр ReFrames формата : 4 кадра
Параметр GOP формата : M=4, N=28
Идентификатор кодека : V_MPEG4/ISO/AVC
Продолжительность : 1 ч. 10 м.
Битрейт : 8133 Кбит/сек
Ширина : 1920 пикселей
Высота : 1080 пикселей
Соотношение сторон : 16:9
Режим частоты кадров : Постоянный
Частота кадров : 25,000 кадров/сек
Стандарт вещания : Component
Цветовое пространство : YUV
Субдискретизация насыщенности : 4:2:0
Битовая глубина : 8 бит
Тип развёртки : Чересстрочная
Порядок развёртки : Верхнее поле первое
Бит/(Пиксели*Кадры) : 0.157
Размер потока : 4,00 Гбайт (88%)
Заголовок : Гардемарины, вперед!.02.1987.HDTV.1080i
Default : Нет
Forced : Нет
Цветовой диапазон : Limited
Основные цвета : BT.709
Характеристики трансфера : BT.709
Коэффициенты матрицы : BT.709
DURATION : 01:10:19.240000000
NUMBER_OF_FRAMES : 105481
NUMBER_OF_BYTES : 4386915205
_STATISTICS_WRITING_APP : mkvmerge v9.2.0 ('Photograph') 32bit
_STATISTICS_WRITING_DATE_UTC : 2016-12-22 09:21:44
_STATISTICS_TAGS : BPS DURATION NUMBER_OF_FRAMES NUMBER_OF_BYTES
Аудио #1
Идентификатор : 2
Формат : DTS
Формат/Информация : Digital Theater Systems
Режим : 16
Параметр Endianness формата : Big
Идентификатор кодека : A_DTS
Продолжительность : 1 ч. 10 м.
Вид битрейта : Постоянный
Битрейт : 755 Кбит/сек
Каналы : 6 каналов
Расположение каналов : Front: L C R, Side: L R, LFE
Частота : 48,0 КГц
Битовая глубина : 24 бит
Метод сжатия : С потерями
Размер потока : 380 Мбайт (8%)
Заголовок : DTS 5.1 755 kbps
Язык : Russian
Default : Нет
Forced : Нет
Аудио #2
Идентификатор : 3
Формат : MPEG Audio
Версия формата : Version 1
Профиль формата : Layer 2
Идентификатор кодека : A_MPEG/L2
Идентификатор кодека/Подсказка : MP2
Продолжительность : 1 ч. 10 м.
Вид битрейта : Постоянный
Битрейт : 192 Кбит/сек
Каналы : 2 канала
Частота : 48,0 КГц
Метод сжатия : С потерями
Размер потока : 96,6 Мбайт (2%)
Заголовок : MP2 2.0 192 kbps
Язык : Russian
Default : Нет
Forced : Нет
Текст
Идентификатор : 4
Формат : UTF-8
Идентификатор кодека : S_TEXT/UTF8
Идентификатор кодека/Информация : UTF-8 Plain Text
Язык : Russian
Default : Нет
Forced : Нет
Меню
00:00:00.000 : en:Chapter 1
00:11:23.640 : en:Chapter 2
00:27:53.520 : en:Chapter 3
00:41:52.680 : en:Chapter 4
00:52:02.760 : en:Chapter 5
01:01:29.760 : en:Chapter 6
01:10:19.000 : en:Chapter 7

Серия 3

Общее
Уникальный идентификатор : 216998252865627249522236026669665055023 (0xA34057E2FDC6575CA057A1AA816F712F)
Полное имя : C:\Gardemariny, vpered!\Gardemariny, vpered!.03.1987.HDTV.1080i.mkv
Формат : Matroska
Версия формата : Version 4 / Version 2
Размер файла : 5,25 Гбайт
Продолжительность : 1 ч. 3 м.
Общий поток : 11,9 Мбит/сек
Название фильма : Гардемарины, вперед!.03.1987.HDTV.1080i
Дата кодирования : UTC 2016-12-22 08:27:51
Программа кодирования : mkvmerge v9.2.0 ('Photograph') 32bit
Библиотека кодирования : Lavf54.63.104
DURATION : 01:02:37.458000000
NUMBER_OF_FRAMES : 690
NUMBER_OF_BYTES : 30417
_STATISTICS_WRITING_APP : mkvmerge v9.2.0 ('Photograph') 32bit
_STATISTICS_WRITING_DATE_UTC : 2016-12-22 08:27:51
_STATISTICS_TAGS : BPS DURATION NUMBER_OF_FRAMES NUMBER_OF_BYTES
Видео
Идентификатор : 1
Формат : AVC
Формат/Информация : Advanced Video Codec
Профиль формата : [email protected]
Параметр CABAC формата : Да
Параметр ReFrames формата : 4 кадра
Параметр GOP формата : M=4, N=28
Идентификатор кодека : V_MPEG4/ISO/AVC
Продолжительность : 1 ч. 3 м.
Битрейт : 10,7 Мбит/сек
Ширина : 1920 пикселей
Высота : 1080 пикселей
Соотношение сторон : 16:9
Режим частоты кадров : Постоянный
Частота кадров : 25,000 кадров/сек
Стандарт вещания : Component
Цветовое пространство : YUV
Субдискретизация насыщенности : 4:2:0
Битовая глубина : 8 бит
Тип развёртки : Чересстрочная
Порядок развёртки : Верхнее поле первое
Бит/(Пиксели*Кадры) : 0.207
Размер потока : 4,73 Гбайт (90%)
Заголовок : Гардемарины, вперед!.03.1987.HDTV.1080i
Default : Нет
Forced : Нет
Цветовой диапазон : Limited
Основные цвета : BT.709
Характеристики трансфера : BT.709
Коэффициенты матрицы : BT.709
DURATION : 01:03:04.520000000
NUMBER_OF_FRAMES : 94613
NUMBER_OF_BYTES : 5189007922
_STATISTICS_WRITING_APP : mkvmerge v9.2.0 ('Photograph') 32bit
_STATISTICS_WRITING_DATE_UTC : 2016-12-22 08:27:51
_STATISTICS_TAGS : BPS DURATION NUMBER_OF_FRAMES NUMBER_OF_BYTES
Аудио #1
Идентификатор : 2
Формат : DTS
Формат/Информация : Digital Theater Systems
Режим : 16
Параметр Endianness формата : Big
Идентификатор кодека : A_DTS
Продолжительность : 1 ч. 3 м.
Вид битрейта : Постоянный
Битрейт : 755 Кбит/сек
Каналы : 6 каналов
Расположение каналов : Front: L C R, Side: L R, LFE
Частота : 48,0 КГц
Битовая глубина : 24 бит
Метод сжатия : С потерями
Размер потока : 340 Мбайт (6%)
Заголовок : DTS 5.1 755 kbps
Язык : Russian
Default : Нет
Forced : Нет
Аудио #2
Идентификатор : 3
Формат : MPEG Audio
Версия формата : Version 1
Профиль формата : Layer 2
Идентификатор кодека : A_MPEG/L2
Идентификатор кодека/Подсказка : MP2
Продолжительность : 1 ч. 3 м.
Вид битрейта : Постоянный
Битрейт : 192 Кбит/сек
Каналы : 2 канала
Частота : 48,0 КГц
Метод сжатия : С потерями
Размер потока : 86,6 Мбайт (2%)
Заголовок : MP2 2.0 192 kbps
Язык : Russian
Default : Нет
Forced : Нет
Текст
Идентификатор : 4
Формат : UTF-8
Идентификатор кодека : S_TEXT/UTF8
Идентификатор кодека/Информация : UTF-8 Plain Text
Язык : Russian
Default : Нет
Forced : Нет
Меню
00:00:00.000 : en:Chapter 1
00:09:59.000 : en:Chapter 2
00:24:01.000 : en:Chapter 3
00:35:46.000 : en:Chapter 4
00:48:34.000 : en:Chapter 5
00:57:03.000 : en:Chapter 6
01:03:02.000 : en:Chapter 7

Серия 4

Общее
Уникальный идентификатор : 211393085752304142498038265944416851843 (0x9F08D3CFBE91A5CF9C91A853853E1783)
Полное имя : C:\Gardemariny, vpered!\Gardemariny, vpered!.04.1987.HDTV.1080i.mkv
Формат : Matroska
Версия формата : Version 4 / Version 2
Размер файла : 4,70 Гбайт
Продолжительность : 1 ч. 13 м.
Общий поток : 9197 Кбит/сек
Название фильма : Гардемарины, вперед!.04.1987.HDTV.1080i
Дата кодирования : UTC 2016-12-18 15:38:16
Программа кодирования : mkvmerge v9.2.0 ('Photograph') 32bit
Библиотека кодирования : Lavf54.63.104
DURATION : 01:12:52.272000000
NUMBER_OF_FRAMES : 833
NUMBER_OF_BYTES : 41888
_STATISTICS_WRITING_APP : mkvmerge v9.2.0 ('Photograph') 32bit
_STATISTICS_WRITING_DATE_UTC : 2016-12-18 15:38:16
_STATISTICS_TAGS : BPS DURATION NUMBER_OF_FRAMES NUMBER_OF_BYTES
Видео
Идентификатор : 1
Формат : AVC
Формат/Информация : Advanced Video Codec
Профиль формата : [email protected]
Параметр CABAC формата : Да
Параметр ReFrames формата : 4 кадра
Параметр GOP формата : M=4, N=28
Идентификатор кодека : V_MPEG4/ISO/AVC
Продолжительность : 1 ч. 13 м.
Битрейт : 8067 Кбит/сек
Ширина : 1920 пикселей
Высота : 1080 пикселей
Соотношение сторон : 16:9
Режим частоты кадров : Постоянный
Частота кадров : 25,000 кадров/сек
Стандарт вещания : Component
Цветовое пространство : YUV
Субдискретизация насыщенности : 4:2:0
Битовая глубина : 8 бит
Тип развёртки : Чересстрочная
Порядок развёртки : Верхнее поле первое
Бит/(Пиксели*Кадры) : 0.156
Размер потока : 4,13 Гбайт (88%)
Заголовок : Гардемарины, вперед!.04.1987.HDTV.1080i
Default : Нет
Forced : Нет
Цветовой диапазон : Limited
Основные цвета : BT.709
Характеристики трансфера : BT.709
Коэффициенты матрицы : BT.709
DURATION : 01:13:14.360000000
NUMBER_OF_FRAMES : 109859
NUMBER_OF_BYTES : 4530154210
_STATISTICS_WRITING_APP : mkvmerge v9.2.0 ('Photograph') 32bit
_STATISTICS_WRITING_DATE_UTC : 2016-12-18 15:38:16
_STATISTICS_TAGS : BPS DURATION NUMBER_OF_FRAMES NUMBER_OF_BYTES
Аудио #1
Идентификатор : 2
Формат : DTS
Формат/Информация : Digital Theater Systems
Режим : 16
Параметр Endianness формата : Big
Идентификатор кодека : A_DTS
Продолжительность : 1 ч. 13 м.
Вид битрейта : Постоянный
Битрейт : 755 Кбит/сек
Каналы : 6 каналов
Расположение каналов : Front: L C R, Side: L R, LFE
Частота : 48,0 КГц
Битовая глубина : 24 бит
Метод сжатия : С потерями
Размер потока : 395 Мбайт (8%)
Заголовок : DTS 5.1 755 kbps
Язык : Russian
Default : Нет
Forced : Нет
Аудио #2
Идентификатор : 3
Формат : MPEG Audio
Версия формата : Version 1
Профиль формата : Layer 2
Идентификатор кодека : A_MPEG/L2
Идентификатор кодека/Подсказка : MP2
Продолжительность : 1 ч. 13 м.
Вид битрейта : Постоянный
Битрейт : 192 Кбит/сек
Каналы : 2 канала
Частота : 48,0 КГц
Метод сжатия : С потерями
Размер потока : 101 Мбайт (2%)
Заголовок : MP2 2.0 192 kbps
Язык : Russian
Default : Нет
Forced : Нет
Текст
Идентификатор : 4
Формат : UTF-8
Идентификатор кодека : S_TEXT/UTF8
Идентификатор кодека/Информация : UTF-8 Plain Text
Язык : Russian
Default : Нет
Forced : Нет
Меню
00:00:00.000 : en:Chapter 1
00:13:36.000 : en:Chapter 2
00:26:40.000 : en:Chapter 3
00:40:23.000 : en:Chapter 4
00:52:11.000 : en:Chapter 5
00:59:37.000 : en:Chapter 6
01:13:13.000 : en:Chapter 7

Скриншоты



Omen

Пост 22-Дек-2016 01:01

[Цитировать]

Майор
--Страна: Россия
Студия: ТПО "Рок"
Жанр: криминал, драма
Год выпуска: 2013
Продолжительность: 01:39:26--Перевод: Не требуется
Cубтитры: английские--Режиссер: Юрий Быков
В ролях: Денис Шведов, Ирина Низина, Илья Исаев, Юрий Быков, Дмитрий Куличков, Кирилл Полухин, Борис Невзоров--Описание: В день долгожданных родов своей жены майор полиции Сергей Соболев мчится в роддом вне себя от счастья. На скользкой зимней дороге он насмерть сбивает семилетнего мальчика на глазах у несчастной матери. Превышение скорости, неосторожность и пешеходный переход — доказательства очевидны, как и нежелание молодого отца угодить за решетку. Майор использует свое служебное положение, чтобы оправдать себя… Сам того не желая, он запускает целую череду смертей, остановить которую решится слишком поздно.--imdb | kinopoisk | Сэмпл--Тип релиза: Blu-ray disc [The.Major.2013.COMPLETE.BLURAY-watchHD]
Контейнер: BDMV
Видео: MPEG-4 AVC / 26681 kbps / 1920x1080 / 23,976 fps / 16:9 / High Profile 4.1
Аудио 1: Russian DTS-HD Master Audio / 5.1 / 48 kHz / 3889 kbps / 24-bit (DTS Core: 5.1 / 48 kHz / 1509 kbps / 24-bit)

На диске

Код:
• Trailer

BDInfo Report

Код:
Disc Title: The.Major.2013.COMPLETE.BLURAY-watchHD
Disc Size: 24,505,009,164 bytes
Protection: AACS
BD-Java: Yes
Playlist: 00003.MPLS
Size: 24,056,039,424 bytes
Length: 1:39:26.377
Total Bitrate: 32.26 Mbps
Video: MPEG-4 AVC Video / 26681 kbps / 1080p / 23.976 fps / 16:9 / High Profile 4.1
Audio: Russian / DTS-HD Master Audio / 5.1 / 48 kHz / 3889 kbps / 24-bit (DTS Core: 5.1 / 48 kHz / 1509 kbps / 24-bit)
Subtitle: English / 24.090 kbps

Скриншоты меню

Скриншоты


Дополнительно

Сравнение трансферов










 

Текущее время: Сегодня 03:25

Часовой пояс: GMT + 3