Today is a free download without charge Download

Search found 500 matches

Author Message

K15

Post 09-Jan-2022 15:12

[Quote]

Информация о фильме
Название: Последняя дуэль
Оригинальное название: The Last Duel
Год выхода: 2021
Жанр: История, драма
Режиссер: Ридли Скотт
В ролях: Мэтт Дэймон, Адам Драйвер, Джоди Комер, Харриет Уолтер, Бен Аффлек, Алекс Лоутер, Мартон Чокаш, Уильям Хьюстон, Оливер Коттон, Орельен Лорнье
О фильме: Конец XIV века. Нормандский рыцарь Жан де Карруж возвращается из Парижа и узнаёт, что его сосед и соратник Жак Ле Гри изнасиловал его жену Маргарит. Однако у Ле Гри обнаружились сильные союзники, словам женщины никто не верит, поэтому оскорблённый Карруж обращается за помощью лично к королю Франции Карлу VI. Заслушав все свидетельства, король постановил, что конфликт должен быть разрешён в честном поединке. От исхода дуэли зависит судьба не только Ле Гри и Карружа, но и жены последнего — в случае поражения мужа её должны сжечь на костре за ложные обвинения.
Страна: США, Великобритания
Студия: 20th Century Studios, Pearl Street Films, Scott Free Productions
Продолжительность: 02:32:43
Перевод: Дублированный, профессиональный многоголосый, любительский двухголосый
Файл
Формат: MP4
Кодек: H.265
Качество: WebDL 2160p
Видео: HEVC, Dolby Vision Profile 5, 22,5 Mбит/с, 3840x2160, 23.976 кадр/с
Аудио #1 Русский: AC3, 48.0 kHz, 5.1 ch, 448 Kbps [Дубляж, Невафильм]
Аудио #2 Русский: EAC3, 48.0 kHz, 7.1 ch, 1536 Kbps [MVO, Jaskier]
Аудио #3 Русский: EAC3, 48.0 kHz, 5.1 ch, 1024 Kbps [MVO, HDRezka Studio]
Аудио #4 Русский: EAC3, 48.0 kHz, 5.1 ch, 1024 Kbps [DVO, Pazl Voice | Tnx.KinoPub]
Аудио #5 Украинский: EAC3, 48.0 kHz, 5.1 ch, 1024 Kbps [MVO, HDRezka Studio]
Аудио #6 English: EAC3 JOC, 48.0 kHz, 5.1 ch, 768 Kbps [Original]
Субтитры: русские (2 х форс., полные), украинские (форс.) английские (форс., полные, SDH)
Дополнительная информация: Релиз в MP4 в 5-м профиле Dolby Vision для воспроизведении на устройствах с поддержкой DV. Протестировано на тв-боксах Nvidia Shield 2019, Zidoo Z1000 Pro, Amazon FireTV Stick 4k, TiVo Stream 4K и Ugoos AM6+ и многих других, а также на встроенных плеерах телевизоров LG, Sony, Phillips и Panasonic. На устройствах без поддержки Dolby Vision проигрываться не будет(или будет, но с искаженными цветами), так как в видеоряде отсутствует HDR слой

Mediainfo

Общее
Полное имя : D:The.Last.Duel.2021.2160p.WEB-DL.DDP5.1.DoVi.by.DVTThe.Last.Duel.2021.2160p.WEB-DL.DDP5.1.DoVi.by.DVT.mp4
Формат : MPEG-4
Профиль формата : Base Media / Version 2
Идентификатор кодека : mp42 (isom/mp42/dby1)
Размер файла : 30,2 Гбайт
Продолжительность : 2 ч. 32 м.
Режим общего битрейта : Переменный
Общий поток : 28,2 Мбит/сек
Название фильма : The Last Duel (2021). Release by Dolby Vision Torrents
Дата кодирования : UTC 2022-01-07 17:39:38
Дата пометки : UTC 2022-01-07 17:39:38
Программа кодирования : GPAC-1.1.0-DEV-rev1027-g1daa0b5f-master
Видео
Идентификатор : 1
Формат : HEVC
Формат/Информация : High Efficiency Video Coding
Профиль формата : Main [email protected]@Main
HDR format : Dolby Vision, Version 1.0, dvhe.05.06, BL+RPU
Идентификатор кодека : dvhe
Идентификатор кодека/Информация : High Efficiency Video Coding with Dolby Vision
Продолжительность : 2 ч. 32 м.
Битрейт : 22,5 Мбит/сек
Ширина : 3 840 пикселей
Высота : 2 160 пикселей
Соотношение сторон : 16:9
Режим частоты кадров : Постоянный
Частота кадров : 23,976 (24000/1001) кадра/сек
Цветовое пространство : YUV
Субдискретизация насыщенности : 4:2:0 (Type 0)
Битовая глубина : 10 бит
Бит/(Пиксели*Кадры) : 0.113
Размер потока : 24,0 Гбайт (79%)
Заголовок : The Last Duel (2021). Release by Dolby Vision Torrents
Язык : English
Default : Да
Alternate group : 1
Дата пометки : UTC 2022-01-07 17:40:48
Цветовой диапазон : Full
Codec configuration box : hvcC+dvcC
Аудио #1
Идентификатор : 2
Формат : AC-3
Формат/Информация : Audio Coding 3
Коммерческое название : Dolby Digital
Идентификатор кодека : ac-3
Продолжительность : 2 ч. 32 м.
Вид битрейта : Постоянный
Битрейт : 448 Кбит/сек
Максимальный битрейт : 473 Кбит/сек
Каналы : 6 каналов
Channel layout : L R C LFE Ls Rs
Частота : 48,0 КГц
Частота кадров : 31,250 кадров/сек (1536 SPF)
Метод сжатия : С потерями
Размер потока : 490 Мбайт (2%)
Заголовок : Дубляж, Невафильм
Язык : Russian
Service kind : Complete Main
Дата кодирования : UTC 2022-01-07 17:40:19
Дата пометки : UTC 2022-01-07 17:40:48
Аудио #2
Идентификатор : 3
Формат : E-AC-3
Формат/Информация : Enhanced AC-3
Коммерческое название : Dolby Digital Plus
Профиль формата : Blu-ray Disc
Идентификатор кодека : ec-3
Продолжительность : 2 ч. 32 м.
Вид битрейта : Постоянный
Битрейт : 1 536 Кбит/сек
Максимальный битрейт : 1 622 Кбит/сек
Каналы : 8 каналов
Channel layout : L R C LFE Ls Rs Lb Rb
Частота : 48,0 КГц
Частота кадров : 31,250 кадров/сек (1536 SPF)
Метод сжатия : С потерями
Размер потока : 1,64 Гбайт (5%)
Заголовок : MVO, Jaskier
Язык : Russian
Service kind : Complete Main
Default : Нет
Alternate group : 1
Дата пометки : UTC 2022-01-07 17:40:48
Аудио #3
Идентификатор : 4
Формат : E-AC-3
Формат/Информация : Enhanced AC-3
Коммерческое название : Dolby Digital Plus
Идентификатор кодека : ec-3
Продолжительность : 2 ч. 32 м.
Вид битрейта : Постоянный
Битрейт : 1 024 Кбит/сек
Максимальный битрейт : 1 081 Кбит/сек
Каналы : 6 каналов
Channel layout : L R C LFE Ls Rs
Частота : 48,0 КГц
Частота кадров : 31,250 кадров/сек (1536 SPF)
Метод сжатия : С потерями
Размер потока : 1,09 Гбайт (4%)
Заголовок : MVO, HDRezka Studio
Язык : Russian
Service kind : Complete Main
Default : Нет
Alternate group : 1
Дата пометки : UTC 2022-01-07 17:40:48
Аудио #4
Идентификатор : 5
Формат : E-AC-3
Формат/Информация : Enhanced AC-3
Коммерческое название : Dolby Digital Plus
Идентификатор кодека : ec-3
Продолжительность : 2 ч. 32 м.
Вид битрейта : Постоянный
Битрейт : 1 024 Кбит/сек
Максимальный битрейт : 1 081 Кбит/сек
Каналы : 6 каналов
Channel layout : L R C LFE Ls Rs
Частота : 48,0 КГц
Частота кадров : 31,250 кадров/сек (1536 SPF)
Метод сжатия : С потерями
Размер потока : 1,09 Гбайт (4%)
Заголовок : DVO, PazlVoice
Язык : Russian
Service kind : Complete Main
Default : Нет
Alternate group : 1
Дата пометки : UTC 2022-01-07 17:40:48
Аудио #5
Идентификатор : 6
Формат : E-AC-3
Формат/Информация : Enhanced AC-3
Коммерческое название : Dolby Digital Plus
Идентификатор кодека : ec-3
Продолжительность : 2 ч. 32 м.
Вид битрейта : Постоянный
Битрейт : 1 024 Кбит/сек
Максимальный битрейт : 1 081 Кбит/сек
Каналы : 6 каналов
Channel layout : L R C LFE Ls Rs
Частота : 48,0 КГц
Частота кадров : 31,250 кадров/сек (1536 SPF)
Метод сжатия : С потерями
Размер потока : 1,09 Гбайт (4%)
Заголовок : MVO, HDRezka Studio
Язык : Ukrainian
Service kind : Complete Main
Default : Нет
Alternate group : 1
Дата пометки : UTC 2022-01-07 17:40:48
Аудио #6
Идентификатор : 7
Формат : E-AC-3 JOC
Формат/Информация : Enhanced AC-3 with Joint Object Coding
Коммерческое название : Dolby Digital Plus with Dolby Atmos
Идентификатор кодека : ec-3
Продолжительность : 2 ч. 32 м.
Продолжительность оригинала : 2 ч. 32 м.
Вид битрейта : Постоянный
Битрейт : 768 Кбит/сек
Максимальный битрейт : 811 Кбит/сек
Каналы : 6 каналов
Channel layout : L R C LFE Ls Rs
Частота : 48,0 КГц
Частота кадров : 31,250 кадров/сек (1536 SPF)
Метод сжатия : С потерями
Размер потока : 839 Мбайт (3%)
Размер потока оригинала : 839 Мбайт (3%)
Заголовок : Original
Язык : English
Service kind : Complete Main
Default : Нет
Alternate group : 1
Дата пометки : UTC 2022-01-07 17:40:48
Complexity index : Not present / 16
Number of dynamic objects : 15
Bed channel count : 1 канал
Bed channel configuration : LFE
Текст #1
Идентификатор : 8
Формат : Timed Text
Идентификатор кодека : tx3g
Продолжительность : 2 ч. 23 м.
Вид битрейта : Переменный
Битрейт : 2 бит/сек
Размер потока : 1,74 Кбайт (0%)
Заголовок : Forced
Язык : Russian
Default : Да
Forced : Нет
Alternate group : 2
Дата кодирования : UTC 2021-12-15 14:53:45
Дата пометки : UTC 2022-01-07 17:40:48
Текст #2
Идентификатор : 9
Формат : Timed Text
Идентификатор кодека : tx3g
Продолжительность : 2 ч. 23 м.
Вид битрейта : Переменный
Битрейт : 1 бит/сек
Размер потока : 1,29 Кбайт (0%)
Заголовок : Forced, PazlVoice
Язык : Russian
Forced : Нет
Дата кодирования : UTC 2022-01-07 17:40:48
Дата пометки : UTC 2022-01-07 17:40:48
Текст #3
Идентификатор : 10
Формат : Timed Text
Идентификатор кодека : tx3g
Продолжительность : 2 ч. 23 м.
Вид битрейта : Переменный
Битрейт : 74 бит/сек
Размер потока : 77,6 Кбайт (0%)
Заголовок : Full
Язык : Russian
Forced : Нет
Дата кодирования : UTC 2021-12-15 14:53:45
Дата пометки : UTC 2022-01-07 17:40:48
Текст #4
Идентификатор : 11
Формат : Timed Text
Идентификатор кодека : tx3g
Продолжительность : 2 ч. 23 м.
Вид битрейта : Переменный
Битрейт : 1 бит/сек
Размер потока : 1,24 Кбайт (0%)
Заголовок : Forced
Язык : Ukrainian
Forced : Нет
Дата кодирования : UTC 2022-01-07 17:40:48
Дата пометки : UTC 2022-01-07 17:40:48
Текст #5
Идентификатор : 12
Формат : Timed Text
Идентификатор кодека : tx3g
Продолжительность : 1 ч. 3 м.
Вид битрейта : Переменный
Битрейт : 0 бит/сек
Размер потока : 168 байт (0%)
Заголовок : Forced
Язык : English
Forced : Нет
Дата кодирования : UTC 2021-12-15 14:53:45
Дата пометки : UTC 2022-01-07 17:40:48
Текст #6
Идентификатор : 13
Формат : Timed Text
Идентификатор кодека : tx3g
Продолжительность : 2 ч. 23 м.
Вид битрейта : Переменный
Битрейт : 53 бит/сек
Размер потока : 56,0 Кбайт (0%)
Заголовок : Full
Язык : English
Forced : Нет
Дата кодирования : UTC 2022-01-07 17:40:48
Дата пометки : UTC 2022-01-07 17:40:48
Текст #7
Идентификатор : 14
Формат : Timed Text
Идентификатор кодека : tx3g
Продолжительность : 2 ч. 23 м.
Вид битрейта : Переменный
Битрейт : 53 бит/сек
Размер потока : 55,9 Кбайт (0%)
Заголовок : SDH
Язык : English
Forced : Нет
Дата кодирования : UTC 2021-12-15 14:53:45
Дата пометки : UTC 2022-01-07 17:40:48
Меню
00:00:00.000 : Chapter 01
00:05:00.050 : Chapter 02
00:09:40.455 : Chapter 03
00:17:41.644 : Chapter 04
00:25:57.931 : Chapter 05
00:33:23.293 : Chapter 06
00:38:49.369 : Chapter 07
00:42:32.592 : Chapter 08
00:54:21.508 : Chapter 09
01:05:50.488 : Chapter 10
01:17:05.454 : Chapter 11
01:25:22.701 : Chapter 12
01:32:48.271 : Chapter 13
01:40:15.176 : Chapter 14
01:52:04.718 : Chapter 15
02:05:26.519 : Chapter 16
02:22:23.535 : Chapter 17

Скриншоты

Невозможно получить скрины с нормальными цветами с PC, так как невозможно захватить кадр слоя DV если в видеоряде отсутствуют метаданные HDR.

}{@R0N

Post 30-Nov-2021 18:00

[Quote]

Тогда, к сожалению, ничем помочь не могу.

riziy211

Post 29-Nov-2021 09:00

[Quote]

}{@R0N, Доброе утро, не много не понял слово мультитрекерная, у меня 69, 9% висит уже месяцев 8, я нашёл этот фильм на каком то сайте, уже не вспомню, там не было раздающего, просто магнитная кнопка, и обратится за помощью я не знал куда, и совершено случайно нашёл этот сайт через яндекс на пятой или на шестой странице. Я смотрел этот фильм в контейнере AVI, но там качество слабенькое. А вам спасибо за заботу, и самое главное я желаю вам крепкого здоровья. С уважением riziy211.

}{@R0N

Post 29-Nov-2021 08:19

[Quote]

riziy211, Раздача мультитрекерная, рано или поздно вы ее скачаете.

riziy211

Post 29-Nov-2021 02:45

[Quote]

}{@R0N, Доброй вам ночи, идоброго здорвья, буду надеяться что жива. Может звуковые дорожки в архиве есть? Если есть, то буду очень благодарен. С уважением riziy211.

}{@R0N

Post 29-Nov-2021 00:30

[Quote]

riziy211 писал(а):
Ребята! Пожалуйста станьте на раздачу, дайте докачать 31% Спасибо всем, кто откликнется.
Раздаче более 8ми лет. И если она еще жива, вам очень повезло.

riziy211

Post 29-Nov-2021 00:08

[Quote]

Omen, Добрый вечер, включите раздачу пожалуйста
Добавлено спустя 4 часа 8 минут 54 секунды:
Ребята! Пожалуйста станьте на раздачу, дайте докачать 31% Спасибо всем, кто откликнется.

Kon912

Post 02-Jun-2020 11:39

[Quote]

Квин и Слим / Queen & Slim- Год выхода: 2019
Страна: Канада, США
Студия: BRON Studios, 3Blackdot, Creative Wealth Media Finance
Жанр: Драма
Продолжительность: 02:12:23
Перевод: Дублированный | Лицензия-Режиссер:
Мелина Матсукас-В ролях:
Дэниэл Калуя, Джоди Тёрнер-Смит, Боким Вудбайн, Клоэ Севиньи, Фли, Стерджил Симпсон, Индия Мур, Бенито Мартинес, Джахи Диалло Уинстон, Грэйлен Брайант Бэнкс-О фильме:
Однажды, двое абсолютных незнакомцев, познакомившись в социальных сетях, наконец, устраивают встречу в реале. Но, первое свидание для девушки и парня заканчивается не совсем удачно. Поначалу они ужинают в хорошем ресторане, а после часа приятного времяпровождения в компании друг дружки, решают прокатиться по безлюдным улочкам вечернего города. Не успев выехать на основную трассу, они замечают за машиной хвост. Какой-то полицейский с мигалками останавливает их и на обочине объясняет, что те нарушили законодательство, и совершили жуткое преступление — угон автомобиля.- -Качество: BDRemux 1080p
Формат: MKV
Видео: MPEG-4 AVC, 1920x1080, 30.4 Mbit/s, 23.976 fps
Аудио #01: 48 kHz, AC3, 5.1, 640 Kbps | Лицензия | RUS |
Аудио #02: 48 kHz, TrueHD, 7.1, 3466 Kbps | Оригинал | ENG |
Аудио #03: 48 kHz, AC3, 5.1, 448 Kbps | Оригинал | ENG |
Субтитры: Русские (Forced, full), английские-

Скриншоты

       

MI

General
Unique ID : 24979022014787984001404621982794565875 (0x12CAC8DEB09FE35BF56BAD8A322CC8F3)
Complete name : E:Video111Queen.and.Slim.2019.BDREMUX.1080p.seleZen.mkv
Format : Matroska
Format version : Version 4
File size : 32.4 GiB
Duration : 2 h 12 min
Overall bit rate mode : Variable
Overall bit rate : 35.0 Mb/s
Movie name : Queen & Slim 2019 from селезень
Encoded date : UTC 2020-06-02 05:58:59
Writing application : mkvmerge v40.0.0 ('Old Town Road + Pony') 64-bit
Writing library : libebml v1.3.9 + libmatroska v1.5.2
Video
ID : 1
Format : AVC
Format/Info : Advanced Video Codec
Format profile : [email protected]
Format settings : CABAC / 4 Ref Frames
Format settings, CABAC : Yes
Format settings, Reference : 4 frames
Codec ID : V_MPEG4/ISO/AVC
Duration : 2 h 12 min
Bit rate mode : Variable
Bit rate : 30.4 Mb/s
Maximum bit rate : 33.9 Mb/s
Width : 1 920 pixels
Height : 1 080 pixels
Display aspect ratio : 16:9
Frame rate mode : Constant
Frame rate : 23.976 (24000/1001) FPS
Color space : YUV
Chroma subsampling : 4:2:0
Bit depth : 8 bits
Scan type : Progressive
Bits/(Pixel*Frame) : 0.612
Stream size : 28.1 GiB (87%)
Language : English
Default : Yes
Forced : No
Audio #1
ID : 2
Format : AC-3
Format/Info : Audio Coding 3
Commercial name : Dolby Digital
Codec ID : A_AC3
Duration : 2 h 12 min
Bit rate mode : Constant
Bit rate : 640 kb/s
Channel(s) : 6 channels
Channel layout : L R C LFE Ls Rs
Sampling rate : 48.0 kHz
Frame rate : 31.250 FPS (1536 SPF)
Compression mode : Lossy
Stream size : 606 MiB (2%)
Title : Dub [License]
Language : Russian
Service kind : Complete Main
Default : Yes
Forced : Yes
Audio #2
ID : 3
Format : MLP FBA 16-ch
Format/Info : Meridian Lossless Packing FBA with 16-channel presentation
Commercial name : Dolby TrueHD with Dolby Atmos
Codec ID : A_TRUEHD
Duration : 2 h 12 min
Bit rate mode : Variable
Bit rate : 3 466 kb/s
Maximum bit rate : 6 375 kb/s
Channel(s) : 8 channels
Channel layout : L R C LFE Ls Rs Lb Rb
Sampling rate : 48.0 kHz
Frame rate : 1 200.000 FPS (40 SPF)
Compression mode : Lossless
Stream size : 3.21 GiB (10%)
Title : Original
Language : English
Default : No
Forced : No
Number of dynamic objects : 11
Bed channel count : 1 channel
Bed channel configuration : LFE
Audio #3
ID : 4
Format : AC-3
Format/Info : Audio Coding 3
Commercial name : Dolby Digital
Codec ID : A_AC3
Duration : 2 h 12 min
Bit rate mode : Constant
Bit rate : 448 kb/s
Channel(s) : 6 channels
Channel layout : L R C LFE Ls Rs
Sampling rate : 48.0 kHz
Frame rate : 31.250 FPS (1536 SPF)
Compression mode : Lossy
Stream size : 424 MiB (1%)
Language : English
Service kind : Complete Main
Default : No
Forced : No
Text #1
ID : 5
Format : UTF-8
Codec ID : S_TEXT/UTF8
Codec ID/Info : UTF-8 Plain Text
Duration : 2 h 6 min
Bit rate : 0 b/s
Count of elements : 16
Stream size : 662 Bytes (0%)
Title : Forced [Blu-Ray EUR]
Language : Russian
Default : Yes
Forced : Yes
Text #2
ID : 6
Format : UTF-8
Codec ID : S_TEXT/UTF8
Codec ID/Info : UTF-8 Plain Text
Duration : 2 h 11 min
Bit rate : 62 b/s
Count of elements : 1393
Stream size : 60.2 KiB (0%)
Title : Full [Blu-Ray EUR]
Language : Russian
Default : No
Forced : No
Text #3
ID : 7
Format : UTF-8
Codec ID : S_TEXT/UTF8
Codec ID/Info : UTF-8 Plain Text
Duration : 2 h 10 min
Bit rate : 53 b/s
Count of elements : 1594
Stream size : 50.9 KiB (0%)
Title : Full
Language : English
Default : No
Forced : No
Text #4
ID : 8
Format : UTF-8
Codec ID : S_TEXT/UTF8
Codec ID/Info : UTF-8 Plain Text
Duration : 2 h 10 min
Bit rate : 59 b/s
Count of elements : 1819
Stream size : 56.8 KiB (0%)
Title : SDH
Language : English
Default : No
Forced : No
Menu
00:00:00.000 : en:Chapter 01
00:05:46.763 : en:Chapter 02
00:14:20.109 : en:Chapter 03
00:18:58.637 : en:Chapter 04
00:24:56.662 : en:Chapter 05
00:31:21.880 : en:Chapter 06
00:36:06.039 : en:Chapter 07
00:41:30.822 : en:Chapter 08
00:50:09.924 : en:Chapter 09
00:58:42.102 : en:Chapter 10
01:05:56.703 : en:Chapter 11
01:11:14.520 : en:Chapter 12
01:16:44.725 : en:Chapter 13
01:23:59.826 : en:Chapter 14
01:28:45.612 : en:Chapter 15
01:34:28.830 : en:Chapter 16
01:42:10.291 : en:Chapter 17
01:50:00.469 : en:Chapter 18
01:56:02.247 : en:Chapter 19
02:04:41.140 : en:Chapter 20
-Релиз от:

Kon912

Post 02-Jun-2020 11:36

[Quote]

Квин и Слим / Queen & Slim- Год выхода: 2019
Страна: Канада, США
Студия: BRON Studios, 3Blackdot, Creative Wealth Media Finance
Жанр: Драма
Продолжительность: 02:12:23
Перевод: Дублированный | Лицензия-Режиссер:
Мелина Матсукас-В ролях:
Дэниэл Калуя, Джоди Тёрнер-Смит, Боким Вудбайн, Клоэ Севиньи, Фли, Стерджил Симпсон, Индия Мур, Бенито Мартинес, Джахи Диалло Уинстон, Грэйлен Брайант Бэнкс-О фильме:
Однажды, двое абсолютных незнакомцев, познакомившись в социальных сетях, наконец, устраивают встречу в реале. Но, первое свидание для девушки и парня заканчивается не совсем удачно. Поначалу они ужинают в хорошем ресторане, а после часа приятного времяпровождения в компании друг дружки, решают прокатиться по безлюдным улочкам вечернего города. Не успев выехать на основную трассу, они замечают за машиной хвост. Какой-то полицейский с мигалками останавливает их и на обочине объясняет, что те нарушили законодательство, и совершили жуткое преступление — угон автомобиля.- -Качество: BDRip 1080p
Формат: MKV
Видео: MPEG-4 AVC, 1920x804, 9472 Kbit/s, 23.976 fps
Аудио #01: 48 kHz, AC3, 5.1, 640 Kbps | Лицензия | RUS |
Аудио #02: 48 kHz, AC3, 5.1, 448 Kbps | Оригинал | ENG |
Субтитры: Русские (Forced, full), английские-

Скриншоты

       

MI

General
Unique ID : 321806929487369155939501194742401346076 (0xF219C29B3A9300ADCAF2BFBBE7CC2A1C)
Complete name : E:Video111Queen.and.Slim.2019.BDRip.1080p.seleZen.mkv
Format : Matroska
Format version : Version 4
File size : 9.77 GiB
Duration : 2 h 12 min
Overall bit rate : 10.6 Mb/s
Movie name : Queen & Slim 2019 from селезень
Encoded date : UTC 2020-06-02 06:51:00
Writing application : mkvmerge v40.0.0 ('Old Town Road + Pony') 64-bit
Writing library : libebml v1.3.9 + libmatroska v1.5.2
Video
ID : 1
Format : AVC
Format/Info : Advanced Video Codec
Format profile : [email protected]
Format settings : CABAC / 5 Ref Frames
Format settings, CABAC : Yes
Format settings, Reference : 5 frames
Codec ID : V_MPEG4/ISO/AVC
Duration : 2 h 12 min
Bit rate : 9 472 kb/s
Width : 1 920 pixels
Height : 804 pixels
Display aspect ratio : 2.40:1
Frame rate mode : Constant
Frame rate : 23.976 (24000/1001) FPS
Color space : YUV
Chroma subsampling : 4:2:0
Bit depth : 8 bits
Scan type : Progressive
Bits/(Pixel*Frame) : 0.256
Stream size : 8.76 GiB (90%)
Writing library : x264 core 158 r2984+49 6932f4a t_mod_New [[email protected] X86_64]
Encoding settings : cabac=1 / ref=5 / deblock=1:-3:-3 / analyse=0x3:0x133 / me=umh / subme=10 / psy=1 / fade_compensate=0.00 / psy_rd=1.00:0.00 / mixed_ref=1 / me_range=32 / chroma_me=1 / trellis=2 / 8x8dct=1 / cqm=0 / deadzone=21,11 / fast_pskip=0 / chroma_qp_offset=-2 / threads=16 / lookahead_threads=4 / sliced_threads=0 / nr=0 / decimate=0 / interlaced=0 / bluray_compat=0 / constrained_intra=0 / fgo=0 / bframes=12 / b_pyramid=2 / b_adapt=2 / b_bias=0 / direct=3 / weightb=1 / open_gop=0 / weightp=2 / keyint=480 / keyint_min=24 / scenecut=40 / intra_refresh=0 / rc_lookahead=80 / rc=crf / mbtree=0 / crf=18.0000 / qcomp=0.60 / qpmin=0:0:0 / qpmax=69:69:69 / qpstep=4 / vbv_maxrate=62500 / vbv_bufsize=78125 / crf_max=0.0 / nal_hrd=none / filler=0 / ip_ratio=1.30 / pb_ratio=1.20 / aq=3:0.80 / aq-sensitivity=10.00 / aq-factor=1.00:1.00:1.00 / aq2=0 / aq3=0
Language : English
Default : Yes
Forced : No
Color range : Limited
Color primaries : BT.709
Transfer characteristics : BT.709
Matrix coefficients : BT.709
Audio #1
ID : 2
Format : AC-3
Format/Info : Audio Coding 3
Commercial name : Dolby Digital
Codec ID : A_AC3
Duration : 2 h 12 min
Bit rate mode : Constant
Bit rate : 640 kb/s
Channel(s) : 6 channels
Channel layout : L R C LFE Ls Rs
Sampling rate : 48.0 kHz
Frame rate : 31.250 FPS (1536 SPF)
Compression mode : Lossy
Stream size : 606 MiB (6%)
Title : Dub [License]
Language : Russian
Service kind : Complete Main
Default : Yes
Forced : Yes
Audio #2
ID : 3
Format : AC-3
Format/Info : Audio Coding 3
Commercial name : Dolby Digital
Codec ID : A_AC3
Duration : 2 h 12 min
Bit rate mode : Constant
Bit rate : 448 kb/s
Channel(s) : 6 channels
Channel layout : L R C LFE Ls Rs
Sampling rate : 48.0 kHz
Frame rate : 31.250 FPS (1536 SPF)
Compression mode : Lossy
Stream size : 424 MiB (4%)
Title : Original
Language : English
Service kind : Complete Main
Default : No
Forced : No
Text #1
ID : 4
Format : UTF-8
Codec ID : S_TEXT/UTF8
Codec ID/Info : UTF-8 Plain Text
Duration : 2 h 6 min
Bit rate : 0 b/s
Count of elements : 16
Stream size : 662 Bytes (0%)
Title : Forced [Blu-Ray EUR]
Language : Russian
Default : Yes
Forced : Yes
Text #2
ID : 5
Format : UTF-8
Codec ID : S_TEXT/UTF8
Codec ID/Info : UTF-8 Plain Text
Duration : 2 h 11 min
Bit rate : 62 b/s
Count of elements : 1393
Stream size : 60.2 KiB (0%)
Title : Full [Blu-Ray EUR]
Language : Russian
Default : No
Forced : No
Text #3
ID : 6
Format : UTF-8
Codec ID : S_TEXT/UTF8
Codec ID/Info : UTF-8 Plain Text
Duration : 2 h 10 min
Bit rate : 53 b/s
Count of elements : 1594
Stream size : 50.9 KiB (0%)
Title : Full
Language : English
Default : No
Forced : No
Text #4
ID : 7
Format : UTF-8
Codec ID : S_TEXT/UTF8
Codec ID/Info : UTF-8 Plain Text
Duration : 2 h 10 min
Bit rate : 59 b/s
Count of elements : 1819
Stream size : 56.8 KiB (0%)
Title : SDH
Language : English
Default : No
Forced : No
Menu
00:00:00.000 : en:Chapter 01
00:05:46.763 : en:Chapter 02
00:14:20.109 : en:Chapter 03
00:18:58.637 : en:Chapter 04
00:24:56.662 : en:Chapter 05
00:31:21.880 : en:Chapter 06
00:36:06.039 : en:Chapter 07
00:41:30.822 : en:Chapter 08
00:50:09.924 : en:Chapter 09
00:58:42.102 : en:Chapter 10
01:05:56.703 : en:Chapter 11
01:11:14.520 : en:Chapter 12
01:16:44.725 : en:Chapter 13
01:23:59.826 : en:Chapter 14
01:28:45.612 : en:Chapter 15
01:34:28.830 : en:Chapter 16
01:42:10.291 : en:Chapter 17
01:50:00.469 : en:Chapter 18
01:56:02.247 : en:Chapter 19
02:04:41.140 : en:Chapter 20
-Релиз от:

Kon912

Post 02-Jun-2020 11:33

[Quote]

Квин и Слим / Queen & Slim- Год выхода: 2019
Страна: Канада, США
Студия: BRON Studios, 3Blackdot, Creative Wealth Media Finance
Жанр: Драма
Продолжительность: 02:12:23
Перевод: Дублированный | Лицензия-Режиссер:
Мелина Матсукас-В ролях:
Дэниэл Калуя, Джоди Тёрнер-Смит, Боким Вудбайн, Клоэ Севиньи, Фли, Стерджил Симпсон, Индия Мур, Бенито Мартинес, Джахи Диалло Уинстон, Грэйлен Брайант Бэнкс-О фильме:
Однажды, двое абсолютных незнакомцев, познакомившись в социальных сетях, наконец, устраивают встречу в реале. Но, первое свидание для девушки и парня заканчивается не совсем удачно. Поначалу они ужинают в хорошем ресторане, а после часа приятного времяпровождения в компании друг дружки, решают прокатиться по безлюдным улочкам вечернего города. Не успев выехать на основную трассу, они замечают за машиной хвост. Какой-то полицейский с мигалками останавливает их и на обочине объясняет, что те нарушили законодательство, и совершили жуткое преступление — угон автомобиля.- -Качество: BDRip 720p
Формат: MKV
Видео: MPEG-4 AVC, 1280x536, 3887 Kbit/s, 23.976 fps
Аудио #01: 48 kHz, AC3, 5.1, 640 Kbps | Лицензия | RUS |
Аудио #02: 48 kHz, AC3, 5.1, 448 Kbps | Оригинал | ENG |
Субтитры: Русские (Forced, full), английские-

Скриншоты

       

MI

General
Unique ID : 67050383758392207146087549724246307586 (0x32716F26D53E71A19CF69A46584A7302)
Complete name : E:Video111Queen.and.Slim.2019.BDRip.720p.seleZen.mkv
Format : Matroska
Format version : Version 4
File size : 4.60 GiB
Duration : 2 h 12 min
Overall bit rate : 4 977 kb/s
Movie name : Queen & Slim 2019 from селезень
Encoded date : UTC 2020-06-02 07:25:35
Writing application : mkvmerge v40.0.0 ('Old Town Road + Pony') 64-bit
Writing library : libebml v1.3.9 + libmatroska v1.5.2
Video
ID : 1
Format : AVC
Format/Info : Advanced Video Codec
Format profile : [email protected]
Format settings : CABAC / 12 Ref Frames
Format settings, CABAC : Yes
Format settings, Reference : 12 frames
Codec ID : V_MPEG4/ISO/AVC
Duration : 2 h 12 min
Bit rate : 3 887 kb/s
Width : 1 280 pixels
Height : 536 pixels
Display aspect ratio : 2.40:1
Frame rate mode : Constant
Frame rate : 23.976 (24000/1001) FPS
Color space : YUV
Chroma subsampling : 4:2:0
Bit depth : 8 bits
Scan type : Progressive
Bits/(Pixel*Frame) : 0.236
Stream size : 3.59 GiB (78%)
Writing library : x264 core 142 r2431+42 c69a006 tMod [[email protected]:2:0 X86_64]
Encoding settings : cabac=1 / ref=12 / deblock=1:-3:-3 / analyse=0x3:0x113 / me=umh / subme=10 / psy=1 / fade_compensate=0.00 / psy_rd=1.00:0.05 / mixed_ref=1 / me_range=32 / chroma_me=1 / trellis=2 / 8x8dct=1 / cqm=0 / deadzone=21,11 / fast_pskip=0 / chroma_qp_offset=-2 / threads=48 / lookahead_threads=4 / sliced_threads=0 / nr=0 / decimate=1 / interlaced=0 / bluray_compat=0 / constrained_intra=0 / fgo=0 / bframes=8 / b_pyramid=2 / b_adapt=2 / b_bias=0 / direct=3 / weightb=1 / open_gop=0 / weightp=2 / keyint=250 / keyint_min=23 / scenecut=40 / intra_refresh=0 / rc=crf / mbtree=0 / crf=16.8000 / qcomp=0.60 / qpmin=0:0:0 / qpmax=69:69:69 / qpstep=4 / ip_ratio=1.40 / pb_ratio=1.30 / aq=3:0.80 / aq-sensitivity=10.00 / aq-factor=1.00:1.00:1.00 / aq2=0 / aq3=0
Language : English
Default : Yes
Forced : No
Color range : Limited
Matrix coefficients : BT.709
Audio #1
ID : 2
Format : AC-3
Format/Info : Audio Coding 3
Commercial name : Dolby Digital
Codec ID : A_AC3
Duration : 2 h 12 min
Bit rate mode : Constant
Bit rate : 640 kb/s
Channel(s) : 6 channels
Channel layout : L R C LFE Ls Rs
Sampling rate : 48.0 kHz
Frame rate : 31.250 FPS (1536 SPF)
Compression mode : Lossy
Stream size : 606 MiB (13%)
Title : Dub [License]
Language : Russian
Service kind : Complete Main
Default : Yes
Forced : Yes
Audio #2
ID : 3
Format : AC-3
Format/Info : Audio Coding 3
Commercial name : Dolby Digital
Codec ID : A_AC3
Duration : 2 h 12 min
Bit rate mode : Constant
Bit rate : 448 kb/s
Channel(s) : 6 channels
Channel layout : L R C LFE Ls Rs
Sampling rate : 48.0 kHz
Frame rate : 31.250 FPS (1536 SPF)
Compression mode : Lossy
Stream size : 424 MiB (9%)
Title : Original
Language : English
Service kind : Complete Main
Default : No
Forced : No
Text #1
ID : 4
Format : UTF-8
Codec ID : S_TEXT/UTF8
Codec ID/Info : UTF-8 Plain Text
Duration : 2 h 6 min
Bit rate : 0 b/s
Count of elements : 16
Stream size : 662 Bytes (0%)
Title : Forced [Blu-Ray EUR]
Language : Russian
Default : Yes
Forced : Yes
Text #2
ID : 5
Format : UTF-8
Codec ID : S_TEXT/UTF8
Codec ID/Info : UTF-8 Plain Text
Duration : 2 h 11 min
Bit rate : 62 b/s
Count of elements : 1393
Stream size : 60.2 KiB (0%)
Title : Full [Blu-Ray EUR]
Language : Russian
Default : No
Forced : No
Text #3
ID : 6
Format : UTF-8
Codec ID : S_TEXT/UTF8
Codec ID/Info : UTF-8 Plain Text
Duration : 2 h 10 min
Bit rate : 53 b/s
Count of elements : 1594
Stream size : 50.9 KiB (0%)
Title : Full
Language : English
Default : No
Forced : No
Text #4
ID : 7
Format : UTF-8
Codec ID : S_TEXT/UTF8
Codec ID/Info : UTF-8 Plain Text
Duration : 2 h 10 min
Bit rate : 59 b/s
Count of elements : 1819
Stream size : 56.8 KiB (0%)
Title : SDH
Language : English
Default : No
Forced : No
Menu
00:00:00.000 : en:Chapter 01
00:05:46.763 : en:Chapter 02
00:14:20.109 : en:Chapter 03
00:18:58.637 : en:Chapter 04
00:24:56.662 : en:Chapter 05
00:31:21.880 : en:Chapter 06
00:36:06.039 : en:Chapter 07
00:41:30.822 : en:Chapter 08
00:50:09.924 : en:Chapter 09
00:58:42.102 : en:Chapter 10
01:05:56.703 : en:Chapter 11
01:11:14.520 : en:Chapter 12
01:16:44.725 : en:Chapter 13
01:23:59.826 : en:Chapter 14
01:28:45.612 : en:Chapter 15
01:34:28.830 : en:Chapter 16
01:42:10.291 : en:Chapter 17
01:50:00.469 : en:Chapter 18
01:56:02.247 : en:Chapter 19
02:04:41.140 : en:Chapter 20
-Релиз от:

Kon912

Post 02-Jun-2020 00:00

[Quote]

Бог грома / Mortal- Год выпуска: 2020
Страна: Норвегия, США, Великобритания
Жанр: фэнтези, боевик, приключения
Продолжительность: 01:43:58
Перевод: Дублированный | iTunes-
Режиссер:
Андре Овредал-В ролях:
Нат Вулф, Приянка Бозе, Ибен М. Акерлие, Артур Хакалахти, Оддрун Валестранд, Равдип Сингх Баджва, Аня Нова, Суннива Линд Ховерстад, Пер Фриш, Нико Русаков-Описание:
Повелевать стихией, обращать в пепел прикосновением и заставлять всё живое трепетать от страха — удел языческих богов. Но что произойдет, когда планета столкнется с одним из них во плоти? Ведь этот древний Бог всего лишь человек.- | -Качество: WEB-DL 1080p
Формат: MKV
Кодек: MPEG-4 AVC
Видео: 1920x806, ~ 4 488 kb/s, 8 bits, 24.000 FPS
Аудио #1 (русский): AC-3, 384 kb/s, 6 ch (L R C LFE Ls Rs), 48.0 kHz
Субтитры: отсутствуют
Навигация по главам: есть-

Скриншоты

       

MediaInfo

General
Unique ID : 281191437487404568449377926729894382197 (0xD38B803EAAD9B33907B6AB3EFBDECA75)
Complete name : [KORSARS]_Mortal.2020.WEBDL.1080p.iTunes.mkv
Format : Matroska
Format version : Version 4
File size : 3.54 GiB
Duration : 1 h 43 min
Overall bit rate : 4 874 kb/s
Movie name : [KORSARS]_Mortal.2020.WEBDL.1080p.iTunes
Encoded date : UTC 2020-06-01 18:29:52
Writing application : mkvmerge v47.0.0 ('Black Flag') 64-bit
Writing library : libebml v1.3.10 + libmatroska v1.5.2
Video
ID : 1
Format : AVC
Format/Info : Advanced Video Codec
Format profile : [email protected]
Format settings : CABAC / 5 Ref Frames
Format settings, CABAC : Yes
Format settings, Reference : 5 frames
Format settings, GOP : N=1
Codec ID : V_MPEG4/ISO/AVC
Duration : 1 h 43 min
Bit rate : 4 488 kb/s
Width : 1 920 pixels
Height : 806 pixels
Display aspect ratio : 2.40:1
Frame rate mode : Constant
Frame rate : 24.000 FPS
Color space : YUV
Chroma subsampling : 4:2:0
Bit depth : 8 bits
Scan type : Progressive
Bits/(Pixel*Frame) : 0.121
Stream size : 3.26 GiB (92%)
Language : English
Default : Yes
Forced : No
Color range : Limited
Color primaries : BT.709
Transfer characteristics : BT.709
Matrix coefficients : BT.709
Audio
ID : 2
Format : AC-3
Format/Info : Audio Coding 3
Commercial name : Dolby Digital
Codec ID : A_AC3
Duration : 1 h 43 min
Bit rate mode : Constant
Bit rate : 384 kb/s
Channel(s) : 6 channels
Channel layout : L R C LFE Ls Rs
Sampling rate : 48.0 kHz
Frame rate : 31.250 FPS (1536 SPF)
Compression mode : Lossy
Delay relative to video : -42 ms
Stream size : 286 MiB (8%)
Language : Russian
Service kind : Complete Main
Default : Yes
Forced : No
Menu
00:00:00.000 : ru:Глава 1
00:08:32.707 : ru:Глава 2
00:11:07.248 : ru:Глава 3
00:19:53.830 : ru:Глава 4
00:26:12.580 : ru:Глава 5
00:34:42.746 : ru:Глава 6
00:41:34.829 : ru:Глава 7
00:49:08.870 : ru:Глава 8
00:56:04.245 : ru:Глава 9
01:04:20.995 : ru:Глава 10
01:09:20.036 : ru:Глава 11
01:17:58.077 : ru:Глава 12
01:23:49.868 : ru:Глава 13
01:29:09.200 : ru:Глава 14
01:36:50.700 : ru:Глава 15
-

Kon912

Post 31-May-2020 16:04

[Quote]

Прощай / Adios-
Год выхода: 2019
Страна: Испания
Студия: Apache Films, Claqueta, La, Instituto de la Cinematografia y de las Artes Audiovisuales
Жанр: Триллер, драма
Продолжительность: 01:54:36
Перевод: Дублированный | iTunes-Режиссер:
Пако Кабесас-В ролях:
Марио Касас, Наталия де Молина, Рут Диас, Карлос Бардем, Висенте Ромеро, Паулина Феной, Маурисио Моралес, Себастьян Аро, Мона Мартинес, Пилар Гомес-О фильме:
Вышедший на свободу мошенник начинает мстить за убийство своей дочери, которая погибла в автокатастрофе в день первого причастия.- -Качество: BDRemux 1080p
Формат: MKV
Видео: MPEG-4 AVC, 1920x1080, 28.0 Mbit/s, 24.000 fps
Аудио #01: 48 kHz, AC3, 5.1, 384 Kbps | iTunes | RUS |
Аудио #02: 48 kHz, DTS-HD MA, 5.1, 3616 Kbps | Оригинал | SPA |
Субтитры: Нет-

Скриншоты

     

MI

General
Unique ID : 16057347915558666904529007936204291752 (0xC14886031A0E67322CD637B7431BEA8)
Complete name : E:Video111BackupAdiós.2019.BDREMUX.1080p.seleZen.mkv
Format : Matroska
Format version : Version 4
File size : 25.6 GiB
Duration : 1 h 54 min
Overall bit rate mode : Variable
Overall bit rate : 32.0 Mb/s
Movie name : Adiós 2019 from селезень
Encoded date : UTC 2020-05-31 12:28:44
Writing application : mkvmerge v40.0.0 ('Old Town Road + Pony') 64-bit
Writing library : libebml v1.3.9 + libmatroska v1.5.2
Video
ID : 1
Format : AVC
Format/Info : Advanced Video Codec
Format profile : [email protected]
Format settings : CABAC / 4 Ref Frames
Format settings, CABAC : Yes
Format settings, Reference : 4 frames
Codec ID : V_MPEG4/ISO/AVC
Duration : 1 h 54 min
Bit rate mode : Variable
Bit rate : 28.0 Mb/s
Maximum bit rate : 36.0 Mb/s
Width : 1 920 pixels
Height : 1 080 pixels
Display aspect ratio : 16:9
Frame rate mode : Constant
Frame rate : 24.000 FPS
Standard : NTSC
Color space : YUV
Chroma subsampling : 4:2:0
Bit depth : 8 bits
Scan type : Progressive
Bits/(Pixel*Frame) : 0.562
Stream size : 22.4 GiB (87%)
Language : Spanish
Default : Yes
Forced : No
Color range : Limited
Color primaries : BT.709
Transfer characteristics : BT.709
Matrix coefficients : BT.709
Audio #1
ID : 2
Format : AC-3
Format/Info : Audio Coding 3
Commercial name : Dolby Digital
Codec ID : A_AC3
Duration : 1 h 54 min
Bit rate mode : Constant
Bit rate : 384 kb/s
Channel(s) : 6 channels
Channel layout : L R C LFE Ls Rs
Sampling rate : 48.0 kHz
Frame rate : 31.250 FPS (1536 SPF)
Compression mode : Lossy
Stream size : 315 MiB (1%)
Title : iTunes
Language : Russian
Service kind : Complete Main
Default : Yes
Forced : Yes
Audio #2
ID : 3
Format : DTS XLL
Format/Info : Digital Theater Systems
Commercial name : DTS-HD Master Audio
Codec ID : A_DTS
Duration : 1 h 54 min
Bit rate mode : Variable
Bit rate : 3 616 kb/s
Channel(s) : 6 channels
Channel layout : C L R Ls Rs LFE
Sampling rate : 48.0 kHz
Frame rate : 93.750 FPS (512 SPF)
Bit depth : 24 bits
Compression mode : Lossless
Stream size : 2.90 GiB (11%)
Title : Original
Language : Spanish
Default : No
Forced : No
Menu
00:00:00.000 : en:Chapter 01
00:10:29.375 : en:Chapter 02
00:18:31.167 : en:Chapter 03
00:29:25.542 : en:Chapter 04
00:38:19.958 : en:Chapter 05
00:46:50.750 : en:Chapter 06
00:56:34.083 : en:Chapter 07
01:08:54.333 : en:Chapter 08
01:16:37.792 : en:Chapter 09
01:26:49.208 : en:Chapter 10
01:35:55.542 : en:Chapter 11
01:49:35.500 : en:Chapter 12

Релиз от:

Kon912

Post 31-May-2020 16:04

[Quote]

Прощай / Adios-
Год выхода: 2019
Страна: Испания
Студия: Apache Films, Claqueta, La, Instituto de la Cinematografia y de las Artes Audiovisuales
Жанр: Триллер, драма
Продолжительность: 01:54:36
Перевод: Дублированный | iTunes-Режиссер:
Пако Кабесас-В ролях:
Марио Касас, Наталия де Молина, Рут Диас, Карлос Бардем, Висенте Ромеро, Паулина Феной, Маурисио Моралес, Себастьян Аро, Мона Мартинес, Пилар Гомес-О фильме:
Вышедший на свободу мошенник начинает мстить за убийство своей дочери, которая погибла в автокатастрофе в день первого причастия.- -Качество: BDRip 1080p
Формат: MKV
Видео: MPEG-4 AVC, 1920x804, 10.8 Mbit/s, 23.976 fps
Аудио #01: 48 kHz, AC3, 5.1, 384 Kbps | iTunes | RUS |
Аудио #02: 48 kHz, AC3, 5.1, 640 Kbps | Оригинал | SPA |
Субтитры: Нет-

Скриншоты

     

MI

General
Unique ID : 281974790911270908886175155805454633983 (0xD4225E8CECA0F89A070F97B8C6108BFF)
Complete name : E:Video111BackupAdiós.2019.BDRip.1080p.seleZen.mkv
Format : Matroska
Format version : Version 4
File size : 9.43 GiB
Duration : 1 h 54 min
Overall bit rate : 11.8 Mb/s
Movie name : Adiós 2019 from селезень
Encoded date : UTC 2020-05-31 12:11:47
Writing application : mkvmerge v40.0.0 ('Old Town Road + Pony') 64-bit
Writing library : libebml v1.3.9 + libmatroska v1.5.2
Video
ID : 1
Format : AVC
Format/Info : Advanced Video Codec
Format profile : [email protected]
Format settings : CABAC / 5 Ref Frames
Format settings, CABAC : Yes
Format settings, Reference : 5 frames
Codec ID : V_MPEG4/ISO/AVC
Duration : 1 h 54 min
Bit rate : 10.8 Mb/s
Width : 1 920 pixels
Height : 804 pixels
Display aspect ratio : 2.40:1
Frame rate mode : Constant
Frame rate : 24.000 FPS
Color space : YUV
Chroma subsampling : 4:2:0
Bit depth : 8 bits
Scan type : Progressive
Bits/(Pixel*Frame) : 0.291
Stream size : 8.61 GiB (91%)
Writing library : x264 core 142 r2431+42 c69a006 tMod [[email protected] X86_64]
Encoding settings : cabac=1 / ref=5 / deblock=1:-2:-2 / analyse=0x3:0x133 / me=umh / subme=10 / psy=1 / fade_compensate=0.00 / psy_rd=1.00:0.00 / mixed_ref=1 / me_range=32 / chroma_me=1 / trellis=2 / 8x8dct=1 / cqm=0 / deadzone=21,11 / fast_pskip=0 / chroma_qp_offset=-2 / threads=24 / lookahead_threads=4 / sliced_threads=0 / nr=0 / decimate=0 / interlaced=0 / bluray_compat=0 / constrained_intra=0 / fgo=0 / bframes=8 / b_pyramid=2 / b_adapt=2 / b_bias=0 / direct=3 / weightb=1 / open_gop=0 / weightp=2 / keyint=240 / keyint_min=24 / scenecut=40 / intra_refresh=0 / rc_lookahead=50 / rc=2pass / mbtree=0 / bitrate=10765 / ratetol=1.0 / qcomp=0.60 / qpmin=0:0:0 / qpmax=51:51:51 / qpstep=4 / cplxblur=20.0 / qblur=0.5 / vbv_maxrate=50000 / vbv_bufsize=62500 / nal_hrd=none / filler=0 / ip_ratio=1.40 / pb_ratio=1.30 / aq=3:0.80 / aq-sensitivity=10.00 / aq-factor=1.00:1.00:1.00 / aq2=0 / aq3=0
Language : Spanish
Default : Yes
Forced : No
Audio #1
ID : 2
Format : AC-3
Format/Info : Audio Coding 3
Commercial name : Dolby Digital
Codec ID : A_AC3
Duration : 1 h 54 min
Bit rate mode : Constant
Bit rate : 384 kb/s
Channel(s) : 6 channels
Channel layout : L R C LFE Ls Rs
Sampling rate : 48.0 kHz
Frame rate : 31.250 FPS (1536 SPF)
Compression mode : Lossy
Stream size : 315 MiB (3%)
Title : iTunes
Language : Russian
Service kind : Complete Main
Default : Yes
Forced : Yes
Audio #2
ID : 3
Format : AC-3
Format/Info : Audio Coding 3
Commercial name : Dolby Digital
Codec ID : A_AC3
Duration : 1 h 54 min
Bit rate mode : Constant
Bit rate : 640 kb/s
Channel(s) : 6 channels
Channel layout : L R C LFE Ls Rs
Sampling rate : 48.0 kHz
Frame rate : 31.250 FPS (1536 SPF)
Compression mode : Lossy
Stream size : 525 MiB (5%)
Title : Original
Language : Spanish
Service kind : Complete Main
Default : No
Forced : No
Menu
00:00:00.000 : en:Chapter 01
00:10:29.375 : en:Chapter 02
00:18:31.167 : en:Chapter 03
00:29:25.542 : en:Chapter 04
00:38:19.958 : en:Chapter 05
00:46:50.750 : en:Chapter 06
00:56:34.083 : en:Chapter 07
01:08:54.333 : en:Chapter 08
01:16:37.792 : en:Chapter 09
01:26:49.208 : en:Chapter 10
01:35:55.542 : en:Chapter 11
01:49:35.500 : en:Chapter 12

Релиз от:

Kon912

Post 31-May-2020 16:02

[Quote]

Прощай / Adios-
Год выхода: 2019
Страна: Испания
Студия: Apache Films, Claqueta, La, Instituto de la Cinematografia y de las Artes Audiovisuales
Жанр: Триллер, драма
Продолжительность: 01:54:36
Перевод: Дублированный | iTunes-Режиссер:
Пако Кабесас-В ролях:
Марио Касас, Наталия де Молина, Рут Диас, Карлос Бардем, Висенте Ромеро, Паулина Феной, Маурисио Моралес, Себастьян Аро, Мона Мартинес, Пилар Гомес-О фильме:
Вышедший на свободу мошенник начинает мстить за убийство своей дочери, которая погибла в автокатастрофе в день первого причастия.- -Качество: BDRip 720p
Формат: MKV
Видео: MPEG-4 AVC, 1280x536, 5327 Кbit/s, 24.000 fps
Аудио #01: 48 kHz, AC3, 5.1, 384 Kbps | iTunes | RUS |
Аудио #02: 48 kHz, AC3, 5.1, 640 Kbps | Оригинал | SPA |
Субтитры: Нет-

Скриншоты

     

MI

General
Unique ID : 245115744053259415209460132551458789822 (0xB867933BCDEE460F9F3B062B984F99BE)
Complete name : E:Video111BackupAdiós.2019.BDRip.720p.seleZen.mkv
Format : Matroska
Format version : Version 4
File size : 5.08 GiB
Duration : 1 h 54 min
Overall bit rate : 6 349 kb/s
Movie name : Adiós 2019 from селезень
Encoded date : UTC 2020-05-31 12:23:05
Writing application : mkvmerge v40.0.0 ('Old Town Road + Pony') 64-bit
Writing library : libebml v1.3.9 + libmatroska v1.5.2
Video
ID : 1
Format : AVC
Format/Info : Advanced Video Codec
Format profile : [email protected]
Format settings : CABAC / 12 Ref Frames
Format settings, CABAC : Yes
Format settings, Reference : 12 frames
Codec ID : V_MPEG4/ISO/AVC
Duration : 1 h 54 min
Bit rate : 5 327 kb/s
Width : 1 280 pixels
Height : 536 pixels
Display aspect ratio : 2.40:1
Frame rate mode : Constant
Frame rate : 24.000 FPS
Color space : YUV
Chroma subsampling : 4:2:0
Bit depth : 8 bits
Scan type : Progressive
Bits/(Pixel*Frame) : 0.324
Stream size : 4.26 GiB (84%)
Writing library : x264 core 142 r2431+42 c69a006 tMod [[email protected] X86_64]
Encoding settings : cabac=1 / ref=12 / deblock=1:-2:-2 / analyse=0x3:0x133 / me=umh / subme=10 / psy=1 / fade_compensate=0.00 / psy_rd=1.00:0.00 / mixed_ref=1 / me_range=32 / chroma_me=1 / trellis=2 / 8x8dct=1 / cqm=0 / deadzone=21,11 / fast_pskip=0 / chroma_qp_offset=-2 / threads=24 / lookahead_threads=4 / sliced_threads=0 / nr=0 / decimate=0 / interlaced=0 / bluray_compat=0 / constrained_intra=0 / fgo=0 / bframes=8 / b_pyramid=2 / b_adapt=2 / b_bias=0 / direct=3 / weightb=1 / open_gop=0 / weightp=2 / keyint=240 / keyint_min=24 / scenecut=40 / intra_refresh=0 / rc_lookahead=50 / rc=2pass / mbtree=0 / bitrate=5327 / ratetol=1.0 / qcomp=0.60 / qpmin=0:0:0 / qpmax=51:51:51 / qpstep=4 / cplxblur=20.0 / qblur=0.5 / vbv_maxrate=50000 / vbv_bufsize=62500 / nal_hrd=none / filler=0 / ip_ratio=1.40 / pb_ratio=1.30 / aq=3:0.80 / aq-sensitivity=10.00 / aq-factor=1.00:1.00:1.00 / aq2=0 / aq3=0
Language : English
Default : Yes
Forced : No
Audio #1
ID : 2
Format : AC-3
Format/Info : Audio Coding 3
Commercial name : Dolby Digital
Codec ID : A_AC3
Duration : 1 h 54 min
Bit rate mode : Constant
Bit rate : 384 kb/s
Channel(s) : 6 channels
Channel layout : L R C LFE Ls Rs
Sampling rate : 48.0 kHz
Frame rate : 31.250 FPS (1536 SPF)
Compression mode : Lossy
Stream size : 315 MiB (6%)
Title : iTunes
Language : Russian
Service kind : Complete Main
Default : Yes
Forced : Yes
Audio #2
ID : 3
Format : AC-3
Format/Info : Audio Coding 3
Commercial name : Dolby Digital
Codec ID : A_AC3
Duration : 1 h 54 min
Bit rate mode : Constant
Bit rate : 640 kb/s
Channel(s) : 6 channels
Channel layout : L R C LFE Ls Rs
Sampling rate : 48.0 kHz
Frame rate : 31.250 FPS (1536 SPF)
Compression mode : Lossy
Stream size : 525 MiB (10%)
Title : Original
Language : Spanish
Service kind : Complete Main
Default : No
Forced : No
Menu
00:00:00.000 : en:Chapter 01
00:10:29.375 : en:Chapter 02
00:18:31.167 : en:Chapter 03
00:29:25.542 : en:Chapter 04
00:38:19.958 : en:Chapter 05
00:46:50.750 : en:Chapter 06
00:56:34.083 : en:Chapter 07
01:08:54.333 : en:Chapter 08
01:16:37.792 : en:Chapter 09
01:26:49.208 : en:Chapter 10
01:35:55.542 : en:Chapter 11
01:49:35.500 : en:Chapter 12

Релиз от:

DED

Post 21-May-2020 20:52

[Quote]

--Рэмбо: Последняя кровь / Rambo: Last Blood-«Настоящий герой бьётся до конца»-- Год выхода: 2019
Страна: США, Испания, Болгария
Студия: «Balboa Productions, Campbell Grobman Films, Dadi Film Group, …»
Жанр: боевик, триллер
Продолжительность: 01:40:58
Перевод: Профессиональный (дублированный) [Лицензия]
Режиссер: Адриан Грюнберг
В ролях: Сильвестр Сталлоне, Пас Вега, Ивет Монреаль, Луис Мэндилор, Оскар Хаенада, Шила Шах, Серхио Перис-Менчета, Джессика Мэдсен, Хоакин Косио, Адриана Барраса, Джени Ким, Паскасио Лопес, Александр Димитров, ...-Описание: Он хранил секреты всю жизнь, но пришло время взглянуть в глаза прошлому. В последний раз собраться и стать безжалостной машиной для убийства. Рэмбо снова встанет на смертельно опасный путь — путь мести, который ему придется пройти до конца.- -Качество видео: BDRip 720p
Формат видео: MKV
Видеокодек: H.264
Аудиокодек: AC3
Видео: 1280x536 (2.40:1), 23.976 fps, MPEG-4 AVC, ~7000 kbps avg
Аудио #1: [RUS] 48.0 kHz, AC3 Dolby Digital, 5.1 (L,C,R) + LFE ch, ~640.00 kbps avg
Аудио #2: [ENG] 48.0 kHz, AC3 Dolby Digital, 5.1 (L,C,R) + LFE ch, ~640.00 kbps avg
Cубтитры: русские, английские (встроенные, отключаемые)
Дополнительно:Навигация по главам есть
-

MediaInfo:

General
Unique ID : 299614883930606464757957793019495583638 (0xE167BA48E20B57FA89B0B3FB62160F96)
Complete name : E:Video111Rambo.Last.Blood.2019.EXTENDED.BDRip.720p.seleZen.mkv
Format : Matroska
Format version : Version 4
File size : 5.80 GiB
Duration : 1 h 40 min
Overall bit rate : 8 225 kb/s
Movie name : Rambo Last Blood 2019 EXTENDED from селезень
Encoded date : UTC 2020-05-21 13:37:11
Writing application : mkvmerge v40.0.0 ('Old Town Road + Pony') 64-bit
Writing library : libebml v1.3.9 + libmatroska v1.5.2
Video
ID : 1
Format : AVC
Format/Info : Advanced Video Codec
Format profile : [email protected]
Format settings : CABAC / 12 Ref Frames
Format settings, CABAC : Yes
Format settings, Reference : 12 frames
Codec ID : V_MPEG4/ISO/AVC
Duration : 1 h 40 min
Bit rate : 7 000 kb/s
Width : 1 280 pixels
Height : 536 pixels
Display aspect ratio : 2.40:1
Frame rate mode : Constant
Frame rate : 23.976 (24000/1001) FPS
Color space : YUV
Chroma subsampling : 4:2:0
Bit depth : 8 bits
Scan type : Progressive
Bits/(Pixel*Frame) : 0.426
Stream size : 4.90 GiB (84%)
Title : LoRD
Writing library : x264 core 159 r2991+49 ~ LoRD
Encoding settings : cabac=1 / ref=12 / deblock=1:-3:-3 / analyse=0x3:0x133 / me=umh / subme=10 / psy=1 / fade_compensate=0.00 / psy_rd=1.00:0.00 / mixed_ref=1 / me_range=32 / chroma_me=1 / trellis=2 / 8x8dct=1 / cqm=0 / deadzone=21,11 / fast_pskip=0 / chroma_qp_offset=-2 / threads=12 / lookahead_threads=2 / sliced_threads=0 / nr=0 / decimate=0 / interlaced=0 / bluray_compat=0 / constrained_intra=0 / fgo=0 / bframes=8 / b_pyramid=2 / b_adapt=2 / b_bias=0 / direct=3 / weightb=1 / open_gop=0 / weightp=2 / keyint=250 / keyint_min=23 / scenecut=40 / intra_refresh=0 / rc_lookahead=60 / rc=2pass / mbtree=0 / bitrate=7000 / ratetol=1.0 / qcomp=0.60 / qpmin=0:0:0 / qpmax=69:69:69 / qpstep=4 / cplxblur=20.0 / qblur=0.5 / vbv_maxrate=50000 / vbv_bufsize=62500 / nal_hrd=none / filler=0 / ip_ratio=1.25 / pb_ratio=1.25 / aq=3:0.80 / aq-sensitivity=10.00 / aq-factor=1.00:1.00:1.00 / aq2=0 / aq3=0
Language : English
Default : Yes
Forced : No
Audio #1
ID : 2
Format : AC-3
Format/Info : Audio Coding 3
Commercial name : Dolby Digital
Codec ID : A_AC3
Duration : 1 h 40 min
Bit rate mode : Constant
Bit rate : 640 kb/s
Channel(s) : 6 channels
Channel layout : L R C LFE Ls Rs
Sampling rate : 48.0 kHz
Frame rate : 31.250 FPS (1536 SPF)
Compression mode : Lossy
Stream size : 462 MiB (8%)
Title : Dub [License]
Language : Russian
Service kind : Complete Main
Default : Yes
Forced : Yes
Audio #2
ID : 3
Format : AC-3
Format/Info : Audio Coding 3
Commercial name : Dolby Digital
Codec ID : A_AC3
Duration : 1 h 40 min
Bit rate mode : Constant
Bit rate : 640 kb/s
Channel(s) : 6 channels
Channel layout : L R C LFE Ls Rs
Sampling rate : 48.0 kHz
Frame rate : 31.250 FPS (1536 SPF)
Compression mode : Lossy
Stream size : 462 MiB (8%)
Title : Original
Language : English
Service kind : Complete Main
Default : No
Forced : No
Text #1
ID : 4
Format : UTF-8
Codec ID : S_TEXT/UTF8
Codec ID/Info : UTF-8 Plain Text
Duration : 1 h 33 min
Bit rate : 58 b/s
Count of elements : 809
Stream size : 40.0 KiB (0%)
Title : Full [Enigma]
Language : Russian
Default : No
Forced : No
Text #2
ID : 5
Format : UTF-8
Codec ID : S_TEXT/UTF8
Codec ID/Info : UTF-8 Plain Text
Duration : 1 h 19 min
Bit rate : 7 b/s
Count of elements : 202
Stream size : 4.52 KiB (0%)
Title : Forced
Language : English
Default : No
Forced : No
Text #3
ID : 6
Format : UTF-8
Codec ID : S_TEXT/UTF8
Codec ID/Info : UTF-8 Plain Text
Duration : 1 h 29 min
Bit rate : 37 b/s
Count of elements : 913
Stream size : 24.9 KiB (0%)
Title : Full
Language : English
Default : No
Forced : No
Text #4
ID : 7
Format : UTF-8
Codec ID : S_TEXT/UTF8
Codec ID/Info : UTF-8 Plain Text
Duration : 1 h 33 min
Bit rate : 44 b/s
Count of elements : 1197
Stream size : 30.5 KiB (0%)
Title : SDH
Language : English
Default : No
Forced : No
Menu
00:00:00.000 : en:Chapter 01
00:07:54.140 : en:Chapter 02
00:15:33.808 : en:Chapter 03
00:20:55.838 : en:Chapter 04
00:30:20.902 : en:Chapter 05
00:38:26.846 : en:Chapter 06
00:45:24.847 : en:Chapter 07
00:53:24.827 : en:Chapter 08
01:05:10.365 : en:Chapter 09
01:13:51.552 : en:Chapter 10
01:23:06.106 : en:Chapter 11
01:30:59.412 : en:Chapter 12
-

Скриншоты:

       
- -
 

The time now is: Today 19:18

All times are GMT + 3 Hours