Today is a free download without charge Download

Search found 500 matches

Author Message

Орлов Владимир

Post Today 00:53

[Quote]

--Детские игры / Child's Play (Ларс Клевберг) [2019, Ужасы, WEB-DL 720p] [DUB] [iTunes]-- Информация о фильме
Название: Детские игры
Оригинальное название: Child's Play
Год выхода: 2019
Жанр: Ужасы
Режиссер: Ларс Клевберг--В ролях: Гэбриел Бейтман, Обри Плаза, Марк Хэмилл, Брайан Тайри Генри, Тим Мэтисон, Дэвид Льюис, Ти Консильо, Марлон Казади, Беатрис Китсос, Ханна Дрю, Трент Редекоп, Эмбер Тейлор, Карлис Бёрк, Николь Энтони, Джонсон Фэн, Кристин Йорк, Миа Белла, Амро Майзуб, Вину Сандху, Оливия Пун, Кеннет Тайнен--О фильме:
Мать-одиночка Карен дарит своему сыну Энди куклу, о которой мечтают все дети. Однако, вскоре становится ясно, что Энди достается больше, чем просто игрушка…-- --Страна: Франция, Канада, США
Студия: Orion Pictures, BRON Studios, Bron Creative
Продолжительность: 01:29:59
[Перевод: Дублированный | iTunes--Качество: WEB-DL (720p)
Видео: MPEG-4 AVC, 4053 Кбит/с, 1280x536
Аудио: Русский (AC3, 6 ch, 384 Кбит/с)
--

Скриншоты

           

Орлов Владимир

Post Yesterday 05:09

[Quote]

--Собачьи дни / Dog Days (Кен Марино) [2018, Драма, комедия, BDRemux 1080p] [MVO] [iTunes]-- Информация о фильме
Название: Собачьи дни
Оригинальное название: Dog Days
Год выхода: 2018
Жанр: Драма, комедия
Режиссер: Кен Марино--В ролях: Нина Добрев, Ванесса Энн Хадженс, Тони Белл, Ева Лонгория, Роб Кордри, Адам Палли, Райан Хансен, Джессика Ст. Клер, Томас Леннон, Жасмин Сепас Джонс--О фильме: История о нескольких жителях Лос-Анжелеса в поиске счастья, которым помогают их домашние любимцы-собаки. Проблемы на работе и в личной жизни? Оказывается, псам всё по зубам!-- --Страна: США
Студия: LD Entertainment
Продолжительность: 01:53:05
Перевод: Профессиональный многоголосый | iTunes--Качество: BDRemux 1080p
Видео: MPEG-4 AVC, 1920x1080, 20.0 Mbit/s, 23.976 fps
Аудио #01: 48 kHz, AC3, 5.1, 384 Kbps | iTunes | RUS |
Аудио #02: 48 kHz, DTS-HD MA, 5.1, 3157 Kbps | Оригинал | ENG |
Субтитры: Русские (Full), английские--

Скриншоты

         

Тех.данные видеофайла

General
Unique ID : 853963492207068566459193486435498234 (0xA477A69DA5C401C5D2F5820AC138FA)
Complete name : D:\Video111\Dog.Days.2018.BDREMUX.1080p.seleZen.mkv
Format : Matroska
Format version : Version 4
File size : 18.6 GiB
Duration : 1 h 53 min
Overall bit rate mode : Variable
Overall bit rate : 23.5 Mb/s
Movie name : Dog Days 2018 from селезень
Encoded date : UTC 2019-09-13 22:35:11
Writing application : mkvmerge v22.0.0 ('At The End Of The World') 64-bit
Writing library : libebml v1.3.5 + libmatroska v1.4.8
Video
ID : 1
Format : AVC
Format/Info : Advanced Video Codec
Format profile : [email protected]
Format settings : CABAC / 4 Ref Frames
Format settings, CABAC : Yes
Format settings, Reference : 4 frames
Codec ID : V_MPEG4/ISO/AVC
Duration : 1 h 53 min
Bit rate mode : Variable
Bit rate : 20.0 Mb/s
Maximum bit rate : 35.0 Mb/s
Width : 1 920 pixels
Height : 1 080 pixels
Display aspect ratio : 16:9
Frame rate mode : Constant
Frame rate : 23.976 (24000/1001) FPS
Standard : NTSC
Color space : YUV
Chroma subsampling : 4:2:0
Bit depth : 8 bits
Scan type : Progressive
Bits/(Pixel*Frame) : 0.402
Stream size : 15.8 GiB (85%)
Language : English
Default : Yes
Forced : No
Color range : Limited
Color primaries : BT.709
Transfer characteristics : BT.709
Matrix coefficients : BT.709
Audio #1
ID : 2
Format : AC-3
Format/Info : Audio Coding 3
Commercial name : Dolby Digital
Codec ID : A_AC3
Duration : 1 h 53 min
Bit rate mode : Constant
Bit rate : 384 kb/s
Channel(s) : 6 channels
Channel layout : L R C LFE Ls Rs
Sampling rate : 48.0 kHz
Frame rate : 31.250 FPS (1536 SPF)
Bit depth : 16 bits
Compression mode : Lossy
Stream size : 311 MiB (2%)
Title : iTunes
Language : Russian
Service kind : Complete Main
Default : Yes
Forced : Yes
Audio #2
ID : 3
Format : DTS XLL
Format/Info : Digital Theater Systems
Commercial name : DTS-HD Master Audio
Codec ID : A_DTS
Duration : 1 h 53 min
Bit rate mode : Variable
Bit rate : 3 157 kb/s
Channel(s) : 6 channels
Channel layout : C L R Ls Rs LFE
Sampling rate : 48.0 kHz
Frame rate : 93.750 FPS (512 SPF)
Bit depth : 24 bits
Compression mode : Lossless
Stream size : 2.49 GiB (13%)
Title : Original
Language : English
Default : No
Forced : No
Text #1
ID : 4
Format : UTF-8
Codec ID : S_TEXT/UTF8
Codec ID/Info : UTF-8 Plain Text
Duration : 1 h 52 min
Bit rate : 117 b/s
Count of elements : 1988
Stream size : 97.0 KiB (0%)
Title : Full
Language : Russian
Default : No
Forced : No
Text #2
ID : 5
Format : UTF-8
Codec ID : S_TEXT/UTF8
Codec ID/Info : UTF-8 Plain Text
Duration : 1 h 52 min
Bit rate : 104 b/s
Count of elements : 2472
Stream size : 86.3 KiB (0%)
Title : Full
Language : English
Default : No
Forced : No
Menu
00:00:00.000 : en:Chapter 1
00:09:05.211 : en:Chapter 2
00:18:35.406 : en:Chapter 3
00:26:43.060 : en:Chapter 4
00:37:27.370 : en:Chapter 5
00:46:41.090 : en:Chapter 6
00:55:18.607 : en:Chapter 7
01:05:39.644 : en:Chapter 8
01:14:10.071 : en:Chapter 9
01:23:10.819 : en:Chapter 10
01:33:17.759 : en:Chapter 11
01:44:43.110 : en:Chapter 12

Орлов Владимир

Post Yesterday 05:02

[Quote]

--Собачьи дни / Dog Days (Кен Марино) [2018, Драма, комедия, BDRip 1080p] [MVO] [iTunes]-- Информация о фильме
Название: Собачьи дни
Оригинальное название: Dog Days
Год выхода: 2018
Жанр: Драма, комедия
Режиссер: Кен Марино--В ролях: Нина Добрев, Ванесса Энн Хадженс, Тони Белл, Ева Лонгория, Роб Кордри, Адам Палли, Райан Хансен, Джессика Ст. Клер, Томас Леннон, Жасмин Сепас Джонс--О фильме: История о нескольких жителях Лос-Анжелеса в поиске счастья, которым помогают их домашние любимцы-собаки. Проблемы на работе и в личной жизни? Оказывается, псам всё по зубам!-- --Страна: США
Студия: LD Entertainment
Продолжительность: 01:53:05
Перевод: Профессиональный многоголосый iTunes--Качество: BDRip 1080p
Видео: MPEG-4 AVC, 1920x800, 8143 Kbit/s, 23.976 fps
Аудио #01: 48 kHz, AC3, 5.1, 384 Kbps | iTunes | RUS |
Аудио #02: 48 kHz, AC3, 5.1, 640 Kbps | Оригинал | ENG |
Субтитры: Русские (Full), английские--

Скриншоты

         

Тех.данные видеофайла

General
Unique ID: 199435106000820694887791929416395890510 (0x9609CDE40AE0DE2C007CE21274B19F4E)
Complete name: D:\Video111\Dog.Days.2018.BDRip.1080p.seleZen.mkv
Format: Matroska
Format version: Version 4
File size: 7.24 GiB
Duration: 1 h 53 min
Overall bit rate: 9 164 kb/s
Movie name: Dog Days 2018 from селезень
Encoded date: UTC 2019-09-13 22:09:53
Writing application: mkvmerge v22.0.0 ('At The End Of The World') 64-bit
Writing library: libebml v1.3.5 + libmatroska v1.4.8
Video
ID: 1
Format: AVC
Format/Info: Advanced Video Codec
Format profile: [email protected]
Format settings: CABAC / 5 Ref Frames
Format settings, CABAC: Yes
Format settings, Reference: 5 frames
Codec ID: V_MPEG4/ISO/AVC
Duration: 1 h 53 min
Bit rate: 8 143 kb/s
Width: 1 920 pixels
Height: 800 pixels
Display aspect ratio: 2.40:1
Frame rate mode: Constant
Frame rate: 23.976 (24000/1001) FPS
Color space: YUV
Chroma subsampling: 4:2:0
Bit depth: 8 bits
Scan type: Progressive
Bits/(Pixel*Frame): 0.221
Stream size: 6.43 GiB (89%)
Title: Encoded by seleZen
Writing library: x264 core 148 r2705kMod 3f5ed56
Encoding settings: cabac=1 / ref=5 / deblock=1:-2:-2 / analyse=0x3:0x113 / me=umh / subme=11 / psy=1 / fade_compensate=0.00 / psy_rd=1.00:0.00 / mixed_ref=1 / me_range=32 / chroma_me=1 / trellis=2 / 8x8dct=1 / cqm=0 / deadzone=21,11 / fast_pskip=0 / chroma_qp_offset=-2 / threads=24 / lookahead_threads=6 / sliced_threads=0 / nr=0 / decimate=0 / interlaced=0 / bluray_compat=0 / constrained_intra=0 / fgo=0 / bframes=10 / b_pyramid=2 / b_adapt=2 / b_bias=0 / direct=3 / weightb=1 / open_gop=0 / weightp=2 / keyint=240 / keyint_min=23 / scenecut=40 / intra_refresh=0 / rc_lookahead=50 / rc=2pass / mbtree=0 / bitrate=8143 / ratetol=1.0 / qcomp=0.60 / qpmin=0 / qpmax=51 / qpstep=4 / cplxblur=20.0 / qblur=0.5 / vbv_maxrate=50000 / vbv_bufsize=62500 / nal_hrd=none / filler=0 / ip_ratio=1.40 / pb_ratio=1.30 / aq=3:0.80
Language: English
Default: Yes
Forced: No
Audio #1
ID: 2
Format: AC-3
Format/Info: Audio Coding 3
Commercial name: Dolby Digital
Codec ID: A_AC3
Duration: 1 h 53 min
Bit rate mode: Constant
Bit rate: 384 kb/s
Channel(s): 6 channels
Channel layout: L R C LFE Ls Rs
Sampling rate: 48.0 kHz
Frame rate: 31.250 FPS (1536 SPF)
Bit depth: 16 bits
Compression mode: Lossy
Stream size: 311 MiB (4%)
Title: iTunes
Language: Russian
Service kind: Complete Main
Default: Yes
Forced: Yes
Audio #2
ID: 3
Format: AC-3
Format/Info: Audio Coding 3
Commercial name: Dolby Digital
Codec ID: A_AC3
Duration: 1 h 53 min
Bit rate mode: Constant
Bit rate: 640 kb/s
Channel(s): 6 channels
Channel layout: L R C LFE Ls Rs
Sampling rate: 48.0 kHz
Frame rate: 31.250 FPS (1536 SPF)
Bit depth: 16 bits
Compression mode: Lossy
Stream size: 517 MiB (7%)
Title: Original
Language: English
Service kind: Complete Main
Default: No
Forced: No
Text #1
ID: 4
Format: UTF-8
Codec ID: S_TEXT/UTF8
Codec ID/Info: UTF-8 Plain Text
Duration: 1 h 52 min
Bit rate: 117 b/s
Count of elements: 1988
Stream size: 97.0 KiB (0%)
Title: Full
Language: Russian
Default: No
Forced: No
Text #2
ID: 5
Format: UTF-8
Codec ID: S_TEXT/UTF8
Codec ID/Info: UTF-8 Plain Text
Duration: 1 h 52 min
Bit rate: 104 b/s
Count of elements: 2472
Stream size: 86.3 KiB (0%)
Title: Full
Language: English
Default: No
Forced: No
Menu
00:00:00.000: en:Chapter 1
00:09:05.211: en:Chapter 2
00:18:35.406: en:Chapter 3
00:26:43.060: en:Chapter 4
00:37:27.370: en:Chapter 5
00:46:41.090: en:Chapter 6
00:55:18.607: en:Chapter 7
01:05:39.644: en:Chapter 8
01:14:10.071: en:Chapter 9
01:23:10.819: en:Chapter 10
01:33:17.759: en:Chapter 11
01:44:43.110: en:Chapter 12

Орлов Владимир

Post 13-Sep-2019 17:35

[Quote]

--Некромант / Nekrotronic ( Кия Роуч-Тернер) [2018, ужасы, фантастика, комедия, BDRip 720p] [DUB] [iTunes]-- Информация о фильме
Год выпуска: 2018
Жанр: ужасы, фантастика, комедия
Страна: Австралия
Режиссёр: Кия Роуч-Тернер
Перевод: Дублированный [iTunes]
Субтитры: Английские
Продолжительность: 01:27:49-- В ролях: Бен О Тул, Моника Беллуччи, Боб Савеа, Дэвид Бимиш, Чармэйн Бингва, Уилльям Чун, Майкл Дункан, Кэролайн Форд, Аллира Гибсон, Роберт Грин-- Описание: Однажды, зависнув в сети, обычный парень осознает, что он - член таинственной организации некромантов, один из охотников на демонов, овладевающих душами людей через смартфоны.-- --Файлы
Качество: BDRip 720p
Формат: MKV
Видео: MPEG-4 AVC, 1280x536, 5327 Kbit/s, 23.976 fps
Аудио: 48 kHz, AC3, 5.1, 384 Kbps | iTunes | RUS
Аудио 2: 48 kHz, AC3, 5.1, 640 Kbps | Оригинал | ENG

Скриншоты

         

Тех.данные видеофайла

General
Unique ID: 32147099804472697591907530435381138839 (0x182F4E6408230ACCF847DA58313B9597)
Complete name: D:\Video111\Nekrotronic.2018.BDRip.720p.seleZen.mkv
Format: Matroska
Format version: Version 4
File size: 4.28 GiB
Duration: 1 h 36 min
Overall bit rate: 6 332 kb/s
Movie name: Nekrotronic 2018 from селезень
Encoded date: UTC 2019-09-13 13:08:22
Writing application: mkvmerge v22.0.0 ('At The End Of The World') 64-bit
Writing library: libebml v1.3.5 + libmatroska v1.4.8
Video
ID: 1
Format: AVC
Format/Info: Advanced Video Codec
Format profile: [email protected]
Format settings: CABAC / 12 Ref Frames
Format settings, CABAC: Yes
Format settings, Reference: 12 frames
Codec ID: V_MPEG4/ISO/AVC
Duration: 1 h 36 min
Bit rate: 5 327 kb/s
Width: 1 280 pixels
Height: 536 pixels
Display aspect ratio: 2.40:1
Frame rate mode: Constant
Frame rate: 23.976 (24000/1001) FPS
Color space: YUV
Chroma subsampling: 4:2:0
Bit depth: 8 bits
Scan type: Progressive
Bits/(Pixel*Frame): 0.324
Stream size: 3.58 GiB (84%)
Title: Encoded by seleZen
Writing library: x264 core 148 r2705kMod 3f5ed56
Encoding settings: cabac=1 / ref=12 / deblock=1:-2:-2 / analyse=0x3:0x113 / me=umh / subme=11 / psy=1 / fade_compensate=0.00 / psy_rd=1.00:0.00 / mixed_ref=1 / me_range=32 / chroma_me=1 / trellis=2 / 8x8dct=1 / cqm=0 / deadzone=21,11 / fast_pskip=0 / chroma_qp_offset=-2 / threads=17 / lookahead_threads=4 / sliced_threads=0 / nr=0 / decimate=0 / interlaced=0 / bluray_compat=0 / constrained_intra=0 / fgo=0 / bframes=10 / b_pyramid=2 / b_adapt=2 / b_bias=0 / direct=3 / weightb=1 / open_gop=0 / weightp=2 / keyint=240 / keyint_min=23 / scenecut=40 / intra_refresh=0 / rc_lookahead=50 / rc=2pass / mbtree=0 / bitrate=5327 / ratetol=1.0 / qcomp=0.60 / qpmin=0 / qpmax=51 / qpstep=4 / cplxblur=20.0 / qblur=0.5 / vbv_maxrate=50000 / vbv_bufsize=62500 / nal_hrd=none / filler=0 / ip_ratio=1.40 / pb_ratio=1.30 / aq=3:0.80
Language: English
Default: Yes
Forced: No
Audio #1
ID: 2
Format: AC-3
Format/Info: Audio Coding 3
Commercial name: Dolby Digital
Codec ID: A_AC3
Duration: 1 h 36 min
Bit rate mode: Constant
Bit rate: 384 kb/s
Channel(s): 6 channels
Channel layout: L R C LFE Ls Rs
Sampling rate: 48.0 kHz
Frame rate: 31.250 FPS (1536 SPF)
Bit depth: 16 bits
Compression mode: Lossy
Stream size: 266 MiB (6%)
Title: iTunes
Language: Russian
Service kind: Complete Main
Default: Yes
Forced: Yes
Audio #2
ID: 3
Format: AC-3
Format/Info: Audio Coding 3
Commercial name: Dolby Digital
Codec ID: A_AC3
Duration: 1 h 36 min
Bit rate mode: Constant
Bit rate: 640 kb/s
Channel(s): 6 channels
Channel layout: L R C LFE Ls Rs
Sampling rate: 48.0 kHz
Frame rate: 31.250 FPS (1536 SPF)
Bit depth: 16 bits
Compression mode: Lossy
Stream size: 443 MiB (10%)
Title: Original
Language: English
Service kind: Complete Main
Default: No
Forced: No
Text #1
ID: 4
Format: UTF-8
Codec ID: S_TEXT/UTF8
Codec ID/Info: UTF-8 Plain Text
Duration: 1 h 30 min
Bit rate: 39 b/s
Count of elements: 997
Stream size: 26.6 KiB (0%)
Title: Full
Language: English
Default: No
Forced: No
Text #2
ID: 5
Format: UTF-8
Codec ID: S_TEXT/UTF8
Codec ID/Info: UTF-8 Plain Text
Duration: 1 h 31 min
Bit rate: 49 b/s
Count of elements: 1330
Stream size: 32.8 KiB (0%)
Title: SDH
Language: English
Default: No
Forced: No
Menu
00:00:00.000: en:00:00:00.000
00:05:02.427: en:00:05:02.427
00:09:52.675: en:00:09:52.675
00:17:47.692: en:00:17:47.692
00:25:40.873: en:00:25:40.873
00:33:46.399: en:00:33:46.399
00:38:33.186: en:00:38:33.186
00:42:50.526: en:00:42:50.526
00:47:39.732: en:00:47:39.732
00:55:36.750: en:00:55:36.750
00:59:54.466: en:00:59:54.466
01:03:45.071: en:01:03:45.071
01:11:30.077: en:01:11:30.077
01:17:15.756: en:01:17:15.756
01:22:25.065: en:01:22:25.065
01:31:23.603: en:01:31:23.603

Орлов Владимир

Post 13-Sep-2019 14:39

[Quote]

согласен..

Clavik

Post 13-Sep-2019 09:51

[Quote]

смотреть можно) фильм довольно не плохой и юмор норм

Орлов Владимир

Post 13-Sep-2019 02:02

[Quote]

--Шафт / Shaft (Тим Стори) [2019, Боевик, комедия, криминал, BDRip 1080p] [DUB] [Netflix]-- Информация о фильме
Название: Шафт
Оригинальное название: Shaft
Год выпуска: 2019
Жанр: Боевик, комедия, криминал
Режиссер: Тим Стори--В ролях: Сэмюэл Л. Джексон, Джесси Ашер, Ричард Раундтри, Реджина Холл, Александра Шипп, Мэтт Лауриа, Титус Уэлливер, Метод Мэн, Исаак Де Банколе, Эван Джогиа--О фильме:
Джон Шафт III - специалист по кибербезопасности в ФБР, не привыкший решать проблемы грубой силой. Он предпочитает полагаться на логику и расчёт, но убийство лучшего друга ставит его в тупик. С ним не разобраться современными методами, так что Джону ничего не остается, кроме как обратиться за помощью к старшему поколению Шафтов, чьи старые методы помогут ему найти убийцу.-- --Страна: США
Студия: Davis Entertainment, Khalabo Ink Society, Netflix
Продолжительность: 01:51:31
Перевод: Дублированный / NETFLiX--Файл
Качество: BDRip (1080p)
Видео: MPEG-4 AVC, 9182 Кбит/с, 1920x808
Аудио: Русский, английский (AC3, 6 ch, 640 Кбит/с)
Субтитры: Русские (полные), английские
--

Скриншоты

       

Орлов Владимир

Post 13-Sep-2019 14:35

[Quote]

--Дылда / Tall Girl (Зинга Стюарт ) [2019, Комедия , WEBRip 1080p] [DUB] [Пифагор]-- Информация о фильме
Название: Дылда
Оригинальное название: Tall Girl
Год выхода: 2019
Жанр: Комедия
Режиссер: Зинга Стюарт--В ролях: Ава Мишель, Сабрина Карпентер, Анджела Кинси, Пэрис Берелс, Люк Эйснер, Стив Зан, Гриффин Глюк, Кэнди Брукс, Эми Ле, Conway Solomon и др.--О фильме: Джоди, самая высокая девушка в школе, всегда чувствовала себя неловко в собственной шкуре. Но после многих лет насмешек и избегания внимания любой ценой, Джоди, наконец, решает обрести уверенность в себе.-- --Страна: США
Студия: Wonderland Sound and Vision
Продолжительность: 01:42:43
Перевод: Дублированный | Пифагор по заказу Netflix--Файл
Качество: WEBRip 1080p | Tall.Girl.2019.1080p.NF.WEBRip.DDP5.1.x264-CM
Видео: MPEG-4 AVC, 1920x1080, 3830 kbps, 23,976 fps
Звук#1: русский, EAC3, 5.1 ch, 48 kHz, 640 kbps
Звук#2: русский, AC3, 5.1 ch, 48 kHz, 448 kbps
Звук#3: английский, EAC3, 5.1 ch, 48 kHz, 640 kbps
Субтитры: русские (форс., полные), английские (SDH)
--

Тех.данные видеофайла

Общее
Уникальный идентификатор: 251572812674934339056063558056134924037 (0xBD43294BC59C4573919B2F68C0495705)
Полное имя: G:Torrent2TallGirlWEBRip1080p.mkv
Формат: Matroska
Версия формата: Version 4 / Version 2
Размер файла: 3,95 Гбайт
Продолжительность: 1 ч. 42 м.
Режим общего битрейта: Переменный
Общий поток: 5510 Кбит/сек
Название фильма: CMRG
Дата кодирования: UTC 2019-09-13 08:53:52
Программа кодирования: mkvmerge v9.5.0 ('Quiet Fire') 64bit
Библиотека кодирования: libebml v1.3.4 + libmatroska v1.4.5
Видео
Идентификатор: 1
Формат: AVC
Формат/Информация: Advanced Video Codec
Профиль формата: [email protected]
Настройки формата: CABAC / 3 Ref Frames
Параметр CABAC формата: Да
Параметр RefFrames формата: 3 кадра
Идентификатор кодека: V_MPEG4/ISO/AVC
Продолжительность: 1 ч. 42 м.
Вид битрейта: Переменный
Битрейт: 3830 Кбит/сек
Максимальный битрейт: 5745 Кбит/сек
Ширина: 1920 пикселей
Высота: 1080 пикселей
Соотношение сторон: 16:9
Режим частоты кадров: Постоянный
Частота кадров: 23,976 (24000/1001) кадра/сек
Цветовое пространство: YUV
Субдискретизация насыщенности: 4:2:0
Битовая глубина: 8 бит
Тип развёртки: Прогрессивная
Бит/(Пиксели*Кадры): 0.077
Размер потока: 2,71 Гбайт (69%)
Библиотека кодирования: x264 core 148 r2715 7e75228
Настройки программы: cabac=1 / ref=3 / deblock=1:0:0 / analyse=0x1:0x111 / me=umh / subme=10 / psy=1 / psy_rd=1.00:0.00 / mixed_ref=1 / me_range=24 / chroma_me=1 / trellis=2 / 8x8dct=0 / cqm=0 / deadzone=21,11 / fast_pskip=1 / chroma_qp_offset=-2 / threads=8 / lookahead_threads=1 / sliced_threads=0 / nr=0 / decimate=1 / interlaced=0 / bluray_compat=0 / stitchable=1 / constrained_intra=0 / bframes=2 / b_pyramid=0 / b_adapt=2 / b_bias=0 / direct=3 / weightb=1 / open_gop=0 / weightp=2 / keyint=250 / keyint_min=23 / scenecut=0 / intra_refresh=0 / rc_lookahead=48 / rc=2pass / mbtree=1 / bitrate=3830 / ratetol=1.0 / qcomp=0.50 / qpmin=6 / qpmax=51 / qpstep=4 / cplxblur=20.0 / qblur=0.5 / vbv_maxrate=5745 / vbv_bufsize=7660 / nal_hrd=vbr / filler=0 / ip_ratio=1.40 / aq=1:1.00
Язык: English
Default: Да
Forced: Нет
Аудио #1
Идентификатор: 2
Формат: E-AC-3
Формат/Информация: Enhanced Audio Coding 3
Параметр Endianness формата: Big
Идентификатор кодека: A_EAC3
Продолжительность: 1 ч. 42 м.
Вид битрейта: Постоянный
Битрейт: 640 Кбит/сек
Каналы: 6 каналов
Расположение каналов: Front: L C R, Side: L R, LFE
Частота: 48,0 КГц
Частота кадров: 187,500 кадров/сек (256 SPF)
Метод сжатия: С потерями
Размер потока: 470 Мбайт (12%)
Заголовок: rus
Язык: Russian
Default: Да
Forced: Нет
Аудио #2
Идентификатор: 3
Формат: AC-3
Формат/Информация: Audio Coding 3
Параметр Endianness формата: Big
Идентификатор кодека: A_AC3
Продолжительность: 1 ч. 42 м.
Вид битрейта: Постоянный
Битрейт: 448 Кбит/сек
Каналы: 6 каналов
Расположение каналов: Front: L C R, Side: L R, LFE
Частота: 48,0 КГц
Частота кадров: 31,250 кадров/сек (1536 SPF)
Битовая глубина: 16 бит
Метод сжатия: С потерями
Размер потока: 329 Мбайт (8%)
Заголовок: rus2
Язык: Russian
Default: Нет
Forced: Нет
Аудио #3
Идентификатор: 4
Формат: E-AC-3
Формат/Информация: Enhanced Audio Coding 3
Параметр Endianness формата: Big
Идентификатор кодека: A_EAC3
Продолжительность: 1 ч. 42 м.
Вид битрейта: Постоянный
Битрейт: 640 Кбит/сек
Каналы: 6 каналов
Расположение каналов: Front: L C R, Side: L R, LFE
Частота: 48,0 КГц
Частота кадров: 187,500 кадров/сек (256 SPF)
Метод сжатия: С потерями
Размер потока: 470 Мбайт (12%)
Заголовок: eng
Язык: English
Default: Нет
Forced: Нет
Текст #1
Идентификатор: 5
Формат: UTF-8
Идентификатор кодека: S_TEXT/UTF8
Идентификатор кодека/Информация: UTF-8 Plain Text
Продолжительность: 1 ч. 23 м.
Битрейт: 2 бит/сек
ElementCount: 31
Размер потока: 1,48 Кбайт (0%)
Заголовок: rusForced
Язык: Russian
Default: Да
Forced: Да
Текст #2
Идентификатор: 6
Формат: UTF-8
Идентификатор кодека: S_TEXT/UTF8
Идентификатор кодека/Информация: UTF-8 Plain Text
Продолжительность: 1 ч. 40 м.
Битрейт: 100 бит/сек
ElementCount: 1494
Размер потока: 74,2 Кбайт (0%)
Заголовок: rusFull
Язык: Russian
Default: Нет
Forced: Нет
Текст #3
Идентификатор: 7
Формат: UTF-8
Идентификатор кодека: S_TEXT/UTF8
Идентификатор кодека/Информация: UTF-8 Plain Text
Продолжительность: 1 ч. 40 м.
Битрейт: 88 бит/сек
ElementCount: 1846
Размер потока: 65,1 Кбайт (0%)
Заголовок: engSDH
Язык: English
Default: Нет
Forced: Нет

Скриншоты

               

Орлов Владимир

Post 13-Sep-2019 14:06

[Quote]

--Некромант / Nekrotronic ( Кия Роуч-Тернер) [2018, ужасы, фантастика, комедия, BDRemux 1080p] [DUB] [iTunes]-- Информация о фильме
Название: Некромант
Оригинальное название: Nekrotronic
Год выхода: 2018
Жанр: Ужасы, фантастика, комедия
Режиссер: Кия Роуч-Тернер--В ролях: Бен О'Тул, Моника Беллуччи, Боб Савеа, Дэвид Бимиш, Чармэйн Бингва, Уилльям Чун, Майкл Дункан, Кэролайн Форд, Аллира Гибсон, Роберт Грин--О фильме: Однажды, зависнув в сети, обычный парень осознает, что он - член таинственной организации некромантов, один из охотников на демонов, овладевающих душами людей через смартфоны.-- --Страна: Австралия
Студия: Guerilla Films, Hopscotch Features
Продолжительность: 01:36:43
Перевод: Дублированный iTunes--Качество: BDRemux 1080p
Видео: MPEG-4 AVC, 1920x1080, 30.0 Mbit/s, 23.976 fps
Аудио #01: 48 kHz, AC3, 5.1, 384 Kbps | iTunes | RUS |
Аудио #02: 48 kHz, DTS-HD MA, 5.1, 2078 Kbps | Оригинал | ENG |
Субтитры: Английские
--

Скриншоты

         

Тех.данные видеофайла

General
Unique ID: 54977266117594132430457650543421843950 (0x295C3C7EA85A53FD434BB1AEA66469EE)
Complete name: D:\Video111\Nekrotronic.2018.BDREMUX.1080p.seleZen.mkv
Format: Matroska
Format version: Version 4
File size: 21.9 GiB
Duration: 1 h 36 min
Overall bit rate mode: Variable
Overall bit rate: 32.5 Mb/s
Movie name: Nekrotronic 2018 from селезень
Encoded date: UTC 2019-09-13 06:20:39
Writing application: mkvmerge v22.0.0 ('At The End Of The World') 64-bit
Writing library: libebml v1.3.5 + libmatroska v1.4.8
Video
ID: 1
Format: AVC
Format/Info: Advanced Video Codec
Format profile: [email protected]
Format settings: CABAC / 4 Ref Frames
Format settings, CABAC: Yes
Format settings, Reference: 4 frames
Format settings, GOP: M=3, N=24
Codec ID: V_MPEG4/ISO/AVC
Duration: 1 h 36 min
Bit rate mode: Variable
Bit rate: 30.0 Mb/s
Maximum bit rate: 35.0 Mb/s
Width: 1 920 pixels
Height: 1 080 pixels
Display aspect ratio: 16:9
Frame rate mode: Constant
Frame rate: 23.976 (24000/1001) FPS
Standard: NTSC
Color space: YUV
Chroma subsampling: 4:2:0
Bit depth: 8 bits
Scan type: Progressive
Bits/(Pixel*Frame): 0.603
Stream size: 20.3 GiB (92%)
Language: English
Default: Yes
Forced: No
Color range: Limited
Color primaries: BT.709
Transfer characteristics: BT.709
Matrix coefficients: BT.709
Audio #1
ID: 2
Format: AC-3
Format/Info: Audio Coding 3
Commercial name: Dolby Digital
Codec ID: A_AC3
Duration: 1 h 36 min
Bit rate mode: Constant
Bit rate: 384 kb/s
Channel(s): 6 channels
Channel layout: L R C LFE Ls Rs
Sampling rate: 48.0 kHz
Frame rate: 31.250 FPS (1536 SPF)
Bit depth: 16 bits
Compression mode: Lossy
Stream size: 266 MiB (1%)
Title: iTunes
Language: Russian
Service kind: Complete Main
Default: Yes
Forced: Yes
Audio #2
ID: 3
Format: DTS XLL
Format/Info: Digital Theater Systems
Commercial name: DTS-HD Master Audio
Codec ID: A_DTS
Duration: 1 h 36 min
Bit rate mode: Variable
Bit rate: 2 078 kb/s
Channel(s): 6 channels
Channel layout: C L R Ls Rs LFE
Sampling rate: 48.0 kHz
Frame rate: 93.750 FPS (512 SPF)
Bit depth: 16 bits
Compression mode: Lossless
Stream size: 1.40 GiB (6%)
Title: Original
Language: English
Default: No
Forced: No
Text #1
ID: 4
Format: UTF-8
Codec ID: S_TEXT/UTF8
Codec ID/Info: UTF-8 Plain Text
Duration: 1 h 30 min
Bit rate: 39 b/s
Count of elements: 997
Stream size: 26.6 KiB (0%)
Title: Full
Language: English
Default: No
Forced: No
Text #2
ID: 5
Format: UTF-8
Codec ID: S_TEXT/UTF8
Codec ID/Info: UTF-8 Plain Text
Duration: 1 h 31 min
Bit rate: 49 b/s
Count of elements: 1330
Stream size: 32.8 KiB (0%)
Title: SDH
Language: English
Default: No
Forced: No
Menu
00:00:00.000: en:00:00:00.000
00:05:02.427: en:00:05:02.427
00:09:52.675: en:00:09:52.675
00:17:47.692: en:00:17:47.692
00:25:40.873: en:00:25:40.873
00:33:46.399: en:00:33:46.399
00:38:33.186: en:00:38:33.186
00:42:50.526: en:00:42:50.526
00:47:39.732: en:00:47:39.732
00:55:36.750: en:00:55:36.750
00:59:54.466: en:00:59:54.466
01:03:45.071: en:01:03:45.071
01:11:30.077: en:01:11:30.077
01:17:15.756: en:01:17:15.756
01:22:25.065: en:01:22:25.065
01:31:23.603: en:01:31:23.603

Орлов Владимир

Post 13-Sep-2019 14:03

[Quote]

--Некромант / Nekrotronic ( Кия Роуч-Тернер) [2018, ужасы, фантастика, комедия, BDRip 1080p] [DUB] [iTunes]-- Информация о фильме
Название: Некромант
Оригинальное название: Nekrotronic
Год выхода: 2018
Жанр: Ужасы, фантастика, комедия
Режиссер: Кия Роуч-Тернер--В ролях: Бен О'Тул, Моника Беллуччи, Боб Савеа, Дэвид Бимиш, Чармэйн Бингва, Уилльям Чун, Майкл Дункан, Кэролайн Форд, Аллира Гибсон, Роберт Грин--О фильме: Однажды, зависнув в сети, обычный парень осознает, что он - член таинственной организации некромантов, один из охотников на демонов, овладевающих душами людей через смартфоны.-- --Страна: Австралия
Студия: Guerilla Films, Hopscotch Features
Продолжительность: 01:36:43
Перевод: Дублированный | iTunes--Качество: BDRip 1080p
Видео: MPEG-4 AVC, 1920x804, 11.2 Mbit/s, 23.976 fps
Аудио #01: 48 kHz, AC3, 5.1, 384 Kbps | iTunes | RUS |
Аудио #02: 48 kHz, AC3, 5.1, 640 Kbps | Оригинал | ENG |
Субтитры: Английские--

Скриншоты

         

Тех.данные видеофайла

General
Unique ID: 183116840087396363497479444882618528656 (0x89C30543B88B5676A2FCA0D127DF3390)
Complete name: D:\Video111\Nekrotronic.2018.BDRip.1080p.seleZen.mkv
Format: Matroska
Format version: Version 4
File size: 8.25 GiB
Duration: 1 h 36 min
Overall bit rate: 12.2 Mb/s
Movie name: Nekrotronic 2018 from селезень
Encoded date: UTC 2019-09-13 09:59:56
Writing application: mkvmerge v22.0.0 ('At The End Of The World') 64-bit
Writing library: libebml v1.3.5 + libmatroska v1.4.8
Video
ID: 1
Format: AVC
Format/Info: Advanced Video Codec
Format profile: [email protected]
Format settings: CABAC / 5 Ref Frames
Format settings, CABAC: Yes
Format settings, Reference: 5 frames
Codec ID: V_MPEG4/ISO/AVC
Duration: 1 h 36 min
Bit rate: 11.2 Mb/s
Width: 1 920 pixels
Height: 804 pixels
Display aspect ratio: 2.40:1
Frame rate mode: Constant
Frame rate: 23.976 (24000/1001) FPS
Color space: YUV
Chroma subsampling: 4:2:0
Bit depth: 8 bits
Scan type: Progressive
Bits/(Pixel*Frame): 0.303
Stream size: 7.56 GiB (92%)
Title: Encoded by seleZen
Writing library: x264 core 148 r2705kMod 3f5ed56
Encoding settings: cabac=1 / ref=5 / deblock=1:-2:-2 / analyse=0x3:0x113 / me=umh / subme=11 / psy=1 / fade_compensate=0.00 / psy_rd=1.00:0.00 / mixed_ref=1 / me_range=32 / chroma_me=1 / trellis=2 / 8x8dct=1 / cqm=0 / deadzone=21,11 / fast_pskip=0 / chroma_qp_offset=-2 / threads=24 / lookahead_threads=6 / sliced_threads=0 / nr=0 / decimate=0 / interlaced=0 / bluray_compat=0 / constrained_intra=0 / fgo=0 / bframes=10 / b_pyramid=2 / b_adapt=2 / b_bias=0 / direct=3 / weightb=1 / open_gop=0 / weightp=2 / keyint=240 / keyint_min=23 / scenecut=40 / intra_refresh=0 / rc_lookahead=50 / rc=2pass / mbtree=0 / bitrate=11200 / ratetol=1.0 / qcomp=0.60 / qpmin=0 / qpmax=51 / qpstep=4 / cplxblur=20.0 / qblur=0.5 / vbv_maxrate=50000 / vbv_bufsize=62500 / nal_hrd=none / filler=0 / ip_ratio=1.40 / pb_ratio=1.30 / aq=3:0.80
Language: English
Default: Yes
Forced: No
Audio #1
ID: 2
Format: AC-3
Format/Info: Audio Coding 3
Commercial name: Dolby Digital
Codec ID: A_AC3
Duration: 1 h 36 min
Bit rate mode: Constant
Bit rate: 384 kb/s
Channel(s): 6 channels
Channel layout: L R C LFE Ls Rs
Sampling rate: 48.0 kHz
Frame rate: 31.250 FPS (1536 SPF)
Bit depth: 16 bits
Compression mode: Lossy
Stream size: 266 MiB (3%)
Title: iTunes
Language: Russian
Service kind: Complete Main
Default: Yes
Forced: Yes
Audio #2
ID: 3
Format: AC-3
Format/Info: Audio Coding 3
Commercial name: Dolby Digital
Codec ID: A_AC3
Duration: 1 h 36 min
Bit rate mode: Constant
Bit rate: 640 kb/s
Channel(s): 6 channels
Channel layout: L R C LFE Ls Rs
Sampling rate: 48.0 kHz
Frame rate: 31.250 FPS (1536 SPF)
Bit depth: 16 bits
Compression mode: Lossy
Stream size: 443 MiB (5%)
Title: Original
Language: English
Service kind: Complete Main
Default: No
Forced: No
Text #1
ID: 4
Format: UTF-8
Codec ID: S_TEXT/UTF8
Codec ID/Info: UTF-8 Plain Text
Duration: 1 h 30 min
Bit rate: 39 b/s
Count of elements: 997
Stream size: 26.6 KiB (0%)
Title: Full
Language: English
Default: No
Forced: No
Text #2
ID: 5
Format: UTF-8
Codec ID: S_TEXT/UTF8
Codec ID/Info: UTF-8 Plain Text
Duration: 1 h 31 min
Bit rate: 49 b/s
Count of elements: 1330
Stream size: 32.8 KiB (0%)
Title: SDH
Language: English
Default: No
Forced: No
Menu
00:00:00.000: en:00:00:00.000
00:05:02.427: en:00:05:02.427
00:09:52.675: en:00:09:52.675
00:17:47.692: en:00:17:47.692
00:25:40.873: en:00:25:40.873
00:33:46.399: en:00:33:46.399
00:38:33.186: en:00:38:33.186
00:42:50.526: en:00:42:50.526
00:47:39.732: en:00:47:39.732
00:55:36.750: en:00:55:36.750
00:59:54.466: en:00:59:54.466
01:03:45.071: en:01:03:45.071
01:11:30.077: en:01:11:30.077
01:17:15.756: en:01:17:15.756
01:22:25.065: en:01:22:25.065
01:31:23.603: en:01:31:23.603

Орлов Владимир

Post 13-Sep-2019 01:58

[Quote]

--Шафт / Shaft (Тим Стори) [2019, Боевик, комедия, криминал, BDRip 720p] [DUB] [Netflix]-- Информация о фильме
Название: Шафт
Оригинальное название: Shaft
Год выпуска: 2019
Жанр: Боевик, комедия, криминал
Режиссер: Тим Стори--В ролях: Сэмюэл Л. Джексон, Джесси Ашер, Ричард Раундтри, Реджина Холл, Александра Шипп, Мэтт Лауриа, Титус Уэлливер, Метод Мэн, Исаак Де Банколе, Эван Джогиа--О фильме:
Джон Шафт III - специалист по кибербезопасности в ФБР, не привыкший решать проблемы грубой силой. Он предпочитает полагаться на логику и расчёт, но убийство лучшего друга ставит его в тупик. С ним не разобраться современными методами, так что Джону ничего не остается, кроме как обратиться за помощью к старшему поколению Шафтов, чьи старые методы помогут ему найти убийцу.-- --Страна: США
Студия: Davis Entertainment, Khalabo Ink Society, Netflix
Продолжительность: 01:51:31
Перевод: Дублированный / NETFLiX--Файл
Качество: BDRip (720p)
Видео: MPEG-4 AVC, 4970 Кбит/с, 1280x536
Аудио: Русский, английский (AC3, 6 ch, 640 Кбит/с)
Субтитры: Русские (полные), английские
--

Скриншоты

       

Орлов Владимир

Post 12-Sep-2019 18:52

[Quote]

--7 социопатов / 7 raons per fugir (Герард Квинто, Эстеве Солер, Дэвид Торрас) [2019, Комедия, WEB-DL 1080p] [MVO] [iTunes]-- Информация о фильме
Название: 7 социопатов
Оригинальное название: 7 raons per fugir
Год выхода: 2019
Жанр: комедия
Режиссёр: Герард Квинто, Эстеве Солер, Дэвид Торрас--В ролях: Эмма Суарес, Серхи Лопес, Лола Дуэньяс, Давид Вердагер, Ален Эрнандес, Франсеск Орелья, Алекс Брендемюль, Нурия Гаго, Маноло Соло, Айна Клотет--О фильме: Жизнь сталкивает нас с ними каждый день. Неприятный сосед, коллега на работе, подруга, выходящая замуж, безумная семейка на улице, старый знакомый или хитрый продавец. И никто не знает, о чем же они думают на самом деле. Может им просто хочется вас убить? Семь историй, в которых чёрный юмор соседствует с кошмаром, а смех превращается в крики ужаса.-- --Страна: Испания
Производство: Compacto, No Hay Banda, Producciones del Interior AIE
Продолжительность: 01:18:14
Перевод: Профессиональный (многоголосый закадровый) | iTunes--Файл
Качество: WEB-DL (1080p)
Видео: MPEG-4 AVC, 4570 Кбит/с, 1920x858
Аудио: Русский (AC3, 6 ch, 384 Кбит/с)
Субтитры: Нет--

Скриншоты

       

Орлов Владимир

Post 12-Sep-2019 02:23

[Quote]

--Детские игры / Child's Play (Ларс Клевберг) [2019, Ужасы, WEB-DL 1080p] [DUB] [iTunes]-- Информация о фильме
Название: Детские игры
Оригинальное название: Child's Play
Год выхода: 2019
Жанр: Ужасы
Режиссер: Ларс Клевберг--В ролях: Гэбриел Бейтман, Обри Плаза, Марк Хэмилл, Брайан Тайри Генри, Тим Мэтисон, Дэвид Льюис, Ти Консильо, Марлон Казади, Беатрис Китсос, Ханна Дрю, Трент Редекоп, Эмбер Тейлор, Карлис Бёрк, Николь Энтони, Джонсон Фэн, Кристин Йорк, Миа Белла, Амро Майзуб, Вину Сандху, Оливия Пун, Кеннет Тайнен--О фильме:
Мать-одиночка Карен дарит своему сыну Энди куклу, о которой мечтают все дети. Однако, вскоре становится ясно, что Энди достается больше, чем просто игрушка…-- --Страна: Франция, Канада, США
Студия: Orion Pictures, BRON Studios, Bron Creative
Продолжительность: 01:29:59
[Перевод: Дублированный | iTunes--Качество: WEB-DL 1080p
Видео: MPEG-4 AVC, 1920x816, 6536 Kbit/s, 23.976 fps
Аудио #01: 48 kHz, AC3, 5.1, 384 Kbps | iTunes | RUS |
Аудио #02: 48 kHz, E-AC3, 5.1, 640 Kbps | Оригинал | ENG |
Субтитры: Английские
--

Скриншоты

         

Тех.данные видеофайла

General
Unique ID : 67442719926631532171309175344337145417 (0x32BCFED178615B417C7691EEA7D24E49)
Complete name : D:\Video111\Childs.Play.2019.AMZN.WEB-DL.1080p.seleZen.mkv
Format : Matroska
Format version : Version 4
File size : 4.75 GiB
Duration : 1 h 29 min
Overall bit rate : 7 562 kb/s
Movie name : Childs Play 2019 from селезень
Encoded date : UTC 2019-09-11 20:37:53
Writing application : mkvmerge v22.0.0 ('At The End Of The World') 64-bit
Writing library : libebml v1.3.5 + libmatroska v1.4.8
Video
ID : 1
Format : AVC
Format/Info : Advanced Video Codec
Format profile : [email protected]
Format settings : CABAC / 4 Ref Frames
Format settings, CABAC : Yes
Format settings, Reference : 4 frames
Codec ID : V_MPEG4/ISO/AVC
Duration : 1 h 29 min
Bit rate mode : Constant
Bit rate : 6 536 kb/s
Nominal bit rate : 10 000 kb/s
Width : 1 920 pixels
Height : 816 pixels
Display aspect ratio : 2.35:1
Frame rate mode : Constant
Frame rate : 23.976 (24000/1001) FPS
Color space : YUV
Chroma subsampling : 4:2:0
Bit depth : 8 bits
Scan type : Progressive
Bits/(Pixel*Frame) : 0.174
Stream size : 4.11 GiB (86%)
Language : English
Default : Yes
Forced : No
Color range : Limited
Color primaries : BT.709
Transfer characteristics : BT.709
Matrix coefficients : BT.709
Audio #1
ID : 2
Format : AC-3
Format/Info : Audio Coding 3
Commercial name : Dolby Digital
Codec ID : A_AC3
Duration : 1 h 29 min
Bit rate mode : Constant
Bit rate : 384 kb/s
Channel(s) : 6 channels
Channel layout : L R C LFE Ls Rs
Sampling rate : 48.0 kHz
Frame rate : 31.250 FPS (1536 SPF)
Bit depth : 16 bits
Compression mode : Lossy
Stream size : 247 MiB (5%)
Title : iTunes
Language : Russian
Service kind : Complete Main
Default : Yes
Forced : Yes
Audio #2
ID : 3
Format : E-AC-3
Format/Info : Enhanced AC-3
Commercial name : Dolby Digital Plus
Codec ID : A_EAC3
Duration : 1 h 29 min
Bit rate mode : Constant
Bit rate : 640 kb/s
Channel(s) : 6 channels
Channel layout : L R C LFE Ls Rs
Sampling rate : 48.0 kHz
Frame rate : 31.250 FPS (1536 SPF)
Compression mode : Lossy
Stream size : 412 MiB (8%)
Title : Original
Language : English
Service kind : Complete Main
Default : No
Forced : No
Text #1
ID : 4
Format : UTF-8
Codec ID : S_TEXT/UTF8
Codec ID/Info : UTF-8 Plain Text
Duration : 1 h 23 min
Bit rate : 53 b/s
Count of elements : 1225
Stream size : 32.3 KiB (0%)
Title : Full
Language : English
Default : No
Forced : No
Text #2
ID : 5
Format : UTF-8
Codec ID : S_TEXT/UTF8
Codec ID/Info : UTF-8 Plain Text
Duration : 1 h 29 min
Bit rate : 59 b/s
Count of elements : 1551
Stream size : 39.1 KiB (0%)
Title : SDH
Language : English
Default : No
Forced : No

Орлов Владимир

Post 12-Sep-2019 02:18

[Quote]

--Искусство обмана / Lying and Stealing (Мэтт Аселтон) [2019, Комедия, криминал, WEB-DL 1080p] [DUB] [iTunes]-- Информация о фильме
Название: Искусство обмана
Оригинальное название: Lying and Stealing
Год выхода: 2019
Жанр: Комедия, криминал
Режиссер: Мэтт Аселтон--В ролях: Тео Джеймс, Эмили Ратажковски, Арис Альварадо, Фернанда Андраде, Тим Бейдер, Джо Букаро III, Род Чауки, Рэй Рэй Чейз, Миа Чунг, Фрэнк Клем--О фильме: Он - эксперт по искусству, вернее... его хищению. Она - модель с задатками актрисы и высоким IQ. Оба любят деньги и риск. Они просто созданы друг для друга... или это лишь фасад, чтобы провернуть изысканную и виртуозную аферу, больше похожую на арт-перформанс?-- --Страна: США
Студия: Vertical Entertainment, COTA Films, Fifty Degrees Entertainment
Продолжительность: 01:40:17
Перевод: Дублированный | iTunes--Качество: WEB-DL 1080p
Видео: MPEG-4 AVC, 1920x1080, 6644 Kbit/s, 24 fps
Аудио #01: 48 kHz, AC3, 5.1, 384 Kbps | iTunes | RUS |
Аудио #02: 48 kHz, E-AC3, 5.1, 640 Kbps | Оригинал | ENG |
Субтитры: Английские
--

Скриншоты

         

Тех.данные видеофайла

General
Unique ID: 240359201776511097472454369533364792516 (0xB4D37F97DDAB3A31EFB44FCAC2F7ECC4)
Complete name: D:\Video111\Lying.and.Stealing.2019.AMZN.WEB-DL.1080p.seleZen.mkv
Format: Matroska
Format version: Version 4
File size: 5.37 GiB
Duration: 1 h 40 min
Overall bit rate: 7 670 kb/s
Movie name: Lying and Stealing 2019 from селезень
Encoded date: UTC 2019-09-11 20:03:29
Writing application: mkvmerge v22.0.0 ('At The End Of The World') 64-bit
Writing library: libebml v1.3.5 + libmatroska v1.4.8
Video
ID: 1
Format: AVC
Format/Info: Advanced Video Codec
Format profile: [email protected]
Format settings: CABAC / 4 Ref Frames
Format settings, CABAC: Yes
Format settings, Reference: 4 frames
Codec ID: V_MPEG4/ISO/AVC
Duration: 1 h 40 min
Bit rate mode: Constant
Bit rate: 6 644 kb/s
Nominal bit rate: 10 000 kb/s
Width: 1 920 pixels
Height: 1 080 pixels
Display aspect ratio: 16:9
Frame rate mode: Constant
Frame rate: 24.000 FPS
Color space: YUV
Chroma subsampling: 4:2:0
Bit depth: 8 bits
Scan type: Progressive
Bits/(Pixel*Frame): 0.134
Stream size: 4.65 GiB (87%)
Language: English
Default: Yes
Forced: No
Color range: Limited
Color primaries: BT.709
Transfer characteristics: BT.709
Matrix coefficients: BT.709
Audio #1
ID: 2
Format: AC-3
Format/Info: Audio Coding 3
Commercial name: Dolby Digital
Codec ID: A_AC3
Duration: 1 h 40 min
Bit rate mode: Constant
Bit rate: 384 kb/s
Channel(s): 6 channels
Channel layout: L R C LFE Ls Rs
Sampling rate: 48.0 kHz
Frame rate: 31.250 FPS (1536 SPF)
Bit depth: 16 bits
Compression mode: Lossy
Stream size: 275 MiB (5%)
Title: iTunes
Language: Russian
Service kind: Complete Main
Default: Yes
Forced: Yes
Audio #2
ID: 3
Format: E-AC-3
Format/Info: Enhanced AC-3
Commercial name: Dolby Digital Plus
Codec ID: A_EAC3
Duration: 1 h 40 min
Bit rate mode: Constant
Bit rate: 640 kb/s
Channel(s): 6 channels
Channel layout: L R C LFE Ls Rs
Sampling rate: 48.0 kHz
Frame rate: 31.250 FPS (1536 SPF)
Compression mode: Lossy
Stream size: 459 MiB (8%)
Title: Original
Language: English
Service kind: Complete Main
Default: No
Forced: No
Text #1
ID: 4
Format: UTF-8
Codec ID: S_TEXT/UTF8
Codec ID/Info: UTF-8 Plain Text
Duration: 1 h 38 min
Bit rate: 62 b/s
Count of elements: 1676
Stream size: 45.0 KiB (0%)
Title: Full
Language: English
Default: No
Forced: No
Text #2
ID: 5
Format: UTF-8
Codec ID: S_TEXT/UTF8
Codec ID/Info: UTF-8 Plain Text
Duration: 1 h 39 min
Bit rate: 74 b/s
Count of elements: 2014
Stream size: 54.1 KiB (0%)
Title: SDH
Language: English
Default: No
Forced: No

Орлов Владимир

Post 12-Sep-2019 02:09

[Quote]

--Отпетые мошенницы / The Hustle (Крис Эддисон) [2019, Комедия, BDRip 1080p] [DUB] [Лицензия]-- Информация о фильме
Название: Отпетые мошенницы
Оригинальное название: The Hustle
Год выхода: 2019
Жанр: Комедия
Режиссер: Крис Эддисон--В ролях: Энн Хэтэуэй, Ребел Уилсон, Алекс Шарп, Ингрид Оливер, Эмма Дейвис, Дин Норрис, Тимоти С. Саймонс, Дуги МакМикин, Эшли МакГуайр, Каспер Кристенсен, Элуиз Ловелл Андерсон, Филип Десмюль, Жарро Антуан, Николас Вудесон, Селин Абрахамс, Раффаэлло Дегруттола, Гай Уоррен-Томас, Мина Райанн--О фильме: Как стать успешной мошенницей? Всегда будь во всеоружии: высокие каблуки, яркая помада и главное - утягивающее белье. Будь готова расплакаться в любой момент. Ни один мужчина не устоит перед женскими слезами. Бери все, что «плохо лежит» и хорошо блестит. За каждым миллионом может скрываться миллиард. Не откажи себе в удовольствии проверить.--Страна: США
Студия: Metro-Goldwyn-Mayer (MGM), Camp Sugar, Cave 76
Продолжительность: 01:33:57
Перевод: Дублированный | Лицензия--Качество: BDRip 1080p
Видео: MPEG-4 AVC, 1920x804, 11.7 Mbit/s, 23.976 fps
Аудио #01: 48 kHz, DTS, 5.1, 768 Kbps | Лицензия | RUS |
Аудио #02: 48 kHz, AC3, 5.1, 448 Kbps | Лицензия | RUS |
Аудио #03: 48 kHz, AC3, 5.1, 640 Kbps | Оригинал | ENG |
Субтитры: Русские (Forced, full), английские
--

Скриншоты

         

Тех.данные видеофайла

General
Unique ID: 237991499850184770426971005117608682794 (0xB30B7EE01B89A1EC9460EA4577CEE52A)
Complete name: D:\Video111\The.Hustle.2019.BDRip.1080p.seleZen.mkv
Format: Matroska
Format version: Version 4
File size: 8.91 GiB
Duration: 1 h 33 min
Overall bit rate: 13.6 Mb/s
Movie name: The.Hustle.2019 from селезень
Encoded date: UTC 2019-09-11 18:40:11
Writing application: mkvmerge v22.0.0 ('At The End Of The World') 64-bit
Writing library: libebml v1.3.5 + libmatroska v1.4.8
Video
ID: 1
Format: AVC
Format/Info: Advanced Video Codec
Format profile: [email protected]
Format settings: CABAC / 5 Ref Frames
Format settings, CABAC: Yes
Format settings, Reference: 5 frames
Codec ID: V_MPEG4/ISO/AVC
Duration: 1 h 33 min
Bit rate: 11.7 Mb/s
Width: 1 920 pixels
Height: 804 pixels
Display aspect ratio: 2.40:1
Frame rate mode: Constant
Frame rate: 23.976 (24000/1001) FPS
Color space: YUV
Chroma subsampling: 4:2:0
Bit depth: 8 bits
Scan type: Progressive
Bits/(Pixel*Frame): 0.316
Stream size: 7.68 GiB (86%)
Title: HDH
Writing library: x264 core 142 r2431+42 c69a006 tMod [[email protected]:2:0 X86_64]
Encoding settings: cabac=1 / ref=5 / deblock=1:-3:-3 / analyse=0x3:0x113 / me=umh / subme=10 / psy=1 / fade_compensate=0.00 / psy_rd=1.00:0.05 / mixed_ref=1 / me_range=48 / chroma_me=1 / trellis=2 / 8x8dct=1 / cqm=0 / deadzone=21,11 / fast_pskip=0 / chroma_qp_offset=-2 / threads=48 / lookahead_threads=6 / sliced_threads=0 / nr=0 / decimate=1 / interlaced=0 / bluray_compat=0 / constrained_intra=0 / fgo=0 / bframes=8 / b_pyramid=2 / b_adapt=2 / b_bias=0 / direct=3 / weightb=1 / open_gop=0 / weightp=2 / keyint=250 / keyint_min=23 / scenecut=40 / intra_refresh=0 / rc_lookahead=40 / rc=crf / mbtree=0 / crf=17.1000 / qcomp=0.60 / qpmin=0:0:0 / qpmax=69:69:69 / qpstep=4 / vbv_maxrate=40000 / vbv_bufsize=30000 / crf_max=0.0 / nal_hrd=none / filler=0 / ip_ratio=1.40 / pb_ratio=1.30 / aq=3:0.80 / aq-sensitivity=10.00 / aq-factor=1.00:1.00:1.00 / aq2=0 / aq3=0
Language: English
Default: Yes
Forced: No
Color range: Limited
Matrix coefficients: BT.709
Audio #1
ID: 2
Format: DTS
Format/Info: Digital Theater Systems
Codec ID: A_DTS
Duration: 1 h 33 min
Bit rate mode: Constant
Bit rate: 768 kb/s
Channel(s): 6 channels
Channel layout: C L R Ls Rs LFE
Sampling rate: 48.0 kHz
Frame rate: 93.750 FPS (512 SPF)
Bit depth: 24 bits
Compression mode: Lossy
Stream size: 516 MiB (6%)
Title: Dub [License]
Language: Russian
Default: Yes
Forced: Yes
Audio #2
ID: 3
Format: AC-3
Format/Info: Audio Coding 3
Commercial name: Dolby Digital
Codec ID: A_AC3
Duration: 1 h 33 min
Bit rate mode: Constant
Bit rate: 448 kb/s
Channel(s): 6 channels
Channel layout: L R C LFE Ls Rs
Sampling rate: 48.0 kHz
Frame rate: 31.250 FPS (1536 SPF)
Bit depth: 16 bits
Compression mode: Lossy
Stream size: 301 MiB (3%)
Title: Dub [License]
Language: Russian
Service kind: Complete Main
Default: No
Forced: No
Audio #3
ID: 4
Format: AC-3
Format/Info: Audio Coding 3
Commercial name: Dolby Digital
Codec ID: A_AC3
Duration: 1 h 33 min
Bit rate mode: Constant
Bit rate: 640 kb/s
Channel(s): 6 channels
Channel layout: L R C LFE Ls Rs
Sampling rate: 48.0 kHz
Frame rate: 31.250 FPS (1536 SPF)
Bit depth: 16 bits
Compression mode: Lossy
Stream size: 430 MiB (5%)
Title: Original
Language: English
Service kind: Complete Main
Default: No
Forced: No
Text #1
ID: 5
Format: UTF-8
Codec ID: S_TEXT/UTF8
Codec ID/Info: UTF-8 Plain Text
Duration: 1 h 27 min
Bit rate: 1 b/s
Count of elements: 31
Stream size: 1.09 KiB (0%)
Title: Forced
Language: Russian
Default: Yes
Forced: Yes
Text #2
ID: 6
Format: UTF-8
Codec ID: S_TEXT/UTF8
Codec ID/Info: UTF-8 Plain Text
Duration: 1 h 32 min
Bit rate: 109 b/s
Count of elements: 1619
Stream size: 74.1 KiB (0%)
Title: Full
Language: Russian
Default: No
Forced: No
Text #3
ID: 7
Format: UTF-8
Codec ID: S_TEXT/UTF8
Codec ID/Info: UTF-8 Plain Text
Duration: 1 h 32 min
Bit rate: 72 b/s
Count of elements: 1781
Stream size: 49.4 KiB (0%)
Title: Full
Language: English
Default: No
Forced: No
Menu
00:00:00.000: :绗?01 绔?
00:05:58.858: :绗?02 绔?
00:09:56.137: :绗?03 绔?
00:15:29.554: :绗?04 绔?
00:21:12.646: :绗?05 绔?
00:25:19.852: :绗?06 绔?
00:32:26.903: :绗?07 绔?
00:37:56.608: :绗?08 绔?
00:41:51.300: :绗?09 绔?
00:44:55.818: :绗?10 绔?
00:49:56.327: :绗?11 绔?
00:54:34.897: :绗?12 绔?
00:59:16.261: :绗?13 绔?
01:02:15.899: :绗?14 绔?
01:06:47.587: :绗?15 绔?
01:09:58.152: :绗?16 绔?
01:15:16.178: :绗?17 绔?
01:21:37.059: :绗?18 绔?
01:28:58.833: :绗?19 绔?
01:32:27.041: :绗?20 绔?
 

The time now is: Today 18:59

All times are GMT + 3 Hours